999
DXF file: W:\Engenharia\Produtos\Cubas\Quadrum\cubas_quadrum_5.dxf
999
Pro/ENGINEER 2012230 by Parametric Technology Corporation
  0
SECTION
  2
HEADER
  9
$ACADVER
  1
AC1018
  9
$DWGCODEPAGE
  3
ANSI_1252
  9
$EXTMAX
 10
889.0
 20
762.0
 30
0.0
  9
$EXTMIN
 10
0.0
 20
0.0
 30
0.0
  9
$LIMMIN
 10
0.0
 20
0.0
  9
$LIMMAX
 10
889.0
 20
762.0
  9
$VIEWCTR
 10
444.5
 20
381.0
  9
$VIEWSIZE
 40
762.0
  9
$CLAYER
  8
0
  9
$LTSCALE
 40
49.6711111111
  9
$CELTYPE
  6
BYLAYER
  9
$DIMSCALE
 40
1.0
  9
$DIMASZ
 40
3.0
  9
$DIMEXO
 40
0.5
  9
$DIMDLI
 40
34.3182222222
  9
$DIMEXE
 40
0.5
  9
$DIMCEN
 40
8.128
  9
$DIMLFAC
 40
1.0
  9
$DIMBLK
  1
_FILLED
  9
$DIMTXT
 40
1.8
  9
$DIMTOL
 70
1
  9
$DIMLIM
 70
0
  9
$DIMTFAC
 40
1.0
  9
$DIMTP
 40
0.001
  9
$DIMTM
 40
0.001
  9
$DIMGAP
 40
0.625
  9
$DIMDSEP
 70
46
  9
$PDMODE
 70
3
  9
$PDSIZE
 40
1.0
  9
$HANDSEED
  5
2C0
  9
$TILEMODE
 70
1
  9
$MEASUREMENT
 70
1
  9
$INSUNITS
 70
4
  0
ENDSEC
  0
SECTION
  2
CLASSES
  0
CLASS
  1
ACDBDICTIONARYWDFLT
  2
AcDbDictionaryWithDefault
  3
AutoCAD 2000
 90
0
 91
1
280
0
281
0
  0
CLASS
  1
ACDBPLACEHOLDER
  2
AcDbPlaceHolder
  3
AutoCAD 2000
 90
0
 91
1
280
0
281
0
  0
CLASS
  1
LAYOUT
  2
AcDbLayout
  3
AutoCAD 2000
 90
0
 91
0
280
0
281
0
  0
ENDSEC
  0
SECTION
  2
TABLES
  0
TABLE
  2
VPORT
  5
8
100
AcDbSymbolTable
 70
2
  0
VPORT
  5
1F4
100
AcDbSymbolTableRecord
100
AcDbViewportTableRecord
  2
*ACTIVE
 70
0
 10
0.0
 20
0.0
 11
1.0
 21
1.0
 12
444.5
 22
381.0
 13
0.0
 23
0.0
 14
1.0
 24
1.0
 15
0.0
 25
0.0
 16
0.0
 26
0.0
 36
1.0
 17
0.0
 27
0.0
 37
0.0
 40
762.0
 41
1.1666666667
 42
50.0
 43
0.0
 44
0.0
 50
0.0
 51
0.0
 71
0
 72
100
 73
1
 74
1
 75
0
 76
0
 77
0
 78
0
  0
ENDTAB
  0
TABLE
  2
LTYPE
  5
5
100
AcDbSymbolTable
 70
6
  0
LTYPE
  5
14
100
AcDbSymbolTableRecord
100
AcDbLinetypeTableRecord
  2
BYBLOCK
 70
0
  3

 72
65
 73
0
 40
0.0
  0
LTYPE
  5
15
100
AcDbSymbolTableRecord
100
AcDbLinetypeTableRecord
  2
BYLAYER
 70
0
  3

 72
65
 73
0
 40
0.0
  0
LTYPE
  5
16
100
AcDbSymbolTableRecord
100
AcDbLinetypeTableRecord
  2
CONTINUOUS
 70
64
  3
Solid line
 72
65
 73
0
 40
0.0
  0
LTYPE
  5
1F5
100
AcDbSymbolTableRecord
100
AcDbLinetypeTableRecord
  2
CENTER
 70
64
  3
____ _ ____ _ ____ _ ____ _ ____ _ ____ _ ____
 72
65
 73
4
 40
0.6
 49
0.375
 74
0
 49
-0.075
 74
0
 49
0.075
 74
0
 49
-0.075
 74
0
  0
LTYPE
  5
1F6
100
AcDbSymbolTableRecord
100
AcDbLinetypeTableRecord
  2
HIDDEN
 70
64
  3
- - - - - - - - - - - - - - - - - - - -
 72
65
 73
2
 40
0.2
 49
0.1
 74
0
 49
-0.1
 74
0
  0
LTYPE
  5
1F7
100
AcDbSymbolTableRecord
100
AcDbLinetypeTableRecord
  2
PHANTOM
 70
64
  3
_____ _ _ _____ _ _ _____ _ _ _____
 72
65
 73
6
 40
0.8
 49
0.45
 74
0
 49
-0.05
 74
0
 49
0.1
 74
0
 49
-0.05
 74
0
 49
0.1
 74
0
 49
-0.05
 74
0
  0
LTYPE
  5
1F8
100
AcDbSymbolTableRecord
100
AcDbLinetypeTableRecord
  2
DOT
 70
64
  3
. . . . . . . . . . . . . . . . . . . .
 72
65
 73
2
 40
0.2
 49
0.1
 74
0
 49
-0.1
 74
0
  0
LTYPE
  5
1F9
100
AcDbSymbolTableRecord
100
AcDbLinetypeTableRecord
  2
DASHED
 70
64
  3
- - - - - - - - - - - - - - - - - - - -
 72
65
 73
2
 40
0.2
 49
0.1
 74
0
 49
-0.1
 74
0
  0
ENDTAB
  0
TABLE
  2
LAYER
  5
2
100
AcDbSymbolTable
 70
36
  0
LAYER
  5
10
100
AcDbSymbolTableRecord
100
AcDbLayerTableRecord
  2
0
 70
0
 62
7
  6
CONTINUOUS
370
-3
390
F
  0
LAYER
  5
1FA
100
AcDbSymbolTableRecord
100
AcDbLayerTableRecord
  2
DEFAULT_1
 70
0
 62
7
  6
CENTER
370
-3
390
F
  0
LAYER
  5
1FB
100
AcDbSymbolTableRecord
100
AcDbLayerTableRecord
  2
DEFAULT_2
 70
0
 62
8
  6
HIDDEN
370
-3
390
F
  0
LAYER
  5
1FC
100
AcDbSymbolTableRecord
100
AcDbLayerTableRecord
  2
DEFAULT_3
 70
0
 62
7
  6
PHANTOM
370
-3
390
F
  0
ENDTAB
  0
TABLE
  2
STYLE
  5
3
100
AcDbSymbolTable
 70
1
  0
STYLE
  5
11
100
AcDbSymbolTableRecord
100
AcDbTextStyleTableRecord
  2
STANDARD
 70
0
 40
0.0
 41
0.8
 50
0.0
 71
0
 42
0.2
  3
txt
  4

  0
STYLE
  5
1FD
100
AcDbSymbolTableRecord
100
AcDbTextStyleTableRecord
  2
TEXTSTYLE_1
 70
0
 40
0.0
 41
0.8
 50
0.0
 71
0
 42
0.2
  3
gdt
  4

  0
ENDTAB
  0
TABLE
  2
VIEW
  5
6
100
AcDbSymbolTable
 70
0
  0
ENDTAB
  0
TABLE
  2
UCS
  5
7
100
AcDbSymbolTable
 70
0
  0
ENDTAB
  0
TABLE
  2
APPID
  5
9
100
AcDbSymbolTable
 70
1
  0
APPID
  5
1FE
100
AcDbSymbolTableRecord
100
AcDbRegAppTableRecord
  2
ACAD
 70
0
  0
ENDTAB
  0
TABLE
  2
BLOCK_RECORD
  5
1
100
AcDbSymbolTable
 70
0
  0
BLOCK_RECORD
  5
1FF
100
AcDbSymbolTableRecord
100
AcDbBlockTableRecord
  2
*Model_Space
  0
BLOCK_RECORD
  5
200
100
AcDbSymbolTableRecord
100
AcDbBlockTableRecord
  2
*Paper_Space
  0
BLOCK_RECORD
  5
201
100
AcDbSymbolTableRecord
100
AcDbBlockTableRecord
  2
_FILLED
  0
BLOCK_RECORD
  5
202
100
AcDbSymbolTableRecord
100
AcDbBlockTableRecord
  2
*D0
  0
BLOCK_RECORD
  5
203
100
AcDbSymbolTableRecord
100
AcDbBlockTableRecord
  2
*D1
  0
BLOCK_RECORD
  5
204
100
AcDbSymbolTableRecord
100
AcDbBlockTableRecord
  2
*D2
  0
BLOCK_RECORD
  5
205
100
AcDbSymbolTableRecord
100
AcDbBlockTableRecord
  2
*D3
  0
BLOCK_RECORD
  5
206
100
AcDbSymbolTableRecord
100
AcDbBlockTableRecord
  2
*D4
  0
BLOCK_RECORD
  5
207
100
AcDbSymbolTableRecord
100
AcDbBlockTableRecord
  2
*D5
  0
BLOCK_RECORD
  5
208
100
AcDbSymbolTableRecord
100
AcDbBlockTableRecord
  2
*D6
  0
BLOCK_RECORD
  5
209
100
AcDbSymbolTableRecord
100
AcDbBlockTableRecord
  2
*D7
  0
ENDTAB
  0
TABLE
  2
DIMSTYLE
  5
A
100
AcDbSymbolTable
 70
1
100
AcDbDimStyleTable
 71
0
  0
DIMSTYLE
105
20A
100
AcDbSymbolTableRecord
100
AcDbDimStyleTableRecord
  2
STANDARD
 70
0
  3

  4

 40
1.0
 41
3.0
 42
0.5
 43
0.38
 44
0.5
 45
0.0
 46
0.0
 47
0.001
 48
0.001
140
1.8
141
0.09
142
0.0
143
25.4
144
1.0
145
0.0
146
1.0
147
0.625
 71
1.0
 72
0.0
 73
0
 74
0
 75
0
 76
0
 77
1
 78
8
170
0
171
2
172
0
173
0
174
0
175
0
176
0
177
0
178
0
270
2
271
3
272
3
273
2
274
2
275
0
280
0
281
0
282
0
283
1
284
8
285
0
286
0
287
3
288
0
340
11
278
46
341
201
342
201
343
201
344
201
  0
DIMSTYLE
105
20B
100
AcDbSymbolTableRecord
100
AcDbDimStyleTableRecord
  2
DIMSTYLE_1
 70
0
  3

  4

 40
1.0
 41
3.0
 42
0.5
 43
0.38
 44
0.5
 45
0.0
 46
0.0
 47
0.8
 48
0.8
140
5.0
141
0.09
142
0.0
143
25.4
144
1.0
145
0.0
146
1.0
147
1.25
 71
0.0
 72
0.0
 73
0
 74
0
 75
0
 76
0
 77
1
 78
8
170
0
171
2
172
0
173
0
174
0
175
0
176
0
177
0
178
0
270
2
271
3
272
3
273
2
274
2
275
0
280
0
281
0
282
0
283
1
284
8
285
0
286
0
287
3
288
0
340
11
278
46
341
201
342
201
343
201
344
201
  0
DIMSTYLE
105
20C
100
AcDbSymbolTableRecord
100
AcDbDimStyleTableRecord
  2
DIMSTYLE_2
 70
0
  3

  4

 40
1.0
 41
3.0
 42
0.5
 43
0.38
 44
0.5
 45
0.0
 46
0.0
 47
0.5
 48
0.5
140
5.0
141
0.09
142
0.0
143
25.4
144
1.0
145
0.0
146
1.0
147
1.25
 71
0.0
 72
0.0
 73
0
 74
0
 75
0
 76
0
 77
1
 78
8
170
0
171
2
172
0
173
0
174
0
175
0
176
0
177
0
178
0
270
2
271
3
272
3
273
2
274
2
275
0
280
0
281
0
282
0
283
1
284
8
285
0
286
0
287
3
288
0
340
11
278
46
341
201
342
201
343
201
344
201
  0
DIMSTYLE
105
20D
100
AcDbSymbolTableRecord
100
AcDbDimStyleTableRecord
  2
DIMSTYLE_3
 70
0
  3

  4

 40
1.0
 41
3.0
 42
0.5
 43
0.38
 44
0.5
 45
0.0
 46
0.0
 47
0.2
 48
0.2
140
5.0
141
0.09
142
0.0
143
25.4
144
1.0
145
0.0
146
1.0
147
0.625
 71
0.0
 72
0.0
 73
0
 74
0
 75
0
 76
0
 77
1
 78
8
170
0
171
2
172
0
173
0
174
0
175
0
176
0
177
0
178
0
270
2
271
3
272
3
273
2
274
2
275
0
280
0
281
0
282
0
283
1
284
8
285
0
286
0
287
3
288
0
340
11
278
46
341
201
342
201
343
201
344
201
  0
ENDTAB
  0
ENDSEC
  0
SECTION
  2
BLOCKS
  0
BLOCK
  5
20
100
AcDbEntity
  8
0
100
AcDbBlockBegin
  2
*Model_Space
 70
0
 10
0.0
 20
0.0
 30
0.0
  3
*Model_Space
  1

  0
ENDBLK
  5
21
100
AcDbEntity
  8
0
100
AcDbBlockEnd
  0
BLOCK
  5
1C
100
AcDbEntity
  8
0
100
AcDbBlockBegin
  2
*Paper_Space
 70
0
 10
0.0
 20
0.0
 30
0.0
  3
*Paper_Space
  1

  0
ENDBLK
  5
1D
100
AcDbEntity
  8
0
100
AcDbBlockEnd
  0
BLOCK
  5
20E
100
AcDbEntity
  8
0
100
AcDbBlockBegin
  2
_FILLED
 70
64
 10
0.0
 20
0.0
  3
_FILLED
  1

  0
SOLID
  5
20F
100
AcDbEntity
  8
0
  6
BYBLOCK
 62
0
100
AcDbTrace
 10
0.0
 20
0.0
 11
-1.0
 21
0.1666666667
 12
-1.0
 22
-0.1666666667
 13
-1.0
 23
-0.1666666667
  0
ENDBLK
  5
210
100
AcDbEntity
  8
0
  6
BYBLOCK
 62
0
100
AcDbBlockEnd
  0
BLOCK
  5
211
100
AcDbEntity
  8
0
100
AcDbBlockBegin
 62
2
  6
CONTINUOUS
  2
*D0
 70
65
 10
0.0
 20
0.0
  3
*D0
  1

  0
LINE
  5
212
100
AcDbEntity
  8
0
100
AcDbLine
 62
2
  6
CONTINUOUS
 10
538.9328861875
 20
591.3884356226
 11
538.9328886554
 21
649.5480230323
  0
LINE
  5
213
100
AcDbEntity
  8
0
100
AcDbLine
 62
2
  6
CONTINUOUS
 10
98.932904349
 20
591.3884537841
 11
98.9329068169
 21
649.548041703
  0
LINE
  5
214
100
AcDbEntity
  8
0
100
AcDbLine
 62
2
  6
CONTINUOUS
 10
538.9328886342
 20
649.0480230323
 11
318.9328977149
 21
649.0480323676
  0
LINE
  5
215
100
AcDbEntity
  8
0
100
AcDbLine
 62
2
  6
CONTINUOUS
 10
98.9329067957
 20
649.048041703
 11
318.9328977149
 21
649.0480323676
  0
INSERT
  5
216
100
AcDbEntity
  8
0
100
AcDbBlockReference
 62
2
  6
CONTINUOUS
  2
_FILLED
 10
538.9328886342
 20
649.0480230323
 41
3.0
 42
3.0
 43
3.0
 50
359.9999975687
  0
INSERT
  5
217
100
AcDbEntity
  8
0
100
AcDbBlockReference
 62
2
  6
CONTINUOUS
  2
_FILLED
 10
98.9329067957
 20
649.048041703
 41
3.0
 42
3.0
 43
3.0
 50
179.9999975687
  0
ENDBLK
  5
218
100
AcDbEntity
  8
0
  6
BYBLOCK
 62
0
100
AcDbBlockEnd
  0
BLOCK
  5
219
100
AcDbEntity
  8
0
100
AcDbBlockBegin
 62
2
  6
CONTINUOUS
  2
*D1
 70
65
 10
0.0
 20
0.0
  3
*D1
  1

  0
LINE
  5
21A
100
AcDbEntity
  8
0
100
AcDbLine
 62
2
  6
CONTINUOUS
 10
118.9328861663
 20
565.3884537841
 11
118.9328861663
 21
622.6615582013
  0
LINE
  5
21B
100
AcDbEntity
  8
0
100
AcDbLine
 62
2
  6
CONTINUOUS
 10
518.9328861663
 20
565.3884537841
 11
518.9328861663
 21
622.6615582013
  0
LINE
  5
21C
100
AcDbEntity
  8
0
100
AcDbLine
 62
2
  6
CONTINUOUS
 10
118.9328861663
 20
622.1615582013
 11
318.9328861663
 21
622.1615582013
  0
LINE
  5
21D
100
AcDbEntity
  8
0
100
AcDbLine
 62
2
  6
CONTINUOUS
 10
518.9328861663
 20
622.1615582013
 11
318.9328861663
 21
622.1615582013
  0
INSERT
  5
21E
100
AcDbEntity
  8
0
100
AcDbBlockReference
 62
2
  6
CONTINUOUS
  2
_FILLED
 10
118.9328861663
 20
622.1615582013
 41
3.0
 42
3.0
 43
3.0
 50
180.0
  0
INSERT
  5
21F
100
AcDbEntity
  8
0
100
AcDbBlockReference
 62
2
  6
CONTINUOUS
  2
_FILLED
 10
518.9328861663
 20
622.1615582013
 41
3.0
 42
3.0
 43
3.0
  0
ENDBLK
  5
220
100
AcDbEntity
  8
0
  6
BYBLOCK
 62
0
100
AcDbBlockEnd
  0
BLOCK
  5
221
100
AcDbEntity
  8
0
100
AcDbBlockBegin
 62
2
  6
CONTINUOUS
  2
*D2
 70
65
 10
0.0
 20
0.0
  3
*D2
  1

  0
LINE
  5
222
100
AcDbEntity
  8
0
100
AcDbLine
 62
2
  6
CONTINUOUS
 10
130.4328861663
 20
576.8884537841
 11
70.3960351534
 21
576.8884537841
  0
LINE
  5
223
100
AcDbEntity
  8
0
100
AcDbLine
 62
2
  6
CONTINUOUS
 10
130.4328861663
 20
176.8884537841
 11
70.3960351534
 21
176.8884537841
  0
LINE
  5
224
100
AcDbEntity
  8
0
100
AcDbLine
 62
2
  6
CONTINUOUS
 10
70.8960351534
 20
576.8884537841
 11
70.8960351534
 21
376.8884537841
  0
LINE
  5
225
100
AcDbEntity
  8
0
100
AcDbLine
 62
2
  6
CONTINUOUS
 10
70.8960351534
 20
176.8884537841
 11
70.8960351534
 21
376.8884537841
  0
INSERT
  5
226
100
AcDbEntity
  8
0
100
AcDbBlockReference
 62
2
  6
CONTINUOUS
  2
_FILLED
 10
70.8960351534
 20
576.8884537841
 41
3.0
 42
3.0
 43
3.0
 50
90.0
  0
INSERT
  5
227
100
AcDbEntity
  8
0
100
AcDbBlockReference
 62
2
  6
CONTINUOUS
  2
_FILLED
 10
70.8960351534
 20
176.8884537841
 41
3.0
 42
3.0
 43
3.0
 50
270.0
  0
ENDBLK
  5
228
100
AcDbEntity
  8
0
  6
BYBLOCK
 62
0
100
AcDbBlockEnd
  0
BLOCK
  5
229
100
AcDbEntity
  8
0
100
AcDbBlockBegin
 62
2
  6
CONTINUOUS
  2
*D3
 70
65
 10
0.0
 20
0.0
  3
*D3
  1

  0
LINE
  5
22A
100
AcDbEntity
  8
0
100
AcDbLine
 62
2
  6
CONTINUOUS
 10
104.4329043278
 20
596.8884538053
 11
39.2619715173
 21
596.8884565708
  0
LINE
  5
22B
100
AcDbEntity
  8
0
100
AcDbLine
 62
2
  6
CONTINUOUS
 10
104.4329043278
 20
156.8884538053
 11
39.2619528465
 21
156.8884565708
  0
LINE
  5
22C
100
AcDbEntity
  8
0
100
AcDbLine
 62
2
  6
CONTINUOUS
 10
39.7619715173
 20
596.8884565495
 11
39.7619621819
 21
376.8884565495
  0
LINE
  5
22D
100
AcDbEntity
  8
0
100
AcDbLine
 62
2
  6
CONTINUOUS
 10
39.7619528465
 20
156.8884565495
 11
39.7619621819
 21
376.8884565495
  0
INSERT
  5
22E
100
AcDbEntity
  8
0
100
AcDbBlockReference
 62
2
  6
CONTINUOUS
  2
_FILLED
 10
39.7619715173
 20
596.8884565495
 41
3.0
 42
3.0
 43
3.0
 50
89.9999975687
  0
INSERT
  5
22F
100
AcDbEntity
  8
0
100
AcDbBlockReference
 62
2
  6
CONTINUOUS
  2
_FILLED
 10
39.7619528465
 20
156.8884565495
 41
3.0
 42
3.0
 43
3.0
 50
269.9999975687
  0
ENDBLK
  5
230
100
AcDbEntity
  8
0
  6
BYBLOCK
 62
0
100
AcDbBlockEnd
  0
BLOCK
  5
231
100
AcDbEntity
  8
0
100
AcDbBlockBegin
 62
2
  6
CONTINUOUS
  2
*D4
 70
65
 10
0.0
 20
0.0
  3
*D4
  1

  0
LINE
  5
232
100
AcDbEntity
  8
0
100
AcDbLine
 62
2
  6
CONTINUOUS
 10
533.4328861663
 20
596.8884356014
 11
570.0508854965
 21
596.8884340476
  0
LINE
  5
233
100
AcDbEntity
  8
0
100
AcDbLine
 62
2
  6
CONTINUOUS
 10
323.0453306107
 20
456.8884536096
 11
570.0508795559
 21
456.8884431283
  0
LINE
  5
234
100
AcDbEntity
  8
0
100
AcDbLine
 62
2
  6
CONTINUOUS
 10
569.5508854965
 20
596.8884340688
 11
569.5508825262
 21
526.8884386092
  0
LINE
  5
235
100
AcDbEntity
  8
0
100
AcDbLine
 62
2
  6
CONTINUOUS
 10
569.5508795559
 20
456.8884431495
 11
569.5508825262
 21
526.8884386092
  0
INSERT
  5
236
100
AcDbEntity
  8
0
100
AcDbBlockReference
 62
2
  6
CONTINUOUS
  2
_FILLED
 10
569.5508854965
 20
596.8884340688
 41
3.0
 42
3.0
 43
3.0
 50
89.9999975687
  0
INSERT
  5
237
100
AcDbEntity
  8
0
100
AcDbBlockReference
 62
2
  6
CONTINUOUS
  2
_FILLED
 10
569.5508795559
 20
456.8884431495
 41
3.0
 42
3.0
 43
3.0
 50
269.9999975687
  0
ENDBLK
  5
238
100
AcDbEntity
  8
0
  6
BYBLOCK
 62
0
100
AcDbBlockEnd
  0
BLOCK
  5
239
100
AcDbEntity
  8
0
100
AcDbBlockBegin
 62
2
  6
CONTINUOUS
  2
*D5
 70
65
 10
0.0
 20
0.0
  3
*D5
  1

  0
LINE
  5
23A
100
AcDbEntity
  8
0
100
AcDbLine
 62
2
  6
CONTINUOUS
 10
538.9328679835
 20
162.3884537841
 11
538.9328662066
 21
120.5124022588
  0
LINE
  5
23B
100
AcDbEntity
  8
0
100
AcDbLine
 62
2
  6
CONTINUOUS
 10
318.9328859726
 20
452.3244537841
 11
318.9328718927
 21
120.5124115941
  0
LINE
  5
23C
100
AcDbEntity
  8
0
100
AcDbLine
 62
2
  6
CONTINUOUS
 10
538.9328662278
 20
121.0124022588
 11
428.9328690708
 21
121.0124069265
  0
LINE
  5
23D
100
AcDbEntity
  8
0
100
AcDbLine
 62
2
  6
CONTINUOUS
 10
318.9328719139
 20
121.0124115941
 11
428.9328690708
 21
121.0124069265
  0
INSERT
  5
23E
100
AcDbEntity
  8
0
100
AcDbBlockReference
 62
2
  6
CONTINUOUS
  2
_FILLED
 10
538.9328662278
 20
121.0124022588
 41
3.0
 42
3.0
 43
3.0
 50
359.9999975687
  0
INSERT
  5
23F
100
AcDbEntity
  8
0
100
AcDbBlockReference
 62
2
  6
CONTINUOUS
  2
_FILLED
 10
318.9328719139
 20
121.0124115941
 41
3.0
 42
3.0
 43
3.0
 50
179.9999975687
  0
ENDBLK
  5
240
100
AcDbEntity
  8
0
  6
BYBLOCK
 62
0
100
AcDbBlockEnd
  0
BLOCK
  5
241
100
AcDbEntity
  8
0
100
AcDbBlockBegin
 62
2
  6
CONTINUOUS
  2
*D6
 70
65
 10
0.0
 20
0.0
  3
*D6
  1

  0
LINE
  5
242
100
AcDbEntity
  8
0
100
AcDbLine
 62
2
  6
CONTINUOUS
 10
841.5956371505
 20
156.3884537841
 11
841.5956371505
 21
120.937207313
  0
LINE
  5
243
100
AcDbEntity
  8
0
100
AcDbLine
 62
2
  6
CONTINUOUS
 10
640.7956371505
 20
191.3884537841
 11
640.7956371505
 21
120.937207313
  0
LINE
  5
244
100
AcDbEntity
  8
0
100
AcDbLine
 62
2
  6
CONTINUOUS
 10
841.5956371505
 20
121.437207313
 11
741.1956371505
 21
121.437207313
  0
LINE
  5
245
100
AcDbEntity
  8
0
100
AcDbLine
 62
2
  6
CONTINUOUS
 10
640.7956371505
 20
121.437207313
 11
741.1956371505
 21
121.437207313
  0
INSERT
  5
246
100
AcDbEntity
  8
0
100
AcDbBlockReference
 62
2
  6
CONTINUOUS
  2
_FILLED
 10
841.5956371505
 20
121.437207313
 41
3.0
 42
3.0
 43
3.0
  0
INSERT
  5
247
100
AcDbEntity
  8
0
100
AcDbBlockReference
 62
2
  6
CONTINUOUS
  2
_FILLED
 10
640.7956371505
 20
121.437207313
 41
3.0
 42
3.0
 43
3.0
 50
180.0
  0
ENDBLK
  5
248
100
AcDbEntity
  8
0
  6
BYBLOCK
 62
0
100
AcDbBlockEnd
  0
BLOCK
  5
249
100
AcDbEntity
  8
0
100
AcDbBlockBegin
 62
2
  6
CONTINUOUS
  2
*D7
 70
65
 10
0.0
 20
0.0
  3
*D7
  1

  0
LINE
  5
24A
100
AcDbEntity
  8
0
100
AcDbLine
 62
2
  6
CONTINUOUS
 10
516.5239753391
 20
572.1003195953
 11
461.4415008756
 21
530.6819355912
  0
INSERT
  5
24B
100
AcDbEntity
  8
0
100
AcDbBlockReference
 62
2
  6
CONTINUOUS
  2
_FILLED
 10
516.5239753391
 20
572.1003195953
 41
3.0
 42
3.0
 43
3.0
 50
36.9407493633
  0
ENDBLK
  5
24C
100
AcDbEntity
  8
0
  6
BYBLOCK
 62
0
100
AcDbBlockEnd
  0
ENDSEC
  0
SECTION
  2
ENTITIES
  0
DIMENSION
  5
24D
100
AcDbEntity
  8
0
100
AcDbDimension
 62
2
  6
CONTINUOUS
  2
*D0
 10
98.9329067957
 20
649.048041703
 11
311.2186119097
 21
649.048032695
 70
160
 71
2
 42
439.9999818385
  3
DIMSTYLE_1
100
AcDbAlignedDimension
 13
538.9328861663
 23
590.8884356226
 14
98.9329043278
 24
590.8884537841
 50
179.9999975687
100
AcDbRotatedDimension
  0
DIMENSION
  5
24E
100
AcDbEntity
  8
0
100
AcDbDimension
 62
2
  6
CONTINUOUS
  2
*D1
 10
518.9328861663
 20
622.1615582013
 11
311.218600452
 21
622.1615582013
 70
160
 71
2
 42
400.0
  3
DIMSTYLE_2
100
AcDbAlignedDimension
 13
118.9328861663
 23
564.8884537841
 14
518.9328861663
 24
564.8884537841
100
AcDbRotatedDimension
  0
DIMENSION
  5
24F
100
AcDbEntity
  8
0
100
AcDbDimension
 62
2
  6
CONTINUOUS
  2
*D2
 10
70.8960351534
 20
176.8884537841
 11
70.8960351534
 21
369.1741680698
 70
160
 71
2
 42
400.0
  3
DIMSTYLE_2
100
AcDbAlignedDimension
 13
130.9328861663
 23
576.8884537841
 14
130.9328861663
 24
176.8884537841
 50
270.0
100
AcDbRotatedDimension
  0
DIMENSION
  5
250
100
AcDbEntity
  8
0
100
AcDbDimension
 62
2
  6
CONTINUOUS
  2
*D3
 10
39.7619528465
 20
156.8884565495
 11
39.7619618546
 21
369.1741707443
 70
160
 71
2
 42
440.0
  3
DIMSTYLE_1
100
AcDbAlignedDimension
 13
104.9329043278
 23
596.8884537841
 14
104.9329043278
 24
156.8884537841
 50
269.9999975687
100
AcDbRotatedDimension
  0
DIMENSION
  5
251
100
AcDbEntity
  8
0
100
AcDbDimension
 62
2
  6
CONTINUOUS
  2
*D4
 10
569.5508795559
 20
456.8884431495
 11
569.5508821989
 21
519.1741528039
 70
160
 71
2
 42
139.9999909192
  3
DIMSTYLE_2
100
AcDbAlignedDimension
 13
532.9328861663
 23
596.8884356226
 14
322.5453306107
 24
456.8884536308
 50
269.9999975687
100
AcDbRotatedDimension
  0
DIMENSION
  5
252
100
AcDbEntity
  8
0
100
AcDbDimension
 62
2
  6
CONTINUOUS
  2
*D5
 10
318.9328719139
 20
121.0124115941
 11
421.2185832656
 21
121.0124072538
 70
160
 71
2
 42
219.9999943139
  3
DIMSTYLE_2
100
AcDbAlignedDimension
 13
538.9328680047
 23
162.8884537841
 14
318.9328859938
 24
452.8244537841
 50
179.9999975687
100
AcDbRotatedDimension
  0
DIMENSION
  5
253
100
AcDbEntity
  8
0
100
AcDbDimension
 62
2
  6
CONTINUOUS
  2
*D6
 10
640.7956371505
 20
121.437207313
 11
733.4813514362
 21
121.437207313
 70
160
 71
2
 42
200.8
  3
DIMSTYLE_2
100
AcDbAlignedDimension
 13
841.5956371505
 23
156.8884537841
 14
640.7956371505
 24
191.8884537841
 50
180.0
100
AcDbRotatedDimension
  0
DIMENSION
  5
254
100
AcDbEntity
  8
0
100
AcDbDimension
 62
2
  6
CONTINUOUS
  2
*D7
 10
506.9328861663
 20
564.8884537841
 11
460.153667695
 21
532.3946300864
 70
164
 71
3
 42
12.0
  1
<>
  3
DIMSTYLE_3
100
AcDbRadialDimension
 15
516.5239753391
 25
572.1003195953
  0
LINE
  5
255
100
AcDbEntity
  8
0
100
AcDbLine
 62
7
  6
CONTINUOUS
 10
98.9329043278
 20
162.8884537841
 11
98.9329043278
 21
590.8884537841
  0
LINE
  5
256
100
AcDbEntity
  8
0
100
AcDbLine
 62
7
  6
CONTINUOUS
 10
118.9328861663
 20
188.8884537841
 11
118.9328861663
 21
564.8884537841
  0
LINE
  5
257
100
AcDbEntity
  8
0
100
AcDbLine
 62
7
  6
CONTINUOUS
 10
841.5956371505
 20
156.8884537841
 11
840.5956371505
 21
156.8884537841
  0
LINE
  5
258
100
AcDbEntity
  8
0
100
AcDbLine
 62
7
  6
CONTINUOUS
 10
104.9329043278
 20
156.8884537841
 11
532.9328680047
 21
156.8884537841
  0
LINE
  5
259
100
AcDbEntity
  8
0
100
AcDbLine
 62
7
  6
CONTINUOUS
 10
656.5956371505
 20
176.0884537841
 11
839.7956371505
 21
176.0884537841
  0
LINE
  5
25A
100
AcDbEntity
  8
0
100
AcDbLine
 62
7
  6
CONTINUOUS
 10
506.9328861663
 20
176.8884537841
 11
130.9328861663
 21
176.8884537841
  0
LWPOLYLINE
  5
25B
100
AcDbEntity
  8
0
100
AcDbPolyline
 62
2
  6
CONTINUOUS
 90
25
 70
0
 43
0.2500000019
 10
316.3614648438
 20
630.7329874132
 10
316.504312283
 20
631.6853771701
 10
316.6471597222
 20
632.1615720486
 10
316.9328821615
 20
632.6377669271
 10
317.2186046007
 20
632.8758368056
 10
317.7900219184
 20
633.1139618056
 10
318.3614667969
 20
633.1139618056
 10
318.9328841146
 20
632.8758368056
 10
319.2186065538
 20
632.6377669271
 10
319.5043014323
 20
632.1615720486
 10
319.6471764323
 20
631.6853771701
 10
319.7900238715
 20
630.7329874132
 10
319.7900238715
 20
626.6853585069
 10
319.6471764323
 20
625.73296875
 10
319.5043014323
 20
625.2567738715
 10
319.2186065538
 20
624.7805789931
 10
318.9328841146
 20
624.5425091146
 10
318.3614667969
 20
624.3044392361
 10
317.7900219184
 20
624.3044392361
 10
317.2186046007
 20
624.5425091146
 10
316.9328821615
 20
624.7805789931
 10
316.6471597222
 20
625.2567738715
 10
316.504312283
 20
625.73296875
 10
316.3614648438
 20
626.6853585069
 10
316.3614648438
 20
630.7329874132
  0
LWPOLYLINE
  5
25C
100
AcDbEntity
  8
0
100
AcDbPolyline
 62
2
  6
CONTINUOUS
 90
25
 70
0
 43
0.2500000019
 10
321.5043309462
 20
657.6194496528
 10
321.6471783854
 20
658.5718394097
 10
321.7900533854
 20
659.0480342882
 10
322.0757482639
 20
659.5242291667
 10
322.3614707031
 20
659.7622990451
 10
322.9328880208
 20
660.0004240451
 10
323.5043328993
 20
660.0004240451
 10
324.075750217
 20
659.7622990451
 10
324.3614726562
 20
659.5242291667
 10
324.6471950955
 20
659.0480342882
 10
324.7900425347
 20
658.5718394097
 10
324.932889974
 20
657.6194496528
 10
324.932889974
 20
653.5718207465
 10
324.7900425347
 20
652.6194861111
 10
324.6471950955
 20
652.1432912326
 10
324.3614726562
 20
651.6670963542
 10
324.075750217
 20
651.4289713542
 10
323.5043328993
 20
651.1909014757
 10
322.9328880208
 20
651.1909014757
 10
322.3614707031
 20
651.4289713542
 10
322.0757482639
 20
651.6670963542
 10
321.7900533854
 20
652.1432912326
 10
321.6471783854
 20
652.6194861111
 10
321.5043309462
 20
653.5718207465
 10
321.5043309462
 20
657.6194496528
  0
LWPOLYLINE
  5
25D
100
AcDbEntity
  8
0
100
AcDbPolyline
 62
2
  6
CONTINUOUS
 90
25
 70
0
 43
0.2500000019
 10
321.5043033854
 20
630.7329874132
 10
321.6471783854
 20
631.6853771701
 10
321.7900258247
 20
632.1615720486
 10
322.0757482639
 20
632.6377669271
 10
322.3614707031
 20
632.8758368056
 10
322.9328880208
 20
633.1139618056
 10
323.5043053385
 20
633.1139618056
 10
324.075750217
 20
632.8758368056
 10
324.3614450955
 20
632.6377669271
 10
324.6471675347
 20
632.1615720486
 10
324.7900425347
 20
631.6853771701
 10
324.932889974
 20
630.7329874132
 10
324.932889974
 20
626.6853585069
 10
324.7900425347
 20
625.73296875
 10
324.6471675347
 20
625.2567738715
 10
324.3614450955
 20
624.7805789931
 10
324.075750217
 20
624.5425091146
 10
323.5043053385
 20
624.3044392361
 10
322.9328880208
 20
624.3044392361
 10
322.3614707031
 20
624.5425091146
 10
322.0757482639
 20
624.7805789931
 10
321.7900258247
 20
625.2567738715
 10
321.6471783854
 20
625.73296875
 10
321.5043033854
 20
626.6853585069
 10
321.5043033854
 20
630.7329874132
  0
LINE
  5
25E
100
AcDbEntity
  8
0
100
AcDbLine
 62
7
  6
CONTINUOUS
 10
840.5956371505
 20
196.7254356226
 11
841.5956371505
 21
196.7254356226
  0
LWPOLYLINE
  5
25F
100
AcDbEntity
  8
0
100
AcDbPolyline
 62
2
  6
CONTINUOUS
 90
4
 70
0
 43
0.2500000019
 10
314.0757404514
 20
624.3044392361
 10
314.0757404514
 20
633.1139618056
 10
311.2185987413
 20
626.4472886285
 10
314.6471853299
 20
626.4472886285
  0
LWPOLYLINE
  5
260
100
AcDbEntity
  8
0
100
AcDbPolyline
 62
2
  6
CONTINUOUS
 90
4
 70
0
 43
0.2500000019
 10
314.0757680122
 20
651.1909014757
 10
314.0757680122
 20
660.0004240451
 10
311.2185987413
 20
653.3337508681
 10
314.6471853299
 20
653.3337508681
  0
LWPOLYLINE
  5
261
100
AcDbEntity
  8
0
100
AcDbPolyline
 62
2
  6
CONTINUOUS
 90
4
 70
0
 43
0.2500000019
 10
319.2186065538
 20
651.1909014757
 10
319.2186065538
 20
660.0004240451
 10
316.3614648438
 20
653.3337508681
 10
319.7900514323
 20
653.3337508681
  0
LWPOLYLINE
  5
262
100
AcDbEntity
  8
0
100
AcDbPolyline
 62
2
  6
CONTINUOUS
 90
25
 70
0
 43
0.2500000019
 10
62.3246092122
 20
374.3170384115
 10
61.3722263455
 20
374.4598858507
 10
60.8960383572
 20
374.6027332899
 10
60.4198434787
 20
374.8884557292
 10
60.1817460395
 20
375.1741781684
 10
59.9436554905
 20
375.7455954861
 10
59.9436554905
 20
376.3170128038
 10
60.1817460395
 20
376.8884576823
 10
60.4198434787
 20
377.1741801215
 10
60.8960383572
 20
377.459875
 10
61.3722263455
 20
377.60275
 10
62.3246092122
 20
377.7455974392
 10
66.3722243381
 20
377.7455974392
 10
67.3246072049
 20
377.60275
 10
67.8007951931
 20
377.459875
 10
68.2769900716
 20
377.1741801215
 10
68.5150806207
 20
376.8884576823
 10
68.7531780599
 20
376.3170128038
 10
68.7531780599
 20
375.7455954861
 10
68.5150806207
 20
375.1741781684
 10
68.2769900716
 20
374.8884557292
 10
67.8007951931
 20
374.6027332899
 10
67.3246072049
 20
374.4598858507
 10
66.3722243381
 20
374.3170384115
 10
62.3246092122
 20
374.3170384115
  0
LWPOLYLINE
  5
263
100
AcDbEntity
  8
0
100
AcDbPolyline
 62
2
  6
CONTINUOUS
 90
25
 70
0
 43
0.2500000019
 10
31.1905337185
 20
379.4598769531
 10
30.2381542969
 20
379.6027519531
 10
29.7619628635
 20
379.7455993924
 10
29.2857714301
 20
380.0313218316
 10
29.047677436
 20
380.3170167101
 10
28.8095799967
 20
380.8884615885
 10
28.8095799967
 20
381.4598789062
 10
29.047677436
 20
382.0313237847
 10
29.2857714301
 20
382.3170186632
 10
29.7619628635
 20
382.6027411024
 10
30.2381542969
 20
382.7455885417
 10
31.1905337185
 20
382.8884635417
 10
35.2381522895
 20
382.8884635417
 10
36.1905351563
 20
382.7455885417
 10
36.6667231445
 20
382.6027411024
 10
37.1429145779
 20
382.3170186632
 10
37.381008572
 20
382.0313237847
 10
37.6191060113
 20
381.4598789062
 10
37.6191060113
 20
380.8884615885
 10
37.381008572
 20
380.3170167101
 10
37.1429145779
 20
380.0313218316
 10
36.6667231445
 20
379.7455993924
 10
36.1905351563
 20
379.6027519531
 10
35.2381522895
 20
379.4598769531
 10
31.1905337185
 20
379.4598769531
  0
LWPOLYLINE
  5
264
100
AcDbEntity
  8
0
100
AcDbPolyline
 62
2
  6
CONTINUOUS
 90
25
 70
0
 43
0.2500000019
 10
62.3246092122
 20
379.4598769531
 10
61.3722263455
 20
379.6027519531
 10
60.8960383572
 20
379.7455993924
 10
60.4198434787
 20
380.0313218316
 10
60.1817460395
 20
380.3170167101
 10
59.9436554905
 20
380.8884615885
 10
59.9436554905
 20
381.4598789062
 10
60.1817460395
 20
382.0313237847
 10
60.4198434787
 20
382.3170186632
 10
60.8960383572
 20
382.6027411024
 10
61.3722263455
 20
382.7455885417
 10
62.3246092122
 20
382.8884635417
 10
66.3722243381
 20
382.8884635417
 10
67.3246072049
 20
382.7455885417
 10
67.8007951931
 20
382.6027411024
 10
68.2769900716
 20
382.3170186632
 10
68.5150806207
 20
382.0313237847
 10
68.7531780599
 20
381.4598789062
 10
68.7531780599
 20
380.8884615885
 10
68.5150806207
 20
380.3170167101
 10
68.2769900716
 20
380.0313218316
 10
67.8007951931
 20
379.7455993924
 10
67.3246072049
 20
379.6027519531
 10
66.3722243381
 20
379.4598769531
 10
62.3246092122
 20
379.4598769531
  0
LWPOLYLINE
  5
265
100
AcDbEntity
  8
0
100
AcDbPolyline
 62
2
  6
CONTINUOUS
 90
4
 70
0
 43
0.2500000019
 10
68.7531780599
 20
372.0313140191
 10
59.9436554905
 20
372.0313140191
 10
66.6103217773
 20
369.174172309
 10
66.6103217773
 20
372.6027313368
  0
LWPOLYLINE
  5
266
100
AcDbEntity
  8
0
100
AcDbPolyline
 62
2
  6
CONTINUOUS
 90
4
 70
0
 43
0.2500000019
 10
37.6191060113
 20
372.0313140191
 10
28.8095799967
 20
372.0313140191
 10
35.4762462836
 20
369.174172309
 10
35.4762462836
 20
372.6027313368
  0
LWPOLYLINE
  5
267
100
AcDbEntity
  8
0
100
AcDbPolyline
 62
2
  6
CONTINUOUS
 90
4
 70
0
 43
0.2500000019
 10
37.6191060113
 20
377.1741801215
 10
28.8095799967
 20
377.1741801215
 10
35.4762462836
 20
374.3170384115
 10
35.4762462836
 20
377.7455974392
  0
LWPOLYLINE
  5
268
100
AcDbEntity
  8
0
100
AcDbPolyline
 62
2
  6
CONTINUOUS
 90
25
 70
0
 43
0.2500000019
 10
431.5043005642
 20
129.583835395
 10
431.6471480035
 20
130.5362113715
 10
431.7900230035
 20
131.01240625
 10
432.0757178819
 20
131.4886011285
 10
432.3614403212
 20
131.7266985677
 10
432.9328576389
 20
131.9647822266
 10
433.5043025174
 20
131.9647822266
 10
434.0757198351
 20
131.7266985677
 10
434.3614422743
 20
131.4886011285
 10
434.6471647135
 20
131.01240625
 10
434.7900121528
 20
130.5362113715
 10
434.932859592
 20
129.583835395
 10
434.932859592
 20
125.5362202691
 10
434.7900121528
 20
124.5838305122
 10
434.6471647135
 20
124.1076494141
 10
434.3614422743
 20
123.6314545356
 10
434.0757198351
 20
123.3933570964
 10
433.5043025174
 20
123.1552596571
 10
432.9328576389
 20
123.1552596571
 10
432.3614403212
 20
123.3933570964
 10
432.0757178819
 20
123.6314545356
 10
431.7900230035
 20
124.1076494141
 10
431.6471480035
 20
124.5838305122
 10
431.5043005642
 20
125.5362202691
 10
431.5043005642
 20
129.583835395
  0
LWPOLYLINE
  5
269
100
AcDbEntity
  8
0
100
AcDbPolyline
 62
2
  6
CONTINUOUS
 90
17
 70
0
 43
0.2500000019
 10
421.2185959201
 20
130.0600302734
 10
421.5042907986
 20
131.01240625
 10
421.7900132378
 20
131.4886011285
 10
422.0757356771
 20
131.7266985677
 10
422.6471529948
 20
131.9647822266
 10
423.2185703125
 20
131.9647822266
 10
423.790015191
 20
131.7266985677
 10
424.0757376302
 20
131.4886011285
 10
424.3614325087
 20
131.01240625
 10
424.5043075087
 20
130.5362113715
 10
424.6471549479
 20
129.8219328342
 10
424.6471549479
 20
129.583835395
 10
424.5043075087
 20
128.8695430773
 10
421.5042907986
 20
124.3457468533
 10
421.3614433594
 20
123.8695519748
 10
421.2185959201
 20
123.1552596571
 10
424.6471549479
 20
123.1552596571
  0
LWPOLYLINE
  5
26A
100
AcDbEntity
  8
0
100
AcDbPolyline
 62
2
  6
CONTINUOUS
 90
17
 70
0
 43
0.2500000019
 10
426.3614344618
 20
130.0600302734
 10
426.647156901
 20
131.01240625
 10
426.9328793403
 20
131.4886011285
 10
427.2185742188
 20
131.7266985677
 10
427.7900190972
 20
131.9647822266
 10
428.3614364149
 20
131.9647822266
 10
428.9328812934
 20
131.7266985677
 10
429.2185761719
 20
131.4886011285
 10
429.5042986111
 20
131.01240625
 10
429.6471460503
 20
130.5362113715
 10
429.7900210503
 20
129.8219328342
 10
429.7900210503
 20
129.583835395
 10
429.6471460503
 20
128.8695430773
 10
426.647156901
 20
124.3457468533
 10
426.5043094618
 20
123.8695519748
 10
426.3614344618
 20
123.1552596571
 10
429.7900210503
 20
123.1552596571
  0
LWPOLYLINE
  5
26B
100
AcDbEntity
  8
0
100
AcDbPolyline
 62
2
  6
CONTINUOUS
 90
3
 70
0
 43
0.2500000019
 10
460.8558802083
 20
542.1574327257
 10
460.4829830729
 20
543.366468316
 10
465.6343103299
 20
536.5156892361
  0
LINE
  5
26C
100
AcDbEntity
  8
0
100
AcDbLine
 62
7
  6
CONTINUOUS
 10
518.9328861663
 20
564.8884537841
 11
518.9328861663
 21
188.8884537841
  0
LINE
  5
26D
100
AcDbEntity
  8
0
100
AcDbLine
 62
7
  6
CONTINUOUS
 10
538.9328680047
 20
162.8884537841
 11
538.9328861663
 21
590.8884356226
  0
LINE
  5
26E
100
AcDbEntity
  8
0
100
AcDbLine
 62
7
  6
CONTINUOUS
 10
635.759226466
 20
518.5633512572
 11
635.7266083691
 21
518.5076068476
  0
LINE
  5
26F
100
AcDbEntity
  8
0
100
AcDbLine
 62
7
  6
CONTINUOUS
 10
635.7266083691
 20
518.5076068476
 11
635.7175081699
 21
518.4928802193
  0
LINE
  5
270
100
AcDbEntity
  8
0
100
AcDbLine
 62
7
  6
CONTINUOUS
 10
633.4964728338
 20
514.9392278586
 11
635.7123518949
 21
518.4846343564
  0
LWPOLYLINE
  5
271
100
AcDbEntity
  8
0
100
AcDbPolyline
 62
2
  6
CONTINUOUS
 90
17
 70
0
 43
0.2500000019
 10
464.2249079861
 20
544.0948993056
 10
463.8808945313
 20
545.0278311632
 10
463.8230720486
 20
545.5801488715
 10
463.9083450521
 20
545.9421319444
 10
464.2219865451
 20
546.4758736979
 10
464.6786684028
 20
546.819280816
 10
465.2785008681
 20
546.9724084201
 10
465.6499648438
 20
546.9538324653
 10
466.1645243056
 20
546.744921875
 10
466.5648719618
 20
546.450187066
 10
467.1083151042
 20
545.9651727431
 10
467.2514105903
 20
545.7748381076
 10
467.5664852431
 20
545.1180651042
 10
467.8875130208
 20
539.699453559
 10
468.0594921875
 20
539.2329600694
 10
468.3746219618
 20
538.5762421875
 10
471.1149335937
 20
540.6367400174
  0
LINE
  5
272
100
AcDbEntity
  8
0
100
AcDbLine
 62
7
  6
CONTINUOUS
 10
635.8638318155
 20
518.7868303346
 11
635.8414083793
 21
518.7311432267
  0
LINE
  5
273
100
AcDbEntity
  8
0
100
AcDbLine
 62
7
  6
CONTINUOUS
 10
635.8414083793
 20
518.7311432267
 11
635.8165528383
 21
518.6752528031
  0
LINE
  5
274
100
AcDbEntity
  8
0
100
AcDbLine
 62
7
  6
CONTINUOUS
 10
635.8165528383
 20
518.6752528031
 11
635.7891847245
 21
518.6192799826
  0
LINE
  5
275
100
AcDbEntity
  8
0
100
AcDbLine
 62
7
  6
CONTINUOUS
 10
635.7891847245
 20
518.6192799826
 11
635.759226466
 21
518.5633512572
  0
LWPOLYLINE
  5
276
100
AcDbEntity
  8
0
100
AcDbPolyline
 62
2
  6
CONTINUOUS
 90
13
 70
0
 43
0.2500000019
 10
460.153687066
 20
532.3946384549
 10
455.0023322483
 20
539.2454175347
 10
456.8291974826
 20
540.6191011285
 10
457.4290299479
 20
540.7722287326
 10
457.8004939236
 20
540.7536527778
 10
458.0577460937
 20
540.6491974826
 10
458.6011892361
 20
540.1641280382
 10
459.1735711806
 20
539.4029548611
 10
459.4886458333
 20
538.7461818576
 10
459.5175846354
 20
538.4700230035
 10
459.4323116319
 20
538.1080399306
 10
459.1186701389
 20
537.5742981771
 10
457.2918324653
 20
536.2006145833
  0
LINE
  5
277
100
AcDbEntity
  8
0
100
AcDbLine
 62
7
  6
CONTINUOUS
 10
638.5821611593
 20
531.0078569192
 11
637.251200172
 21
524.4038822998
  0
LINE
  5
278
100
AcDbEntity
  8
0
100
AcDbLine
 62
7
  6
CONTINUOUS
 10
637.251200172
 20
524.4038822998
 11
635.9195784554
 21
518.9598563202
  0
LINE
  5
279
100
AcDbEntity
  8
0
100
AcDbLine
 62
7
  6
CONTINUOUS
 10
635.9195731078
 20
518.9598572329
 11
635.9173485616
 21
518.9515185335
  0
LINE
  5
27A
100
AcDbEntity
  8
0
100
AcDbLine
 62
7
  6
CONTINUOUS
 10
629.973531584
 20
502.0955090202
 11
633.2842032937
 21
514.4511040478
  0
LINE
  5
27B
100
AcDbEntity
  8
0
100
AcDbLine
 62
7
  6
CONTINUOUS
 10
635.9173485616
 20
518.9515185335
 11
635.9017225818
 21
518.8971527681
  0
LINE
  5
27C
100
AcDbEntity
  8
0
100
AcDbLine
 62
7
  6
CONTINUOUS
 10
635.9017225818
 20
518.8971527681
 11
635.8839122742
 21
518.842215757
  0
LINE
  5
27D
100
AcDbEntity
  8
0
100
AcDbLine
 62
7
  6
CONTINUOUS
 10
635.8839122742
 20
518.842215757
 11
635.8638318155
 21
518.7868303346
  0
LWPOLYLINE
  5
27E
100
AcDbEntity
  8
0
100
AcDbPolyline
 62
2
  6
CONTINUOUS
 90
4
 70
0
 43
0.2500000019
 10
567.4079982639
 20
527.1741336806
 10
558.5984756944
 20
527.1741336806
 10
565.2651488715
 20
524.3170195313
 10
565.2651488715
 20
527.745578559
  0
LWPOLYLINE
  5
27F
100
AcDbEntity
  8
0
100
AcDbPolyline
 62
2
  6
CONTINUOUS
 90
2
 70
0
 43
0.2500000019
 10
458.8903567708
 20
537.4025946181
 10
462.8939986979
 20
534.4551362847
  0
LINE
  5
280
100
AcDbEntity
  8
0
100
AcDbLine
 62
7
  6
CONTINUOUS
 10
635.8216642814
 20
394.7962582544
 11
635.8257410155
 21
394.753292244
  0
LINE
  5
281
100
AcDbEntity
  8
0
100
AcDbLine
 62
7
  6
CONTINUOUS
 10
635.8257410155
 20
394.753292244
 11
635.8287299027
 21
394.7101622524
  0
LINE
  5
282
100
AcDbEntity
  8
0
100
AcDbLine
 62
7
  6
CONTINUOUS
 10
635.8287299027
 20
394.7101622524
 11
635.8292792123
 21
394.6998946407
  0
LINE
  5
283
100
AcDbEntity
  8
0
100
AcDbLine
 62
7
  6
CONTINUOUS
 10
635.8294218767
 20
394.6999016547
 11
637.3151990233
 21
362.6494989773
  0
LINE
  5
284
100
AcDbEntity
  8
0
100
AcDbLine
 62
7
  6
CONTINUOUS
 10
637.3151990233
 20
362.6494989773
 11
638.5757504109
 21
329.4724245936
  0
LINE
  5
285
100
AcDbEntity
  8
0
100
AcDbLine
 62
7
  6
CONTINUOUS
 10
638.5757504109
 20
329.4724245936
 11
639.5540548801
 21
296.2953053067
  0
LINE
  5
286
100
AcDbEntity
  8
0
100
AcDbLine
 62
7
  6
CONTINUOUS
 10
639.5540548801
 20
296.2953053067
 11
640.2500510297
 21
263.1217397362
  0
LINE
  5
287
100
AcDbEntity
  8
0
100
AcDbLine
 62
7
  6
CONTINUOUS
 10
629.973531584
 20
411.681398548
 11
629.973531584
 21
502.0955090202
  0
LINE
  5
288
100
AcDbEntity
  8
0
100
AcDbLine
 62
7
  6
CONTINUOUS
 10
640.700692892
 20
550.8902573171
 11
640.6947098665
 21
550.5752900146
  0
LINE
  5
289
100
AcDbEntity
  8
0
100
AcDbLine
 62
7
  6
CONTINUOUS
 10
640.6947098665
 20
550.5752900146
 11
640.3000721487
 21
544.1154794206
  0
LINE
  5
28A
100
AcDbEntity
  8
0
100
AcDbLine
 62
7
  6
CONTINUOUS
 10
640.3000721487
 20
544.1154794206
 11
639.5978533322
 21
537.5856953975
  0
LINE
  5
28B
100
AcDbEntity
  8
0
100
AcDbLine
 62
7
  6
CONTINUOUS
 10
639.5978533322
 20
537.5856953975
 11
638.5821611593
 21
531.0078569192
  0
LINE
  5
28C
100
AcDbEntity
  8
0
100
AcDbLine
 62
7
  6
CONTINUOUS
 10
841.5956371505
 20
557.0514537841
 11
840.5956371505
 21
557.0514719456
  0
LWPOLYLINE
  5
28D
100
AcDbEntity
  8
0
100
AcDbPolyline
 62
2
  6
CONTINUOUS
 90
25
 70
0
 43
0.2500000019
 10
560.9794500868
 20
529.4598580729
 10
560.0270603299
 20
529.6027330729
 10
559.5508654514
 20
529.7456080729
 10
559.0746705729
 20
530.0313029514
 10
558.8366006944
 20
530.3169978299
 10
558.5984756944
 20
530.8884427083
 10
558.5984756944
 20
531.4598875868
 10
558.8366006944
 20
532.0312773437
 10
559.0746705729
 20
532.3170273437
 10
559.5508654514
 20
532.6027222222
 10
560.0270603299
 20
532.7455972222
 10
560.9794500868
 20
532.8884171007
 10
565.0270789931
 20
532.8884171007
 10
565.97946875
 20
532.7455972222
 10
566.4556636285
 20
532.6027222222
 10
566.9318585069
 20
532.3170273437
 10
567.1699283854
 20
532.0312773437
 10
567.4079982639
 20
531.4598875868
 10
567.4079982639
 20
530.8884427083
 10
567.1699283854
 20
530.3169978299
 10
566.9318585069
 20
530.0313029514
 10
566.4556636285
 20
529.7456080729
 10
565.97946875
 20
529.6027330729
 10
565.0270789931
 20
529.4598580729
 10
560.9794500868
 20
529.4598580729
  0
LWPOLYLINE
  5
28E
100
AcDbEntity
  8
0
100
AcDbPolyline
 62
2
  6
CONTINUOUS
 90
3
 70
0
 43
0.2500000019
 10
560.0270603299
 20
520.459890625
 10
558.8366006944
 20
520.8884605035
 10
567.4079982639
 20
520.8884605035
  0
LINE
  5
28F
100
AcDbEntity
  8
0
100
AcDbLine
 62
7
  6
CONTINUOUS
 10
633.4964728338
 20
398.8376797097
 11
635.5727268131
 21
395.5156733428
  0
LINE
  5
290
100
AcDbEntity
  8
0
100
AcDbLine
 62
7
  6
CONTINUOUS
 10
635.5730437757
 20
395.5151881686
 11
635.5820620456
 21
395.5005956292
  0
LINE
  5
291
100
AcDbEntity
  8
0
100
AcDbLine
 62
7
  6
CONTINUOUS
 10
635.5820620456
 20
395.5005956292
 11
635.6097259013
 21
395.4536483297
  0
LINE
  5
292
100
AcDbEntity
  8
0
100
AcDbLine
 62
7
  6
CONTINUOUS
 10
635.6097259013
 20
395.4536483297
 11
635.6355002386
 21
395.406542409
  0
LINE
  5
293
100
AcDbEntity
  8
0
100
AcDbLine
 62
7
  6
CONTINUOUS
 10
635.6355002386
 20
395.406542409
 11
635.6594493344
 21
395.3593120607
  0
LINE
  5
294
100
AcDbEntity
  8
0
100
AcDbLine
 62
7
  6
CONTINUOUS
 10
635.6594493344
 20
395.3593120607
 11
635.6816340907
 21
395.3119846641
  0
LINE
  5
295
100
AcDbEntity
  8
0
100
AcDbLine
 62
7
  6
CONTINUOUS
 10
635.6816340907
 20
395.3119846641
 11
635.702111664
 21
395.2645815553
  0
LINE
  5
296
100
AcDbEntity
  8
0
100
AcDbLine
 62
7
  6
CONTINUOUS
 10
635.702111664
 20
395.2645815553
 11
635.7209355117
 21
395.217117902
  0
LINE
  5
297
100
AcDbEntity
  8
0
100
AcDbLine
 62
7
  6
CONTINUOUS
 10
635.7209355117
 20
395.217117902
 11
635.7381539638
 21
395.1696065234
  0
LINE
  5
298
100
AcDbEntity
  8
0
100
AcDbLine
 62
7
  6
CONTINUOUS
 10
635.7381539638
 20
395.1696065234
 11
635.7538147184
 21
395.122044948
  0
LINE
  5
299
100
AcDbEntity
  8
0
100
AcDbLine
 62
7
  6
CONTINUOUS
 10
635.7538147184
 20
395.122044948
 11
635.7679797281
 21
395.0743563369
  0
LINE
  5
29A
100
AcDbEntity
  8
0
100
AcDbLine
 62
7
  6
CONTINUOUS
 10
629.973531584
 20
411.681398548
 11
633.2842032937
 21
399.3258035205
  0
LINE
  5
29B
100
AcDbEntity
  8
0
100
AcDbLine
 62
7
  6
CONTINUOUS
 10
635.7679797281
 20
395.0743563369
 11
635.7806240174
 21
395.0267506088
  0
LINE
  5
29C
100
AcDbEntity
  8
0
100
AcDbLine
 62
7
  6
CONTINUOUS
 10
635.7806240174
 20
395.0267506088
 11
635.791766971
 21
394.9793300473
  0
LINE
  5
29D
100
AcDbEntity
  8
0
100
AcDbLine
 62
7
  6
CONTINUOUS
 10
635.791766971
 20
394.9793300473
 11
635.8014067974
 21
394.9323447201
  0
LINE
  5
29E
100
AcDbEntity
  8
0
100
AcDbLine
 62
7
  6
CONTINUOUS
 10
635.8014067974
 20
394.9323447201
 11
635.8095740168
 21
394.8859919359
  0
LINE
  5
29F
100
AcDbEntity
  8
0
100
AcDbLine
 62
7
  6
CONTINUOUS
 10
635.8095740168
 20
394.8859919359
 11
635.8163068171
 21
394.8405356489
  0
LINE
  5
2A0
100
AcDbEntity
  8
0
100
AcDbLine
 62
7
  6
CONTINUOUS
 10
635.8163068171
 20
394.8405356489
 11
635.8216642814
 21
394.7962582544
  0
LINE
  5
2A1
100
AcDbEntity
  8
0
100
AcDbLine
 62
7
  6
CONTINUOUS
 10
640.2500510297
 20
263.1217397362
 11
640.6637999476
 21
229.9553265005
  0
LINE
  5
2A2
100
AcDbEntity
  8
0
100
AcDbLine
 62
7
  6
CONTINUOUS
 10
640.6637999476
 20
229.9553265005
 11
640.7750808936
 21
202.8883692708
  0
LINE
  5
2A3
100
AcDbEntity
  8
0
100
AcDbLine
 62
7
  6
CONTINUOUS
 10
640.7956371505
 20
561.8884537841
 11
640.7956371505
 21
191.8884537841
  0
LINE
  5
2A4
100
AcDbEntity
  8
0
100
AcDbLine
 62
7
  6
CONTINUOUS
 10
130.9328861663
 20
576.8884537841
 11
506.9328861663
 21
576.8884537841
  0
LINE
  5
2A5
100
AcDbEntity
  8
0
100
AcDbLine
 62
7
  6
CONTINUOUS
 10
656.5956405001
 20
577.6884537841
 11
839.7956371505
 21
577.6884537841
  0
LINE
  5
2A6
100
AcDbEntity
  8
0
100
AcDbLine
 62
7
  6
CONTINUOUS
 10
104.9329043278
 20
596.8884537841
 11
532.9328861663
 21
596.8884356226
  0
LINE
  5
2A7
100
AcDbEntity
  8
0
100
AcDbLine
 62
7
  6
CONTINUOUS
 10
840.5956371505
 20
596.8884537841
 11
841.5956371505
 21
596.8884537841
  0
LWPOLYLINE
  5
2A8
100
AcDbEntity
  8
0
100
AcDbPolyline
 62
2
  6
CONTINUOUS
 90
25
 70
0
 43
0.2500000019
 10
738.6242278646
 20
130.0086294488
 10
738.7670477431
 20
130.9610192057
 10
738.9099227431
 20
131.4372140842
 10
739.1956176215
 20
131.9133951823
 10
739.4813676215
 20
132.1514926215
 10
740.0527573785
 20
132.3895900608
 10
740.6242022569
 20
132.3895900608
 10
741.1956471354
 20
132.1514926215
 10
741.4813420139
 20
131.9133951823
 10
741.7670920139
 20
131.4372140842
 10
741.9099118924
 20
130.9610192057
 10
742.0527868924
 20
130.0086294488
 10
742.0527868924
 20
125.9610143229
 10
741.9099118924
 20
125.0086383464
 10
741.7670920139
 20
124.5324434679
 10
741.4813420139
 20
124.0562485894
 10
741.1956471354
 20
123.8181649306
 10
740.6242022569
 20
123.5800674913
 10
740.0527573785
 20
123.5800674913
 10
739.4813676215
 20
123.8181649306
 10
739.1956176215
 20
124.0562485894
 10
738.9099227431
 20
124.5324434679
 10
738.7670477431
 20
125.0086383464
 10
738.6242278646
 20
125.9610143229
 10
738.6242278646
 20
130.0086294488
  0
LWPOLYLINE
  5
2A9
100
AcDbEntity
  8
0
100
AcDbPolyline
 62
2
  6
CONTINUOUS
 90
25
 70
0
 43
0.2500000019
 10
743.7670664063
 20
130.0086294488
 10
743.9099414063
 20
130.9610192057
 10
744.0527612847
 20
131.4372140842
 10
744.3385112847
 20
131.9133951823
 10
744.6242061632
 20
132.1514926215
 10
745.1956510417
 20
132.3895900608
 10
745.7670407986
 20
132.3895900608
 10
746.3384856771
 20
132.1514926215
 10
746.6242356771
 20
131.9133951823
 10
746.9099305556
 20
131.4372140842
 10
747.0528055556
 20
130.9610192057
 10
747.195625434
 20
130.0086294488
 10
747.195625434
 20
125.9610143229
 10
747.0528055556
 20
125.0086383464
 10
746.9099305556
 20
124.5324434679
 10
746.6242356771
 20
124.0562485894
 10
746.3384856771
 20
123.8181649306
 10
745.7670407986
 20
123.5800674913
 10
745.1956510417
 20
123.5800674913
 10
744.6242061632
 20
123.8181649306
 10
744.3385112847
 20
124.0562485894
 10
744.0527612847
 20
124.5324434679
 10
743.9099414063
 20
125.0086383464
 10
743.7670664063
 20
125.9610143229
 10
743.7670664063
 20
130.0086294488
  0
LWPOLYLINE
  5
2AA
100
AcDbEntity
  8
0
100
AcDbPolyline
 62
2
  6
CONTINUOUS
 90
17
 70
0
 43
0.2500000019
 10
733.4813342014
 20
130.4848243273
 10
733.7670842014
 20
131.4372140842
 10
734.0527790799
 20
131.9133951823
 10
734.3384739583
 20
132.1514926215
 10
734.9099188368
 20
132.3895900608
 10
735.4813637153
 20
132.3895900608
 10
736.0527534722
 20
132.1514926215
 10
736.3385034722
 20
131.9133951823
 10
736.6241983507
 20
131.4372140842
 10
736.7670733507
 20
130.9610192057
 10
736.9099483507
 20
130.246726888
 10
736.9099483507
 20
130.0086294488
 10
736.7670733507
 20
129.2943509115
 10
733.7670842014
 20
124.7705409071
 10
733.6242092014
 20
124.2943460286
 10
733.4813342014
 20
123.5800674913
 10
736.9099483507
 20
123.5800674913
  0
LINE
  5
2AB
100
AcDbEntity
  8
0
100
AcDbLine
 62
7
  6
CONTINUOUS
 10
840.5956371505
 20
156.8884537841
 11
840.5956371505
 21
196.7254356226
  0
LINE
  5
2AC
100
AcDbEntity
  8
0
100
AcDbLine
 62
7
  6
CONTINUOUS
 10
840.5956371505
 20
557.0514719456
 11
840.5956371505
 21
596.8884537841
  0
LINE
  5
2AD
100
AcDbEntity
  8
0
100
AcDbLine
 62
7
  6
CONTINUOUS
 10
840.7956371505
 20
196.7254537841
 11
840.7956371505
 21
557.0514537841
  0
LINE
  5
2AE
100
AcDbEntity
  8
0
100
AcDbLine
 62
7
  6
CONTINUOUS
 10
841.5956371505
 20
156.8884537841
 11
841.5956371505
 21
596.8884537841
  0
CIRCLE
  5
2AF
100
AcDbEntity
  8
0
100
AcDbCircle
 62
7
  6
CONTINUOUS
 10
318.9328861663
 20
456.8884537841
 40
45.0
  0
ARC
  5
2B0
100
AcDbEntity
  8
0
100
AcDbCircle
 62
7
  6
CONTINUOUS
 10
656.5956371505
 20
191.8884537841
 40
15.8
100
AcDbArc
 50
180.0
 51
270.0
  0
ARC
  5
2B1
100
AcDbEntity
  8
0
100
AcDbCircle
 62
7
  6
CONTINUOUS
 10
656.5956371505
 20
561.8884537841
 40
15.8
100
AcDbArc
 50
90.0
 51
180.0
  0
ARC
  5
2B2
100
AcDbEntity
  8
0
100
AcDbCircle
 62
7
  6
CONTINUOUS
 10
130.9328861663
 20
564.8884537841
 40
12.0
100
AcDbArc
 50
90.0
 51
180.0
  0
ARC
  5
2B3
100
AcDbEntity
  8
0
100
AcDbCircle
 62
7
  6
CONTINUOUS
 10
506.9328861663
 20
564.8884537841
 40
12.0
100
AcDbArc
 50
0.0
 51
90.0
  0
ARC
  5
2B4
100
AcDbEntity
  8
0
100
AcDbCircle
 62
7
  6
CONTINUOUS
 10
506.9328861663
 20
188.8884537841
 40
12.0
100
AcDbArc
 50
270.0
 51
360.0
  0
ARC
  5
2B5
100
AcDbEntity
  8
0
100
AcDbCircle
 62
7
  6
CONTINUOUS
 10
130.9328861663
 20
188.8884537841
 40
12.0
100
AcDbArc
 50
180.0
 51
270.0
  0
ARC
  5
2B6
100
AcDbEntity
  8
0
100
AcDbCircle
 62
7
  6
CONTINUOUS
 10
104.9329043278
 20
590.8884537841
 40
6.0
100
AcDbArc
 50
90.0
 51
180.0
  0
ARC
  5
2B7
100
AcDbEntity
  8
0
100
AcDbCircle
 62
7
  6
CONTINUOUS
 10
532.9328680047
 20
162.8884537841
 40
6.0
100
AcDbArc
 50
270.0
 51
360.0
  0
ARC
  5
2B8
100
AcDbEntity
  8
0
100
AcDbCircle
 62
7
  6
CONTINUOUS
 10
104.9329043278
 20
162.8884537841
 40
6.0
100
AcDbArc
 50
180.0
 51
270.0
  0
ARC
  5
2B9
100
AcDbEntity
  8
0
100
AcDbCircle
 62
7
  6
CONTINUOUS
 10
532.9328861663
 20
590.8884356226
 40
6.0
100
AcDbArc
 50
0.0
 51
90.0
  0
ARC
  5
2BA
100
AcDbEntity
  8
0
100
AcDbCircle
 62
7
  6
CONTINUOUS
 10
635.022869781
 20
513.9852297666
 40
1.8
100
AcDbArc
 50
147.9946167919
 51
165.0
  0
ARC
  5
2BB
100
AcDbEntity
  8
0
100
AcDbCircle
 62
7
  6
CONTINUOUS
 10
635.022869781
 20
399.7916778017
 40
1.8
100
AcDbArc
 50
195.0
 51
212.0053832081
  0
ARC
  5
2BC
100
AcDbEntity
  8
0
100
AcDbCircle
 62
7
  6
CONTINUOUS
 10
839.7956371505
 20
578.6884537841
 40
1.0
100
AcDbArc
 50
270.0
 51
323.7679987412
  0
ARC
  5
2BD
100
AcDbEntity
  8
0
100
AcDbCircle
 62
7
  6
CONTINUOUS
 10
839.7956371505
 20
175.0884537841
 40
1.0
100
AcDbArc
 50
36.2319953874
 51
90.0
  0
ENDSEC
  0
SECTION
  2
OBJECTS
  0
DICTIONARY
  5
C
100
AcDbDictionary
280
0
281
1
  3
ACAD_GROUP
350
D
  3
ACAD_MLINESTYLE
350
17
  3
ACAD_LAYOUT
350
1A
  3
ACAD_PLOTSETTINGS
350
19
  3
ACAD_PLOTSTYLENAME
350
E
  0
DICTIONARY
  5
D
102
{ACAD_REACTORS
330
C
102
}
100
AcDbDictionary
280
0
281
1
  0
ACDBDICTIONARYWDFLT
  5
E
102
{ACAD_REACTORS
330
C
102
}
100
AcDbDictionary
281
1
  3
Normal
350
F
100
AcDbDictionaryWithDefault
340
F
  0
DICTIONARY
  5
17
102
{ACAD_REACTORS
330
C
102
}
100
AcDbDictionary
280
0
281
1
  3
Standard
350
18
  0
DICTIONARY
  5
19
102
{ACAD_REACTORS
330
C
102
}
100
AcDbDictionary
281
1
  0
DICTIONARY
  5
1A
102
{ACAD_REACTORS
330
C
102
}
100
AcDbDictionary
281
1
  3
Model
350
2BE
  3
Layout1
350
2BF
  0
ACDBPLACEHOLDER
  5
F
102
{ACAD_REACTORS
330
E
102
}
  0
MLINESTYLE
  5
18
102
{ACAD_REACTORS
330
17
102
}
100
AcDbMlineStyle
  2
STANDARD
 70
0
  3

 62
256
 51
90.0
 52
90.0
 71
2
 49
0.5
 62
256
  6
BYLAYER
 49
-0.5
 62
256
  6
BYLAYER
  0
LAYOUT
  5
2BE
102
{ACAD_REACTORS
330
1A
102
}
100
AcDbPlotSettings
  1

  2
none_device
  4

  6

 40
0.0
 41
0.0
 42
0.0
 43
0.0
 44
889.0
 45
762.0
 46
0.0
 47
0.0
 48
0.0
 49
0.0
140
0.0
141
0.0
142
1.0
143
1.0
 70
1024
 72
1
 73
0
 74
0
  7

 75
0
147
1.0
148
0.0
149
0.0
100
AcDbLayout
  1
Model
 70
0
 71
0
 10
0.0
 20
0.0
 11
889.0
 21
762.0
 12
0.0
 22
0.0
 32
0.0
 14
0.0
 24
0.0
 34
0.0
 15
0.0
 25
0.0
 35
0.0
146
0.0
 13
0.0
 23
0.0
 33
0.0
 16
1.0
 26
0.0
 36
0.0
 17
0.0
 27
1.0
 37
0.0
 76
0
330
1FF
345
0
346
0
  0
LAYOUT
  5
2BF
102
{ACAD_REACTORS
330
1A
102
}
100
AcDbPlotSettings
  1

  2
none_device
  4

  6

 40
0.0
 41
0.0
 42
0.0
 43
0.0
 44
889.0
 45
762.0
 46
0.0
 47
0.0
 48
0.0
 49
0.0
140
0.0
141
0.0
142
1.0
143
1.0
 70
0
 72
1
 73
0
 74
0
  7

 75
0
147
1.0
148
0.0
149
0.0
100
AcDbLayout
  1
Layout1
 70
0
 71
1
 10
0.0
 20
0.0
 11
889.0
 21
762.0
 12
0.0
 22
0.0
 32
0.0
 14
0.0
 24
0.0
 34
0.0
 15
0.0
 25
0.0
 35
0.0
146
0.0
 13
0.0
 23
0.0
 33
0.0
 16
1.0
 26
0.0
 36
0.0
 17
0.0
 27
1.0
 37
0.0
 76
0
330
200
345
0
346
0
  0
ENDSEC
  0
EOF
