999
DXF file: W:\Engenharia\Produtos\Cubas\Quadrum\cubas_quadrum_4.dxf
999
Pro/ENGINEER 2012230 by Parametric Technology Corporation
  0
SECTION
  2
HEADER
  9
$ACADVER
  1
AC1018
  9
$DWGCODEPAGE
  3
ANSI_1252
  9
$EXTMAX
 10
762.0
 20
635.0
 30
0.0
  9
$EXTMIN
 10
0.0
 20
0.0
 30
0.0
  9
$LIMMIN
 10
0.0
 20
0.0
  9
$LIMMAX
 10
762.0
 20
635.0
  9
$VIEWCTR
 10
381.0
 20
317.5
  9
$VIEWSIZE
 40
635.0
  9
$CLAYER
  8
0
  9
$LTSCALE
 40
41.91
  9
$CELTYPE
  6
BYLAYER
  9
$DIMSCALE
 40
1.0
  9
$DIMASZ
 40
3.0
  9
$DIMEXO
 40
0.5
  9
$DIMDLI
 40
28.956
  9
$DIMEXE
 40
0.5
  9
$DIMCEN
 40
6.858
  9
$DIMLFAC
 40
1.0
  9
$DIMBLK
  1
_FILLED
  9
$DIMTXT
 40
1.8
  9
$DIMTOL
 70
1
  9
$DIMLIM
 70
0
  9
$DIMTFAC
 40
1.0
  9
$DIMTP
 40
0.001
  9
$DIMTM
 40
0.001
  9
$DIMGAP
 40
0.625
  9
$DIMDSEP
 70
46
  9
$PDMODE
 70
3
  9
$PDSIZE
 40
1.0
  9
$HANDSEED
  5
2B7
  9
$TILEMODE
 70
1
  9
$MEASUREMENT
 70
1
  9
$INSUNITS
 70
4
  0
ENDSEC
  0
SECTION
  2
CLASSES
  0
CLASS
  1
ACDBDICTIONARYWDFLT
  2
AcDbDictionaryWithDefault
  3
AutoCAD 2000
 90
0
 91
1
280
0
281
0
  0
CLASS
  1
ACDBPLACEHOLDER
  2
AcDbPlaceHolder
  3
AutoCAD 2000
 90
0
 91
1
280
0
281
0
  0
CLASS
  1
LAYOUT
  2
AcDbLayout
  3
AutoCAD 2000
 90
0
 91
0
280
0
281
0
  0
ENDSEC
  0
SECTION
  2
TABLES
  0
TABLE
  2
VPORT
  5
8
100
AcDbSymbolTable
 70
2
  0
VPORT
  5
1F4
100
AcDbSymbolTableRecord
100
AcDbViewportTableRecord
  2
*ACTIVE
 70
0
 10
0.0
 20
0.0
 11
1.0
 21
1.0
 12
381.0
 22
317.5
 13
0.0
 23
0.0
 14
1.0
 24
1.0
 15
0.0
 25
0.0
 16
0.0
 26
0.0
 36
1.0
 17
0.0
 27
0.0
 37
0.0
 40
635.0
 41
1.2
 42
50.0
 43
0.0
 44
0.0
 50
0.0
 51
0.0
 71
0
 72
100
 73
1
 74
1
 75
0
 76
0
 77
0
 78
0
  0
ENDTAB
  0
TABLE
  2
LTYPE
  5
5
100
AcDbSymbolTable
 70
6
  0
LTYPE
  5
14
100
AcDbSymbolTableRecord
100
AcDbLinetypeTableRecord
  2
BYBLOCK
 70
0
  3

 72
65
 73
0
 40
0.0
  0
LTYPE
  5
15
100
AcDbSymbolTableRecord
100
AcDbLinetypeTableRecord
  2
BYLAYER
 70
0
  3

 72
65
 73
0
 40
0.0
  0
LTYPE
  5
16
100
AcDbSymbolTableRecord
100
AcDbLinetypeTableRecord
  2
CONTINUOUS
 70
64
  3
Solid line
 72
65
 73
0
 40
0.0
  0
LTYPE
  5
1F5
100
AcDbSymbolTableRecord
100
AcDbLinetypeTableRecord
  2
CENTER
 70
64
  3
____ _ ____ _ ____ _ ____ _ ____ _ ____ _ ____
 72
65
 73
4
 40
0.6
 49
0.375
 74
0
 49
-0.075
 74
0
 49
0.075
 74
0
 49
-0.075
 74
0
  0
LTYPE
  5
1F6
100
AcDbSymbolTableRecord
100
AcDbLinetypeTableRecord
  2
HIDDEN
 70
64
  3
- - - - - - - - - - - - - - - - - - - -
 72
65
 73
2
 40
0.2
 49
0.1
 74
0
 49
-0.1
 74
0
  0
LTYPE
  5
1F7
100
AcDbSymbolTableRecord
100
AcDbLinetypeTableRecord
  2
PHANTOM
 70
64
  3
_____ _ _ _____ _ _ _____ _ _ _____
 72
65
 73
6
 40
0.8
 49
0.45
 74
0
 49
-0.05
 74
0
 49
0.1
 74
0
 49
-0.05
 74
0
 49
0.1
 74
0
 49
-0.05
 74
0
  0
LTYPE
  5
1F8
100
AcDbSymbolTableRecord
100
AcDbLinetypeTableRecord
  2
DOT
 70
64
  3
. . . . . . . . . . . . . . . . . . . .
 72
65
 73
2
 40
0.2
 49
0.1
 74
0
 49
-0.1
 74
0
  0
LTYPE
  5
1F9
100
AcDbSymbolTableRecord
100
AcDbLinetypeTableRecord
  2
DASHED
 70
64
  3
- - - - - - - - - - - - - - - - - - - -
 72
65
 73
2
 40
0.2
 49
0.1
 74
0
 49
-0.1
 74
0
  0
ENDTAB
  0
TABLE
  2
LAYER
  5
2
100
AcDbSymbolTable
 70
36
  0
LAYER
  5
10
100
AcDbSymbolTableRecord
100
AcDbLayerTableRecord
  2
0
 70
0
 62
7
  6
CONTINUOUS
370
-3
390
F
  0
LAYER
  5
1FA
100
AcDbSymbolTableRecord
100
AcDbLayerTableRecord
  2
DEFAULT_1
 70
0
 62
7
  6
CENTER
370
-3
390
F
  0
LAYER
  5
1FB
100
AcDbSymbolTableRecord
100
AcDbLayerTableRecord
  2
DEFAULT_2
 70
0
 62
8
  6
HIDDEN
370
-3
390
F
  0
LAYER
  5
1FC
100
AcDbSymbolTableRecord
100
AcDbLayerTableRecord
  2
DEFAULT_3
 70
0
 62
7
  6
PHANTOM
370
-3
390
F
  0
ENDTAB
  0
TABLE
  2
STYLE
  5
3
100
AcDbSymbolTable
 70
1
  0
STYLE
  5
11
100
AcDbSymbolTableRecord
100
AcDbTextStyleTableRecord
  2
STANDARD
 70
0
 40
0.0
 41
0.8
 50
0.0
 71
0
 42
0.2
  3
txt
  4

  0
STYLE
  5
1FD
100
AcDbSymbolTableRecord
100
AcDbTextStyleTableRecord
  2
TEXTSTYLE_1
 70
0
 40
0.0
 41
0.8
 50
0.0
 71
0
 42
0.2
  3
gdt
  4

  0
ENDTAB
  0
TABLE
  2
VIEW
  5
6
100
AcDbSymbolTable
 70
0
  0
ENDTAB
  0
TABLE
  2
UCS
  5
7
100
AcDbSymbolTable
 70
0
  0
ENDTAB
  0
TABLE
  2
APPID
  5
9
100
AcDbSymbolTable
 70
1
  0
APPID
  5
1FE
100
AcDbSymbolTableRecord
100
AcDbRegAppTableRecord
  2
ACAD
 70
0
  0
ENDTAB
  0
TABLE
  2
BLOCK_RECORD
  5
1
100
AcDbSymbolTable
 70
0
  0
BLOCK_RECORD
  5
1FF
100
AcDbSymbolTableRecord
100
AcDbBlockTableRecord
  2
*Model_Space
  0
BLOCK_RECORD
  5
200
100
AcDbSymbolTableRecord
100
AcDbBlockTableRecord
  2
*Paper_Space
  0
BLOCK_RECORD
  5
201
100
AcDbSymbolTableRecord
100
AcDbBlockTableRecord
  2
_FILLED
  0
BLOCK_RECORD
  5
202
100
AcDbSymbolTableRecord
100
AcDbBlockTableRecord
  2
*D0
  0
BLOCK_RECORD
  5
203
100
AcDbSymbolTableRecord
100
AcDbBlockTableRecord
  2
*D1
  0
BLOCK_RECORD
  5
204
100
AcDbSymbolTableRecord
100
AcDbBlockTableRecord
  2
*D2
  0
BLOCK_RECORD
  5
205
100
AcDbSymbolTableRecord
100
AcDbBlockTableRecord
  2
*D3
  0
BLOCK_RECORD
  5
206
100
AcDbSymbolTableRecord
100
AcDbBlockTableRecord
  2
*D4
  0
BLOCK_RECORD
  5
207
100
AcDbSymbolTableRecord
100
AcDbBlockTableRecord
  2
*D5
  0
BLOCK_RECORD
  5
208
100
AcDbSymbolTableRecord
100
AcDbBlockTableRecord
  2
*D6
  0
BLOCK_RECORD
  5
209
100
AcDbSymbolTableRecord
100
AcDbBlockTableRecord
  2
*D7
  0
ENDTAB
  0
TABLE
  2
DIMSTYLE
  5
A
100
AcDbSymbolTable
 70
1
100
AcDbDimStyleTable
 71
0
  0
DIMSTYLE
105
20A
100
AcDbSymbolTableRecord
100
AcDbDimStyleTableRecord
  2
STANDARD
 70
0
  3

  4

 40
1.0
 41
3.0
 42
0.5
 43
0.38
 44
0.5
 45
0.0
 46
0.0
 47
0.001
 48
0.001
140
1.8
141
0.09
142
0.0
143
25.4
144
1.0
145
0.0
146
1.0
147
0.625
 71
1.0
 72
0.0
 73
0
 74
0
 75
0
 76
0
 77
1
 78
8
170
0
171
2
172
0
173
0
174
0
175
0
176
0
177
0
178
0
270
2
271
3
272
3
273
2
274
2
275
0
280
0
281
0
282
0
283
1
284
8
285
0
286
0
287
3
288
0
340
11
278
46
341
201
342
201
343
201
344
201
  0
DIMSTYLE
105
20B
100
AcDbSymbolTableRecord
100
AcDbDimStyleTableRecord
  2
DIMSTYLE_1
 70
0
  3

  4

 40
1.0
 41
3.0
 42
0.5
 43
0.38
 44
0.5
 45
0.0
 46
0.0
 47
0.5
 48
0.5
140
5.0
141
0.09
142
0.0
143
25.4
144
1.0
145
0.0
146
1.0
147
1.25
 71
0.0
 72
0.0
 73
0
 74
0
 75
0
 76
0
 77
1
 78
8
170
0
171
2
172
0
173
0
174
0
175
0
176
0
177
0
178
0
270
2
271
3
272
3
273
2
274
2
275
0
280
0
281
0
282
0
283
1
284
8
285
0
286
0
287
3
288
0
340
11
278
46
341
201
342
201
343
201
344
201
  0
DIMSTYLE
105
20C
100
AcDbSymbolTableRecord
100
AcDbDimStyleTableRecord
  2
DIMSTYLE_2
 70
0
  3

  4

 40
1.0
 41
3.0
 42
0.5
 43
0.38
 44
0.5
 45
0.0
 46
0.0
 47
0.8
 48
0.8
140
5.0
141
0.09
142
0.0
143
25.4
144
1.0
145
0.0
146
1.0
147
1.25
 71
0.0
 72
0.0
 73
0
 74
0
 75
0
 76
0
 77
1
 78
8
170
0
171
2
172
0
173
0
174
0
175
0
176
0
177
0
178
0
270
2
271
3
272
3
273
2
274
2
275
0
280
0
281
0
282
0
283
1
284
8
285
0
286
0
287
3
288
0
340
11
278
46
341
201
342
201
343
201
344
201
  0
DIMSTYLE
105
20D
100
AcDbSymbolTableRecord
100
AcDbDimStyleTableRecord
  2
DIMSTYLE_3
 70
0
  3

  4

 40
1.0
 41
3.0
 42
0.5
 43
0.38
 44
0.5
 45
0.0
 46
0.0
 47
0.2
 48
0.2
140
5.0
141
0.09
142
0.0
143
25.4
144
1.0
145
0.0
146
1.0
147
0.625
 71
0.0
 72
0.0
 73
0
 74
0
 75
0
 76
0
 77
1
 78
8
170
0
171
2
172
0
173
0
174
0
175
0
176
0
177
0
178
0
270
2
271
3
272
3
273
2
274
2
275
0
280
0
281
0
282
0
283
1
284
8
285
0
286
0
287
3
288
0
340
11
278
46
341
201
342
201
343
201
344
201
  0
ENDTAB
  0
ENDSEC
  0
SECTION
  2
BLOCKS
  0
BLOCK
  5
20
100
AcDbEntity
  8
0
100
AcDbBlockBegin
  2
*Model_Space
 70
0
 10
0.0
 20
0.0
 30
0.0
  3
*Model_Space
  1

  0
ENDBLK
  5
21
100
AcDbEntity
  8
0
100
AcDbBlockEnd
  0
BLOCK
  5
1C
100
AcDbEntity
  8
0
100
AcDbBlockBegin
  2
*Paper_Space
 70
0
 10
0.0
 20
0.0
 30
0.0
  3
*Paper_Space
  1

  0
ENDBLK
  5
1D
100
AcDbEntity
  8
0
100
AcDbBlockEnd
  0
BLOCK
  5
20E
100
AcDbEntity
  8
0
100
AcDbBlockBegin
  2
_FILLED
 70
64
 10
0.0
 20
0.0
  3
_FILLED
  1

  0
SOLID
  5
20F
100
AcDbEntity
  8
0
  6
BYBLOCK
 62
0
100
AcDbTrace
 10
0.0
 20
0.0
 11
-1.0
 21
0.1666666667
 12
-1.0
 22
-0.1666666667
 13
-1.0
 23
-0.1666666667
  0
ENDBLK
  5
210
100
AcDbEntity
  8
0
  6
BYBLOCK
 62
0
100
AcDbBlockEnd
  0
BLOCK
  5
211
100
AcDbEntity
  8
0
100
AcDbBlockBegin
 62
2
  6
CONTINUOUS
  2
*D0
 70
65
 10
0.0
 20
0.0
  3
*D0
  1

  0
LINE
  5
212
100
AcDbEntity
  8
0
100
AcDbLine
 62
2
  6
CONTINUOUS
 10
69.6384683108
 20
518.131225283
 11
69.6384683108
 21
567.1159124635
  0
LINE
  5
213
100
AcDbEntity
  8
0
100
AcDbLine
 62
2
  6
CONTINUOUS
 10
449.6384501493
 20
518.1312071215
 11
449.6384501493
 21
567.1159124635
  0
LINE
  5
214
100
AcDbEntity
  8
0
100
AcDbLine
 62
2
  6
CONTINUOUS
 10
69.6384683108
 20
566.6159124635
 11
259.63845923
 21
566.6159124635
  0
LINE
  5
215
100
AcDbEntity
  8
0
100
AcDbLine
 62
2
  6
CONTINUOUS
 10
449.6384501493
 20
566.6159124635
 11
259.63845923
 21
566.6159124635
  0
INSERT
  5
216
100
AcDbEntity
  8
0
100
AcDbBlockReference
 62
2
  6
CONTINUOUS
  2
_FILLED
 10
69.6384683108
 20
566.6159124635
 41
3.0
 42
3.0
 43
3.0
 50
180.0
  0
INSERT
  5
217
100
AcDbEntity
  8
0
100
AcDbBlockReference
 62
2
  6
CONTINUOUS
  2
_FILLED
 10
449.6384501493
 20
566.6159124635
 41
3.0
 42
3.0
 43
3.0
 50
360.0
  0
ENDBLK
  5
218
100
AcDbEntity
  8
0
  6
BYBLOCK
 62
0
100
AcDbBlockEnd
  0
BLOCK
  5
219
100
AcDbEntity
  8
0
100
AcDbBlockBegin
 62
2
  6
CONTINUOUS
  2
*D1
 70
65
 10
0.0
 20
0.0
  3
*D1
  1

  0
LINE
  5
21A
100
AcDbEntity
  8
0
100
AcDbLine
 62
2
  6
CONTINUOUS
 10
89.6384501493
 20
492.131225283
 11
89.6384501493
 21
543.6287402519
  0
LINE
  5
21B
100
AcDbEntity
  8
0
100
AcDbLine
 62
2
  6
CONTINUOUS
 10
429.6384501493
 20
492.131225283
 11
429.6384501493
 21
543.6287402519
  0
LINE
  5
21C
100
AcDbEntity
  8
0
100
AcDbLine
 62
2
  6
CONTINUOUS
 10
89.6384501493
 20
543.1287402519
 11
259.6384501493
 21
543.1287402519
  0
LINE
  5
21D
100
AcDbEntity
  8
0
100
AcDbLine
 62
2
  6
CONTINUOUS
 10
429.6384501493
 20
543.1287402519
 11
259.6384501493
 21
543.1287402519
  0
INSERT
  5
21E
100
AcDbEntity
  8
0
100
AcDbBlockReference
 62
2
  6
CONTINUOUS
  2
_FILLED
 10
89.6384501493
 20
543.1287402519
 41
3.0
 42
3.0
 43
3.0
 50
180.0
  0
INSERT
  5
21F
100
AcDbEntity
  8
0
100
AcDbBlockReference
 62
2
  6
CONTINUOUS
  2
_FILLED
 10
429.6384501493
 20
543.1287402519
 41
3.0
 42
3.0
 43
3.0
  0
ENDBLK
  5
220
100
AcDbEntity
  8
0
  6
BYBLOCK
 62
0
100
AcDbBlockEnd
  0
BLOCK
  5
221
100
AcDbEntity
  8
0
100
AcDbBlockBegin
 62
2
  6
CONTINUOUS
  2
*D2
 70
65
 10
0.0
 20
0.0
  3
*D2
  1

  0
LINE
  5
222
100
AcDbEntity
  8
0
100
AcDbLine
 62
2
  6
CONTINUOUS
 10
101.1384501493
 20
503.631225283
 11
53.6468478598
 21
503.631225283
  0
LINE
  5
223
100
AcDbEntity
  8
0
100
AcDbLine
 62
2
  6
CONTINUOUS
 10
101.1384501493
 20
103.631225283
 11
53.6468478598
 21
103.631225283
  0
LINE
  5
224
100
AcDbEntity
  8
0
100
AcDbLine
 62
2
  6
CONTINUOUS
 10
54.1468478598
 20
503.631225283
 11
54.1468478598
 21
303.631225283
  0
LINE
  5
225
100
AcDbEntity
  8
0
100
AcDbLine
 62
2
  6
CONTINUOUS
 10
54.1468478598
 20
103.631225283
 11
54.1468478598
 21
303.631225283
  0
INSERT
  5
226
100
AcDbEntity
  8
0
100
AcDbBlockReference
 62
2
  6
CONTINUOUS
  2
_FILLED
 10
54.1468478598
 20
503.631225283
 41
3.0
 42
3.0
 43
3.0
 50
90.0
  0
INSERT
  5
227
100
AcDbEntity
  8
0
100
AcDbBlockReference
 62
2
  6
CONTINUOUS
  2
_FILLED
 10
54.1468478598
 20
103.631225283
 41
3.0
 42
3.0
 43
3.0
 50
270.0
  0
ENDBLK
  5
228
100
AcDbEntity
  8
0
  6
BYBLOCK
 62
0
100
AcDbBlockEnd
  0
BLOCK
  5
229
100
AcDbEntity
  8
0
100
AcDbBlockBegin
 62
2
  6
CONTINUOUS
  2
*D3
 70
65
 10
0.0
 20
0.0
  3
*D3
  1

  0
LINE
  5
22A
100
AcDbEntity
  8
0
100
AcDbLine
 62
2
  6
CONTINUOUS
 10
75.1384683108
 20
523.6312253077
 11
31.6173163175
 21
523.6312274556
  0
LINE
  5
22B
100
AcDbEntity
  8
0
100
AcDbLine
 62
2
  6
CONTINUOUS
 10
75.1384683108
 20
83.6312253077
 11
31.6172946026
 21
83.6312274556
  0
LINE
  5
22C
100
AcDbEntity
  8
0
100
AcDbLine
 62
2
  6
CONTINUOUS
 10
32.1173163175
 20
523.6312274309
 11
32.1173054601
 21
303.6312274309
  0
LINE
  5
22D
100
AcDbEntity
  8
0
100
AcDbLine
 62
2
  6
CONTINUOUS
 10
32.1172946026
 20
83.6312274309
 11
32.1173054601
 21
303.6312274309
  0
INSERT
  5
22E
100
AcDbEntity
  8
0
100
AcDbBlockReference
 62
2
  6
CONTINUOUS
  2
_FILLED
 10
32.1173163175
 20
523.6312274309
 41
3.0
 42
3.0
 43
3.0
 50
89.9999971723
  0
INSERT
  5
22F
100
AcDbEntity
  8
0
100
AcDbBlockReference
 62
2
  6
CONTINUOUS
  2
_FILLED
 10
32.1172946026
 20
83.6312274309
 41
3.0
 42
3.0
 43
3.0
 50
269.9999971723
  0
ENDBLK
  5
230
100
AcDbEntity
  8
0
  6
BYBLOCK
 62
0
100
AcDbBlockEnd
  0
BLOCK
  5
231
100
AcDbEntity
  8
0
100
AcDbBlockBegin
 62
2
  6
CONTINUOUS
  2
*D4
 70
65
 10
0.0
 20
0.0
  3
*D4
  1

  0
LINE
  5
232
100
AcDbEntity
  8
0
100
AcDbLine
 62
2
  6
CONTINUOUS
 10
444.1384501493
 20
523.6312070968
 11
473.4336851755
 21
523.6312056511
  0
LINE
  5
233
100
AcDbEntity
  8
0
100
AcDbLine
 62
2
  6
CONTINUOUS
 10
261.8148501493
 20
383.6312251756
 11
473.4336782662
 21
383.6312147318
  0
LINE
  5
234
100
AcDbEntity
  8
0
100
AcDbLine
 62
2
  6
CONTINUOUS
 10
472.9336851755
 20
523.6312056757
 11
472.9336817208
 21
453.6312102161
  0
LINE
  5
235
100
AcDbEntity
  8
0
100
AcDbLine
 62
2
  6
CONTINUOUS
 10
472.9336782662
 20
383.6312147565
 11
472.9336817208
 21
453.6312102161
  0
INSERT
  5
236
100
AcDbEntity
  8
0
100
AcDbBlockReference
 62
2
  6
CONTINUOUS
  2
_FILLED
 10
472.9336851755
 20
523.6312056757
 41
3.0
 42
3.0
 43
3.0
 50
89.9999971723
  0
INSERT
  5
237
100
AcDbEntity
  8
0
100
AcDbBlockReference
 62
2
  6
CONTINUOUS
  2
_FILLED
 10
472.9336782662
 20
383.6312147565
 41
3.0
 42
3.0
 43
3.0
 50
269.9999971723
  0
ENDBLK
  5
238
100
AcDbEntity
  8
0
  6
BYBLOCK
 62
0
100
AcDbBlockEnd
  0
BLOCK
  5
239
100
AcDbEntity
  8
0
100
AcDbBlockBegin
 62
2
  6
CONTINUOUS
  2
*D5
 70
65
 10
0.0
 20
0.0
  3
*D5
  1

  0
LINE
  5
23A
100
AcDbEntity
  8
0
100
AcDbLine
 62
2
  6
CONTINUOUS
 10
449.6384319665
 20
89.131225283
 11
449.6384304657
 21
53.76255898
  0
LINE
  5
23B
100
AcDbEntity
  8
0
100
AcDbLine
 62
2
  6
CONTINUOUS
 10
259.638450044
 20
381.150025283
 11
259.6384361518
 21
53.7625670424
  0
LINE
  5
23C
100
AcDbEntity
  8
0
100
AcDbLine
 62
2
  6
CONTINUOUS
 10
449.6384304869
 20
54.26255898
 11
354.63843333
 21
54.2625630112
  0
LINE
  5
23D
100
AcDbEntity
  8
0
100
AcDbLine
 62
2
  6
CONTINUOUS
 10
259.638436173
 20
54.2625670424
 11
354.63843333
 21
54.2625630112
  0
INSERT
  5
23E
100
AcDbEntity
  8
0
100
AcDbBlockReference
 62
2
  6
CONTINUOUS
  2
_FILLED
 10
449.6384304869
 20
54.26255898
 41
3.0
 42
3.0
 43
3.0
 50
359.9999975687
  0
INSERT
  5
23F
100
AcDbEntity
  8
0
100
AcDbBlockReference
 62
2
  6
CONTINUOUS
  2
_FILLED
 10
259.638436173
 20
54.2625670424
 41
3.0
 42
3.0
 43
3.0
 50
179.9999975687
  0
ENDBLK
  5
240
100
AcDbEntity
  8
0
  6
BYBLOCK
 62
0
100
AcDbBlockEnd
  0
BLOCK
  5
241
100
AcDbEntity
  8
0
100
AcDbBlockBegin
 62
2
  6
CONTINUOUS
  2
*D6
 70
65
 10
0.0
 20
0.0
  3
*D6
  1

  0
LINE
  5
242
100
AcDbEntity
  8
0
100
AcDbLine
 62
2
  6
CONTINUOUS
 10
731.3354159578
 20
83.131225283
 11
731.3354159578
 21
55.6412796526
  0
LINE
  5
243
100
AcDbEntity
  8
0
100
AcDbLine
 62
2
  6
CONTINUOUS
 10
530.5354159578
 20
118.131225283
 11
530.5354159578
 21
55.6412796526
  0
LINE
  5
244
100
AcDbEntity
  8
0
100
AcDbLine
 62
2
  6
CONTINUOUS
 10
731.3354159578
 20
56.1412796526
 11
630.9354159578
 21
56.1412796526
  0
LINE
  5
245
100
AcDbEntity
  8
0
100
AcDbLine
 62
2
  6
CONTINUOUS
 10
530.5354159578
 20
56.1412796526
 11
630.9354159578
 21
56.1412796526
  0
INSERT
  5
246
100
AcDbEntity
  8
0
100
AcDbBlockReference
 62
2
  6
CONTINUOUS
  2
_FILLED
 10
731.3354159578
 20
56.1412796526
 41
3.0
 42
3.0
 43
3.0
  0
INSERT
  5
247
100
AcDbEntity
  8
0
100
AcDbBlockReference
 62
2
  6
CONTINUOUS
  2
_FILLED
 10
530.5354159578
 20
56.1412796526
 41
3.0
 42
3.0
 43
3.0
 50
180.0
  0
ENDBLK
  5
248
100
AcDbEntity
  8
0
  6
BYBLOCK
 62
0
100
AcDbBlockEnd
  0
BLOCK
  5
249
100
AcDbEntity
  8
0
100
AcDbBlockBegin
 62
2
  6
CONTINUOUS
  2
*D7
 70
65
 10
0.0
 20
0.0
  3
*D7
  1

  0
LINE
  5
24A
100
AcDbEntity
  8
0
100
AcDbLine
 62
2
  6
CONTINUOUS
 10
426.8534916664
 20
499.3177726118
 11
388.149855607
 21
467.0338887233
  0
INSERT
  5
24B
100
AcDbEntity
  8
0
100
AcDbBlockReference
 62
2
  6
CONTINUOUS
  2
_FILLED
 10
426.8534916664
 20
499.3177726118
 41
3.0
 42
3.0
 43
3.0
 50
39.8325163581
  0
ENDBLK
  5
24C
100
AcDbEntity
  8
0
  6
BYBLOCK
 62
0
100
AcDbBlockEnd
  0
ENDSEC
  0
SECTION
  2
ENTITIES
  0
DIMENSION
  5
24D
100
AcDbEntity
  8
0
100
AcDbDimension
 62
2
  6
CONTINUOUS
  2
*D0
 10
449.6384501493
 20
566.6159124635
 11
251.9241735157
 21
566.6159124635
 70
160
 71
2
 42
379.9999818385
  3
DIMSTYLE_1
100
AcDbAlignedDimension
 13
69.6384683108
 23
517.631225283
 14
449.6384501493
 24
517.6312071215
100
AcDbRotatedDimension
  0
DIMENSION
  5
24E
100
AcDbEntity
  8
0
100
AcDbDimension
 62
2
  6
CONTINUOUS
  2
*D1
 10
429.6384501493
 20
543.1287402519
 11
251.924164435
 21
543.1287402519
 70
160
 71
2
 42
340.0
  3
DIMSTYLE_1
100
AcDbAlignedDimension
 13
89.6384501493
 23
491.631225283
 14
429.6384501493
 24
491.631225283
100
AcDbRotatedDimension
  0
DIMENSION
  5
24F
100
AcDbEntity
  8
0
100
AcDbDimension
 62
2
  6
CONTINUOUS
  2
*D2
 10
54.1468478598
 20
103.631225283
 11
54.1468478598
 21
295.9169395687
 70
160
 71
2
 42
400.0
  3
DIMSTYLE_1
100
AcDbAlignedDimension
 13
101.6384501493
 23
503.631225283
 14
101.6384501493
 24
103.631225283
 50
270.0
100
AcDbRotatedDimension
  0
DIMENSION
  5
250
100
AcDbEntity
  8
0
100
AcDbDimension
 62
2
  6
CONTINUOUS
  2
*D3
 10
32.1172946026
 20
83.6312274309
 11
32.1173050794
 21
295.9169416108
 70
160
 71
2
 42
440.0
  3
DIMSTYLE_2
100
AcDbAlignedDimension
 13
75.6384683108
 23
523.631225283
 14
75.6384683108
 24
83.631225283
 50
269.9999971723
100
AcDbRotatedDimension
  0
DIMENSION
  5
251
100
AcDbEntity
  8
0
100
AcDbDimension
 62
2
  6
CONTINUOUS
  2
*D4
 10
472.9336782662
 20
383.6312147565
 11
472.9336813401
 21
445.9169243961
 70
160
 71
2
 42
139.9999909192
  3
DIMSTYLE_1
100
AcDbAlignedDimension
 13
443.6384501493
 23
523.6312071215
 14
261.3148501493
 24
383.6312252003
 50
269.9999971723
100
AcDbRotatedDimension
  0
DIMENSION
  5
252
100
AcDbEntity
  8
0
100
AcDbDimension
 62
2
  6
CONTINUOUS
  2
*D5
 10
259.638436173
 20
54.2625670424
 11
346.9241475248
 21
54.2625633385
 70
160
 71
2
 42
189.9999943139
  3
DIMSTYLE_1
100
AcDbAlignedDimension
 13
449.6384319878
 23
89.631225283
 14
259.6384500652
 24
381.650025283
 50
179.9999975687
100
AcDbRotatedDimension
  0
DIMENSION
  5
253
100
AcDbEntity
  8
0
100
AcDbDimension
 62
2
  6
CONTINUOUS
  2
*D6
 10
530.5354159578
 20
56.1412796526
 11
623.2211302436
 21
56.1412796526
 70
160
 71
2
 42
200.8
  3
DIMSTYLE_1
100
AcDbAlignedDimension
 13
731.3354159578
 23
83.631225283
 14
530.5354159578
 24
118.631225283
 50
180.0
100
AcDbRotatedDimension
  0
DIMENSION
  5
254
100
AcDbEntity
  8
0
100
AcDbDimension
 62
2
  6
CONTINUOUS
  2
*D7
 10
417.6384501493
 20
491.631225283
 11
386.7772578697
 21
468.6794318514
 70
164
 71
3
 42
12.0
  1
<>
  3
DIMSTYLE_3
100
AcDbRadialDimension
 15
426.8534916664
 25
499.3177726118
  0
LINE
  5
255
100
AcDbEntity
  8
0
100
AcDbLine
 62
7
  6
CONTINUOUS
 10
69.6384683108
 20
89.631225283
 11
69.6384683108
 21
517.631225283
  0
LINE
  5
256
100
AcDbEntity
  8
0
100
AcDbLine
 62
7
  6
CONTINUOUS
 10
89.6384501493
 20
115.631225283
 11
89.6384501493
 21
491.631225283
  0
LINE
  5
257
100
AcDbEntity
  8
0
100
AcDbLine
 62
7
  6
CONTINUOUS
 10
75.6384683108
 20
83.631225283
 11
443.6384319878
 21
83.631225283
  0
LINE
  5
258
100
AcDbEntity
  8
0
100
AcDbLine
 62
7
  6
CONTINUOUS
 10
730.3354159578
 20
83.631225283
 11
731.3354159578
 21
83.631225283
  0
LINE
  5
259
100
AcDbEntity
  8
0
100
AcDbLine
 62
7
  6
CONTINUOUS
 10
546.3354159578
 20
102.831225283
 11
729.5354159578
 21
102.831225283
  0
LINE
  5
25A
100
AcDbEntity
  8
0
100
AcDbLine
 62
7
  6
CONTINUOUS
 10
417.6384501493
 20
103.631225283
 11
101.6384501493
 21
103.631225283
  0
LINE
  5
25B
100
AcDbEntity
  8
0
100
AcDbLine
 62
7
  6
CONTINUOUS
 10
731.3354159578
 20
123.4682071215
 11
730.3354159578
 21
123.4682071215
  0
LWPOLYLINE
  5
25C
100
AcDbEntity
  8
0
100
AcDbPolyline
 62
2
  6
CONTINUOUS
 90
25
 70
0
 43
0.2500000019
 10
262.2098787231
 20
575.1873408203
 10
262.3527537231
 20
576.1397012939
 10
262.4956054688
 20
576.6159047852
 10
262.78130896
 20
577.0921082764
 10
263.0670357056
 20
577.3301867676
 10
263.6384659424
 20
577.5683117676
 10
264.2098961792
 20
577.5683117676
 10
264.781326416
 20
577.3301867676
 10
265.0670299072
 20
577.0921082764
 10
265.3527333984
 20
576.6159047852
 10
265.4956083984
 20
576.1397012939
 10
265.638460144
 20
575.1873408203
 10
265.638460144
 20
571.139727417
 10
265.4956083984
 20
570.1873204346
 10
265.3527333984
 20
569.7111634521
 10
265.0670299072
 20
569.2349599609
 10
264.781326416
 20
568.9968814697
 10
264.2098961792
 20
568.7587564697
 10
263.6384659424
 20
568.7587564697
 10
263.0670357056
 20
568.9968814697
 10
262.78130896
 20
569.2349599609
 10
262.4956054688
 20
569.7111634521
 10
262.3527537231
 20
570.1873204346
 10
262.2098787231
 20
571.139727417
 10
262.2098787231
 20
575.1873408203
  0
LWPOLYLINE
  5
25D
100
AcDbEntity
  8
0
100
AcDbPolyline
 62
2
  6
CONTINUOUS
 90
25
 70
0
 43
0.2500000019
 10
262.2098787231
 20
551.7001697998
 10
262.3527304687
 20
552.6525302734
 10
262.4955822144
 20
553.1287337646
 10
262.78130896
 20
553.6049372559
 10
263.0670124512
 20
553.8430157471
 10
263.638442688
 20
554.0811407471
 10
264.2098729248
 20
554.0811407471
 10
264.7813031616
 20
553.8430157471
 10
265.0670299072
 20
553.6049372559
 10
265.3527333984
 20
553.1287337646
 10
265.495585144
 20
552.6525302734
 10
265.638460144
 20
551.7001697998
 10
265.638460144
 20
547.6525563965
 10
265.495585144
 20
546.7001494141
 10
265.3527333984
 20
546.2239924316
 10
265.0670299072
 20
545.7477889404
 10
264.7813031616
 20
545.5097104492
 10
264.2098729248
 20
545.2715854492
 10
263.638442688
 20
545.2715854492
 10
263.0670124512
 20
545.5097104492
 10
262.78130896
 20
545.7477889404
 10
262.4955822144
 20
546.2239924316
 10
262.3527304687
 20
546.7001494141
 10
262.2098787231
 20
547.6525563965
 10
262.2098787231
 20
551.7001697998
  0
LWPOLYLINE
  5
25E
100
AcDbEntity
  8
0
100
AcDbPolyline
 62
2
  6
CONTINUOUS
 90
4
 70
0
 43
0.2500000019
 10
259.9241577759
 20
545.2715854492
 10
259.9241577759
 20
554.0811407471
 10
257.0670298462
 20
547.4144313965
 10
260.4955880127
 20
547.4144313965
  0
LWPOLYLINE
  5
25F
100
AcDbEntity
  8
0
100
AcDbPolyline
 62
2
  6
CONTINUOUS
 90
11
 70
0
 43
0.2500000019
 10
352.0669985962
 20
58.0720851898
 10
352.3527253418
 20
57.3578032074
 10
352.638428833
 20
56.8816113434
 10
352.9241555786
 20
56.6435154114
 10
353.4955858154
 20
56.4054194794
 10
354.0670160522
 20
56.4054194794
 10
354.6384230347
 20
56.6435154114
 10
354.9241497803
 20
56.8816113434
 10
355.2098532715
 20
57.3578032074
 10
355.3527282715
 20
57.8339892578
 10
355.4955800171
 20
58.7863729858
  0
LWPOLYLINE
  5
260
100
AcDbEntity
  8
0
100
AcDbPolyline
 62
2
  6
CONTINUOUS
 90
25
 70
0
 43
0.2500000019
 10
45.5754187088
 20
301.0597941895
 10
44.6230378876
 20
301.2026459351
 10
44.1468489304
 20
301.3455209351
 10
43.6706570663
 20
301.6312244263
 10
43.4325611343
 20
301.9169511719
 10
43.1944681091
 20
302.4883581543
 10
43.1944681091
 20
303.0597883911
 10
43.4325611343
 20
303.6312186279
 10
43.6706570663
 20
303.9169453735
 10
44.1468489304
 20
304.2026488647
 10
44.6230378876
 20
304.3455006104
 10
45.5754187088
 20
304.4883756104
 10
49.6230408325
 20
304.4883756104
 10
50.5754187469
 20
304.3455006104
 10
51.051610611
 20
304.2026488647
 10
51.527802475
 20
303.9169453735
 10
51.7658925934
 20
303.6312186279
 10
52.0039885254
 20
303.0597883911
 10
52.0039885254
 20
302.4883581543
 10
51.7658925934
 20
301.9169511719
 10
51.527802475
 20
301.6312244263
 10
51.051610611
 20
301.3455209351
 10
50.5754187469
 20
301.2026459351
 10
49.6230408325
 20
301.0597941895
 10
45.5754187088
 20
301.0597941895
  0
LWPOLYLINE
  5
261
100
AcDbEntity
  8
0
100
AcDbPolyline
 62
2
  6
CONTINUOUS
 90
25
 70
0
 43
0.2500000019
 10
23.5458767395
 20
306.2026663208
 10
22.5934959183
 20
306.3455180664
 10
22.1173055077
 20
306.488369812
 10
21.641115097
 20
306.7740733032
 10
21.403019165
 20
307.0598000488
 10
21.1649246864
 20
307.6312302856
 10
21.1649246864
 20
308.2026605225
 10
21.403019165
 20
308.7740907593
 10
21.641115097
 20
309.0597942505
 10
22.1173055077
 20
309.3455209961
 10
22.5934959183
 20
309.4883727417
 10
23.5458767395
 20
309.6312244873
 10
27.5934959564
 20
309.6312244873
 10
28.5458767776
 20
309.4883727417
 10
29.0220686417
 20
309.3455209961
 10
29.4982575989
 20
309.0597942505
 10
29.7363535309
 20
308.7740907593
 10
29.9744494629
 20
308.2026605225
 10
29.9744494629
 20
307.6312302856
 10
29.7363535309
 20
307.0598000488
 10
29.4982575989
 20
306.7740733032
 10
29.0220686417
 20
306.488369812
 10
28.5458767776
 20
306.3455180664
 10
27.5934959564
 20
306.2026663208
 10
23.5458767395
 20
306.2026663208
  0
LWPOLYLINE
  5
262
100
AcDbEntity
  8
0
100
AcDbPolyline
 62
2
  6
CONTINUOUS
 90
25
 70
0
 43
0.2500000019
 10
45.5754187088
 20
306.2026430664
 10
44.6230378876
 20
306.3455180664
 10
44.1468489304
 20
306.488369812
 10
43.6706570663
 20
306.7740733032
 10
43.4325611343
 20
307.0598000488
 10
43.1944681091
 20
307.6312302856
 10
43.1944681091
 20
308.2026605225
 10
43.4325611343
 20
308.7740907593
 10
43.6706570663
 20
309.0597942505
 10
44.1468489304
 20
309.3455209961
 10
44.6230378876
 20
309.4883727417
 10
45.5754187088
 20
309.6312244873
 10
49.6230408325
 20
309.6312244873
 10
50.5754187469
 20
309.4883727417
 10
51.051610611
 20
309.3455209961
 10
51.527802475
 20
309.0597942505
 10
51.7658925934
 20
308.7740907593
 10
52.0039885254
 20
308.2026605225
 10
52.0039885254
 20
307.6312302856
 10
51.7658925934
 20
307.0598000488
 10
51.527802475
 20
306.7740733032
 10
51.051610611
 20
306.488369812
 10
50.5754187469
 20
306.3455180664
 10
49.6230408325
 20
306.2026430664
 10
45.5754187088
 20
306.2026430664
  0
LWPOLYLINE
  5
263
100
AcDbEntity
  8
0
100
AcDbPolyline
 62
2
  6
CONTINUOUS
 90
25
 70
0
 43
0.2500000019
 10
355.4955800171
 20
58.7863729858
 10
355.4955800171
 20
63.0720881348
 10
355.3527282715
 20
63.7863701172
 10
355.2098532715
 20
64.2625619812
 10
354.9241497803
 20
64.7387538452
 10
354.6384230347
 20
64.9768497772
 10
354.0670160522
 20
65.2149457092
 10
353.4955858154
 20
65.2149457092
 10
352.9241555786
 20
64.9768497772
 10
352.638428833
 20
64.7387538452
 10
352.3527253418
 20
64.2625619812
 10
352.2098503418
 20
63.7863701172
 10
352.0669985962
 20
63.0720881348
 10
352.0669985962
 20
62.1197044067
 10
352.2098503418
 20
61.4054224243
 10
352.3527253418
 20
60.9292305603
 10
352.638428833
 20
60.4530386963
 10
352.9241555786
 20
60.2149427643
 10
353.4955858154
 20
59.9768468323
 10
354.0670160522
 20
59.9768468323
 10
354.6384230347
 20
60.2149427643
 10
354.9241497803
 20
60.4530386963
 10
355.2098532715
 20
60.9292305603
 10
355.3527282715
 20
61.4054224243
 10
355.4955800171
 20
62.1197044067
  0
LWPOLYLINE
  5
264
100
AcDbEntity
  8
0
100
AcDbPolyline
 62
2
  6
CONTINUOUS
 90
4
 70
0
 43
0.2500000019
 10
52.0039885254
 20
298.7740732422
 10
43.1944681091
 20
298.7740732422
 10
49.8611309509
 20
295.9169453125
 10
49.8611309509
 20
299.345503479
  0
LWPOLYLINE
  5
265
100
AcDbEntity
  8
0
100
AcDbPolyline
 62
2
  6
CONTINUOUS
 90
4
 70
0
 43
0.2500000019
 10
29.9744494629
 20
298.7740732422
 10
21.1649246864
 20
298.7740732422
 10
27.8315918884
 20
295.9169453125
 10
27.8315918884
 20
299.345503479
  0
LWPOLYLINE
  5
266
100
AcDbEntity
  8
0
100
AcDbPolyline
 62
2
  6
CONTINUOUS
 90
4
 70
0
 43
0.2500000019
 10
29.9744494629
 20
303.9169453735
 10
21.1649246864
 20
303.9169453735
 10
27.8315918884
 20
301.0597941895
 10
27.8315918884
 20
304.4883756104
  0
LWPOLYLINE
  5
267
100
AcDbEntity
  8
0
100
AcDbPolyline
 62
2
  6
CONTINUOUS
 90
25
 70
0
 43
0.2500000019
 10
357.2098707275
 20
62.8339922028
 10
357.3527224731
 20
63.7863701172
 10
357.4955742187
 20
64.2625619812
 10
357.7813009644
 20
64.7387538452
 10
358.0670044556
 20
64.9768497772
 10
358.6384346924
 20
65.2149457092
 10
359.2098649292
 20
65.2149457092
 10
359.781295166
 20
64.9768497772
 10
360.0669986572
 20
64.7387538452
 10
360.3527254028
 20
64.2625619812
 10
360.4955771484
 20
63.7863701172
 10
360.638428894
 20
62.8339922028
 10
360.638428894
 20
58.7863729858
 10
360.4955771484
 20
57.8339892578
 10
360.3527254028
 20
57.3578032074
 10
360.0669986572
 20
56.8816113434
 10
359.781295166
 20
56.6435154114
 10
359.2098649292
 20
56.4054194794
 10
358.6384346924
 20
56.4054194794
 10
358.0670044556
 20
56.6435154114
 10
357.7813009644
 20
56.8816113434
 10
357.4955742187
 20
57.3578032074
 10
357.3527224731
 20
57.8339892578
 10
357.2098707275
 20
58.7863729858
 10
357.2098707275
 20
62.8339922028
  0
LINE
  5
268
100
AcDbEntity
  8
0
100
AcDbLine
 62
7
  6
CONTINUOUS
 10
429.6384501493
 20
491.631225283
 11
429.6384501493
 21
115.631225283
  0
LWPOLYLINE
  5
269
100
AcDbEntity
  8
0
100
AcDbPolyline
 62
2
  6
CONTINUOUS
 90
3
 70
0
 43
0.2500000019
 10
348.2098619385
 20
63.7863701172
 10
348.6384404297
 20
64.9768497772
 10
348.6384404297
 20
56.4054194794
  0
LINE
  5
26A
100
AcDbEntity
  8
0
100
AcDbLine
 62
7
  6
CONTINUOUS
 10
523.2362516412
 20
441.6819993575
 11
525.4558648316
 21
445.2333804621
  0
LINE
  5
26B
100
AcDbEntity
  8
0
100
AcDbLine
 62
7
  6
CONTINUOUS
 10
449.6384319878
 20
89.631225283
 11
449.6384501493
 21
517.6312071215
  0
LINE
  5
26C
100
AcDbEntity
  8
0
100
AcDbLine
 62
7
  6
CONTINUOUS
 10
525.6094324886
 20
445.5451095371
 11
525.4896186065
 21
445.2895746599
  0
LINE
  5
26D
100
AcDbEntity
  8
0
100
AcDbLine
 62
7
  6
CONTINUOUS
 10
525.4896186065
 20
445.2895746599
 11
525.4572301338
 21
445.2355513266
  0
LWPOLYLINE
  5
26E
100
AcDbEntity
  8
0
100
AcDbPolyline
 62
2
  6
CONTINUOUS
 90
17
 70
0
 43
0.2500000019
 10
390.2530631104
 20
480.5701859131
 10
389.8624125366
 20
481.4845952148
 10
389.776789856
 20
482.0332593994
 10
389.843692749
 20
482.3990975342
 10
390.1300008545
 20
482.9479942627
 10
390.5688112793
 20
483.3140184326
 10
391.1601240234
 20
483.4971700439
 10
391.5320548096
 20
483.4973560791
 10
392.056487915
 20
483.3147160645
 10
392.4712067871
 20
483.0405467529
 10
393.0384279785
 20
482.5835048828
 10
393.1909302979
 20
482.400678833
 10
393.5387695313
 20
481.7606713867
 10
394.1327332764
 20
476.36509375
 10
394.3280236816
 20
475.9079123535
 10
394.675862915
 20
475.2679049072
 10
397.3087254639
 20
477.4640499268
  0
LWPOLYLINE
  5
26F
100
AcDbEntity
  8
0
100
AcDbPolyline
 62
2
  6
CONTINUOUS
 90
3
 70
0
 43
0.2500000019
 10
386.9860532227
 20
478.4651981201
 10
386.552614563
 20
479.6539162598
 10
392.0430003662
 20
473.0717598877
  0
LINE
  5
270
100
AcDbEntity
  8
0
100
AcDbLine
 62
7
  6
CONTINUOUS
 10
519.7133103914
 20
428.8382805191
 11
523.0239821011
 21
441.1938755467
  0
LINE
  5
271
100
AcDbEntity
  8
0
100
AcDbLine
 62
7
  6
CONTINUOUS
 10
525.6592927037
 20
445.7025231802
 11
525.6094324886
 21
445.5451095371
  0
LWPOLYLINE
  5
272
100
AcDbEntity
  8
0
100
AcDbPolyline
 62
2
  6
CONTINUOUS
 90
13
 70
0
 43
0.2500000019
 10
386.7772520142
 20
468.6794233398
 10
381.2868662109
 20
475.2616262207
 10
383.0421079102
 20
476.7257229004
 10
383.6334439087
 20
476.9088745117
 10
384.0053514404
 20
476.9090605469
 10
384.2675679932
 20
476.8177172852
 10
384.834812439
 20
476.3607219238
 10
385.4448449707
 20
475.6293712158
 10
385.7926842041
 20
474.9893637695
 10
385.83547229
 20
474.7150084229
 10
385.7685926514
 20
474.3491702881
 10
385.4822845459
 20
473.8003200684
 10
383.7270428467
 20
472.3361768799
  0
LINE
  5
273
100
AcDbEntity
  8
0
100
AcDbLine
 62
7
  6
CONTINUOUS
 10
530.0386731483
 20
470.844269459
 11
529.3390567267
 21
464.3393539114
  0
LINE
  5
274
100
AcDbEntity
  8
0
100
AcDbLine
 62
7
  6
CONTINUOUS
 10
529.3390567267
 20
464.3393539114
 11
528.3283651616
 21
457.7867653886
  0
LINE
  5
275
100
AcDbEntity
  8
0
100
AcDbLine
 62
7
  6
CONTINUOUS
 10
528.3283651616
 20
457.7867653886
 11
527.0048165165
 21
451.2081741275
  0
LINE
  5
276
100
AcDbEntity
  8
0
100
AcDbLine
 62
7
  6
CONTINUOUS
 10
527.0048165165
 20
451.2081741275
 11
525.6593270401
 21
445.7025133642
  0
LWPOLYLINE
  5
277
100
AcDbEntity
  8
0
100
AcDbPolyline
 62
2
  6
CONTINUOUS
 90
4
 70
0
 43
0.2500000019
 10
470.7908448486
 20
453.9169290771
 10
461.9812895508
 20
453.9169290771
 10
468.6479523926
 20
451.0598011475
 10
468.6479523926
 20
454.4883360596
  0
LWPOLYLINE
  5
278
100
AcDbEntity
  8
0
100
AcDbPolyline
 62
2
  6
CONTINUOUS
 90
2
 70
0
 43
0.2500000019
 10
385.2628793335
 20
473.6173079834
 10
389.4101378174
 20
470.8755683594
  0
LINE
  5
279
100
AcDbEntity
  8
0
100
AcDbLine
 62
7
  6
CONTINUOUS
 10
523.2362516412
 20
325.5804512086
 11
525.3127154256
 21
322.2581091534
  0
LINE
  5
27A
100
AcDbEntity
  8
0
100
AcDbLine
 62
7
  6
CONTINUOUS
 10
525.3129730158
 20
322.2576970151
 11
525.3303363042
 21
322.2293009808
  0
LINE
  5
27B
100
AcDbEntity
  8
0
100
AcDbLine
 62
7
  6
CONTINUOUS
 10
525.3303363042
 20
322.2293009808
 11
525.3624110201
 21
322.1732857796
  0
LINE
  5
27C
100
AcDbEntity
  8
0
100
AcDbLine
 62
7
  6
CONTINUOUS
 10
525.3624110201
 20
322.1732857796
 11
525.3918329026
 21
322.1171003553
  0
LINE
  5
27D
100
AcDbEntity
  8
0
100
AcDbLine
 62
7
  6
CONTINUOUS
 10
525.3918329026
 20
322.1171003553
 11
525.4186660925
 21
322.0608955622
  0
LINE
  5
27E
100
AcDbEntity
  8
0
100
AcDbLine
 62
7
  6
CONTINUOUS
 10
525.4186660925
 20
322.0608955622
 11
525.4429806662
 21
322.0048179831
  0
LINE
  5
27F
100
AcDbEntity
  8
0
100
AcDbLine
 62
7
  6
CONTINUOUS
 10
525.4429806662
 20
322.0048179831
 11
525.4648549275
 21
321.9490032849
  0
LINE
  5
280
100
AcDbEntity
  8
0
100
AcDbLine
 62
7
  6
CONTINUOUS
 10
525.562229527
 20
321.5328067123
 11
525.5662565723
 21
321.4885300796
  0
LINE
  5
281
100
AcDbEntity
  8
0
100
AcDbLine
 62
7
  6
CONTINUOUS
 10
525.5662565723
 20
321.4885300796
 11
525.5692151674
 21
321.4423831012
  0
LINE
  5
282
100
AcDbEntity
  8
0
100
AcDbLine
 62
7
  6
CONTINUOUS
 10
525.5692153219
 20
321.4423831055
 11
527.0576808687
 21
289.3282782626
  0
LINE
  5
283
100
AcDbEntity
  8
0
100
AcDbLine
 62
7
  6
CONTINUOUS
 10
527.0576808687
 20
289.3282782626
 11
528.3168345203
 21
256.1765044642
  0
LINE
  5
284
100
AcDbEntity
  8
0
100
AcDbLine
 62
7
  6
CONTINUOUS
 10
528.3168345203
 20
256.1765044642
 11
529.2941715106
 21
223.0246880952
  0
LINE
  5
285
100
AcDbEntity
  8
0
100
AcDbLine
 62
7
  6
CONTINUOUS
 10
529.2941715106
 20
223.0246880952
 11
529.9896306257
 21
189.8764195517
  0
LINE
  5
286
100
AcDbEntity
  8
0
100
AcDbLine
 62
7
  6
CONTINUOUS
 10
529.9896306257
 20
189.8764195517
 11
530.4032727674
 21
156.7352892292
  0
LINE
  5
287
100
AcDbEntity
  8
0
100
AcDbLine
 62
7
  6
CONTINUOUS
 10
530.4032727674
 20
156.7352892292
 11
530.5148358606
 21
129.6311405735
  0
LINE
  5
288
100
AcDbEntity
  8
0
100
AcDbLine
 62
7
  6
CONTINUOUS
 10
519.7133103914
 20
338.424170047
 11
519.7133103914
 21
428.8382805191
  0
LINE
  5
289
100
AcDbEntity
  8
0
100
AcDbLine
 62
7
  6
CONTINUOUS
 10
530.5354159578
 20
488.631225283
 11
530.5354159578
 21
118.631225283
  0
LINE
  5
28A
100
AcDbEntity
  8
0
100
AcDbLine
 62
7
  6
CONTINUOUS
 10
530.4397891739
 20
477.6330548489
 11
530.433031363
 21
477.2798411436
  0
LINE
  5
28B
100
AcDbEntity
  8
0
100
AcDbLine
 62
7
  6
CONTINUOUS
 10
530.433031363
 20
477.2798411436
 11
530.0386731483
 21
470.844269459
  0
LWPOLYLINE
  5
28C
100
AcDbEntity
  8
0
100
AcDbPolyline
 62
2
  6
CONTINUOUS
 90
25
 70
0
 43
0.2500000019
 10
464.362260498
 20
456.2026500244
 10
463.4098535156
 20
456.3454785156
 10
462.9336965332
 20
456.4883535156
 10
462.457493042
 20
456.7740570068
 10
462.2194145508
 20
457.059760498
 10
461.9812895508
 20
457.6312139893
 10
461.9812895508
 20
458.2026209717
 10
462.2194145508
 20
458.7740744629
 10
462.457493042
 20
459.0597779541
 10
462.9336965332
 20
459.3454814453
 10
463.4098535156
 20
459.4883564453
 10
464.362260498
 20
459.6312314453
 10
468.4098739014
 20
459.6312314453
 10
469.362234375
 20
459.4883564453
 10
469.8384378662
 20
459.3454814453
 10
470.3146413574
 20
459.0597779541
 10
470.5527198486
 20
458.7740744629
 10
470.7908448486
 20
458.2026209717
 10
470.7908448486
 20
457.6312139893
 10
470.5527198486
 20
457.059760498
 10
470.3146413574
 20
456.7740570068
 10
469.8384378662
 20
456.4883535156
 10
469.362234375
 20
456.3454785156
 10
468.4098739014
 20
456.2026500244
 10
464.362260498
 20
456.2026500244
  0
LWPOLYLINE
  5
28D
100
AcDbEntity
  8
0
100
AcDbPolyline
 62
2
  6
CONTINUOUS
 90
3
 70
0
 43
0.2500000019
 10
463.4098535156
 20
447.2026412354
 10
462.2194145508
 20
447.6312197266
 10
470.7908448486
 20
447.6312197266
  0
LINE
  5
28E
100
AcDbEntity
  8
0
100
AcDbLine
 62
7
  6
CONTINUOUS
 10
525.4648549275
 20
321.9490032849
 11
525.4843683629
 21
321.8935929471
  0
LINE
  5
28F
100
AcDbEntity
  8
0
100
AcDbLine
 62
7
  6
CONTINUOUS
 10
525.4843683629
 20
321.8935929471
 11
525.5016206135
 21
321.8386761662
  0
LINE
  5
290
100
AcDbEntity
  8
0
100
AcDbLine
 62
7
  6
CONTINUOUS
 10
525.5016206135
 20
321.8386761662
 11
525.5166671609
 21
321.7845032774
  0
LINE
  5
291
100
AcDbEntity
  8
0
100
AcDbLine
 62
7
  6
CONTINUOUS
 10
519.7133103914
 20
338.424170047
 11
523.0239821011
 21
326.0685750194
  0
LINE
  5
292
100
AcDbEntity
  8
0
100
AcDbLine
 62
7
  6
CONTINUOUS
 10
525.5166671609
 20
321.7845032774
 11
525.5296015179
 21
321.7312489307
  0
LINE
  5
293
100
AcDbEntity
  8
0
100
AcDbLine
 62
7
  6
CONTINUOUS
 10
525.5296015179
 20
321.7312489307
 11
525.5405049733
 21
321.6792017197
  0
LINE
  5
294
100
AcDbEntity
  8
0
100
AcDbLine
 62
7
  6
CONTINUOUS
 10
525.5405049733
 20
321.6792017197
 11
525.5494930987
 21
321.6285860198
  0
LINE
  5
295
100
AcDbEntity
  8
0
100
AcDbLine
 62
7
  6
CONTINUOUS
 10
525.5494930987
 20
321.6285860198
 11
525.5566811533
 21
321.5797373439
  0
LINE
  5
296
100
AcDbEntity
  8
0
100
AcDbLine
 62
7
  6
CONTINUOUS
 10
525.5566811533
 20
321.5797373439
 11
525.562229527
 21
321.5328067123
  0
LINE
  5
297
100
AcDbEntity
  8
0
100
AcDbLine
 62
7
  6
CONTINUOUS
 10
730.3354159578
 20
483.7942434445
 11
731.3354159578
 21
483.794225283
  0
LINE
  5
298
100
AcDbEntity
  8
0
100
AcDbLine
 62
7
  6
CONTINUOUS
 10
101.6384501493
 20
503.631225283
 11
417.6384501493
 21
503.631225283
  0
LINE
  5
299
100
AcDbEntity
  8
0
100
AcDbLine
 62
7
  6
CONTINUOUS
 10
546.3354191123
 20
504.431225283
 11
729.5354159578
 21
504.431225283
  0
LWPOLYLINE
  5
29A
100
AcDbEntity
  8
0
100
AcDbPolyline
 62
2
  6
CONTINUOUS
 90
43
 70
0
 43
0.2500000019
 10
258.3527420654
 20
573.2825733643
 10
257.7813118286
 20
573.5206518555
 10
257.4956083374
 20
573.7587768555
 10
257.3527333374
 20
573.9968553467
 10
257.2098815918
 20
574.4730588379
 10
257.0670298462
 20
575.1873408203
 10
257.0670298462
 20
575.6635443115
 10
257.2098815918
 20
576.3778262939
 10
257.3527333374
 20
576.8540297852
 10
257.4956083374
 20
577.0921082764
 10
257.7813118286
 20
577.3301867676
 10
258.495593811
 20
577.5683117676
 10
259.0670240479
 20
577.5683117676
 10
259.7813060303
 20
577.3301867676
 10
260.0670327759
 20
577.0921082764
 10
260.2098845215
 20
576.8540297852
 10
260.3527362671
 20
576.3778262939
 10
260.4956112671
 20
575.6635443115
 10
260.4956112671
 20
575.1873408203
 10
260.3527362671
 20
574.4730588379
 10
260.2098845215
 20
573.9968553467
 10
260.0670327759
 20
573.7587768555
 10
259.2098990479
 20
573.2825733643
 10
258.3527420654
 20
573.2825733643
 10
257.7813118286
 20
573.044494873
 10
257.4956083374
 20
572.806369873
 10
257.2098815918
 20
572.3302128906
 10
257.0670298462
 20
571.6159309082
 10
257.0670298462
 20
570.4254454346
 10
257.2098815918
 20
569.7111634521
 10
257.4956083374
 20
569.2349599609
 10
257.7813118286
 20
568.9968814697
 10
258.3527420654
 20
568.7587564697
 10
259.2098990479
 20
568.7587564697
 10
259.7813060303
 20
568.9968814697
 10
260.0670327759
 20
569.2349599609
 10
260.3527362671
 20
569.7111634521
 10
260.4956112671
 20
570.4254454346
 10
260.4956112671
 20
571.6159309082
 10
260.3527362671
 20
572.3302128906
 10
260.0670327759
 20
572.806369873
 10
259.7813060303
 20
573.044494873
 10
259.2098990479
 20
573.2825733643
  0
LINE
  5
29B
100
AcDbEntity
  8
0
100
AcDbLine
 62
7
  6
CONTINUOUS
 10
443.6384501493
 20
523.6312071215
 11
75.6384683108
 21
523.631225283
  0
LINE
  5
29C
100
AcDbEntity
  8
0
100
AcDbLine
 62
7
  6
CONTINUOUS
 10
731.3354159578
 20
523.631225283
 11
730.3354159578
 21
523.631225283
  0
LWPOLYLINE
  5
29D
100
AcDbEntity
  8
0
100
AcDbPolyline
 62
2
  6
CONTINUOUS
 90
19
 70
0
 43
0.2500000019
 10
251.9241577148
 20
553.8430157471
 10
255.3527391357
 20
553.8430157471
 10
253.6384484253
 20
550.271605835
 10
254.3527304077
 20
550.033480835
 10
254.7813088989
 20
549.7954023437
 10
255.0670123901
 20
549.3191988525
 10
255.2098873901
 20
548.8430418701
 10
255.3527391357
 20
548.1287598877
 10
255.3527391357
 20
547.4144313965
 10
255.2098873901
 20
546.7001494141
 10
255.0670123901
 20
546.2239924316
 10
254.7813088989
 20
545.7477889404
 10
254.4955821533
 20
545.5097104492
 10
253.9241751709
 20
545.2715854492
 10
253.3527449341
 20
545.2715854492
 10
252.7813146973
 20
545.5097104492
 10
252.4955879517
 20
545.7477889404
 10
252.2098844604
 20
546.2239924316
 10
251.9241577148
 20
547.1763529053
  0
LWPOLYLINE
  5
29E
100
AcDbEntity
  8
0
100
AcDbPolyline
 62
2
  6
CONTINUOUS
 90
19
 70
0
 43
0.2500000019
 10
251.9241809692
 20
577.3301867676
 10
255.3527391357
 20
577.3301867676
 10
253.6384484253
 20
573.7587768555
 10
254.3527536621
 20
573.5206518555
 10
254.7813088989
 20
573.2825733643
 10
255.0670356445
 20
572.806369873
 10
255.2098873901
 20
572.3302128906
 10
255.3527391357
 20
571.6159309082
 10
255.3527391357
 20
570.9016489258
 10
255.2098873901
 20
570.1873204346
 10
255.0670356445
 20
569.7111634521
 10
254.7813088989
 20
569.2349599609
 10
254.4956054077
 20
568.9968814697
 10
253.9241751709
 20
568.7587564697
 10
253.3527449341
 20
568.7587564697
 10
252.7813146973
 20
568.9968814697
 10
252.4956112061
 20
569.2349599609
 10
252.2098844604
 20
569.7111634521
 10
251.9241809692
 20
570.6635239258
  0
LWPOLYLINE
  5
29F
100
AcDbEntity
  8
0
100
AcDbPolyline
 62
2
  6
CONTINUOUS
 90
25
 70
0
 43
0.2500000019
 10
628.3639709473
 20
64.7127089233
 10
628.5068459473
 20
65.6650868378
 10
628.6497209473
 20
66.1412787018
 10
628.9354244385
 20
66.6174705658
 10
629.2211279297
 20
66.8555664978
 10
629.7925814209
 20
67.0936624298
 10
630.3639884033
 20
67.0936624298
 10
630.9353953857
 20
66.8555664978
 10
631.2211453857
 20
66.6174705658
 10
631.506848877
 20
66.1412787018
 10
631.649723877
 20
65.6650868378
 10
631.7925523682
 20
64.7127089233
 10
631.7925523682
 20
60.6650897064
 10
631.649723877
 20
59.7127059784
 10
631.506848877
 20
59.236519928
 10
631.2211453857
 20
58.760328064
 10
630.9353953857
 20
58.522232132
 10
630.3639884033
 20
58.2841362
 10
629.7925814209
 20
58.2841362
 10
629.2211279297
 20
58.522232132
 10
628.9354244385
 20
58.760328064
 10
628.6497209473
 20
59.236519928
 10
628.5068459473
 20
59.7127059784
 10
628.3639709473
 20
60.6650897064
 10
628.3639709473
 20
64.7127089233
  0
LWPOLYLINE
  5
2A0
100
AcDbEntity
  8
0
100
AcDbPolyline
 62
2
  6
CONTINUOUS
 90
25
 70
0
 43
0.2500000019
 10
633.506866333
 20
64.7127089233
 10
633.6496948242
 20
65.6650868378
 10
633.7925698242
 20
66.1412787018
 10
634.0782733154
 20
66.6174705658
 10
634.3639768066
 20
66.8555664978
 10
634.9354302979
 20
67.0936624298
 10
635.5068372803
 20
67.0936624298
 10
636.0782907715
 20
66.8555664978
 10
636.3639942627
 20
66.6174705658
 10
636.6496977539
 20
66.1412787018
 10
636.7925727539
 20
65.6650868378
 10
636.9354012451
 20
64.7127089233
 10
636.9354012451
 20
60.6650897064
 10
636.7925727539
 20
59.7127059784
 10
636.6496977539
 20
59.236519928
 10
636.3639942627
 20
58.760328064
 10
636.0782907715
 20
58.522232132
 10
635.5068372803
 20
58.2841362
 10
634.9354302979
 20
58.2841362
 10
634.3639768066
 20
58.522232132
 10
634.0782733154
 20
58.760328064
 10
633.7925698242
 20
59.236519928
 10
633.6496948242
 20
59.7127059784
 10
633.506866333
 20
60.6650897064
 10
633.506866333
 20
64.7127089233
  0
LWPOLYLINE
  5
2A1
100
AcDbEntity
  8
0
100
AcDbPolyline
 62
2
  6
CONTINUOUS
 90
17
 70
0
 43
0.2500000019
 10
623.2211220703
 20
65.1889007874
 10
623.5068255615
 20
66.1412787018
 10
623.7925755615
 20
66.6174705658
 10
624.0782790527
 20
66.8555664978
 10
624.6496860352
 20
67.0936624298
 10
625.2211395264
 20
67.0936624298
 10
625.7925465088
 20
66.8555664978
 10
626.07825
 20
66.6174705658
 10
626.364
 20
66.1412787018
 10
626.5068284912
 20
65.6650868378
 10
626.6497034912
 20
64.9508048553
 10
626.6497034912
 20
64.7127089233
 10
626.5068284912
 20
63.9984211273
 10
623.5068255615
 20
59.47461586
 10
623.3639970703
 20
58.998423996
 10
623.2211220703
 20
58.2841362
 10
626.6497034912
 20
58.2841362
  0
LINE
  5
2A2
100
AcDbEntity
  8
0
100
AcDbLine
 62
7
  6
CONTINUOUS
 10
730.3354159578
 20
83.631225283
 11
730.3354159578
 21
123.4682071215
  0
LINE
  5
2A3
100
AcDbEntity
  8
0
100
AcDbLine
 62
7
  6
CONTINUOUS
 10
730.3354159578
 20
483.7942434445
 11
730.3354159578
 21
523.631225283
  0
LINE
  5
2A4
100
AcDbEntity
  8
0
100
AcDbLine
 62
7
  6
CONTINUOUS
 10
730.5354159578
 20
483.794225283
 11
730.5354159578
 21
123.468225283
  0
LINE
  5
2A5
100
AcDbEntity
  8
0
100
AcDbLine
 62
7
  6
CONTINUOUS
 10
731.3354159578
 20
83.631225283
 11
731.3354159578
 21
523.631225283
  0
CIRCLE
  5
2A6
100
AcDbEntity
  8
0
100
AcDbCircle
 62
7
  6
CONTINUOUS
 10
259.6384501493
 20
383.631225283
 40
45.0
  0
ARC
  5
2A7
100
AcDbEntity
  8
0
100
AcDbCircle
 62
7
  6
CONTINUOUS
 10
546.3354159578
 20
488.631225283
 40
15.8
100
AcDbArc
 50
90.0
 51
180.0
  0
ARC
  5
2A8
100
AcDbEntity
  8
0
100
AcDbCircle
 62
7
  6
CONTINUOUS
 10
546.3354159578
 20
118.631225283
 40
15.8
100
AcDbArc
 50
180.0
 51
270.0
  0
ARC
  5
2A9
100
AcDbEntity
  8
0
100
AcDbCircle
 62
7
  6
CONTINUOUS
 10
101.6384501493
 20
115.631225283
 40
12.0
100
AcDbArc
 50
180.0
 51
270.0
  0
ARC
  5
2AA
100
AcDbEntity
  8
0
100
AcDbCircle
 62
7
  6
CONTINUOUS
 10
417.6384501493
 20
115.631225283
 40
12.0
100
AcDbArc
 50
270.0
 51
360.0
  0
ARC
  5
2AB
100
AcDbEntity
  8
0
100
AcDbCircle
 62
7
  6
CONTINUOUS
 10
417.6384501493
 20
491.631225283
 40
12.0
100
AcDbArc
 50
0.0
 51
90.0
  0
ARC
  5
2AC
100
AcDbEntity
  8
0
100
AcDbCircle
 62
7
  6
CONTINUOUS
 10
101.6384501493
 20
491.631225283
 40
12.0
100
AcDbArc
 50
90.0
 51
180.0
  0
ARC
  5
2AD
100
AcDbEntity
  8
0
100
AcDbCircle
 62
7
  6
CONTINUOUS
 10
443.6384501493
 20
517.6312071215
 40
6.0
100
AcDbArc
 50
0.0
 51
90.0
  0
ARC
  5
2AE
100
AcDbEntity
  8
0
100
AcDbCircle
 62
7
  6
CONTINUOUS
 10
443.6384319878
 20
89.631225283
 40
6.0
100
AcDbArc
 50
270.0
 51
360.0
  0
ARC
  5
2AF
100
AcDbEntity
  8
0
100
AcDbCircle
 62
7
  6
CONTINUOUS
 10
75.6384683108
 20
517.631225283
 40
6.0
100
AcDbArc
 50
90.0
 51
180.0
  0
ARC
  5
2B0
100
AcDbEntity
  8
0
100
AcDbCircle
 62
7
  6
CONTINUOUS
 10
75.6384683108
 20
89.631225283
 40
6.0
100
AcDbArc
 50
180.0
 51
270.0
  0
ARC
  5
2B1
100
AcDbEntity
  8
0
100
AcDbCircle
 62
7
  6
CONTINUOUS
 10
524.7626485884
 20
440.7280012655
 40
1.8
100
AcDbArc
 50
147.9946167919
 51
165.0
  0
ARC
  5
2B2
100
AcDbEntity
  8
0
100
AcDbCircle
 62
7
  6
CONTINUOUS
 10
524.7626485884
 20
326.5344493006
 40
1.8
100
AcDbArc
 50
195.0
 51
212.0053832081
  0
ARC
  5
2B3
100
AcDbEntity
  8
0
100
AcDbCircle
 62
7
  6
CONTINUOUS
 10
729.5354159578
 20
505.431225283
 40
1.0
100
AcDbArc
 50
270.0
 51
323.7679987406
  0
ARC
  5
2B4
100
AcDbEntity
  8
0
100
AcDbCircle
 62
7
  6
CONTINUOUS
 10
729.5354159578
 20
101.831225283
 40
1.0
100
AcDbArc
 50
36.2319956717
 51
90.0
  0
ENDSEC
  0
SECTION
  2
OBJECTS
  0
DICTIONARY
  5
C
100
AcDbDictionary
280
0
281
1
  3
ACAD_GROUP
350
D
  3
ACAD_MLINESTYLE
350
17
  3
ACAD_LAYOUT
350
1A
  3
ACAD_PLOTSETTINGS
350
19
  3
ACAD_PLOTSTYLENAME
350
E
  0
DICTIONARY
  5
D
102
{ACAD_REACTORS
330
C
102
}
100
AcDbDictionary
280
0
281
1
  0
ACDBDICTIONARYWDFLT
  5
E
102
{ACAD_REACTORS
330
C
102
}
100
AcDbDictionary
281
1
  3
Normal
350
F
100
AcDbDictionaryWithDefault
340
F
  0
DICTIONARY
  5
17
102
{ACAD_REACTORS
330
C
102
}
100
AcDbDictionary
280
0
281
1
  3
Standard
350
18
  0
DICTIONARY
  5
19
102
{ACAD_REACTORS
330
C
102
}
100
AcDbDictionary
281
1
  0
DICTIONARY
  5
1A
102
{ACAD_REACTORS
330
C
102
}
100
AcDbDictionary
281
1
  3
Model
350
2B5
  3
Layout1
350
2B6
  0
ACDBPLACEHOLDER
  5
F
102
{ACAD_REACTORS
330
E
102
}
  0
MLINESTYLE
  5
18
102
{ACAD_REACTORS
330
17
102
}
100
AcDbMlineStyle
  2
STANDARD
 70
0
  3

 62
256
 51
90.0
 52
90.0
 71
2
 49
0.5
 62
256
  6
BYLAYER
 49
-0.5
 62
256
  6
BYLAYER
  0
LAYOUT
  5
2B5
102
{ACAD_REACTORS
330
1A
102
}
100
AcDbPlotSettings
  1

  2
none_device
  4

  6

 40
0.0
 41
0.0
 42
0.0
 43
0.0
 44
762.0
 45
635.0
 46
0.0
 47
0.0
 48
0.0
 49
0.0
140
0.0
141
0.0
142
1.0
143
1.0
 70
1024
 72
1
 73
0
 74
0
  7

 75
0
147
1.0
148
0.0
149
0.0
100
AcDbLayout
  1
Model
 70
0
 71
0
 10
0.0
 20
0.0
 11
762.0
 21
635.0
 12
0.0
 22
0.0
 32
0.0
 14
0.0
 24
0.0
 34
0.0
 15
0.0
 25
0.0
 35
0.0
146
0.0
 13
0.0
 23
0.0
 33
0.0
 16
1.0
 26
0.0
 36
0.0
 17
0.0
 27
1.0
 37
0.0
 76
0
330
1FF
345
0
346
0
  0
LAYOUT
  5
2B6
102
{ACAD_REACTORS
330
1A
102
}
100
AcDbPlotSettings
  1

  2
none_device
  4

  6

 40
0.0
 41
0.0
 42
0.0
 43
0.0
 44
762.0
 45
635.0
 46
0.0
 47
0.0
 48
0.0
 49
0.0
140
0.0
141
0.0
142
1.0
143
1.0
 70
0
 72
1
 73
0
 74
0
  7

 75
0
147
1.0
148
0.0
149
0.0
100
AcDbLayout
  1
Layout1
 70
0
 71
1
 10
0.0
 20
0.0
 11
762.0
 21
635.0
 12
0.0
 22
0.0
 32
0.0
 14
0.0
 24
0.0
 34
0.0
 15
0.0
 25
0.0
 35
0.0
146
0.0
 13
0.0
 23
0.0
 33
0.0
 16
1.0
 26
0.0
 36
0.0
 17
0.0
 27
1.0
 37
0.0
 76
0
330
200
345
0
346
0
  0
ENDSEC
  0
EOF
