999
DXF file: W:\Engenharia\Produtos\Cubas\Quadrum\cubas_quadrum_3.dxf
999
Pro/ENGINEER 2012230 by Parametric Technology Corporation
  0
SECTION
  2
HEADER
  9
$ACADVER
  1
AC1018
  9
$DWGCODEPAGE
  3
ANSI_1252
  9
$EXTMAX
 10
762.0
 20
635.0
 30
0.0
  9
$EXTMIN
 10
0.0
 20
0.0
 30
0.0
  9
$LIMMIN
 10
0.0
 20
0.0
  9
$LIMMAX
 10
762.0
 20
635.0
  9
$VIEWCTR
 10
381.0
 20
317.5
  9
$VIEWSIZE
 40
635.0
  9
$CLAYER
  8
0
  9
$LTSCALE
 40
41.91
  9
$CELTYPE
  6
BYLAYER
  9
$DIMSCALE
 40
1.0
  9
$DIMASZ
 40
3.0
  9
$DIMEXO
 40
0.5
  9
$DIMDLI
 40
28.956
  9
$DIMEXE
 40
0.5
  9
$DIMCEN
 40
6.858
  9
$DIMLFAC
 40
1.0
  9
$DIMBLK
  1
_FILLED
  9
$DIMTXT
 40
1.8
  9
$DIMTOL
 70
1
  9
$DIMLIM
 70
0
  9
$DIMTFAC
 40
1.0
  9
$DIMTP
 40
0.001
  9
$DIMTM
 40
0.001
  9
$DIMGAP
 40
0.625
  9
$DIMDSEP
 70
46
  9
$PDMODE
 70
3
  9
$PDSIZE
 40
1.0
  9
$HANDSEED
  5
2A8
  9
$TILEMODE
 70
1
  9
$MEASUREMENT
 70
1
  9
$INSUNITS
 70
4
  0
ENDSEC
  0
SECTION
  2
CLASSES
  0
CLASS
  1
ACDBDICTIONARYWDFLT
  2
AcDbDictionaryWithDefault
  3
AutoCAD 2000
 90
0
 91
1
280
0
281
0
  0
CLASS
  1
ACDBPLACEHOLDER
  2
AcDbPlaceHolder
  3
AutoCAD 2000
 90
0
 91
1
280
0
281
0
  0
CLASS
  1
LAYOUT
  2
AcDbLayout
  3
AutoCAD 2000
 90
0
 91
0
280
0
281
0
  0
ENDSEC
  0
SECTION
  2
TABLES
  0
TABLE
  2
VPORT
  5
8
100
AcDbSymbolTable
 70
2
  0
VPORT
  5
1F4
100
AcDbSymbolTableRecord
100
AcDbViewportTableRecord
  2
*ACTIVE
 70
0
 10
0.0
 20
0.0
 11
1.0
 21
1.0
 12
381.0
 22
317.5
 13
0.0
 23
0.0
 14
1.0
 24
1.0
 15
0.0
 25
0.0
 16
0.0
 26
0.0
 36
1.0
 17
0.0
 27
0.0
 37
0.0
 40
635.0
 41
1.2
 42
50.0
 43
0.0
 44
0.0
 50
0.0
 51
0.0
 71
0
 72
100
 73
1
 74
1
 75
0
 76
0
 77
0
 78
0
  0
ENDTAB
  0
TABLE
  2
LTYPE
  5
5
100
AcDbSymbolTable
 70
6
  0
LTYPE
  5
14
100
AcDbSymbolTableRecord
100
AcDbLinetypeTableRecord
  2
BYBLOCK
 70
0
  3

 72
65
 73
0
 40
0.0
  0
LTYPE
  5
15
100
AcDbSymbolTableRecord
100
AcDbLinetypeTableRecord
  2
BYLAYER
 70
0
  3

 72
65
 73
0
 40
0.0
  0
LTYPE
  5
16
100
AcDbSymbolTableRecord
100
AcDbLinetypeTableRecord
  2
CONTINUOUS
 70
64
  3
Solid line
 72
65
 73
0
 40
0.0
  0
LTYPE
  5
1F5
100
AcDbSymbolTableRecord
100
AcDbLinetypeTableRecord
  2
CENTER
 70
64
  3
____ _ ____ _ ____ _ ____ _ ____ _ ____ _ ____
 72
65
 73
4
 40
0.6
 49
0.375
 74
0
 49
-0.075
 74
0
 49
0.075
 74
0
 49
-0.075
 74
0
  0
LTYPE
  5
1F6
100
AcDbSymbolTableRecord
100
AcDbLinetypeTableRecord
  2
HIDDEN
 70
64
  3
- - - - - - - - - - - - - - - - - - - -
 72
65
 73
2
 40
0.2
 49
0.1
 74
0
 49
-0.1
 74
0
  0
LTYPE
  5
1F7
100
AcDbSymbolTableRecord
100
AcDbLinetypeTableRecord
  2
PHANTOM
 70
64
  3
_____ _ _ _____ _ _ _____ _ _ _____
 72
65
 73
6
 40
0.8
 49
0.45
 74
0
 49
-0.05
 74
0
 49
0.1
 74
0
 49
-0.05
 74
0
 49
0.1
 74
0
 49
-0.05
 74
0
  0
LTYPE
  5
1F8
100
AcDbSymbolTableRecord
100
AcDbLinetypeTableRecord
  2
DOT
 70
64
  3
. . . . . . . . . . . . . . . . . . . .
 72
65
 73
2
 40
0.2
 49
0.1
 74
0
 49
-0.1
 74
0
  0
LTYPE
  5
1F9
100
AcDbSymbolTableRecord
100
AcDbLinetypeTableRecord
  2
DASHED
 70
64
  3
- - - - - - - - - - - - - - - - - - - -
 72
65
 73
2
 40
0.2
 49
0.1
 74
0
 49
-0.1
 74
0
  0
ENDTAB
  0
TABLE
  2
LAYER
  5
2
100
AcDbSymbolTable
 70
36
  0
LAYER
  5
10
100
AcDbSymbolTableRecord
100
AcDbLayerTableRecord
  2
0
 70
0
 62
7
  6
CONTINUOUS
370
-3
390
F
  0
LAYER
  5
1FA
100
AcDbSymbolTableRecord
100
AcDbLayerTableRecord
  2
DEFAULT_1
 70
0
 62
7
  6
CENTER
370
-3
390
F
  0
LAYER
  5
1FB
100
AcDbSymbolTableRecord
100
AcDbLayerTableRecord
  2
DEFAULT_2
 70
0
 62
8
  6
HIDDEN
370
-3
390
F
  0
LAYER
  5
1FC
100
AcDbSymbolTableRecord
100
AcDbLayerTableRecord
  2
DEFAULT_3
 70
0
 62
7
  6
PHANTOM
370
-3
390
F
  0
ENDTAB
  0
TABLE
  2
STYLE
  5
3
100
AcDbSymbolTable
 70
1
  0
STYLE
  5
11
100
AcDbSymbolTableRecord
100
AcDbTextStyleTableRecord
  2
STANDARD
 70
0
 40
0.0
 41
0.8
 50
0.0
 71
0
 42
0.2
  3
txt
  4

  0
STYLE
  5
1FD
100
AcDbSymbolTableRecord
100
AcDbTextStyleTableRecord
  2
TEXTSTYLE_1
 70
0
 40
0.0
 41
0.8
 50
0.0
 71
0
 42
0.2
  3
gdt
  4

  0
ENDTAB
  0
TABLE
  2
VIEW
  5
6
100
AcDbSymbolTable
 70
0
  0
ENDTAB
  0
TABLE
  2
UCS
  5
7
100
AcDbSymbolTable
 70
0
  0
ENDTAB
  0
TABLE
  2
APPID
  5
9
100
AcDbSymbolTable
 70
1
  0
APPID
  5
1FE
100
AcDbSymbolTableRecord
100
AcDbRegAppTableRecord
  2
ACAD
 70
0
  0
ENDTAB
  0
TABLE
  2
BLOCK_RECORD
  5
1
100
AcDbSymbolTable
 70
0
  0
BLOCK_RECORD
  5
1FF
100
AcDbSymbolTableRecord
100
AcDbBlockTableRecord
  2
*Model_Space
  0
BLOCK_RECORD
  5
200
100
AcDbSymbolTableRecord
100
AcDbBlockTableRecord
  2
*Paper_Space
  0
BLOCK_RECORD
  5
201
100
AcDbSymbolTableRecord
100
AcDbBlockTableRecord
  2
_FILLED
  0
BLOCK_RECORD
  5
202
100
AcDbSymbolTableRecord
100
AcDbBlockTableRecord
  2
*D0
  0
BLOCK_RECORD
  5
203
100
AcDbSymbolTableRecord
100
AcDbBlockTableRecord
  2
*D1
  0
BLOCK_RECORD
  5
204
100
AcDbSymbolTableRecord
100
AcDbBlockTableRecord
  2
*D2
  0
BLOCK_RECORD
  5
205
100
AcDbSymbolTableRecord
100
AcDbBlockTableRecord
  2
*D3
  0
BLOCK_RECORD
  5
206
100
AcDbSymbolTableRecord
100
AcDbBlockTableRecord
  2
*D4
  0
BLOCK_RECORD
  5
207
100
AcDbSymbolTableRecord
100
AcDbBlockTableRecord
  2
*D5
  0
BLOCK_RECORD
  5
208
100
AcDbSymbolTableRecord
100
AcDbBlockTableRecord
  2
*D6
  0
BLOCK_RECORD
  5
209
100
AcDbSymbolTableRecord
100
AcDbBlockTableRecord
  2
*D7
  0
ENDTAB
  0
TABLE
  2
DIMSTYLE
  5
A
100
AcDbSymbolTable
 70
1
100
AcDbDimStyleTable
 71
0
  0
DIMSTYLE
105
20A
100
AcDbSymbolTableRecord
100
AcDbDimStyleTableRecord
  2
STANDARD
 70
0
  3

  4

 40
1.0
 41
3.0
 42
0.5
 43
0.38
 44
0.5
 45
0.0
 46
0.0
 47
0.001
 48
0.001
140
1.8
141
0.09
142
0.0
143
25.4
144
1.0
145
0.0
146
1.0
147
0.625
 71
1.0
 72
0.0
 73
0
 74
0
 75
0
 76
0
 77
1
 78
8
170
0
171
2
172
0
173
0
174
0
175
0
176
0
177
0
178
0
270
2
271
3
272
3
273
2
274
2
275
0
280
0
281
0
282
0
283
1
284
8
285
0
286
0
287
3
288
0
340
11
278
46
341
201
342
201
343
201
344
201
  0
DIMSTYLE
105
20B
100
AcDbSymbolTableRecord
100
AcDbDimStyleTableRecord
  2
DIMSTYLE_1
 70
0
  3

  4

 40
1.0
 41
3.0
 42
0.5
 43
0.38
 44
0.5
 45
0.0
 46
0.0
 47
0.8
 48
0.8
140
5.0
141
0.09
142
0.0
143
25.4
144
1.0
145
0.0
146
1.0
147
1.25
 71
0.0
 72
0.0
 73
0
 74
0
 75
0
 76
0
 77
1
 78
8
170
0
171
2
172
0
173
0
174
0
175
0
176
0
177
0
178
0
270
2
271
3
272
3
273
2
274
2
275
0
280
0
281
0
282
0
283
1
284
8
285
0
286
0
287
3
288
0
340
11
278
46
341
201
342
201
343
201
344
201
  0
DIMSTYLE
105
20C
100
AcDbSymbolTableRecord
100
AcDbDimStyleTableRecord
  2
DIMSTYLE_2
 70
0
  3

  4

 40
1.0
 41
3.0
 42
0.5
 43
0.38
 44
0.5
 45
0.0
 46
0.0
 47
0.5
 48
0.5
140
5.0
141
0.09
142
0.0
143
25.4
144
1.0
145
0.0
146
1.0
147
1.25
 71
0.0
 72
0.0
 73
0
 74
0
 75
0
 76
0
 77
1
 78
8
170
0
171
2
172
0
173
0
174
0
175
0
176
0
177
0
178
0
270
2
271
3
272
3
273
2
274
2
275
0
280
0
281
0
282
0
283
1
284
8
285
0
286
0
287
3
288
0
340
11
278
46
341
201
342
201
343
201
344
201
  0
DIMSTYLE
105
20D
100
AcDbSymbolTableRecord
100
AcDbDimStyleTableRecord
  2
DIMSTYLE_3
 70
0
  3

  4

 40
1.0
 41
3.0
 42
0.5
 43
0.38
 44
0.5
 45
0.0
 46
0.0
 47
0.3
 48
0.3
140
5.0
141
0.09
142
0.0
143
25.4
144
1.0
145
0.0
146
1.0
147
1.25
 71
0.0
 72
0.0
 73
0
 74
0
 75
0
 76
0
 77
1
 78
8
170
0
171
2
172
0
173
0
174
0
175
0
176
0
177
0
178
0
270
2
271
3
272
3
273
2
274
2
275
0
280
0
281
0
282
0
283
1
284
8
285
0
286
0
287
3
288
0
340
11
278
46
341
201
342
201
343
201
344
201
  0
DIMSTYLE
105
20E
100
AcDbSymbolTableRecord
100
AcDbDimStyleTableRecord
  2
DIMSTYLE_4
 70
0
  3

  4

 40
1.0
 41
3.0
 42
0.5
 43
0.38
 44
0.5
 45
0.0
 46
0.0
 47
0.2
 48
0.2
140
5.0
141
0.09
142
0.0
143
25.4
144
1.0
145
0.0
146
1.0
147
0.625
 71
0.0
 72
0.0
 73
0
 74
0
 75
0
 76
0
 77
1
 78
8
170
0
171
2
172
0
173
0
174
0
175
0
176
0
177
0
178
0
270
2
271
3
272
3
273
2
274
2
275
0
280
0
281
0
282
0
283
1
284
8
285
0
286
0
287
3
288
0
340
11
278
46
341
201
342
201
343
201
344
201
  0
ENDTAB
  0
ENDSEC
  0
SECTION
  2
BLOCKS
  0
BLOCK
  5
20
100
AcDbEntity
  8
0
100
AcDbBlockBegin
  2
*Model_Space
 70
0
 10
0.0
 20
0.0
 30
0.0
  3
*Model_Space
  1

  0
ENDBLK
  5
21
100
AcDbEntity
  8
0
100
AcDbBlockEnd
  0
BLOCK
  5
1C
100
AcDbEntity
  8
0
100
AcDbBlockBegin
  2
*Paper_Space
 70
0
 10
0.0
 20
0.0
 30
0.0
  3
*Paper_Space
  1

  0
ENDBLK
  5
1D
100
AcDbEntity
  8
0
100
AcDbBlockEnd
  0
BLOCK
  5
20F
100
AcDbEntity
  8
0
100
AcDbBlockBegin
  2
_FILLED
 70
64
 10
0.0
 20
0.0
  3
_FILLED
  1

  0
SOLID
  5
210
100
AcDbEntity
  8
0
  6
BYBLOCK
 62
0
100
AcDbTrace
 10
0.0
 20
0.0
 11
-1.0
 21
0.1666666667
 12
-1.0
 22
-0.1666666667
 13
-1.0
 23
-0.1666666667
  0
ENDBLK
  5
211
100
AcDbEntity
  8
0
  6
BYBLOCK
 62
0
100
AcDbBlockEnd
  0
BLOCK
  5
212
100
AcDbEntity
  8
0
100
AcDbBlockBegin
 62
2
  6
CONTINUOUS
  2
*D0
 70
65
 10
0.0
 20
0.0
  3
*D0
  1

  0
LINE
  5
213
100
AcDbEntity
  8
0
100
AcDbLine
 62
2
  6
CONTINUOUS
 10
173.9110528458
 20
529.8132984677
 11
121.2670110887
 21
529.8132984677
  0
LINE
  5
214
100
AcDbEntity
  8
0
100
AcDbLine
 62
2
  6
CONTINUOUS
 10
173.9110710074
 20
89.8133166292
 11
121.2670110887
 21
89.8133166292
  0
LINE
  5
215
100
AcDbEntity
  8
0
100
AcDbLine
 62
2
  6
CONTINUOUS
 10
121.7670110887
 20
529.8132984677
 11
121.7670110887
 21
309.8133075484
  0
LINE
  5
216
100
AcDbEntity
  8
0
100
AcDbLine
 62
2
  6
CONTINUOUS
 10
121.7670110887
 20
89.8133166292
 11
121.7670110887
 21
309.8133075484
  0
INSERT
  5
217
100
AcDbEntity
  8
0
100
AcDbBlockReference
 62
2
  6
CONTINUOUS
  2
_FILLED
 10
121.7670110887
 20
529.8132984677
 41
3.0
 42
3.0
 43
3.0
 50
90.0
  0
INSERT
  5
218
100
AcDbEntity
  8
0
100
AcDbBlockReference
 62
2
  6
CONTINUOUS
  2
_FILLED
 10
121.7670110887
 20
89.8133166292
 41
3.0
 42
3.0
 43
3.0
 50
270.0
  0
ENDBLK
  5
219
100
AcDbEntity
  8
0
  6
BYBLOCK
 62
0
100
AcDbBlockEnd
  0
BLOCK
  5
21A
100
AcDbEntity
  8
0
100
AcDbBlockBegin
 62
2
  6
CONTINUOUS
  2
*D1
 70
65
 10
0.0
 20
0.0
  3
*D1
  1

  0
LINE
  5
21B
100
AcDbEntity
  8
0
100
AcDbLine
 62
2
  6
CONTINUOUS
 10
199.9110528458
 20
509.8133166292
 11
147.7679499094
 21
509.8133166292
  0
LINE
  5
21C
100
AcDbEntity
  8
0
100
AcDbLine
 62
2
  6
CONTINUOUS
 10
199.9110528458
 20
109.8133166292
 11
147.7679499094
 21
109.8133166292
  0
LINE
  5
21D
100
AcDbEntity
  8
0
100
AcDbLine
 62
2
  6
CONTINUOUS
 10
148.2679499094
 20
509.8133166292
 11
148.2679499094
 21
309.8133166292
  0
LINE
  5
21E
100
AcDbEntity
  8
0
100
AcDbLine
 62
2
  6
CONTINUOUS
 10
148.2679499094
 20
109.8133166292
 11
148.2679499094
 21
309.8133166292
  0
INSERT
  5
21F
100
AcDbEntity
  8
0
100
AcDbBlockReference
 62
2
  6
CONTINUOUS
  2
_FILLED
 10
148.2679499094
 20
509.8133166292
 41
3.0
 42
3.0
 43
3.0
 50
90.0
  0
INSERT
  5
220
100
AcDbEntity
  8
0
100
AcDbBlockReference
 62
2
  6
CONTINUOUS
  2
_FILLED
 10
148.2679499094
 20
109.8133166292
 41
3.0
 42
3.0
 43
3.0
 50
270.0
  0
ENDBLK
  5
221
100
AcDbEntity
  8
0
  6
BYBLOCK
 62
0
100
AcDbBlockEnd
  0
BLOCK
  5
222
100
AcDbEntity
  8
0
100
AcDbBlockBegin
 62
2
  6
CONTINUOUS
  2
*D2
 70
65
 10
0.0
 20
0.0
  3
*D2
  1

  0
LINE
  5
223
100
AcDbEntity
  8
0
100
AcDbLine
 62
2
  6
CONTINUOUS
 10
188.4110528458
 20
498.3133166292
 11
188.4110528458
 21
552.7804025655
  0
LINE
  5
224
100
AcDbEntity
  8
0
100
AcDbLine
 62
2
  6
CONTINUOUS
 10
358.4110528458
 20
498.3133166292
 11
358.4110528458
 21
552.7804025655
  0
LINE
  5
225
100
AcDbEntity
  8
0
100
AcDbLine
 62
2
  6
CONTINUOUS
 10
188.4110528458
 20
552.2804025655
 11
273.4110528458
 21
552.2804025655
  0
LINE
  5
226
100
AcDbEntity
  8
0
100
AcDbLine
 62
2
  6
CONTINUOUS
 10
358.4110528458
 20
552.2804025655
 11
273.4110528458
 21
552.2804025655
  0
INSERT
  5
227
100
AcDbEntity
  8
0
100
AcDbBlockReference
 62
2
  6
CONTINUOUS
  2
_FILLED
 10
188.4110528458
 20
552.2804025655
 41
3.0
 42
3.0
 43
3.0
 50
180.0
  0
INSERT
  5
228
100
AcDbEntity
  8
0
100
AcDbBlockReference
 62
2
  6
CONTINUOUS
  2
_FILLED
 10
358.4110528458
 20
552.2804025655
 41
3.0
 42
3.0
 43
3.0
  0
ENDBLK
  5
229
100
AcDbEntity
  8
0
  6
BYBLOCK
 62
0
100
AcDbBlockEnd
  0
BLOCK
  5
22A
100
AcDbEntity
  8
0
100
AcDbBlockBegin
 62
2
  6
CONTINUOUS
  2
*D3
 70
65
 10
0.0
 20
0.0
  3
*D3
  1

  0
LINE
  5
22B
100
AcDbEntity
  8
0
100
AcDbLine
 62
2
  6
CONTINUOUS
 10
168.4110528246
 20
524.3132984677
 11
168.4110505155
 21
578.7318852749
  0
LINE
  5
22C
100
AcDbEntity
  8
0
100
AcDbLine
 62
2
  6
CONTINUOUS
 10
378.4110528246
 20
524.3132984677
 11
378.4110505155
 21
578.7318941859
  0
LINE
  5
22D
100
AcDbEntity
  8
0
100
AcDbLine
 62
2
  6
CONTINUOUS
 10
168.4110505367
 20
578.2318852749
 11
273.4110505367
 21
578.2318897304
  0
LINE
  5
22E
100
AcDbEntity
  8
0
100
AcDbLine
 62
2
  6
CONTINUOUS
 10
378.4110505367
 20
578.2318941859
 11
273.4110505367
 21
578.2318897304
  0
INSERT
  5
22F
100
AcDbEntity
  8
0
100
AcDbBlockReference
 62
2
  6
CONTINUOUS
  2
_FILLED
 10
168.4110505367
 20
578.2318852749
 41
3.0
 42
3.0
 43
3.0
 50
180.0000024313
  0
INSERT
  5
230
100
AcDbEntity
  8
0
100
AcDbBlockReference
 62
2
  6
CONTINUOUS
  2
_FILLED
 10
378.4110505367
 20
578.2318941859
 41
3.0
 42
3.0
 43
3.0
 50
0.0000024313
  0
ENDBLK
  5
231
100
AcDbEntity
  8
0
  6
BYBLOCK
 62
0
100
AcDbBlockEnd
  0
BLOCK
  5
232
100
AcDbEntity
  8
0
100
AcDbBlockBegin
 62
2
  6
CONTINUOUS
  2
*D4
 70
65
 10
0.0
 20
0.0
  3
*D4
  1

  0
LINE
  5
233
100
AcDbEntity
  8
0
100
AcDbLine
 62
2
  6
CONTINUOUS
 10
372.9110528458
 20
529.8132984677
 11
406.2283653846
 21
529.8132984677
  0
LINE
  5
234
100
AcDbEntity
  8
0
100
AcDbLine
 62
2
  6
CONTINUOUS
 10
276.8320528458
 20
389.8133166292
 11
406.2283653846
 21
389.8133166292
  0
LINE
  5
235
100
AcDbEntity
  8
0
100
AcDbLine
 62
2
  6
CONTINUOUS
 10
405.7283653846
 20
529.8132984677
 11
405.7283653846
 21
459.8133075484
  0
LINE
  5
236
100
AcDbEntity
  8
0
100
AcDbLine
 62
2
  6
CONTINUOUS
 10
405.7283653846
 20
389.8133166292
 11
405.7283653846
 21
459.8133075484
  0
INSERT
  5
237
100
AcDbEntity
  8
0
100
AcDbBlockReference
 62
2
  6
CONTINUOUS
  2
_FILLED
 10
405.7283653846
 20
529.8132984677
 41
3.0
 42
3.0
 43
3.0
 50
90.0
  0
INSERT
  5
238
100
AcDbEntity
  8
0
100
AcDbBlockReference
 62
2
  6
CONTINUOUS
  2
_FILLED
 10
405.7283653846
 20
389.8133166292
 41
3.0
 42
3.0
 43
3.0
 50
270.0
  0
ENDBLK
  5
239
100
AcDbEntity
  8
0
  6
BYBLOCK
 62
0
100
AcDbBlockEnd
  0
BLOCK
  5
23A
100
AcDbEntity
  8
0
100
AcDbBlockBegin
 62
2
  6
CONTINUOUS
  2
*D5
 70
65
 10
0.0
 20
0.0
  3
*D5
  1

  0
LINE
  5
23B
100
AcDbEntity
  8
0
100
AcDbLine
 62
2
  6
CONTINUOUS
 10
378.4110528458
 20
95.3133347907
 11
378.4110528458
 21
69.2223681883
  0
LINE
  5
23C
100
AcDbEntity
  8
0
100
AcDbLine
 62
2
  6
CONTINUOUS
 10
273.4110528458
 20
386.0748166292
 11
273.4110528458
 21
69.2223681883
  0
LINE
  5
23D
100
AcDbEntity
  8
0
100
AcDbLine
 62
2
  6
CONTINUOUS
 10
378.4110528458
 20
69.7223681883
 11
325.9110528458
 21
69.7223681883
  0
LINE
  5
23E
100
AcDbEntity
  8
0
100
AcDbLine
 62
2
  6
CONTINUOUS
 10
273.4110528458
 20
69.7223681883
 11
325.9110528458
 21
69.7223681883
  0
INSERT
  5
23F
100
AcDbEntity
  8
0
100
AcDbBlockReference
 62
2
  6
CONTINUOUS
  2
_FILLED
 10
378.4110528458
 20
69.7223681883
 41
3.0
 42
3.0
 43
3.0
 50
0.0
  0
INSERT
  5
240
100
AcDbEntity
  8
0
100
AcDbBlockReference
 62
2
  6
CONTINUOUS
  2
_FILLED
 10
273.4110528458
 20
69.7223681883
 41
3.0
 42
3.0
 43
3.0
 50
180.0
  0
ENDBLK
  5
241
100
AcDbEntity
  8
0
  6
BYBLOCK
 62
0
100
AcDbBlockEnd
  0
BLOCK
  5
242
100
AcDbEntity
  8
0
100
AcDbBlockBegin
 62
2
  6
CONTINUOUS
  2
*D6
 70
65
 10
0.0
 20
0.0
  3
*D6
  1

  0
LINE
  5
243
100
AcDbEntity
  8
0
100
AcDbLine
 62
2
  6
CONTINUOUS
 10
618.1900462696
 20
89.3133166292
 11
618.1900462696
 21
74.5793609696
  0
LINE
  5
244
100
AcDbEntity
  8
0
100
AcDbLine
 62
2
  6
CONTINUOUS
 10
477.3900462696
 20
124.3133166292
 11
477.3900462696
 21
74.5793609696
  0
LINE
  5
245
100
AcDbEntity
  8
0
100
AcDbLine
 62
2
  6
CONTINUOUS
 10
618.1900462696
 20
75.0793609696
 11
547.7900462696
 21
75.0793609696
  0
LINE
  5
246
100
AcDbEntity
  8
0
100
AcDbLine
 62
2
  6
CONTINUOUS
 10
477.3900462696
 20
75.0793609696
 11
547.7900462696
 21
75.0793609696
  0
INSERT
  5
247
100
AcDbEntity
  8
0
100
AcDbBlockReference
 62
2
  6
CONTINUOUS
  2
_FILLED
 10
618.1900462696
 20
75.0793609696
 41
3.0
 42
3.0
 43
3.0
  0
INSERT
  5
248
100
AcDbEntity
  8
0
100
AcDbBlockReference
 62
2
  6
CONTINUOUS
  2
_FILLED
 10
477.3900462696
 20
75.0793609696
 41
3.0
 42
3.0
 43
3.0
 50
180.0
  0
ENDBLK
  5
249
100
AcDbEntity
  8
0
  6
BYBLOCK
 62
0
100
AcDbBlockEnd
  0
BLOCK
  5
24A
100
AcDbEntity
  8
0
100
AcDbBlockBegin
 62
2
  6
CONTINUOUS
  2
*D7
 70
65
 10
0.0
 20
0.0
  3
*D7
  1

  0
LINE
  5
24B
100
AcDbEntity
  8
0
100
AcDbLine
 62
2
  6
CONTINUOUS
 10
355.9561632645
 20
505.0859273775
 11
316.7630495433
 21
475.2239092754
  0
INSERT
  5
24C
100
AcDbEntity
  8
0
100
AcDbBlockReference
 62
2
  6
CONTINUOUS
  2
_FILLED
 10
355.9561632645
 20
505.0859273775
 41
3.0
 42
3.0
 43
3.0
 50
37.3045015092
  0
ENDBLK
  5
24D
100
AcDbEntity
  8
0
  6
BYBLOCK
 62
0
100
AcDbBlockEnd
  0
ENDSEC
  0
SECTION
  2
ENTITIES
  0
DIMENSION
  5
24E
100
AcDbEntity
  8
0
100
AcDbDimension
 62
2
  6
CONTINUOUS
  2
*D0
 10
121.7670110887
 20
89.8133166292
 11
121.7670110887
 21
302.0990218341
 70
160
 71
2
 42
439.9999818385
  3
DIMSTYLE_1
100
AcDbAlignedDimension
 13
174.4110528458
 23
529.8132984677
 14
174.4110710074
 24
89.8133166292
 50
270.0
100
AcDbRotatedDimension
  0
DIMENSION
  5
24F
100
AcDbEntity
  8
0
100
AcDbDimension
 62
2
  6
CONTINUOUS
  2
*D1
 10
148.2679499094
 20
109.8133166292
 11
148.2679499094
 21
302.0990309149
 70
160
 71
2
 42
400.0
  3
DIMSTYLE_2
100
AcDbAlignedDimension
 13
200.4110528458
 23
509.8133166292
 14
200.4110528458
 24
109.8133166292
 50
270.0
100
AcDbRotatedDimension
  0
DIMENSION
  5
250
100
AcDbEntity
  8
0
100
AcDbDimension
 62
2
  6
CONTINUOUS
  2
*D2
 10
358.4110528458
 20
552.2804025655
 11
265.6967671316
 21
552.2804025655
 70
160
 71
2
 42
170.0
  3
DIMSTYLE_2
100
AcDbAlignedDimension
 13
188.4110528458
 23
497.8133166292
 14
358.4110528458
 24
497.8133166292
100
AcDbRotatedDimension
  0
DIMENSION
  5
251
100
AcDbEntity
  8
0
100
AcDbDimension
 62
2
  6
CONTINUOUS
  2
*D3
 10
378.4110505367
 20
578.2318941859
 11
265.6967649133
 21
578.231889403
 70
160
 71
2
 42
210.0
  3
DIMSTYLE_2
100
AcDbAlignedDimension
 13
168.4110528458
 23
523.8132984677
 14
378.4110528458
 24
523.8132984677
 50
0.0000024313
100
AcDbRotatedDimension
  0
DIMENSION
  5
252
100
AcDbEntity
  8
0
100
AcDbDimension
 62
2
  6
CONTINUOUS
  2
*D4
 10
405.7283653846
 20
389.8133166292
 11
405.7283653846
 21
452.0990218341
 70
160
 71
2
 42
139.9999818385
  3
DIMSTYLE_2
100
AcDbAlignedDimension
 13
372.4110528458
 23
529.8132984677
 14
276.3320528458
 24
389.8133166292
 50
270.0
100
AcDbRotatedDimension
  0
DIMENSION
  5
253
100
AcDbEntity
  8
0
100
AcDbDimension
 62
2
  6
CONTINUOUS
  2
*D5
 10
273.4110528458
 20
69.7223681883
 11
318.1967671316
 21
69.7223681883
 70
160
 71
2
 42
105.0
  3
DIMSTYLE_3
100
AcDbAlignedDimension
 13
378.4110528458
 23
95.8133347907
 14
273.4110528458
 24
386.5748166292
 50
180.0
100
AcDbRotatedDimension
  0
DIMENSION
  5
254
100
AcDbEntity
  8
0
100
AcDbDimension
 62
2
  6
CONTINUOUS
  2
*D6
 10
477.3900462696
 20
75.0793609696
 11
540.0757605553
 21
75.0793609696
 70
160
 71
2
 42
140.8
  3
DIMSTYLE_2
100
AcDbAlignedDimension
 13
618.1900462696
 23
89.8133166292
 14
477.3900462696
 24
124.8133166292
 50
180.0
100
AcDbRotatedDimension
  0
DIMENSION
  5
255
100
AcDbEntity
  8
0
100
AcDbDimension
 62
2
  6
CONTINUOUS
  2
*D7
 10
346.4110528458
 20
497.8133166292
 11
315.4643690525
 21
476.9283932788
 70
164
 71
3
 42
12.0
  1
<>
  3
DIMSTYLE_4
100
AcDbRadialDimension
 15
355.9561632645
 25
505.0859273775
  0
LWPOLYLINE
  5
256
100
AcDbEntity
  8
0
100
AcDbPolyline
 62
2
  6
CONTINUOUS
 90
22
 70
0
 43
0.2500000019
 10
331.9110428467
 20
80.4366561279
 10
328.7681881714
 20
80.4366561279
 10
328.7681881714
 20
77.1033188934
 10
329.1967666626
 20
77.3414148254
 10
329.911048645
 20
77.5795107574
 10
330.4824788818
 20
77.5795107574
 10
331.0539091187
 20
77.3414148254
 10
331.3396358643
 20
77.1033188934
 10
331.6253393555
 20
76.627132843
 10
331.7681911011
 20
76.150940979
 10
331.9110428467
 20
75.198557251
 10
331.9110428467
 20
74.2461793365
 10
331.7681911011
 20
73.2937956085
 10
331.6253393555
 20
72.8176037445
 10
331.3396358643
 20
72.3414176941
 10
331.0539091187
 20
72.1033217621
 10
330.4824788818
 20
71.8652258301
 10
329.911048645
 20
71.8652258301
 10
329.3396184082
 20
72.1033217621
 10
329.053914917
 20
72.3414176941
 10
328.7681881714
 20
72.8176037445
 10
328.4824846802
 20
73.5318915405
  0
LINE
  5
257
100
AcDbEntity
  8
0
100
AcDbLine
 62
7
  6
CONTINUOUS
 10
168.4110528458
 20
523.8132984677
 11
168.4110710074
 21
95.8133166292
  0
LINE
  5
258
100
AcDbEntity
  8
0
100
AcDbLine
 62
7
  6
CONTINUOUS
 10
618.1900462696
 20
89.8133166292
 11
617.1900462696
 21
89.8133166292
  0
LINE
  5
259
100
AcDbEntity
  8
0
100
AcDbLine
 62
7
  6
CONTINUOUS
 10
174.4110710074
 20
89.8133166292
 11
372.4110528458
 21
89.8133347907
  0
LINE
  5
25A
100
AcDbEntity
  8
0
100
AcDbLine
 62
7
  6
CONTINUOUS
 10
188.4110528458
 20
121.8133166292
 11
188.4110528458
 21
497.8133166292
  0
LWPOLYLINE
  5
25B
100
AcDbEntity
  8
0
100
AcDbPolyline
 62
2
  6
CONTINUOUS
 90
17
 70
0
 43
0.2500000019
 10
265.6967589111
 20
587.2794864502
 10
265.9824856567
 20
588.2318934326
 10
266.2681891479
 20
588.7080969238
 10
266.5539158936
 20
588.946175415
 10
267.1253461304
 20
589.1842539062
 10
267.6967763672
 20
589.1842539062
 10
268.2681833496
 20
588.946175415
 10
268.5539100952
 20
588.7080969238
 10
268.8396135864
 20
588.2318934326
 10
268.9824885864
 20
587.7556899414
 10
269.125340332
 20
587.041407959
 10
269.125340332
 20
586.8033294678
 10
268.9824885864
 20
586.0890474854
 10
265.9824856567
 20
581.5652305908
 10
265.8396106567
 20
581.0890270996
 10
265.6967589111
 20
580.3747451172
 10
269.125340332
 20
580.3747451172
  0
LWPOLYLINE
  5
25C
100
AcDbEntity
  8
0
100
AcDbPolyline
 62
2
  6
CONTINUOUS
 90
3
 70
0
 43
0.2500000019
 10
272.1253432617
 20
587.7556899414
 10
272.5538984985
 20
588.946175415
 10
272.5538984985
 20
580.3747451172
  0
LWPOLYLINE
  5
25D
100
AcDbEntity
  8
0
100
AcDbPolyline
 62
2
  6
CONTINUOUS
 90
3
 70
0
 43
0.2500000019
 10
266.9824711304
 20
561.8042042236
 10
267.4110496216
 20
562.9946896973
 10
267.4110496216
 20
554.4232593994
  0
LINE
  5
25E
100
AcDbEntity
  8
0
100
AcDbLine
 62
7
  6
CONTINUOUS
 10
493.1900462696
 20
109.0133166292
 11
616.3900462696
 21
109.0133166292
  0
LINE
  5
25F
100
AcDbEntity
  8
0
100
AcDbLine
 62
7
  6
CONTINUOUS
 10
346.4110528458
 20
109.8133166292
 11
200.4110528458
 21
109.8133166292
  0
LINE
  5
260
100
AcDbEntity
  8
0
100
AcDbLine
 62
7
  6
CONTINUOUS
 10
617.1900462696
 20
129.6502984677
 11
618.1900462696
 21
129.6502984677
  0
LWPOLYLINE
  5
261
100
AcDbEntity
  8
0
100
AcDbPolyline
 62
2
  6
CONTINUOUS
 90
25
 70
0
 43
0.2500000019
 10
275.9824799194
 20
586.8033294678
 10
276.125331665
 20
587.7556899414
 10
276.2681834106
 20
588.2318934326
 10
276.5539101563
 20
588.7080969238
 10
276.8396136475
 20
588.946175415
 10
277.4110438843
 20
589.1842539062
 10
277.9824741211
 20
589.1842539062
 10
278.5539043579
 20
588.946175415
 10
278.8396311035
 20
588.7080969238
 10
279.1253345947
 20
588.2318934326
 10
279.2681863403
 20
587.7556899414
 10
279.4110613403
 20
586.8033294678
 10
279.4110613403
 20
582.7557160645
 10
279.2681863403
 20
581.803309082
 10
279.1253345947
 20
581.3271055908
 10
278.8396311035
 20
580.8509486084
 10
278.5539043579
 20
580.6128236084
 10
277.9824741211
 20
580.3747451172
 10
277.4110438843
 20
580.3747451172
 10
276.8396136475
 20
580.6128236084
 10
276.5539101563
 20
580.8509486084
 10
276.2681834106
 20
581.3271055908
 10
276.125331665
 20
581.803309082
 10
275.9824799194
 20
582.7557160645
 10
275.9824799194
 20
586.8033294678
  0
LWPOLYLINE
  5
262
100
AcDbEntity
  8
0
100
AcDbPolyline
 62
2
  6
CONTINUOUS
 90
25
 70
0
 43
0.2500000019
 10
275.9824799194
 20
560.85184375
 10
276.125331665
 20
561.8042042236
 10
276.268206665
 20
562.2804077148
 10
276.5539101563
 20
562.7566112061
 10
276.8396136475
 20
562.9946896973
 10
277.4110438843
 20
563.2327681885
 10
277.9824741211
 20
563.2327681885
 10
278.5539043579
 20
562.9946896973
 10
278.8396311035
 20
562.7566112061
 10
279.1253345947
 20
562.2804077148
 10
279.2681863403
 20
561.8042042236
 10
279.4110613403
 20
560.85184375
 10
279.4110613403
 20
556.8042303467
 10
279.2681863403
 20
555.8518233643
 10
279.1253345947
 20
555.375619873
 10
278.8396311035
 20
554.8994628906
 10
278.5539043579
 20
554.6613378906
 10
277.9824741211
 20
554.4232593994
 10
277.4110438843
 20
554.4232593994
 10
276.8396136475
 20
554.6613378906
 10
276.5539101563
 20
554.8994628906
 10
276.268206665
 20
555.375619873
 10
276.125331665
 20
555.8518233643
 10
275.9824799194
 20
556.8042303467
 10
275.9824799194
 20
560.85184375
  0
LWPOLYLINE
  5
263
100
AcDbEntity
  8
0
100
AcDbPolyline
 62
2
  6
CONTINUOUS
 90
25
 70
0
 43
0.2500000019
 10
139.6965195923
 20
307.241881958
 10
138.7441358643
 20
307.3847337036
 10
138.2679556274
 20
307.5276087036
 10
137.7917637634
 20
307.8133121948
 10
137.5536620178
 20
308.0990389404
 10
137.3155718994
 20
308.6704691772
 10
137.3155718994
 20
309.2418994141
 10
137.5536620178
 20
309.8133063965
 10
137.7917637634
 20
310.0990331421
 10
138.2679556274
 20
310.3847366333
 10
138.7441358643
 20
310.5276116333
 10
139.6965195923
 20
310.6704633789
 10
143.7441446228
 20
310.6704633789
 10
144.6965167236
 20
310.5276116333
 10
145.1727085876
 20
310.3847366333
 10
145.6489004517
 20
310.0990331421
 10
145.8870021973
 20
309.8133063965
 10
146.1250923157
 20
309.2418994141
 10
146.1250923157
 20
308.6704691772
 10
145.8870021973
 20
308.0990389404
 10
145.6489004517
 20
307.8133121948
 10
145.1727085876
 20
307.5276087036
 10
144.6965167236
 20
307.3847337036
 10
143.7441446228
 20
307.241881958
 10
139.6965195923
 20
307.241881958
  0
LWPOLYLINE
  5
264
100
AcDbEntity
  8
0
100
AcDbPolyline
 62
2
  6
CONTINUOUS
 90
25
 70
0
 43
0.2500000019
 10
113.1955790405
 20
312.384730835
 10
112.2432069397
 20
312.5275825806
 10
111.7670150757
 20
312.6704575806
 10
111.2908232117
 20
312.9561610718
 10
111.0527214661
 20
313.2418878174
 10
110.8146313477
 20
313.8133180542
 10
110.8146313477
 20
314.3847250366
 10
111.0527214661
 20
314.9561552734
 10
111.2908232117
 20
315.241882019
 10
111.7670150757
 20
315.5275855103
 10
112.2432069397
 20
315.6704605103
 10
113.1955790405
 20
315.8133122559
 10
117.243204071
 20
315.8133122559
 10
118.1955877991
 20
315.6704605103
 10
118.6717680359
 20
315.5275855103
 10
119.1479598999
 20
315.241882019
 10
119.3860616455
 20
314.9561552734
 10
119.6241517639
 20
314.3847250366
 10
119.6241517639
 20
313.8133180542
 10
119.3860616455
 20
313.2418878174
 10
119.1479598999
 20
312.9561610718
 10
118.6717680359
 20
312.6704575806
 10
118.1955877991
 20
312.5275825806
 10
117.243204071
 20
312.384730835
 10
113.1955790405
 20
312.384730835
  0
LWPOLYLINE
  5
265
100
AcDbEntity
  8
0
100
AcDbPolyline
 62
2
  6
CONTINUOUS
 90
25
 70
0
 43
0.2500000019
 10
139.6965195923
 20
312.3847540894
 10
138.7441358643
 20
312.527605835
 10
138.2679556274
 20
312.6704575806
 10
137.7917637634
 20
312.9561843262
 10
137.5536620178
 20
313.2418878174
 10
137.3155718994
 20
313.8133180542
 10
137.3155718994
 20
314.384748291
 10
137.5536620178
 20
314.9561785278
 10
137.7917637634
 20
315.241882019
 10
138.2679556274
 20
315.5276087646
 10
138.7441358643
 20
315.6704605103
 10
139.6965195923
 20
315.8133122559
 10
143.7441446228
 20
315.8133122559
 10
144.6965167236
 20
315.6704605103
 10
145.1727085876
 20
315.5276087646
 10
145.6489004517
 20
315.241882019
 10
145.8870021973
 20
314.9561785278
 10
146.1250923157
 20
314.384748291
 10
146.1250923157
 20
313.8133180542
 10
145.8870021973
 20
313.2418878174
 10
145.6489004517
 20
312.9561843262
 10
145.1727085876
 20
312.6704575806
 10
144.6965167236
 20
312.527605835
 10
143.7441446228
 20
312.3847540894
 10
139.6965195923
 20
312.3847540894
  0
LINE
  5
266
100
AcDbEntity
  8
0
100
AcDbLine
 62
7
  6
CONTINUOUS
 10
358.4110528458
 20
497.8133166292
 11
358.4110528458
 21
121.8133166292
  0
LINE
  5
267
100
AcDbEntity
  8
0
100
AcDbLine
 62
7
  6
CONTINUOUS
 10
378.4110528458
 20
95.8133347907
 11
378.4110528458
 21
523.8132984677
  0
LWPOLYLINE
  5
268
100
AcDbEntity
  8
0
100
AcDbPolyline
 62
2
  6
CONTINUOUS
 90
25
 70
0
 43
0.2500000019
 10
323.3396358032
 20
78.2937985535
 10
323.4824875488
 20
79.2461764679
 10
323.6253392944
 20
79.7223683319
 10
323.9110427856
 20
80.1985601959
 10
324.1967695313
 20
80.4366561279
 10
324.7681997681
 20
80.6747462463
 10
325.3396300049
 20
80.6747462463
 10
325.9110602417
 20
80.4366561279
 10
326.1967637329
 20
80.1985601959
 10
326.4824904785
 20
79.7223683319
 10
326.6253422241
 20
79.2461764679
 10
326.7681939697
 20
78.2937985535
 10
326.7681939697
 20
74.2461793365
 10
326.6253422241
 20
73.2937956085
 10
326.4824904785
 20
72.8176037445
 10
326.1967637329
 20
72.3414176941
 10
325.9110602417
 20
72.1033217621
 10
325.3396300049
 20
71.8652258301
 10
324.7681997681
 20
71.8652258301
 10
324.1967695313
 20
72.1033217621
 10
323.9110427856
 20
72.3414176941
 10
323.6253392944
 20
72.8176037445
 10
323.4824875488
 20
73.2937956085
 10
323.3396358032
 20
74.2461793365
 10
323.3396358032
 20
78.2937985535
  0
LWPOLYLINE
  5
269
100
AcDbEntity
  8
0
100
AcDbPolyline
 62
2
  6
CONTINUOUS
 90
4
 70
0
 43
0.2500000019
 10
119.6241517639
 20
304.9561610107
 10
110.8146313477
 20
304.9561610107
 10
117.4812941895
 20
302.0990330811
 10
117.4812941895
 20
305.5275912476
  0
LWPOLYLINE
  5
26A
100
AcDbEntity
  8
0
100
AcDbPolyline
 62
2
  6
CONTINUOUS
 90
4
 70
0
 43
0.2500000019
 10
146.1250923157
 20
304.9561842651
 10
137.3155718994
 20
304.9561842651
 10
143.9822347412
 20
302.0990330811
 10
143.9822347412
 20
305.5275912476
  0
LWPOLYLINE
  5
26B
100
AcDbEntity
  8
0
100
AcDbPolyline
 62
2
  6
CONTINUOUS
 90
4
 70
0
 43
0.2500000019
 10
119.6241517639
 20
310.0990331421
 10
110.8146313477
 20
310.0990331421
 10
117.4812941895
 20
307.241881958
 10
117.4812941895
 20
310.6704401245
  0
LWPOLYLINE
  5
26C
100
AcDbEntity
  8
0
100
AcDbPolyline
 62
2
  6
CONTINUOUS
 90
17
 70
0
 43
0.2500000019
 10
319.4612446289
 20
488.6542971191
 10
319.1113357544
 20
489.5849844971
 10
319.0499906616
 20
490.1369042969
 10
319.1329623413
 20
490.4994868164
 10
319.4431992188
 20
491.0351750488
 10
319.8977296143
 20
491.3814794922
 10
320.4965535278
 20
491.5384001465
 10
320.8681122437
 20
491.5221685791
 10
321.3839644775
 20
491.3165532227
 10
321.7861957397
 20
491.0243850098
 10
322.33272052
 20
490.542786499
 10
322.4770140381
 20
490.35340271
 10
322.796296875
 20
489.6986519775
 10
323.1516705322
 20
484.2821453857
 10
323.3266365967
 20
483.8167784424
 10
323.6458961792
 20
483.1620742187
 10
326.3730552979
 20
485.2399473877
  0
LWPOLYLINE
  5
26D
100
AcDbEntity
  8
0
100
AcDbPolyline
 62
2
  6
CONTINUOUS
 90
3
 70
0
 43
0.2500000019
 10
316.1045890503
 20
486.6954399414
 10
315.723984375
 20
487.9021104736
 10
320.9187138062
 20
481.084154541
  0
LWPOLYLINE
  5
26E
100
AcDbEntity
  8
0
100
AcDbPolyline
 62
2
  6
CONTINUOUS
 90
3
 70
0
 43
0.2500000019
 10
319.4824758911
 20
79.2461764679
 10
319.9110543823
 20
80.4366561279
 10
319.9110543823
 20
71.8652258301
  0
LINE
  5
26F
100
AcDbEntity
  8
0
100
AcDbLine
 62
7
  6
CONTINUOUS
 10
474.3893310289
 20
451.6017431752
 11
474.2732941847
 21
451.3579062979
  0
LINE
  5
270
100
AcDbEntity
  8
0
100
AcDbLine
 62
7
  6
CONTINUOUS
 10
474.2732941847
 20
451.3579062979
 11
474.2427105179
 21
451.3070161756
  0
LINE
  5
271
100
AcDbEntity
  8
0
100
AcDbLine
 62
7
  6
CONTINUOUS
 10
472.0908819529
 20
447.8640907036
 11
474.2427103174
 21
451.3070160868
  0
LINE
  5
272
100
AcDbEntity
  8
0
100
AcDbLine
 62
7
  6
CONTINUOUS
 10
468.5679407031
 20
435.0203718653
 11
471.8786124128
 21
447.3759668928
  0
LINE
  5
273
100
AcDbEntity
  8
0
100
AcDbLine
 62
7
  6
CONTINUOUS
 10
474.4649410807
 20
451.85919142
 11
474.3893310289
 21
451.6017431752
  0
LINE
  5
274
100
AcDbEntity
  8
0
100
AcDbLine
 62
7
  6
CONTINUOUS
 10
471.8786124128
 20
447.3759668928
 11
472.0908819529
 21
447.8640907036
  0
LWPOLYLINE
  5
275
100
AcDbEntity
  8
0
100
AcDbPolyline
 62
2
  6
CONTINUOUS
 90
13
 70
0
 43
0.2500000019
 10
315.4643723145
 20
476.9284082031
 10
310.2696428833
 20
483.746317627
 10
312.0877644653
 20
485.1315819092
 10
312.6865883789
 20
485.2885025635
 10
313.0581470947
 20
485.2722709961
 10
313.3160848389
 20
485.1694865723
 10
313.8626096191
 20
484.6878880615
 10
314.4398069458
 20
483.9303529053
 10
314.7590665283
 20
483.2756021729
 10
314.7897158203
 20
482.9996190186
 10
314.706767395
 20
482.6370830078
 10
314.3965305176
 20
482.1013947754
 10
312.5784089355
 20
480.7161304932
  0
LINE
  5
276
100
AcDbEntity
  8
0
100
AcDbLine
 62
7
  6
CONTINUOUS
 10
476.6642136605
 20
470.3693130367
 11
476.065575692
 21
463.9122845694
  0
LINE
  5
277
100
AcDbEntity
  8
0
100
AcDbLine
 62
7
  6
CONTINUOUS
 10
476.065575692
 20
463.9122845694
 11
475.2881274453
 21
457.4613898385
  0
LINE
  5
278
100
AcDbEntity
  8
0
100
AcDbLine
 62
7
  6
CONTINUOUS
 10
475.2881274453
 20
457.4613898385
 11
474.4801960265
 21
451.9421560691
  0
LINE
  5
279
100
AcDbEntity
  8
0
100
AcDbLine
 62
7
  6
CONTINUOUS
 10
474.4801962826
 20
451.9421559944
 11
474.4649410807
 21
451.85919142
  0
LINE
  5
27A
100
AcDbEntity
  8
0
100
AcDbLine
 62
7
  6
CONTINUOUS
 10
474.3969816944
 20
328.0727829684
 11
475.2977879934
 21
295.741798145
  0
LINE
  5
27B
100
AcDbEntity
  8
0
100
AcDbLine
 62
7
  6
CONTINUOUS
 10
475.2977879934
 20
295.741798145
 11
476.0546682829
 21
262.5778519089
  0
LINE
  5
27C
100
AcDbEntity
  8
0
100
AcDbLine
 62
7
  6
CONTINUOUS
 10
476.0546682829
 20
262.5778519089
 11
476.6423378978
 21
229.4119661006
  0
LINE
  5
27D
100
AcDbEntity
  8
0
100
AcDbLine
 62
7
  6
CONTINUOUS
 10
476.6423378978
 20
229.4119661006
 11
477.0607737822
 21
196.2454355346
  0
LINE
  5
27E
100
AcDbEntity
  8
0
100
AcDbLine
 62
7
  6
CONTINUOUS
 10
477.0607737822
 20
196.2454355346
 11
477.3086360658
 21
163.2583232254
  0
LINE
  5
27F
100
AcDbEntity
  8
0
100
AcDbLine
 62
7
  6
CONTINUOUS
 10
468.5679407031
 20
344.6062613931
 11
468.5679407031
 21
435.0203718653
  0
LINE
  5
280
100
AcDbEntity
  8
0
100
AcDbLine
 62
7
  6
CONTINUOUS
 10
477.3900462696
 20
494.8133166292
 11
477.3900462696
 21
124.8133166292
  0
LINE
  5
281
100
AcDbEntity
  8
0
100
AcDbLine
 62
7
  6
CONTINUOUS
 10
477.3310699975
 20
483.8140123661
 11
477.3246767455
 21
483.2720687845
  0
LINE
  5
282
100
AcDbEntity
  8
0
100
AcDbLine
 62
7
  6
CONTINUOUS
 10
477.3246767455
 20
483.2720687845
 11
477.0837401842
 21
476.8250578459
  0
LINE
  5
283
100
AcDbEntity
  8
0
100
AcDbLine
 62
7
  6
CONTINUOUS
 10
477.0837401842
 20
476.8250578459
 11
476.6642136605
 21
470.3693130367
  0
LWPOLYLINE
  5
284
100
AcDbEntity
  8
0
100
AcDbPolyline
 62
2
  6
CONTINUOUS
 90
2
 70
0
 43
0.2500000019
 10
314.1692653198
 20
481.9282425537
 10
318.1915546875
 20
479.0062813721
  0
LINE
  5
285
100
AcDbEntity
  8
0
100
AcDbLine
 62
7
  6
CONTINUOUS
 10
472.0908819529
 20
331.7625425547
 11
474.3971812267
 21
328.0724637167
  0
LINE
  5
286
100
AcDbEntity
  8
0
100
AcDbLine
 62
7
  6
CONTINUOUS
 10
471.8786124128
 20
332.2506663656
 11
472.0908819529
 21
331.7625425547
  0
LINE
  5
287
100
AcDbEntity
  8
0
100
AcDbLine
 62
7
  6
CONTINUOUS
 10
468.5679407031
 20
344.6062613931
 11
471.8786124128
 21
332.2506663656
  0
LWPOLYLINE
  5
288
100
AcDbEntity
  8
0
100
AcDbPolyline
 62
2
  6
CONTINUOUS
 90
3
 70
0
 43
0.2500000019
 10
396.2045603027
 20
453.3847290039
 10
395.0140748291
 20
453.8133074951
 10
403.585505127
 20
453.8133074951
  0
LWPOLYLINE
  5
289
100
AcDbEntity
  8
0
100
AcDbPolyline
 62
2
  6
CONTINUOUS
 90
4
 70
0
 43
0.2500000019
 10
403.585505127
 20
460.0990168457
 10
394.7759963379
 20
460.0990168457
 10
401.4426591797
 20
457.241888916
 10
401.4426591797
 20
460.6704703369
  0
LWPOLYLINE
  5
28A
100
AcDbEntity
  8
0
100
AcDbPolyline
 62
2
  6
CONTINUOUS
 90
25
 70
0
 43
0.2500000019
 10
397.1569207764
 20
462.384737793
 10
396.2045603027
 20
462.527612793
 10
395.7283568115
 20
462.6704412842
 10
395.2521533203
 20
462.9561447754
 10
395.0140748291
 20
463.2418947754
 10
394.7759963379
 20
463.8133017578
 10
394.7759963379
 20
464.384755249
 10
395.0140748291
 20
464.9561622314
 10
395.2521533203
 20
465.2418657227
 10
395.7283568115
 20
465.5276157227
 10
396.2045603027
 20
465.6704442139
 10
397.1569207764
 20
465.8133192139
 10
401.2045341797
 20
465.8133192139
 10
402.1569411621
 20
465.6704442139
 10
402.6331446533
 20
465.5276157227
 10
403.1093016357
 20
465.2418657227
 10
403.3474266357
 20
464.9561622314
 10
403.585505127
 20
464.384755249
 10
403.585505127
 20
463.8133017578
 10
403.3474266357
 20
463.2418947754
 10
403.1093016357
 20
462.9561447754
 10
402.6331446533
 20
462.6704412842
 10
402.1569411621
 20
462.527612793
 10
401.2045341797
 20
462.384737793
 10
397.1569207764
 20
462.384737793
  0
LWPOLYLINE
  5
28B
100
AcDbEntity
  8
0
100
AcDbPolyline
 62
2
  6
CONTINUOUS
 90
4
 70
0
 43
0.2500000019
 10
548.0757553711
 20
77.2222186127
 10
548.0757553711
 20
86.0317390289
 10
545.2186274414
 20
79.3650761871
 10
548.6472088623
 20
79.3650761871
  0
LINE
  5
28C
100
AcDbEntity
  8
0
100
AcDbLine
 62
7
  6
CONTINUOUS
 10
617.1900462696
 20
489.9763166292
 11
618.1900462696
 21
489.9763166292
  0
LWPOLYLINE
  5
28D
100
AcDbEntity
  8
0
100
AcDbPolyline
 62
2
  6
CONTINUOUS
 90
25
 70
0
 43
0.2500000019
 10
550.3614763184
 20
83.6507913361
 10
550.5043513184
 20
84.6031692505
 10
550.6471798096
 20
85.0793611145
 10
550.9328833008
 20
85.5555529785
 10
551.2186333008
 20
85.7936489105
 10
551.7900402832
 20
86.0317390289
 10
552.3614937744
 20
86.0317390289
 10
552.9329007568
 20
85.7936489105
 10
553.218604248
 20
85.5555529785
 10
553.504354248
 20
85.0793611145
 10
553.6471827393
 20
84.6031692505
 10
553.7900577393
 20
83.6507913361
 10
553.7900577393
 20
79.6031721191
 10
553.6471827393
 20
78.6507883911
 10
553.504354248
 20
78.1745965271
 10
553.218604248
 20
77.6984104767
 10
552.9329007568
 20
77.4603145447
 10
552.3614937744
 20
77.2222186127
 10
551.7900402832
 20
77.2222186127
 10
551.2186333008
 20
77.4603145447
 10
550.9328833008
 20
77.6984104767
 10
550.6471798096
 20
78.1745965271
 10
550.5043513184
 20
78.6507883911
 10
550.3614763184
 20
79.6031721191
 10
550.3614763184
 20
83.6507913361
  0
LINE
  5
28E
100
AcDbEntity
  8
0
100
AcDbLine
 62
7
  6
CONTINUOUS
 10
200.4110528458
 20
509.8133166292
 11
346.4110528458
 21
509.8133166292
  0
LINE
  5
28F
100
AcDbEntity
  8
0
100
AcDbLine
 62
7
  6
CONTINUOUS
 10
493.1900489121
 20
510.6133166292
 11
616.3900462696
 21
510.6133166292
  0
LINE
  5
290
100
AcDbEntity
  8
0
100
AcDbLine
 62
7
  6
CONTINUOUS
 10
618.1900462696
 20
529.8132984677
 11
617.1900462696
 21
529.8132984677
  0
LINE
  5
291
100
AcDbEntity
  8
0
100
AcDbLine
 62
7
  6
CONTINUOUS
 10
372.4110528458
 20
529.8132984677
 11
174.4110528458
 21
529.8132984677
  0
LINE
  5
292
100
AcDbEntity
  8
0
100
AcDbLine
 62
7
  6
CONTINUOUS
 10
617.1900462696
 20
89.8133166292
 11
617.1900462696
 21
129.6502984677
  0
LINE
  5
293
100
AcDbEntity
  8
0
100
AcDbLine
 62
7
  6
CONTINUOUS
 10
617.1900462696
 20
489.9763166292
 11
617.1900462696
 21
529.8132984677
  0
LINE
  5
294
100
AcDbEntity
  8
0
100
AcDbLine
 62
7
  6
CONTINUOUS
 10
617.3900462696
 20
489.9763166292
 11
617.3900462696
 21
129.6503166292
  0
LINE
  5
295
100
AcDbEntity
  8
0
100
AcDbLine
 62
7
  6
CONTINUOUS
 10
618.1900462696
 20
529.8132984677
 11
618.1900462696
 21
89.8133166292
  0
LWPOLYLINE
  5
296
100
AcDbEntity
  8
0
100
AcDbPolyline
 62
2
  6
CONTINUOUS
 90
3
 70
0
 43
0.2500000019
 10
541.3614675293
 20
84.6031692505
 10
541.7900460205
 20
85.7936489105
 10
541.7900460205
 20
77.2222186127
  0
LWPOLYLINE
  5
297
100
AcDbEntity
  8
0
100
AcDbPolyline
 62
2
  6
CONTINUOUS
 90
9
 70
0
 43
0.2500000019
 10
270.8396310425
 20
562.9946896973
 10
274.268189209
 20
562.9946896973
 10
273.5539072266
 20
562.2804077148
 10
272.8396252441
 20
561.0899222412
 10
271.9824915161
 20
559.4232797852
 10
271.5539130249
 20
557.9946693115
 10
271.2681862793
 20
556.8042303467
 10
271.1253345337
 20
555.613744873
 10
271.1253345337
 20
554.4232593994
  0
ARC
  5
298
100
AcDbEntity
  8
0
100
AcDbCircle
 62
7
  6
CONTINUOUS
 10
-6126.9633076565
 20
130.7970530218
 40
6604.3533659469
100
AcDbArc
 50
0.0435162905
 51
1.7250991937
  0
CIRCLE
  5
299
100
AcDbEntity
  8
0
100
AcDbCircle
 62
7
  6
CONTINUOUS
 10
273.4110528458
 20
389.8133166292
 40
45.0
  0
ARC
  5
29A
100
AcDbEntity
  8
0
100
AcDbCircle
 62
7
  6
CONTINUOUS
 10
493.1900462696
 20
124.8133166292
 40
15.8
100
AcDbArc
 50
180.0
 51
270.0
  0
ARC
  5
29B
100
AcDbEntity
  8
0
100
AcDbCircle
 62
7
  6
CONTINUOUS
 10
493.1900462696
 20
494.8133166292
 40
15.8
100
AcDbArc
 50
90.0
 51
180.0
  0
ARC
  5
29C
100
AcDbEntity
  8
0
100
AcDbCircle
 62
7
  6
CONTINUOUS
 10
200.4110528458
 20
497.8133166292
 40
12.0
100
AcDbArc
 50
90.0
 51
180.0
  0
ARC
  5
29D
100
AcDbEntity
  8
0
100
AcDbCircle
 62
7
  6
CONTINUOUS
 10
346.4110528458
 20
497.8133166292
 40
12.0
100
AcDbArc
 50
0.0
 51
90.0
  0
ARC
  5
29E
100
AcDbEntity
  8
0
100
AcDbCircle
 62
7
  6
CONTINUOUS
 10
346.4110528458
 20
121.8133166292
 40
12.0
100
AcDbArc
 50
270.0
 51
360.0
  0
ARC
  5
29F
100
AcDbEntity
  8
0
100
AcDbCircle
 62
7
  6
CONTINUOUS
 10
200.4110528458
 20
121.8133166292
 40
12.0
100
AcDbArc
 50
180.0
 51
270.0
  0
ARC
  5
2A0
100
AcDbEntity
  8
0
100
AcDbCircle
 62
7
  6
CONTINUOUS
 10
372.4110528458
 20
523.8132984677
 40
6.0
100
AcDbArc
 50
0.0
 51
90.0
  0
ARC
  5
2A1
100
AcDbEntity
  8
0
100
AcDbCircle
 62
7
  6
CONTINUOUS
 10
372.4110528458
 20
95.8133347907
 40
6.0
100
AcDbArc
 50
270.0
 51
360.0
  0
ARC
  5
2A2
100
AcDbEntity
  8
0
100
AcDbCircle
 62
7
  6
CONTINUOUS
 10
174.4110710074
 20
95.8133166292
 40
6.0
100
AcDbArc
 50
180.0
 51
270.0
  0
ARC
  5
2A3
100
AcDbEntity
  8
0
100
AcDbCircle
 62
7
  6
CONTINUOUS
 10
174.4110528458
 20
523.8132984677
 40
6.0
100
AcDbArc
 50
90.0
 51
180.0
  0
ARC
  5
2A4
100
AcDbEntity
  8
0
100
AcDbCircle
 62
7
  6
CONTINUOUS
 10
616.3900462696
 20
511.6133166292
 40
1.0
100
AcDbArc
 50
270.0
 51
323.7679987385
  0
ARC
  5
2A5
100
AcDbEntity
  8
0
100
AcDbCircle
 62
7
  6
CONTINUOUS
 10
616.3900462696
 20
108.0133166292
 40
1.0
100
AcDbArc
 50
36.2319966692
 51
90.0
  0
ENDSEC
  0
SECTION
  2
OBJECTS
  0
DICTIONARY
  5
C
100
AcDbDictionary
280
0
281
1
  3
ACAD_GROUP
350
D
  3
ACAD_MLINESTYLE
350
17
  3
ACAD_LAYOUT
350
1A
  3
ACAD_PLOTSETTINGS
350
19
  3
ACAD_PLOTSTYLENAME
350
E
  0
DICTIONARY
  5
D
102
{ACAD_REACTORS
330
C
102
}
100
AcDbDictionary
280
0
281
1
  0
ACDBDICTIONARYWDFLT
  5
E
102
{ACAD_REACTORS
330
C
102
}
100
AcDbDictionary
281
1
  3
Normal
350
F
100
AcDbDictionaryWithDefault
340
F
  0
DICTIONARY
  5
17
102
{ACAD_REACTORS
330
C
102
}
100
AcDbDictionary
280
0
281
1
  3
Standard
350
18
  0
DICTIONARY
  5
19
102
{ACAD_REACTORS
330
C
102
}
100
AcDbDictionary
281
1
  0
DICTIONARY
  5
1A
102
{ACAD_REACTORS
330
C
102
}
100
AcDbDictionary
281
1
  3
Model
350
2A6
  3
Layout1
350
2A7
  0
ACDBPLACEHOLDER
  5
F
102
{ACAD_REACTORS
330
E
102
}
  0
MLINESTYLE
  5
18
102
{ACAD_REACTORS
330
17
102
}
100
AcDbMlineStyle
  2
STANDARD
 70
0
  3

 62
256
 51
90.0
 52
90.0
 71
2
 49
0.5
 62
256
  6
BYLAYER
 49
-0.5
 62
256
  6
BYLAYER
  0
LAYOUT
  5
2A6
102
{ACAD_REACTORS
330
1A
102
}
100
AcDbPlotSettings
  1

  2
none_device
  4

  6

 40
0.0
 41
0.0
 42
0.0
 43
0.0
 44
762.0
 45
635.0
 46
0.0
 47
0.0
 48
0.0
 49
0.0
140
0.0
141
0.0
142
1.0
143
1.0
 70
1024
 72
1
 73
0
 74
0
  7

 75
0
147
1.0
148
0.0
149
0.0
100
AcDbLayout
  1
Model
 70
0
 71
0
 10
0.0
 20
0.0
 11
762.0
 21
635.0
 12
0.0
 22
0.0
 32
0.0
 14
0.0
 24
0.0
 34
0.0
 15
0.0
 25
0.0
 35
0.0
146
0.0
 13
0.0
 23
0.0
 33
0.0
 16
1.0
 26
0.0
 36
0.0
 17
0.0
 27
1.0
 37
0.0
 76
0
330
1FF
345
0
346
0
  0
LAYOUT
  5
2A7
102
{ACAD_REACTORS
330
1A
102
}
100
AcDbPlotSettings
  1

  2
none_device
  4

  6

 40
0.0
 41
0.0
 42
0.0
 43
0.0
 44
762.0
 45
635.0
 46
0.0
 47
0.0
 48
0.0
 49
0.0
140
0.0
141
0.0
142
1.0
143
1.0
 70
0
 72
1
 73
0
 74
0
  7

 75
0
147
1.0
148
0.0
149
0.0
100
AcDbLayout
  1
Layout1
 70
0
 71
1
 10
0.0
 20
0.0
 11
762.0
 21
635.0
 12
0.0
 22
0.0
 32
0.0
 14
0.0
 24
0.0
 34
0.0
 15
0.0
 25
0.0
 35
0.0
146
0.0
 13
0.0
 23
0.0
 33
0.0
 16
1.0
 26
0.0
 36
0.0
 17
0.0
 27
1.0
 37
0.0
 76
0
330
200
345
0
346
0
  0
ENDSEC
  0
EOF
