999
DXF file: W:\Engenharia\Produtos\Cubas\Quadrum\cubas_quadrum_2.dxf
999
Pro/ENGINEER 2012230 by Parametric Technology Corporation
  0
SECTION
  2
HEADER
  9
$ACADVER
  1
AC1018
  9
$DWGCODEPAGE
  3
ANSI_1252
  9
$EXTMAX
 10
812.8
 20
635.0
 30
0.0
  9
$EXTMIN
 10
0.0
 20
0.0
 30
0.0
  9
$LIMMIN
 10
0.0
 20
0.0
  9
$LIMMAX
 10
812.8
 20
635.0
  9
$VIEWCTR
 10
406.4
 20
317.5
  9
$VIEWSIZE
 40
635.0
  9
$CLAYER
  8
0
  9
$LTSCALE
 40
44.704
  9
$CELTYPE
  6
BYLAYER
  9
$DIMSCALE
 40
1.0
  9
$DIMASZ
 40
3.0
  9
$DIMEXO
 40
0.5
  9
$DIMDLI
 40
30.8864
  9
$DIMEXE
 40
0.5
  9
$DIMCEN
 40
7.3152
  9
$DIMLFAC
 40
1.0
  9
$DIMBLK
  1
_FILLED
  9
$DIMTXT
 40
1.8
  9
$DIMTOL
 70
1
  9
$DIMLIM
 70
0
  9
$DIMTFAC
 40
1.0
  9
$DIMTP
 40
0.001
  9
$DIMTM
 40
0.001
  9
$DIMGAP
 40
0.625
  9
$DIMDSEP
 70
46
  9
$PDMODE
 70
3
  9
$PDSIZE
 40
1.0
  9
$HANDSEED
  5
2B2
  9
$TILEMODE
 70
1
  9
$MEASUREMENT
 70
1
  9
$INSUNITS
 70
4
  0
ENDSEC
  0
SECTION
  2
CLASSES
  0
CLASS
  1
ACDBDICTIONARYWDFLT
  2
AcDbDictionaryWithDefault
  3
AutoCAD 2000
 90
0
 91
1
280
0
281
0
  0
CLASS
  1
ACDBPLACEHOLDER
  2
AcDbPlaceHolder
  3
AutoCAD 2000
 90
0
 91
1
280
0
281
0
  0
CLASS
  1
LAYOUT
  2
AcDbLayout
  3
AutoCAD 2000
 90
0
 91
0
280
0
281
0
  0
ENDSEC
  0
SECTION
  2
TABLES
  0
TABLE
  2
VPORT
  5
8
100
AcDbSymbolTable
 70
2
  0
VPORT
  5
1F4
100
AcDbSymbolTableRecord
100
AcDbViewportTableRecord
  2
*ACTIVE
 70
0
 10
0.0
 20
0.0
 11
1.0
 21
1.0
 12
406.4
 22
317.5
 13
0.0
 23
0.0
 14
1.0
 24
1.0
 15
0.0
 25
0.0
 16
0.0
 26
0.0
 36
1.0
 17
0.0
 27
0.0
 37
0.0
 40
635.0
 41
1.28
 42
50.0
 43
0.0
 44
0.0
 50
0.0
 51
0.0
 71
0
 72
100
 73
1
 74
1
 75
0
 76
0
 77
0
 78
0
  0
ENDTAB
  0
TABLE
  2
LTYPE
  5
5
100
AcDbSymbolTable
 70
6
  0
LTYPE
  5
14
100
AcDbSymbolTableRecord
100
AcDbLinetypeTableRecord
  2
BYBLOCK
 70
0
  3

 72
65
 73
0
 40
0.0
  0
LTYPE
  5
15
100
AcDbSymbolTableRecord
100
AcDbLinetypeTableRecord
  2
BYLAYER
 70
0
  3

 72
65
 73
0
 40
0.0
  0
LTYPE
  5
16
100
AcDbSymbolTableRecord
100
AcDbLinetypeTableRecord
  2
CONTINUOUS
 70
64
  3
Solid line
 72
65
 73
0
 40
0.0
  0
LTYPE
  5
1F5
100
AcDbSymbolTableRecord
100
AcDbLinetypeTableRecord
  2
CENTER
 70
64
  3
____ _ ____ _ ____ _ ____ _ ____ _ ____ _ ____
 72
65
 73
4
 40
0.6
 49
0.375
 74
0
 49
-0.075
 74
0
 49
0.075
 74
0
 49
-0.075
 74
0
  0
LTYPE
  5
1F6
100
AcDbSymbolTableRecord
100
AcDbLinetypeTableRecord
  2
HIDDEN
 70
64
  3
- - - - - - - - - - - - - - - - - - - -
 72
65
 73
2
 40
0.2
 49
0.1
 74
0
 49
-0.1
 74
0
  0
LTYPE
  5
1F7
100
AcDbSymbolTableRecord
100
AcDbLinetypeTableRecord
  2
PHANTOM
 70
64
  3
_____ _ _ _____ _ _ _____ _ _ _____
 72
65
 73
6
 40
0.8
 49
0.45
 74
0
 49
-0.05
 74
0
 49
0.1
 74
0
 49
-0.05
 74
0
 49
0.1
 74
0
 49
-0.05
 74
0
  0
LTYPE
  5
1F8
100
AcDbSymbolTableRecord
100
AcDbLinetypeTableRecord
  2
DOT
 70
64
  3
. . . . . . . . . . . . . . . . . . . .
 72
65
 73
2
 40
0.2
 49
0.1
 74
0
 49
-0.1
 74
0
  0
LTYPE
  5
1F9
100
AcDbSymbolTableRecord
100
AcDbLinetypeTableRecord
  2
DASHED
 70
64
  3
- - - - - - - - - - - - - - - - - - - -
 72
65
 73
2
 40
0.2
 49
0.1
 74
0
 49
-0.1
 74
0
  0
ENDTAB
  0
TABLE
  2
LAYER
  5
2
100
AcDbSymbolTable
 70
36
  0
LAYER
  5
10
100
AcDbSymbolTableRecord
100
AcDbLayerTableRecord
  2
0
 70
0
 62
7
  6
CONTINUOUS
370
-3
390
F
  0
LAYER
  5
1FA
100
AcDbSymbolTableRecord
100
AcDbLayerTableRecord
  2
DEFAULT_1
 70
0
 62
7
  6
CENTER
370
-3
390
F
  0
LAYER
  5
1FB
100
AcDbSymbolTableRecord
100
AcDbLayerTableRecord
  2
DEFAULT_2
 70
0
 62
8
  6
HIDDEN
370
-3
390
F
  0
LAYER
  5
1FC
100
AcDbSymbolTableRecord
100
AcDbLayerTableRecord
  2
DEFAULT_3
 70
0
 62
7
  6
PHANTOM
370
-3
390
F
  0
ENDTAB
  0
TABLE
  2
STYLE
  5
3
100
AcDbSymbolTable
 70
1
  0
STYLE
  5
11
100
AcDbSymbolTableRecord
100
AcDbTextStyleTableRecord
  2
STANDARD
 70
0
 40
0.0
 41
0.8
 50
0.0
 71
0
 42
0.2
  3
txt
  4

  0
STYLE
  5
1FD
100
AcDbSymbolTableRecord
100
AcDbTextStyleTableRecord
  2
TEXTSTYLE_1
 70
0
 40
0.0
 41
0.8
 50
0.0
 71
0
 42
0.2
  3
gdt
  4

  0
ENDTAB
  0
TABLE
  2
VIEW
  5
6
100
AcDbSymbolTable
 70
0
  0
ENDTAB
  0
TABLE
  2
UCS
  5
7
100
AcDbSymbolTable
 70
0
  0
ENDTAB
  0
TABLE
  2
APPID
  5
9
100
AcDbSymbolTable
 70
1
  0
APPID
  5
1FE
100
AcDbSymbolTableRecord
100
AcDbRegAppTableRecord
  2
ACAD
 70
0
  0
ENDTAB
  0
TABLE
  2
BLOCK_RECORD
  5
1
100
AcDbSymbolTable
 70
0
  0
BLOCK_RECORD
  5
1FF
100
AcDbSymbolTableRecord
100
AcDbBlockTableRecord
  2
*Model_Space
  0
BLOCK_RECORD
  5
200
100
AcDbSymbolTableRecord
100
AcDbBlockTableRecord
  2
*Paper_Space
  0
BLOCK_RECORD
  5
201
100
AcDbSymbolTableRecord
100
AcDbBlockTableRecord
  2
_FILLED
  0
BLOCK_RECORD
  5
202
100
AcDbSymbolTableRecord
100
AcDbBlockTableRecord
  2
*D0
  0
BLOCK_RECORD
  5
203
100
AcDbSymbolTableRecord
100
AcDbBlockTableRecord
  2
*D1
  0
BLOCK_RECORD
  5
204
100
AcDbSymbolTableRecord
100
AcDbBlockTableRecord
  2
*D2
  0
BLOCK_RECORD
  5
205
100
AcDbSymbolTableRecord
100
AcDbBlockTableRecord
  2
*D3
  0
BLOCK_RECORD
  5
206
100
AcDbSymbolTableRecord
100
AcDbBlockTableRecord
  2
*D4
  0
BLOCK_RECORD
  5
207
100
AcDbSymbolTableRecord
100
AcDbBlockTableRecord
  2
*D5
  0
BLOCK_RECORD
  5
208
100
AcDbSymbolTableRecord
100
AcDbBlockTableRecord
  2
*D6
  0
BLOCK_RECORD
  5
209
100
AcDbSymbolTableRecord
100
AcDbBlockTableRecord
  2
*D7
  0
ENDTAB
  0
TABLE
  2
DIMSTYLE
  5
A
100
AcDbSymbolTable
 70
1
100
AcDbDimStyleTable
 71
0
  0
DIMSTYLE
105
20A
100
AcDbSymbolTableRecord
100
AcDbDimStyleTableRecord
  2
STANDARD
 70
0
  3

  4

 40
1.0
 41
3.0
 42
0.5
 43
0.38
 44
0.5
 45
0.0
 46
0.0
 47
0.001
 48
0.001
140
1.8
141
0.09
142
0.0
143
25.4
144
1.0
145
0.0
146
1.0
147
0.625
 71
1.0
 72
0.0
 73
0
 74
0
 75
0
 76
0
 77
1
 78
8
170
0
171
2
172
0
173
0
174
0
175
0
176
0
177
0
178
0
270
2
271
3
272
3
273
2
274
2
275
0
280
0
281
0
282
0
283
1
284
8
285
0
286
0
287
3
288
0
340
11
278
46
341
201
342
201
343
201
344
201
  0
DIMSTYLE
105
20B
100
AcDbSymbolTableRecord
100
AcDbDimStyleTableRecord
  2
DIMSTYLE_1
 70
0
  3

  4

 40
1.0
 41
3.0
 42
0.5
 43
0.38
 44
0.5
 45
0.0
 46
0.0
 47
0.5
 48
0.5
140
5.0
141
0.09
142
0.0
143
25.4
144
1.0
145
0.0
146
1.0
147
1.25
 71
0.0
 72
0.0
 73
0
 74
0
 75
0
 76
0
 77
1
 78
8
170
0
171
2
172
0
173
0
174
0
175
0
176
0
177
0
178
0
270
2
271
3
272
3
273
2
274
2
275
0
280
0
281
0
282
0
283
1
284
8
285
0
286
0
287
3
288
0
340
11
278
46
341
201
342
201
343
201
344
201
  0
DIMSTYLE
105
20C
100
AcDbSymbolTableRecord
100
AcDbDimStyleTableRecord
  2
DIMSTYLE_2
 70
0
  3

  4

 40
1.0
 41
3.0
 42
0.5
 43
0.38
 44
0.5
 45
0.0
 46
0.0
 47
0.2
 48
0.2
140
5.0
141
0.09
142
0.0
143
25.4
144
1.0
145
0.0
146
1.0
147
0.625
 71
0.0
 72
0.0
 73
0
 74
0
 75
0
 76
0
 77
1
 78
8
170
0
171
2
172
0
173
0
174
0
175
0
176
0
177
0
178
0
270
2
271
3
272
3
273
2
274
2
275
0
280
0
281
0
282
0
283
1
284
8
285
0
286
0
287
3
288
0
340
11
278
46
341
201
342
201
343
201
344
201
  0
ENDTAB
  0
ENDSEC
  0
SECTION
  2
BLOCKS
  0
BLOCK
  5
20
100
AcDbEntity
  8
0
100
AcDbBlockBegin
  2
*Model_Space
 70
0
 10
0.0
 20
0.0
 30
0.0
  3
*Model_Space
  1

  0
ENDBLK
  5
21
100
AcDbEntity
  8
0
100
AcDbBlockEnd
  0
BLOCK
  5
1C
100
AcDbEntity
  8
0
100
AcDbBlockBegin
  2
*Paper_Space
 70
0
 10
0.0
 20
0.0
 30
0.0
  3
*Paper_Space
  1

  0
ENDBLK
  5
1D
100
AcDbEntity
  8
0
100
AcDbBlockEnd
  0
BLOCK
  5
20D
100
AcDbEntity
  8
0
100
AcDbBlockBegin
  2
_FILLED
 70
64
 10
0.0
 20
0.0
  3
_FILLED
  1

  0
SOLID
  5
20E
100
AcDbEntity
  8
0
  6
BYBLOCK
 62
0
100
AcDbTrace
 10
0.0
 20
0.0
 11
-1.0
 21
0.1666666667
 12
-1.0
 22
-0.1666666667
 13
-1.0
 23
-0.1666666667
  0
ENDBLK
  5
20F
100
AcDbEntity
  8
0
  6
BYBLOCK
 62
0
100
AcDbBlockEnd
  0
BLOCK
  5
210
100
AcDbEntity
  8
0
100
AcDbBlockBegin
 62
2
  6
CONTINUOUS
  2
*D0
 70
65
 10
0.0
 20
0.0
  3
*D0
  1

  0
LINE
  5
211
100
AcDbEntity
  8
0
100
AcDbLine
 62
2
  6
CONTINUOUS
 10
91.5549610552
 20
485.6762150213
 11
91.5549575682
 21
548.6517149272
  0
LINE
  5
212
100
AcDbEntity
  8
0
100
AcDbLine
 62
2
  6
CONTINUOUS
 10
471.5549610552
 20
485.6762150213
 11
471.5549575682
 21
548.651735968
  0
LINE
  5
213
100
AcDbEntity
  8
0
100
AcDbLine
 62
2
  6
CONTINUOUS
 10
91.5549575959
 20
548.1517149272
 11
281.5549575959
 21
548.1517254476
  0
LINE
  5
214
100
AcDbEntity
  8
0
100
AcDbLine
 62
2
  6
CONTINUOUS
 10
471.5549575959
 20
548.151735968
 11
281.5549575959
 21
548.1517254476
  0
INSERT
  5
215
100
AcDbEntity
  8
0
100
AcDbBlockReference
 62
2
  6
CONTINUOUS
  2
_FILLED
 10
91.5549575959
 20
548.1517149272
 41
3.0
 42
3.0
 43
3.0
 50
180.0000031725
  0
INSERT
  5
216
100
AcDbEntity
  8
0
100
AcDbBlockReference
 62
2
  6
CONTINUOUS
  2
_FILLED
 10
471.5549575959
 20
548.151735968
 41
3.0
 42
3.0
 43
3.0
 50
0.0000031725
  0
ENDBLK
  5
217
100
AcDbEntity
  8
0
  6
BYBLOCK
 62
0
100
AcDbBlockEnd
  0
BLOCK
  5
218
100
AcDbEntity
  8
0
100
AcDbBlockBegin
 62
2
  6
CONTINUOUS
  2
*D1
 70
65
 10
0.0
 20
0.0
  3
*D1
  1

  0
LINE
  5
219
100
AcDbEntity
  8
0
100
AcDbLine
 62
2
  6
CONTINUOUS
 10
111.5549610829
 20
459.6762331828
 11
111.5549610829
 21
519.0945984119
  0
LINE
  5
21A
100
AcDbEntity
  8
0
100
AcDbLine
 62
2
  6
CONTINUOUS
 10
451.5549610829
 20
459.6762331828
 11
451.5549610829
 21
519.0945984119
  0
LINE
  5
21B
100
AcDbEntity
  8
0
100
AcDbLine
 62
2
  6
CONTINUOUS
 10
111.5549610829
 20
518.5945984119
 11
281.5549610829
 21
518.5945984119
  0
LINE
  5
21C
100
AcDbEntity
  8
0
100
AcDbLine
 62
2
  6
CONTINUOUS
 10
451.5549610829
 20
518.5945984119
 11
281.5549610829
 21
518.5945984119
  0
INSERT
  5
21D
100
AcDbEntity
  8
0
100
AcDbBlockReference
 62
2
  6
CONTINUOUS
  2
_FILLED
 10
111.5549610829
 20
518.5945984119
 41
3.0
 42
3.0
 43
3.0
 50
180.0
  0
INSERT
  5
21E
100
AcDbEntity
  8
0
100
AcDbBlockReference
 62
2
  6
CONTINUOUS
  2
_FILLED
 10
451.5549610829
 20
518.5945984119
 41
3.0
 42
3.0
 43
3.0
  0
ENDBLK
  5
21F
100
AcDbEntity
  8
0
  6
BYBLOCK
 62
0
100
AcDbBlockEnd
  0
BLOCK
  5
220
100
AcDbEntity
  8
0
100
AcDbBlockBegin
 62
2
  6
CONTINUOUS
  2
*D2
 70
65
 10
0.0
 20
0.0
  3
*D2
  1

  0
LINE
  5
221
100
AcDbEntity
  8
0
100
AcDbLine
 62
2
  6
CONTINUOUS
 10
123.0549610829
 20
471.1762331828
 11
69.7558957816
 21
471.1762331828
  0
LINE
  5
222
100
AcDbEntity
  8
0
100
AcDbLine
 62
2
  6
CONTINUOUS
 10
123.0549610829
 20
171.1762331828
 11
69.7558957816
 21
171.1762331828
  0
LINE
  5
223
100
AcDbEntity
  8
0
100
AcDbLine
 62
2
  6
CONTINUOUS
 10
70.2558957816
 20
471.1762331828
 11
70.2558957816
 21
321.1762331828
  0
LINE
  5
224
100
AcDbEntity
  8
0
100
AcDbLine
 62
2
  6
CONTINUOUS
 10
70.2558957816
 20
171.1762331828
 11
70.2558957816
 21
321.1762331828
  0
INSERT
  5
225
100
AcDbEntity
  8
0
100
AcDbBlockReference
 62
2
  6
CONTINUOUS
  2
_FILLED
 10
70.2558957816
 20
471.1762331828
 41
3.0
 42
3.0
 43
3.0
 50
90.0
  0
INSERT
  5
226
100
AcDbEntity
  8
0
100
AcDbBlockReference
 62
2
  6
CONTINUOUS
  2
_FILLED
 10
70.2558957816
 20
171.1762331828
 41
3.0
 42
3.0
 43
3.0
 50
270.0
  0
ENDBLK
  5
227
100
AcDbEntity
  8
0
  6
BYBLOCK
 62
0
100
AcDbBlockEnd
  0
BLOCK
  5
228
100
AcDbEntity
  8
0
100
AcDbBlockBegin
 62
2
  6
CONTINUOUS
  2
*D3
 70
65
 10
0.0
 20
0.0
  3
*D3
  1

  0
LINE
  5
229
100
AcDbEntity
  8
0
100
AcDbLine
 62
2
  6
CONTINUOUS
 10
97.0549610829
 20
491.1762150213
 11
43.1815712159
 21
491.1762150213
  0
LINE
  5
22A
100
AcDbEntity
  8
0
100
AcDbLine
 62
2
  6
CONTINUOUS
 10
97.0549792444
 20
151.1762331828
 11
43.1815712159
 21
151.1762331828
  0
LINE
  5
22B
100
AcDbEntity
  8
0
100
AcDbLine
 62
2
  6
CONTINUOUS
 10
43.6815712159
 20
491.1762150213
 11
43.6815712159
 21
321.176224102
  0
LINE
  5
22C
100
AcDbEntity
  8
0
100
AcDbLine
 62
2
  6
CONTINUOUS
 10
43.6815712159
 20
151.1762331828
 11
43.6815712159
 21
321.176224102
  0
INSERT
  5
22D
100
AcDbEntity
  8
0
100
AcDbBlockReference
 62
2
  6
CONTINUOUS
  2
_FILLED
 10
43.6815712159
 20
491.1762150213
 41
3.0
 42
3.0
 43
3.0
 50
90.0
  0
INSERT
  5
22E
100
AcDbEntity
  8
0
100
AcDbBlockReference
 62
2
  6
CONTINUOUS
  2
_FILLED
 10
43.6815712159
 20
151.1762331828
 41
3.0
 42
3.0
 43
3.0
 50
270.0
  0
ENDBLK
  5
22F
100
AcDbEntity
  8
0
  6
BYBLOCK
 62
0
100
AcDbBlockEnd
  0
BLOCK
  5
230
100
AcDbEntity
  8
0
100
AcDbBlockBegin
 62
2
  6
CONTINUOUS
  2
*D4
 70
65
 10
0.0
 20
0.0
  3
*D4
  1

  0
LINE
  5
231
100
AcDbEntity
  8
0
100
AcDbLine
 62
2
  6
CONTINUOUS
 10
732.9811954631
 20
149.5381965823
 11
732.9811954631
 21
130.5374877512
  0
LINE
  5
232
100
AcDbEntity
  8
0
100
AcDbLine
 62
2
  6
CONTINUOUS
 10
562.1811954631
 20
184.5381965823
 11
562.1811954631
 21
130.5374877512
  0
LINE
  5
233
100
AcDbEntity
  8
0
100
AcDbLine
 62
2
  6
CONTINUOUS
 10
732.9811954631
 20
131.0374877512
 11
647.5811954631
 21
131.0374877512
  0
LINE
  5
234
100
AcDbEntity
  8
0
100
AcDbLine
 62
2
  6
CONTINUOUS
 10
562.1811954631
 20
131.0374877512
 11
647.5811954631
 21
131.0374877512
  0
INSERT
  5
235
100
AcDbEntity
  8
0
100
AcDbBlockReference
 62
2
  6
CONTINUOUS
  2
_FILLED
 10
732.9811954631
 20
131.0374877512
 41
3.0
 42
3.0
 43
3.0
  0
INSERT
  5
236
100
AcDbEntity
  8
0
100
AcDbBlockReference
 62
2
  6
CONTINUOUS
  2
_FILLED
 10
562.1811954631
 20
131.0374877512
 41
3.0
 42
3.0
 43
3.0
 50
180.0
  0
ENDBLK
  5
237
100
AcDbEntity
  8
0
  6
BYBLOCK
 62
0
100
AcDbBlockEnd
  0
BLOCK
  5
238
100
AcDbEntity
  8
0
100
AcDbBlockBegin
 62
2
  6
CONTINUOUS
  2
*D5
 70
65
 10
0.0
 20
0.0
  3
*D5
  1

  0
LINE
  5
239
100
AcDbEntity
  8
0
100
AcDbLine
 62
2
  6
CONTINUOUS
 10
466.0549610829
 20
491.1762150213
 11
502.537617866
 21
491.1762150213
  0
LINE
  5
23A
100
AcDbEntity
  8
0
100
AcDbLine
 62
2
  6
CONTINUOUS
 10
285.3061610829
 20
351.1762331828
 11
502.537617866
 21
351.1762331828
  0
LINE
  5
23B
100
AcDbEntity
  8
0
100
AcDbLine
 62
2
  6
CONTINUOUS
 10
502.037617866
 20
491.1762150213
 11
502.037617866
 21
421.176224102
  0
LINE
  5
23C
100
AcDbEntity
  8
0
100
AcDbLine
 62
2
  6
CONTINUOUS
 10
502.037617866
 20
351.1762331828
 11
502.037617866
 21
421.176224102
  0
INSERT
  5
23D
100
AcDbEntity
  8
0
100
AcDbBlockReference
 62
2
  6
CONTINUOUS
  2
_FILLED
 10
502.037617866
 20
491.1762150213
 41
3.0
 42
3.0
 43
3.0
 50
90.0
  0
INSERT
  5
23E
100
AcDbEntity
  8
0
100
AcDbBlockReference
 62
2
  6
CONTINUOUS
  2
_FILLED
 10
502.037617866
 20
351.1762331828
 41
3.0
 42
3.0
 43
3.0
 50
270.0
  0
ENDBLK
  5
23F
100
AcDbEntity
  8
0
  6
BYBLOCK
 62
0
100
AcDbBlockEnd
  0
BLOCK
  5
240
100
AcDbEntity
  8
0
100
AcDbBlockBegin
 62
2
  6
CONTINUOUS
  2
*D6
 70
65
 10
0.0
 20
0.0
  3
*D6
  1

  0
LINE
  5
241
100
AcDbEntity
  8
0
100
AcDbLine
 62
2
  6
CONTINUOUS
 10
471.5549428937
 20
156.6762331828
 11
471.5549408218
 21
119.2581599568
  0
LINE
  5
242
100
AcDbEntity
  8
0
100
AcDbLine
 62
2
  6
CONTINUOUS
 10
281.5549608617
 20
347.1811931828
 11
281.5549482415
 21
119.2581704771
  0
LINE
  5
243
100
AcDbEntity
  8
0
100
AcDbLine
 62
2
  6
CONTINUOUS
 10
471.5549408495
 20
119.7581599568
 11
376.5549445593
 21
119.7581652169
  0
LINE
  5
244
100
AcDbEntity
  8
0
100
AcDbLine
 62
2
  6
CONTINUOUS
 10
281.5549482692
 20
119.7581704771
 11
376.5549445593
 21
119.7581652169
  0
INSERT
  5
245
100
AcDbEntity
  8
0
100
AcDbBlockReference
 62
2
  6
CONTINUOUS
  2
_FILLED
 10
471.5549408495
 20
119.7581599568
 41
3.0
 42
3.0
 43
3.0
 50
359.9999968275
  0
INSERT
  5
246
100
AcDbEntity
  8
0
100
AcDbBlockReference
 62
2
  6
CONTINUOUS
  2
_FILLED
 10
281.5549482692
 20
119.7581704771
 41
3.0
 42
3.0
 43
3.0
 50
179.9999968275
  0
ENDBLK
  5
247
100
AcDbEntity
  8
0
  6
BYBLOCK
 62
0
100
AcDbBlockEnd
  0
BLOCK
  5
248
100
AcDbEntity
  8
0
100
AcDbBlockBegin
 62
2
  6
CONTINUOUS
  2
*D7
 70
65
 10
0.0
 20
0.0
  3
*D7
  1

  0
LINE
  5
249
100
AcDbEntity
  8
0
100
AcDbLine
 62
2
  6
CONTINUOUS
 10
448.6628094531
 20
466.9894974216
 11
414.5661970795
 21
437.7393571803
  0
INSERT
  5
24A
100
AcDbEntity
  8
0
100
AcDbBlockReference
 62
2
  6
CONTINUOUS
  2
_FILLED
 10
448.6628094531
 20
466.9894974216
 41
3.0
 42
3.0
 43
3.0
 50
40.624992702
  0
ENDBLK
  5
24B
100
AcDbEntity
  8
0
  6
BYBLOCK
 62
0
100
AcDbBlockEnd
  0
ENDSEC
  0
SECTION
  2
ENTITIES
  0
DIMENSION
  5
24C
100
AcDbEntity
  8
0
100
AcDbDimension
 62
2
  6
CONTINUOUS
  2
*D0
 10
471.5549575959
 20
548.151735968
 11
273.8406720003
 21
548.1517250205
 70
160
 71
2
 42
380.0
  3
DIMSTYLE_1
100
AcDbAlignedDimension
 13
91.5549610829
 23
485.1762150213
 14
471.5549610829
 24
485.1762150213
 50
0.0000031725
100
AcDbRotatedDimension
  0
DIMENSION
  5
24D
100
AcDbEntity
  8
0
100
AcDbDimension
 62
2
  6
CONTINUOUS
  2
*D1
 10
451.5549610829
 20
518.5945984119
 11
273.8406753686
 21
518.5945984119
 70
160
 71
2
 42
340.0
  3
DIMSTYLE_1
100
AcDbAlignedDimension
 13
111.5549610829
 23
459.1762331828
 14
451.5549610829
 24
459.1762331828
100
AcDbRotatedDimension
  0
DIMENSION
  5
24E
100
AcDbEntity
  8
0
100
AcDbDimension
 62
2
  6
CONTINUOUS
  2
*D2
 10
70.2558957816
 20
171.1762331828
 11
70.2558957816
 21
313.4619474685
 70
160
 71
2
 42
300.0
  3
DIMSTYLE_1
100
AcDbAlignedDimension
 13
123.5549610829
 23
471.1762331828
 14
123.5549610829
 24
171.1762331828
 50
270.0
100
AcDbRotatedDimension
  0
DIMENSION
  5
24F
100
AcDbEntity
  8
0
100
AcDbDimension
 62
2
  6
CONTINUOUS
  2
*D3
 10
43.6815712159
 20
151.1762331828
 11
43.6815712159
 21
313.4619383877
 70
160
 71
2
 42
339.9999818385
  3
DIMSTYLE_1
100
AcDbAlignedDimension
 13
97.5549610829
 23
491.1762150213
 14
97.5549792444
 24
151.1762331828
 50
270.0
100
AcDbRotatedDimension
  0
DIMENSION
  5
250
100
AcDbEntity
  8
0
100
AcDbDimension
 62
2
  6
CONTINUOUS
  2
*D4
 10
562.1811954631
 20
131.0374877512
 11
639.8669097488
 21
131.0374877512
 70
160
 71
2
 42
170.8
  3
DIMSTYLE_1
100
AcDbAlignedDimension
 13
732.9811954631
 23
150.0381965823
 14
562.1811954631
 24
185.0381965823
 50
180.0
100
AcDbRotatedDimension
  0
DIMENSION
  5
251
100
AcDbEntity
  8
0
100
AcDbDimension
 62
2
  6
CONTINUOUS
  2
*D5
 10
502.037617866
 20
351.1762331828
 11
502.037617866
 21
413.4619383877
 70
160
 71
2
 42
139.9999818385
  3
DIMSTYLE_1
100
AcDbAlignedDimension
 13
465.5549610829
 23
491.1762150213
 14
284.8061610829
 24
351.1762331828
 50
270.0
100
AcDbRotatedDimension
  0
DIMENSION
  5
252
100
AcDbEntity
  8
0
100
AcDbDimension
 62
2
  6
CONTINUOUS
  2
*D6
 10
281.5549482692
 20
119.7581704771
 11
368.8406587264
 21
119.7581656441
 70
160
 71
2
 42
189.9999925804
  3
DIMSTYLE_1
100
AcDbAlignedDimension
 13
471.5549429214
 23
157.1762331828
 14
281.5549608894
 24
347.6811931828
 50
179.9999968275
100
AcDbRotatedDimension
  0
DIMENSION
  5
253
100
AcDbEntity
  8
0
100
AcDbDimension
 62
2
  6
CONTINUOUS
  2
*D7
 10
439.5549610829
 20
459.1762331828
 11
413.1709713226
 21
439.365758675
 70
164
 71
3
 42
12.0
  1
<>
  3
DIMSTYLE_2
100
AcDbRadialDimension
 15
448.6628094531
 25
466.9894974216
  0
LWPOLYLINE
  5
254
100
AcDbEntity
  8
0
100
AcDbPolyline
 62
2
  6
CONTINUOUS
 90
19
 70
0
 43
0.2500000019
 10
32.9672869385
 20
313.4619457031
 10
32.9672869385
 20
316.8904992187
 10
36.5387154541
 20
315.1762224609
 10
36.7768094482
 20
315.8904982422
 10
37.0149034424
 20
316.3190736328
 10
37.4910945312
 20
316.6047988281
 10
37.9672856201
 20
316.7476490234
 10
38.6815707031
 20
316.8904992187
 10
39.3958557861
 20
316.8904992187
 10
40.1101439697
 20
316.7476490234
 10
40.586331958
 20
316.6047988281
 10
41.0625230469
 20
316.3190736328
 10
41.3006201416
 20
316.0333732422
 10
41.5387141357
 20
315.4619476563
 10
41.5387141357
 20
314.8905220703
 10
41.3006201416
 20
314.3190716797
 10
41.0625230469
 20
314.0333712891
 10
40.586331958
 20
313.7476460938
 10
39.6339528809
 20
313.4619457031
  0
LWPOLYLINE
  5
255
100
AcDbEntity
  8
0
100
AcDbPolyline
 62
2
  6
CONTINUOUS
 90
19
 70
0
 43
0.2500000019
 10
59.5416121582
 20
313.4619457031
 10
59.5416121582
 20
316.8905240234
 10
63.1130406738
 20
315.1762224609
 10
63.351134668
 20
315.8905230469
 10
63.5892286621
 20
316.3190984375
 10
64.0654166504
 20
316.6047988281
 10
64.5416108398
 20
316.7476738281
 10
65.2558928223
 20
316.8905240234
 10
65.9701810059
 20
316.8905240234
 10
66.6844691895
 20
316.7476738281
 10
67.1606571777
 20
316.6047988281
 10
67.636845166
 20
316.3190984375
 10
67.8749453613
 20
316.0333732422
 10
68.1130393555
 20
315.4619476563
 10
68.1130393555
 20
314.8905220703
 10
67.8749453613
 20
314.3190964844
 10
67.636845166
 20
314.0333712891
 10
67.1606571777
 20
313.7476708984
 10
66.208275
 20
313.4619457031
  0
LINE
  5
256
100
AcDbEntity
  8
0
100
AcDbLine
 62
7
  6
CONTINUOUS
 10
91.5549610829
 20
485.1762150213
 11
91.5549792444
 21
157.1762331828
  0
LINE
  5
257
100
AcDbEntity
  8
0
100
AcDbLine
 62
7
  6
CONTINUOUS
 10
111.5549610829
 20
183.1762331828
 11
111.5549610829
 21
459.1762331828
  0
LWPOLYLINE
  5
258
100
AcDbEntity
  8
0
100
AcDbPolyline
 62
2
  6
CONTINUOUS
 90
9
 70
0
 43
0.2500000019
 10
645.0097828125
 20
141.7517693359
 10
648.4383363281
 20
141.7517693359
 10
647.7240605469
 20
141.0374935547
 10
647.0097847656
 20
139.8470173828
 10
646.1526339844
 20
138.1803408203
 10
645.7240585937
 20
136.7517768555
 10
645.4383582031
 20
135.5613006836
 10
645.2954832031
 20
134.3708245117
 10
645.2954832031
 20
133.1803483398
  0
LINE
  5
259
100
AcDbEntity
  8
0
100
AcDbLine
 62
7
  6
CONTINUOUS
 10
732.9811954631
 20
150.0381965823
 11
731.9811954631
 21
150.0381965823
  0
LWPOLYLINE
  5
25A
100
AcDbEntity
  8
0
100
AcDbPolyline
 62
2
  6
CONTINUOUS
 90
25
 70
0
 43
0.2500000019
 10
284.126384375
 20
556.723153125
 10
284.2692345703
 20
557.6755539063
 10
284.4121095703
 20
558.1517046875
 10
284.6978099609
 20
558.6279050781
 10
284.9835351563
 20
558.8660300781
 10
285.5549607422
 20
559.1041054688
 10
286.1263863281
 20
559.1041054688
 10
286.6978119141
 20
558.8660300781
 10
286.9835371094
 20
558.6279050781
 10
287.2692375
 20
558.1517046875
 10
287.4121125
 20
557.6755539063
 10
287.5549626953
 20
556.723153125
 10
287.5549626953
 20
552.6755242187
 10
287.4121125
 20
551.7231730469
 10
287.2692375
 20
551.2469726563
 10
286.9835371094
 20
550.7707722656
 10
286.6978119141
 20
550.532696875
 10
286.1263863281
 20
550.294571875
 10
285.5549607422
 20
550.294571875
 10
284.9835351563
 20
550.532696875
 10
284.6978099609
 20
550.7707722656
 10
284.4121095703
 20
551.2469726563
 10
284.2692345703
 20
551.7231730469
 10
284.126384375
 20
552.6755242187
 10
284.126384375
 20
556.723153125
  0
LWPOLYLINE
  5
25B
100
AcDbEntity
  8
0
100
AcDbPolyline
 62
2
  6
CONTINUOUS
 90
25
 70
0
 43
0.2500000019
 10
284.126384375
 20
527.1660363281
 10
284.2692345703
 20
528.1183875
 10
284.4121095703
 20
528.5945878906
 10
284.6978099609
 20
529.0707882812
 10
284.9835351563
 20
529.3088636719
 10
285.5549607422
 20
529.5469886719
 10
286.1263863281
 20
529.5469886719
 10
286.6978119141
 20
529.3088636719
 10
286.9835371094
 20
529.0707882812
 10
287.2692375
 20
528.5945878906
 10
287.4121125
 20
528.1183875
 10
287.5549626953
 20
527.1660363281
 10
287.5549626953
 20
523.1184074219
 10
287.4121125
 20
522.1660066406
 10
287.2692375
 20
521.6898558594
 10
286.9835371094
 20
521.2136554687
 10
286.6978119141
 20
520.9755304687
 10
286.1263863281
 20
520.7374550781
 10
285.5549607422
 20
520.7374550781
 10
284.9835351563
 20
520.9755304687
 10
284.6978099609
 20
521.2136554687
 10
284.4121095703
 20
521.6898558594
 10
284.2692345703
 20
522.1660066406
 10
284.126384375
 20
523.1184074219
 10
284.126384375
 20
527.1660363281
  0
LINE
  5
25C
100
AcDbEntity
  8
0
100
AcDbLine
 62
7
  6
CONTINUOUS
 10
97.5549792444
 20
151.1762331828
 11
465.5549429214
 21
151.1762331828
  0
LINE
  5
25D
100
AcDbEntity
  8
0
100
AcDbLine
 62
7
  6
CONTINUOUS
 10
577.9811954631
 20
169.2381965823
 11
731.1811954631
 21
169.2381965823
  0
LINE
  5
25E
100
AcDbEntity
  8
0
100
AcDbLine
 62
7
  6
CONTINUOUS
 10
439.5549610829
 20
171.1762331828
 11
123.5549610829
 21
171.1762331828
  0
LWPOLYLINE
  5
25F
100
AcDbEntity
  8
0
100
AcDbPolyline
 62
2
  6
CONTINUOUS
 90
4
 70
0
 43
0.2500000019
 10
281.8406820312
 20
520.7374550781
 10
281.8406820312
 20
529.5469886719
 10
278.9835292969
 20
522.8803320312
 10
282.4121076172
 20
522.8803320312
  0
LINE
  5
260
100
AcDbEntity
  8
0
100
AcDbLine
 62
7
  6
CONTINUOUS
 10
731.9811954631
 20
189.8751784208
 11
732.9811954631
 21
189.8751784208
  0
LWPOLYLINE
  5
261
100
AcDbEntity
  8
0
100
AcDbPolyline
 62
2
  6
CONTINUOUS
 90
11
 70
0
 43
0.2500000019
 10
373.9835228516
 20
123.5676885742
 10
374.2692232422
 20
122.8534003906
 10
374.5549484375
 20
122.3772124023
 10
374.8406488281
 20
122.139112207
 10
375.4120992187
 20
121.9010244141
 10
375.9835248047
 20
121.9010244141
 10
376.5549503906
 20
122.139112207
 10
376.8406507812
 20
122.3772124023
 10
377.1263759766
 20
122.8534003906
 10
377.2692261719
 20
123.3295883789
 10
377.4120763672
 20
124.2819767578
  0
LWPOLYLINE
  5
262
100
AcDbEntity
  8
0
100
AcDbPolyline
 62
2
  6
CONTINUOUS
 90
25
 70
0
 43
0.2500000019
 10
377.4120763672
 20
124.2819767578
 10
377.4120763672
 20
128.567693457
 10
377.2692261719
 20
129.2819692383
 10
377.1263759766
 20
129.7581696289
 10
376.8406507812
 20
130.2343576172
 10
376.5549503906
 20
130.4724454102
 10
375.9835248047
 20
130.7105456055
 10
375.4120992187
 20
130.7105456055
 10
374.8406488281
 20
130.4724454102
 10
374.5549484375
 20
130.2343576172
 10
374.2692232422
 20
129.7581696289
 10
374.1263730469
 20
129.2819692383
 10
373.9835228516
 20
128.567693457
 10
373.9835228516
 20
127.6153050781
 10
374.1263730469
 20
126.9010168945
 10
374.2692232422
 20
126.4248289062
 10
374.5549484375
 20
125.948640918
 10
374.8406488281
 20
125.7105407227
 10
375.4120992187
 20
125.4724529297
 10
375.9835248047
 20
125.4724529297
 10
376.5549503906
 20
125.7105407227
 10
376.8406507812
 20
125.948640918
 10
377.1263759766
 20
126.4248289062
 10
377.2692261719
 20
126.9010168945
 10
377.4120763672
 20
127.6153050781
  0
LWPOLYLINE
  5
263
100
AcDbEntity
  8
0
100
AcDbPolyline
 62
2
  6
CONTINUOUS
 90
25
 70
0
 43
0.2500000019
 10
61.6844643066
 20
318.6048007812
 10
60.7320883301
 20
318.7476509766
 10
60.2558941406
 20
318.8905259766
 10
59.7797061523
 20
319.1762263672
 10
59.5416121582
 20
319.4619515625
 10
59.3035119629
 20
320.0333771484
 10
59.3035119629
 20
320.6048027344
 10
59.5416121582
 20
321.1762283203
 10
59.7797061523
 20
321.4619535156
 10
60.2558941406
 20
321.7476539063
 10
60.7320883301
 20
321.8905289062
 10
61.6844643066
 20
322.0333791016
 10
65.7320870117
 20
322.0333791016
 10
66.6844691895
 20
321.8905289062
 10
67.1606571777
 20
321.7476539063
 10
67.636845166
 20
321.4619535156
 10
67.8749453613
 20
321.1762283203
 10
68.1130393555
 20
320.6048027344
 10
68.1130393555
 20
320.0333771484
 10
67.8749453613
 20
319.4619515625
 10
67.636845166
 20
319.1762263672
 10
67.1606571777
 20
318.8905259766
 10
66.6844691895
 20
318.7476509766
 10
65.7320870117
 20
318.6048007812
 10
61.6844643066
 20
318.6048007812
  0
LWPOLYLINE
  5
264
100
AcDbEntity
  8
0
100
AcDbPolyline
 62
2
  6
CONTINUOUS
 90
25
 70
0
 43
0.2500000019
 10
35.1101421875
 20
323.7476558594
 10
34.1577631104
 20
323.8905060547
 10
33.6815720215
 20
324.03335625
 10
33.2053809326
 20
324.3190814453
 10
32.9672869385
 20
324.6048066406
 10
32.7291898437
 20
325.1762322266
 10
32.7291898437
 20
325.7476578125
 10
32.9672869385
 20
326.3190833984
 10
33.2053809326
 20
326.6047837891
 10
33.6815720215
 20
326.8905089844
 10
34.1577631104
 20
327.0333591797
 10
35.1101421875
 20
327.1762341797
 10
39.157761792
 20
327.1762341797
 10
40.1101439697
 20
327.0333591797
 10
40.586331958
 20
326.8905089844
 10
41.0625230469
 20
326.6047837891
 10
41.3006201416
 20
326.3190833984
 10
41.5387141357
 20
325.7476578125
 10
41.5387141357
 20
325.1762322266
 10
41.3006201416
 20
324.6048066406
 10
41.0625230469
 20
324.3190814453
 10
40.586331958
 20
324.03335625
 10
40.1101439697
 20
323.8905060547
 10
39.157761792
 20
323.7476558594
 10
35.1101421875
 20
323.7476558594
  0
LWPOLYLINE
  5
265
100
AcDbEntity
  8
0
100
AcDbPolyline
 62
2
  6
CONTINUOUS
 90
25
 70
0
 43
0.2500000019
 10
61.6844643066
 20
323.7476558594
 10
60.7320883301
 20
323.8905308594
 10
60.2558941406
 20
324.0333810547
 10
59.7797061523
 20
324.3190814453
 10
59.5416121582
 20
324.6048066406
 10
59.3035119629
 20
325.1762322266
 10
59.3035119629
 20
325.7476578125
 10
59.5416121582
 20
326.3190833984
 10
59.7797061523
 20
326.6048085938
 10
60.2558941406
 20
326.8905089844
 10
60.7320883301
 20
327.0333839844
 10
61.6844643066
 20
327.1762341797
 10
65.7320870117
 20
327.1762341797
 10
66.6844691895
 20
327.0333839844
 10
67.1606571777
 20
326.8905089844
 10
67.636845166
 20
326.6048085938
 10
67.8749453613
 20
326.3190833984
 10
68.1130393555
 20
325.7476578125
 10
68.1130393555
 20
325.1762322266
 10
67.8749453613
 20
324.6048066406
 10
67.636845166
 20
324.3190814453
 10
67.1606571777
 20
324.0333810547
 10
66.6844691895
 20
323.8905308594
 10
65.7320870117
 20
323.7476558594
 10
61.6844643066
 20
323.7476558594
  0
LWPOLYLINE
  5
266
100
AcDbEntity
  8
0
100
AcDbPolyline
 62
2
  6
CONTINUOUS
 90
25
 70
0
 43
0.2500000019
 10
379.1263779297
 20
128.3295932617
 10
379.269228125
 20
129.2819692383
 10
379.4120783203
 20
129.7581696289
 10
379.6978035156
 20
130.2343576172
 10
379.9835039063
 20
130.4724454102
 10
380.5549542969
 20
130.7105456055
 10
381.1263798828
 20
130.7105456055
 10
381.6978054688
 20
130.4724454102
 10
381.9835058594
 20
130.2343576172
 10
382.2692310547
 20
129.7581696289
 10
382.41208125
 20
129.2819692383
 10
382.55495625
 20
128.3295932617
 10
382.55495625
 20
124.2819767578
 10
382.41208125
 20
123.3295883789
 10
382.2692310547
 20
122.8534003906
 10
381.9835058594
 20
122.3772124023
 10
381.6978054688
 20
122.139112207
 10
381.1263798828
 20
121.9010244141
 10
380.5549542969
 20
121.9010244141
 10
379.9835039063
 20
122.139112207
 10
379.6978035156
 20
122.3772124023
 10
379.4120783203
 20
122.8534003906
 10
379.269228125
 20
123.3295883789
 10
379.1263779297
 20
124.2819767578
 10
379.1263779297
 20
128.3295932617
  0
LWPOLYLINE
  5
267
100
AcDbEntity
  8
0
100
AcDbPolyline
 62
2
  6
CONTINUOUS
 90
3
 70
0
 43
0.2500000019
 10
370.1263691406
 20
129.2819692383
 10
370.5549445312
 20
130.4724454102
 10
370.5549445312
 20
121.9010244141
  0
LWPOLYLINE
  5
268
100
AcDbEntity
  8
0
100
AcDbPolyline
 62
2
  6
CONTINUOUS
 90
4
 70
0
 43
0.2500000019
 10
41.5387141357
 20
321.4619287109
 10
32.7291898437
 20
321.4619287109
 10
39.3958557861
 20
318.6048007812
 10
39.3958557861
 20
322.0333791016
  0
LINE
  5
269
100
AcDbEntity
  8
0
100
AcDbLine
 62
7
  6
CONTINUOUS
 10
451.5549610829
 20
459.1762331828
 11
451.5549610829
 21
183.1762331828
  0
LWPOLYLINE
  5
26A
100
AcDbEntity
  8
0
100
AcDbPolyline
 62
2
  6
CONTINUOUS
 90
3
 70
0
 43
0.2500000019
 10
413.2444070312
 20
449.1535082031
 10
412.7945492187
 20
450.3360964844
 10
418.3754550781
 20
443.830471875
  0
LINE
  5
26B
100
AcDbEntity
  8
0
100
AcDbLine
 62
7
  6
CONTINUOUS
 10
471.5549429214
 20
157.1762331828
 11
471.5549610829
 21
485.1762150213
  0
LINE
  5
26C
100
AcDbEntity
  8
0
100
AcDbLine
 62
7
  6
CONTINUOUS
 10
557.1740741665
 20
411.7677057942
 11
557.1490551313
 21
411.7206936873
  0
LINE
  5
26D
100
AcDbEntity
  8
0
100
AcDbLine
 62
7
  6
CONTINUOUS
 10
557.1490551313
 20
411.7206936873
 11
557.1221042929
 21
411.6736952813
  0
LINE
  5
26E
100
AcDbEntity
  8
0
100
AcDbLine
 62
7
  6
CONTINUOUS
 10
557.1221042929
 20
411.6736952813
 11
557.1026333692
 21
411.6417656001
  0
LINE
  5
26F
100
AcDbEntity
  8
0
100
AcDbLine
 62
7
  6
CONTINUOUS
 10
554.8820311464
 20
408.0889706567
 11
557.097405521
 21
411.633569656
  0
LWPOLYLINE
  5
270
100
AcDbEntity
  8
0
100
AcDbPolyline
 62
2
  6
CONTINUOUS
 90
13
 70
0
 43
0.2500000019
 10
413.1709603516
 20
439.3657769531
 10
407.5900792969
 20
445.8713519531
 10
409.3248943359
 20
447.3595835938
 10
409.9136335937
 20
447.5509765625
 10
410.2855054687
 20
447.5562847656
 10
410.5489560547
 20
447.4685753906
 10
411.1224652344
 20
447.0194617187
 10
411.7425576172
 20
446.2966035156
 10
412.0991994141
 20
445.6614546875
 10
412.1458074219
 20
445.3877597656
 10
412.0839693359
 20
445.0209976563
 10
411.8052886719
 20
444.4682003906
 10
410.0704736328
 20
442.97996875
  0
LWPOLYLINE
  5
271
100
AcDbEntity
  8
0
100
AcDbPolyline
 62
2
  6
CONTINUOUS
 90
17
 70
0
 43
0.2500000019
 10
416.4819644531
 20
451.3034792969
 10
416.0787146484
 20
452.2123230469
 10
415.9855234375
 20
452.7598121094
 10
416.0473615234
 20
453.1265246094
 10
416.3260421875
 20
453.679321875
 10
416.7597273438
 20
454.0513921875
 10
417.3484914062
 20
454.2427355469
 10
417.7203632813
 20
454.24804375
 10
418.2472644531
 20
454.072625
 10
418.6657195312
 20
453.8042382812
 10
419.2392535156
 20
453.3551246094
 10
419.3942828125
 20
453.1743976562
 10
419.7509246094
 20
452.5392488281
 10
420.4194109375
 20
447.1524148438
 10
420.6210730469
 20
446.6979929687
 10
420.9777148437
 20
446.0628441406
 10
423.579925
 20
448.2952164063
  0
LINE
  5
272
100
AcDbEntity
  8
0
100
AcDbLine
 62
7
  6
CONTINUOUS
 10
557.2877595605
 20
412.0490446742
 11
557.2728040104
 21
412.0022135489
  0
LINE
  5
273
100
AcDbEntity
  8
0
100
AcDbLine
 62
7
  6
CONTINUOUS
 10
557.2728040104
 20
412.0022135489
 11
557.2563481801
 21
411.9554205824
  0
LINE
  5
274
100
AcDbEntity
  8
0
100
AcDbLine
 62
7
  6
CONTINUOUS
 10
557.2563481801
 20
411.9554205824
 11
557.2383123997
 21
411.908575965
  0
LINE
  5
275
100
AcDbEntity
  8
0
100
AcDbLine
 62
7
  6
CONTINUOUS
 10
557.2383123997
 20
411.908575965
 11
557.2186309801
 21
411.8616656512
  0
LINE
  5
276
100
AcDbEntity
  8
0
100
AcDbLine
 62
7
  6
CONTINUOUS
 10
554.6697616063
 20
407.6008468459
 11
554.8820311464
 21
408.0889706567
  0
LINE
  5
277
100
AcDbEntity
  8
0
100
AcDbLine
 62
7
  6
CONTINUOUS
 10
557.2186309801
 20
411.8616656512
 11
557.1972413973
 21
411.8147038815
  0
LINE
  5
278
100
AcDbEntity
  8
0
100
AcDbLine
 62
7
  6
CONTINUOUS
 10
557.1972413973
 20
411.8147038815
 11
557.1740741665
 21
411.7677057942
  0
LWPOLYLINE
  5
279
100
AcDbEntity
  8
0
100
AcDbPolyline
 62
2
  6
CONTINUOUS
 90
4
 70
0
 43
0.2500000019
 10
499.8947707031
 20
421.4619519531
 10
491.0852371094
 20
421.4619519531
 10
497.75189375
 20
418.6047992188
 10
497.75189375
 20
422.0333527344
  0
LWPOLYLINE
  5
27A
100
AcDbEntity
  8
0
100
AcDbPolyline
 62
2
  6
CONTINUOUS
 90
2
 70
0
 43
0.2500000019
 10
411.5884460938
 20
444.2822148438
 10
415.7732201172
 20
441.5980996094
  0
LINE
  5
27B
100
AcDbEntity
  8
0
100
AcDbLine
 62
7
  6
CONTINUOUS
 10
554.8820311464
 20
291.9874225078
 11
556.9948655809
 21
288.6068874126
  0
LINE
  5
27C
100
AcDbEntity
  8
0
100
AcDbLine
 62
7
  6
CONTINUOUS
 10
556.9948671244
 20
288.6068849655
 11
557.0222518723
 21
288.561510681
  0
LINE
  5
27D
100
AcDbEntity
  8
0
100
AcDbLine
 62
7
  6
CONTINUOUS
 10
551.3590898967
 20
304.8311413462
 11
551.3590898967
 21
395.2452518184
  0
LINE
  5
27E
100
AcDbEntity
  8
0
100
AcDbLine
 62
7
  6
CONTINUOUS
 10
561.6810016757
 20
437.2103702286
 11
560.983983582
 21
430.7398082898
  0
LINE
  5
27F
100
AcDbEntity
  8
0
100
AcDbLine
 62
7
  6
CONTINUOUS
 10
560.983983582
 20
430.7398082898
 11
559.9791708589
 21
424.2220419805
  0
LINE
  5
280
100
AcDbEntity
  8
0
100
AcDbLine
 62
7
  6
CONTINUOUS
 10
559.9791708589
 20
424.2220419805
 11
558.6647962149
 21
417.6784035187
  0
LINE
  5
281
100
AcDbEntity
  8
0
100
AcDbLine
 62
7
  6
CONTINUOUS
 10
558.6647962149
 20
417.6784035187
 11
557.3048865344
 21
412.1086514787
  0
LINE
  5
282
100
AcDbEntity
  8
0
100
AcDbLine
 62
7
  6
CONTINUOUS
 10
551.3590898967
 20
395.2452518184
 11
554.6697616063
 21
407.6008468459
  0
LINE
  5
283
100
AcDbEntity
  8
0
100
AcDbLine
 62
7
  6
CONTINUOUS
 10
557.3046834834
 20
412.1087045541
 11
557.3011961091
 21
412.0957066214
  0
LINE
  5
284
100
AcDbEntity
  8
0
100
AcDbLine
 62
7
  6
CONTINUOUS
 10
557.3011961091
 20
412.0957066214
 11
557.2877595605
 21
412.0490446742
  0
LINE
  5
285
100
AcDbEntity
  8
0
100
AcDbLine
 62
7
  6
CONTINUOUS
 10
731.9811954631
 20
450.2011965823
 11
732.9811954631
 21
450.2011965823
  0
LWPOLYLINE
  5
286
100
AcDbEntity
  8
0
100
AcDbPolyline
 62
2
  6
CONTINUOUS
 90
25
 70
0
 43
0.2500000019
 10
493.4661894531
 20
423.7476542969
 10
492.5137886719
 20
423.8905292969
 10
492.0376378906
 20
424.0333546875
 10
491.5614375
 20
424.3191046875
 10
491.3233125
 20
424.6048050781
 10
491.0852371094
 20
425.1762058594
 10
491.0852371094
 20
425.74765625
 10
491.3233125
 20
426.3190570312
 10
491.5614375
 20
426.6048070313
 10
492.0376378906
 20
426.8905074219
 10
492.5137886719
 20
427.0333824219
 10
493.4661894531
 20
427.1762078125
 10
497.5138183594
 20
427.1762078125
 10
498.4661695312
 20
427.0333824219
 10
498.9423699219
 20
426.8905074219
 10
499.4185703125
 20
426.6048070313
 10
499.6566457031
 20
426.3190570312
 10
499.8947707031
 20
425.74765625
 10
499.8947707031
 20
425.1762058594
 10
499.6566457031
 20
424.6048050781
 10
499.4185703125
 20
424.3191046875
 10
498.9423699219
 20
424.0333546875
 10
498.4661695312
 20
423.8905292969
 10
497.5138183594
 20
423.7476542969
 10
493.4661894531
 20
423.7476542969
  0
LWPOLYLINE
  5
287
100
AcDbEntity
  8
0
100
AcDbPolyline
 62
2
  6
CONTINUOUS
 90
3
 70
0
 43
0.2500000019
 10
492.5137886719
 20
414.7476703125
 10
491.3233125
 20
415.1762457031
 10
499.8947707031
 20
415.1762457031
  0
LINE
  5
288
100
AcDbEntity
  8
0
100
AcDbLine
 62
7
  6
CONTINUOUS
 10
557.0222518723
 20
288.561510681
 11
557.1483424138
 21
288.2938867834
  0
LINE
  5
289
100
AcDbEntity
  8
0
100
AcDbLine
 62
7
  6
CONTINUOUS
 10
554.6697616063
 20
292.4755463186
 11
554.8820311464
 21
291.9874225078
  0
LINE
  5
28A
100
AcDbEntity
  8
0
100
AcDbLine
 62
7
  6
CONTINUOUS
 10
557.1483424138
 20
288.2938867834
 11
557.226125654
 21
288.0084656601
  0
LINE
  5
28B
100
AcDbEntity
  8
0
100
AcDbLine
 62
7
  6
CONTINUOUS
 10
551.3590898967
 20
304.8311413462
 11
554.6697616063
 21
292.4755463186
  0
LINE
  5
28C
100
AcDbEntity
  8
0
100
AcDbLine
 62
7
  6
CONTINUOUS
 10
557.226125654
 20
288.0084656601
 11
557.2445026472
 21
287.8783169225
  0
LINE
  5
28D
100
AcDbEntity
  8
0
100
AcDbLine
 62
7
  6
CONTINUOUS
 10
557.2445026595
 20
287.8783169203
 11
558.6943309331
 21
272.4251339455
  0
LINE
  5
28E
100
AcDbEntity
  8
0
100
AcDbLine
 62
7
  6
CONTINUOUS
 10
558.6943309331
 20
272.4251339455
 11
559.9630771674
 21
255.9508733174
  0
LINE
  5
28F
100
AcDbEntity
  8
0
100
AcDbLine
 62
7
  6
CONTINUOUS
 10
559.9630771674
 20
255.9508733174
 11
560.9460957079
 21
239.4764292162
  0
LINE
  5
290
100
AcDbEntity
  8
0
100
AcDbLine
 62
7
  6
CONTINUOUS
 10
560.9460957079
 20
239.4764292162
 11
561.6431266633
 21
223.0092089133
  0
LINE
  5
291
100
AcDbEntity
  8
0
100
AcDbLine
 62
7
  6
CONTINUOUS
 10
561.6431266633
 20
223.0092089133
 11
562.054424564
 21
206.5566196467
  0
LINE
  5
292
100
AcDbEntity
  8
0
100
AcDbLine
 62
7
  6
CONTINUOUS
 10
562.054424564
 20
206.5566196467
 11
562.1403528984
 21
196.037862937
  0
LINE
  5
293
100
AcDbEntity
  8
0
100
AcDbLine
 62
7
  6
CONTINUOUS
 10
562.1811954631
 20
455.0381965823
 11
562.1811954631
 21
185.0381965823
  0
LINE
  5
294
100
AcDbEntity
  8
0
100
AcDbLine
 62
7
  6
CONTINUOUS
 10
562.0842397877
 20
444.0400773703
 11
562.0759434192
 21
443.6123949388
  0
LINE
  5
295
100
AcDbEntity
  8
0
100
AcDbLine
 62
7
  6
CONTINUOUS
 10
562.0759434192
 20
443.6123949388
 11
561.6810016757
 21
437.2103702286
  0
LINE
  5
296
100
AcDbEntity
  8
0
100
AcDbLine
 62
7
  6
CONTINUOUS
 10
577.9811982178
 20
470.8381965823
 11
731.1811954631
 21
470.8381965823
  0
LINE
  5
297
100
AcDbEntity
  8
0
100
AcDbLine
 62
7
  6
CONTINUOUS
 10
123.5549610829
 20
471.1762331828
 11
439.5549610829
 21
471.1762331828
  0
LINE
  5
298
100
AcDbEntity
  8
0
100
AcDbLine
 62
7
  6
CONTINUOUS
 10
732.9811954631
 20
490.0381784208
 11
731.9811954631
 21
490.0381784208
  0
LINE
  5
299
100
AcDbEntity
  8
0
100
AcDbLine
 62
7
  6
CONTINUOUS
 10
465.5549610829
 20
491.1762150213
 11
97.5549610829
 21
491.1762150213
  0
LWPOLYLINE
  5
29A
100
AcDbEntity
  8
0
100
AcDbPolyline
 62
2
  6
CONTINUOUS
 90
43
 70
0
 43
0.2500000019
 10
280.2692554687
 20
554.8184011719
 10
279.6978050781
 20
555.0564765625
 10
279.4121046875
 20
555.2946015625
 10
279.2692544922
 20
555.5326769531
 10
279.1263794922
 20
556.0088773437
 10
278.9835292969
 20
556.723153125
 10
278.9835292969
 20
557.1993535156
 10
279.1263794922
 20
557.9136292969
 10
279.2692544922
 20
558.3898296875
 10
279.4121046875
 20
558.6279050781
 10
279.6978050781
 20
558.8660300781
 10
280.4121056641
 20
559.1041054688
 10
280.98353125
 20
559.1041054688
 10
281.6978070312
 20
558.8660300781
 10
281.9835322266
 20
558.6279050781
 10
282.1263824219
 20
558.3898296875
 10
282.2692326172
 20
557.9136292969
 10
282.4121076172
 20
557.1993535156
 10
282.4121076172
 20
556.723153125
 10
282.2692326172
 20
556.0088773437
 10
282.1263824219
 20
555.5326769531
 10
281.9835322266
 20
555.2946015625
 10
281.1263814453
 20
554.8184011719
 10
280.2692554687
 20
554.8184011719
 10
279.6978050781
 20
554.5802761719
 10
279.4121046875
 20
554.3422007812
 10
279.1263794922
 20
553.8660003906
 10
278.9835292969
 20
553.1517246094
 10
278.9835292969
 20
551.9612484375
 10
279.1263794922
 20
551.2469726563
 10
279.4121046875
 20
550.7707722656
 10
279.6978050781
 20
550.532696875
 10
280.2692554687
 20
550.294571875
 10
281.1263814453
 20
550.294571875
 10
281.6978070312
 20
550.532696875
 10
281.9835322266
 20
550.7707722656
 10
282.2692326172
 20
551.2469726563
 10
282.4121076172
 20
551.9612484375
 10
282.4121076172
 20
553.1517246094
 10
282.2692326172
 20
553.8660003906
 10
281.9835322266
 20
554.3422007812
 10
281.6978070312
 20
554.5802761719
 10
281.1263814453
 20
554.8184011719
  0
LWPOLYLINE
  5
29B
100
AcDbEntity
  8
0
100
AcDbPolyline
 62
2
  6
CONTINUOUS
 90
19
 70
0
 43
0.2500000019
 10
273.8406742187
 20
529.3088636719
 10
277.2692525391
 20
529.3088636719
 10
275.5549509766
 20
525.7374351562
 10
276.2692515625
 20
525.4993597656
 10
276.6978269531
 20
525.261284375
 10
276.9835273437
 20
524.7850839844
 10
277.1263775391
 20
524.3088835938
 10
277.2692525391
 20
523.5946078125
 10
277.2692525391
 20
522.8803320312
 10
277.1263775391
 20
522.1660066406
 10
276.9835273437
 20
521.6898558594
 10
276.6978269531
 20
521.2136554687
 10
276.4121017578
 20
520.9755304687
 10
275.8406761719
 20
520.7374550781
 10
275.2692505859
 20
520.7374550781
 10
274.697825
 20
520.9755304687
 10
274.4120998047
 20
521.2136554687
 10
274.1263994141
 20
521.6898558594
 10
273.8406742187
 20
522.6422070312
  0
LWPOLYLINE
  5
29C
100
AcDbEntity
  8
0
100
AcDbPolyline
 62
2
  6
CONTINUOUS
 90
19
 70
0
 43
0.2500000019
 10
273.8406742187
 20
558.8660300781
 10
277.2692525391
 20
558.8660300781
 10
275.5549509766
 20
555.2946015625
 10
276.2692515625
 20
555.0564765625
 10
276.6978269531
 20
554.8184011719
 10
276.9835273437
 20
554.3422007812
 10
277.1263775391
 20
553.8660003906
 10
277.2692525391
 20
553.1517246094
 10
277.2692525391
 20
552.4374488281
 10
277.1263775391
 20
551.7231730469
 10
276.9835273437
 20
551.2469726563
 10
276.6978269531
 20
550.7707722656
 10
276.4121017578
 20
550.532696875
 10
275.8406761719
 20
550.294571875
 10
275.2692505859
 20
550.294571875
 10
274.697825
 20
550.532696875
 10
274.4120998047
 20
550.7707722656
 10
274.1263746094
 20
551.2469726563
 10
273.8406742187
 20
552.1993238281
  0
LWPOLYLINE
  5
29D
100
AcDbEntity
  8
0
100
AcDbPolyline
 62
2
  6
CONTINUOUS
 90
25
 70
0
 43
0.2500000019
 10
650.1526378906
 20
139.6089171875
 10
650.2954632813
 20
140.5612931641
 10
650.4383382813
 20
141.0374935547
 10
650.7240386719
 20
141.513681543
 10
651.0097886719
 20
141.7517693359
 10
651.5811894531
 20
141.9898695312
 10
652.1526398437
 20
141.9898695312
 10
652.724040625
 20
141.7517693359
 10
653.009790625
 20
141.513681543
 10
653.2954910156
 20
141.0374935547
 10
653.4383164063
 20
140.5612931641
 10
653.5811914063
 20
139.6089171875
 10
653.5811914063
 20
135.5613006836
 10
653.4383164063
 20
134.6089123047
 10
653.2954910156
 20
134.1327243164
 10
653.009790625
 20
133.6565363281
 10
652.724040625
 20
133.4184361328
 10
652.1526398437
 20
133.1803483398
 10
651.5811894531
 20
133.1803483398
 10
651.0097886719
 20
133.4184361328
 10
650.7240386719
 20
133.6565363281
 10
650.4383382813
 20
134.1327243164
 10
650.2954632813
 20
134.6089123047
 10
650.1526378906
 20
135.5613006836
 10
650.1526378906
 20
139.6089171875
  0
LWPOLYLINE
  5
29E
100
AcDbEntity
  8
0
100
AcDbPolyline
 62
2
  6
CONTINUOUS
 90
3
 70
0
 43
0.2500000019
 10
641.1526042969
 20
140.5612931641
 10
641.5811796875
 20
141.7517693359
 10
641.5811796875
 20
133.1803483398
  0
LINE
  5
29F
100
AcDbEntity
  8
0
100
AcDbLine
 62
7
  6
CONTINUOUS
 10
731.9811954631
 20
150.0381965823
 11
731.9811954631
 21
189.8751784208
  0
LINE
  5
2A0
100
AcDbEntity
  8
0
100
AcDbLine
 62
7
  6
CONTINUOUS
 10
731.9811954631
 20
450.2011965823
 11
731.9811954631
 21
490.0381784208
  0
LINE
  5
2A1
100
AcDbEntity
  8
0
100
AcDbLine
 62
7
  6
CONTINUOUS
 10
732.1811954631
 20
450.2011965823
 11
732.1811954631
 21
189.8751965823
  0
LINE
  5
2A2
100
AcDbEntity
  8
0
100
AcDbLine
 62
7
  6
CONTINUOUS
 10
732.9811954631
 20
490.0381784208
 11
732.9811954631
 21
150.0381965823
  0
CIRCLE
  5
2A3
100
AcDbEntity
  8
0
100
AcDbCircle
 62
7
  6
CONTINUOUS
 10
281.5549610829
 20
351.1762331828
 40
45.0
  0
ARC
  5
2A4
100
AcDbEntity
  8
0
100
AcDbCircle
 62
7
  6
CONTINUOUS
 10
577.9811954631
 20
455.0381965823
 40
15.8
100
AcDbArc
 50
90.0
 51
180.0
  0
ARC
  5
2A5
100
AcDbEntity
  8
0
100
AcDbCircle
 62
7
  6
CONTINUOUS
 10
577.9811954631
 20
185.0381965823
 40
15.8
100
AcDbArc
 50
180.0
 51
270.0
  0
ARC
  5
2A6
100
AcDbEntity
  8
0
100
AcDbCircle
 62
7
  6
CONTINUOUS
 10
123.5549610829
 20
183.1762331828
 40
12.0
100
AcDbArc
 50
180.0
 51
270.0
  0
ARC
  5
2A7
100
AcDbEntity
  8
0
100
AcDbCircle
 62
7
  6
CONTINUOUS
 10
439.5549610829
 20
183.1762331828
 40
12.0
100
AcDbArc
 50
270.0
 51
360.0
  0
ARC
  5
2A8
100
AcDbEntity
  8
0
100
AcDbCircle
 62
7
  6
CONTINUOUS
 10
439.5549610829
 20
459.1762331828
 40
12.0
100
AcDbArc
 50
0.0
 51
90.0
  0
ARC
  5
2A9
100
AcDbEntity
  8
0
100
AcDbCircle
 62
7
  6
CONTINUOUS
 10
123.5549610829
 20
459.1762331828
 40
12.0
100
AcDbArc
 50
90.0
 51
180.0
  0
ARC
  5
2AA
100
AcDbEntity
  8
0
100
AcDbCircle
 62
7
  6
CONTINUOUS
 10
465.5549429214
 20
157.1762331828
 40
6.0
100
AcDbArc
 50
270.0
 51
360.0
  0
ARC
  5
2AB
100
AcDbEntity
  8
0
100
AcDbCircle
 62
7
  6
CONTINUOUS
 10
97.5549792444
 20
157.1762331828
 40
6.0
100
AcDbArc
 50
180.0
 51
270.0
  0
ARC
  5
2AC
100
AcDbEntity
  8
0
100
AcDbCircle
 62
7
  6
CONTINUOUS
 10
465.5549610829
 20
485.1762150213
 40
6.0
100
AcDbArc
 50
0.0
 51
90.0
  0
ARC
  5
2AD
100
AcDbEntity
  8
0
100
AcDbCircle
 62
7
  6
CONTINUOUS
 10
97.5549610829
 20
485.1762150213
 40
6.0
100
AcDbArc
 50
90.0
 51
180.0
  0
ARC
  5
2AE
100
AcDbEntity
  8
0
100
AcDbCircle
 62
7
  6
CONTINUOUS
 10
731.1811954631
 20
471.8381965823
 40
1.0
100
AcDbArc
 50
270.0
 51
323.7679987386
  0
ARC
  5
2AF
100
AcDbEntity
  8
0
100
AcDbCircle
 62
7
  6
CONTINUOUS
 10
731.1811954631
 20
168.2381965823
 40
1.0
100
AcDbArc
 50
36.2319965341
 51
90.0
  0
ENDSEC
  0
SECTION
  2
OBJECTS
  0
DICTIONARY
  5
C
100
AcDbDictionary
280
0
281
1
  3
ACAD_GROUP
350
D
  3
ACAD_MLINESTYLE
350
17
  3
ACAD_LAYOUT
350
1A
  3
ACAD_PLOTSETTINGS
350
19
  3
ACAD_PLOTSTYLENAME
350
E
  0
DICTIONARY
  5
D
102
{ACAD_REACTORS
330
C
102
}
100
AcDbDictionary
280
0
281
1
  0
ACDBDICTIONARYWDFLT
  5
E
102
{ACAD_REACTORS
330
C
102
}
100
AcDbDictionary
281
1
  3
Normal
350
F
100
AcDbDictionaryWithDefault
340
F
  0
DICTIONARY
  5
17
102
{ACAD_REACTORS
330
C
102
}
100
AcDbDictionary
280
0
281
1
  3
Standard
350
18
  0
DICTIONARY
  5
19
102
{ACAD_REACTORS
330
C
102
}
100
AcDbDictionary
281
1
  0
DICTIONARY
  5
1A
102
{ACAD_REACTORS
330
C
102
}
100
AcDbDictionary
281
1
  3
Model
350
2B0
  3
Layout1
350
2B1
  0
ACDBPLACEHOLDER
  5
F
102
{ACAD_REACTORS
330
E
102
}
  0
MLINESTYLE
  5
18
102
{ACAD_REACTORS
330
17
102
}
100
AcDbMlineStyle
  2
STANDARD
 70
0
  3

 62
256
 51
90.0
 52
90.0
 71
2
 49
0.5
 62
256
  6
BYLAYER
 49
-0.5
 62
256
  6
BYLAYER
  0
LAYOUT
  5
2B0
102
{ACAD_REACTORS
330
1A
102
}
100
AcDbPlotSettings
  1

  2
none_device
  4

  6

 40
0.0
 41
0.0
 42
0.0
 43
0.0
 44
812.8
 45
635.0
 46
0.0
 47
0.0
 48
0.0
 49
0.0
140
0.0
141
0.0
142
1.0
143
1.0
 70
1024
 72
1
 73
0
 74
0
  7

 75
0
147
1.0
148
0.0
149
0.0
100
AcDbLayout
  1
Model
 70
0
 71
0
 10
0.0
 20
0.0
 11
812.8
 21
635.0
 12
0.0
 22
0.0
 32
0.0
 14
0.0
 24
0.0
 34
0.0
 15
0.0
 25
0.0
 35
0.0
146
0.0
 13
0.0
 23
0.0
 33
0.0
 16
1.0
 26
0.0
 36
0.0
 17
0.0
 27
1.0
 37
0.0
 76
0
330
1FF
345
0
346
0
  0
LAYOUT
  5
2B1
102
{ACAD_REACTORS
330
1A
102
}
100
AcDbPlotSettings
  1

  2
none_device
  4

  6

 40
0.0
 41
0.0
 42
0.0
 43
0.0
 44
812.8
 45
635.0
 46
0.0
 47
0.0
 48
0.0
 49
0.0
140
0.0
141
0.0
142
1.0
143
1.0
 70
0
 72
1
 73
0
 74
0
  7

 75
0
147
1.0
148
0.0
149
0.0
100
AcDbLayout
  1
Layout1
 70
0
 71
1
 10
0.0
 20
0.0
 11
812.8
 21
635.0
 12
0.0
 22
0.0
 32
0.0
 14
0.0
 24
0.0
 34
0.0
 15
0.0
 25
0.0
 35
0.0
146
0.0
 13
0.0
 23
0.0
 33
0.0
 16
1.0
 26
0.0
 36
0.0
 17
0.0
 27
1.0
 37
0.0
 76
0
330
200
345
0
346
0
  0
ENDSEC
  0
EOF
