999
DXF file: W:\Engenharia\Produtos\Cubas_sobrepor\Quadrum\93917\93917.dxf
999
Pro/ENGINEER 2012230 by Parametric Technology Corporation
  0
SECTION
  2
HEADER
  9
$ACADVER
  1
AC1018
  9
$DWGCODEPAGE
  3
ANSI_1252
  9
$EXTMAX
 10
1270.0
 20
1524.0
 30
0.0
  9
$EXTMIN
 10
0.0
 20
0.0
 30
0.0
  9
$LIMMIN
 10
0.0
 20
0.0
  9
$LIMMAX
 10
1270.0
 20
1524.0
  9
$VIEWCTR
 10
635.0
 20
762.0
  9
$VIEWSIZE
 40
1524.0
  9
$CLAYER
  8
0
  9
$LTSCALE
 40
99.3422222222
  9
$CELTYPE
  6
BYLAYER
  9
$DIMSCALE
 40
1.0
  9
$DIMASZ
 40
3.0
  9
$DIMEXO
 40
0.5
  9
$DIMDLI
 40
68.6364444444
  9
$DIMEXE
 40
0.5
  9
$DIMCEN
 40
16.256
  9
$DIMLFAC
 40
1.0
  9
$DIMBLK
  1
_FILLED
  9
$DIMTXT
 40
1.8
  9
$DIMTOL
 70
1
  9
$DIMLIM
 70
0
  9
$DIMTFAC
 40
1.0
  9
$DIMTP
 40
0.001
  9
$DIMTM
 40
0.001
  9
$DIMGAP
 40
0.625
  9
$DIMDSEP
 70
46
  9
$PDMODE
 70
3
  9
$PDSIZE
 40
1.0
  9
$HANDSEED
  5
33E
  9
$TILEMODE
 70
1
  9
$MEASUREMENT
 70
1
  9
$INSUNITS
 70
4
  0
ENDSEC
  0
SECTION
  2
CLASSES
  0
CLASS
  1
ACDBDICTIONARYWDFLT
  2
AcDbDictionaryWithDefault
  3
AutoCAD 2000
 90
0
 91
1
280
0
281
0
  0
CLASS
  1
ACDBPLACEHOLDER
  2
AcDbPlaceHolder
  3
AutoCAD 2000
 90
0
 91
1
280
0
281
0
  0
CLASS
  1
LAYOUT
  2
AcDbLayout
  3
AutoCAD 2000
 90
0
 91
0
280
0
281
0
  0
ENDSEC
  0
SECTION
  2
TABLES
  0
TABLE
  2
VPORT
  5
8
100
AcDbSymbolTable
 70
2
  0
VPORT
  5
1F4
100
AcDbSymbolTableRecord
100
AcDbViewportTableRecord
  2
*ACTIVE
 70
0
 10
0.0
 20
0.0
 11
1.0
 21
1.0
 12
635.0
 22
762.0
 13
0.0
 23
0.0
 14
1.0
 24
1.0
 15
0.0
 25
0.0
 16
0.0
 26
0.0
 36
1.0
 17
0.0
 27
0.0
 37
0.0
 40
1524.0
 41
0.8333333333
 42
50.0
 43
0.0
 44
0.0
 50
0.0
 51
0.0
 71
0
 72
100
 73
1
 74
1
 75
0
 76
0
 77
0
 78
0
  0
ENDTAB
  0
TABLE
  2
LTYPE
  5
5
100
AcDbSymbolTable
 70
6
  0
LTYPE
  5
14
100
AcDbSymbolTableRecord
100
AcDbLinetypeTableRecord
  2
BYBLOCK
 70
0
  3

 72
65
 73
0
 40
0.0
  0
LTYPE
  5
15
100
AcDbSymbolTableRecord
100
AcDbLinetypeTableRecord
  2
BYLAYER
 70
0
  3

 72
65
 73
0
 40
0.0
  0
LTYPE
  5
16
100
AcDbSymbolTableRecord
100
AcDbLinetypeTableRecord
  2
CONTINUOUS
 70
64
  3
Solid line
 72
65
 73
0
 40
0.0
  0
LTYPE
  5
1F5
100
AcDbSymbolTableRecord
100
AcDbLinetypeTableRecord
  2
CENTER
 70
64
  3
____ _ ____ _ ____ _ ____ _ ____ _ ____ _ ____
 72
65
 73
4
 40
0.6
 49
0.375
 74
0
 49
-0.075
 74
0
 49
0.075
 74
0
 49
-0.075
 74
0
  0
LTYPE
  5
1F6
100
AcDbSymbolTableRecord
100
AcDbLinetypeTableRecord
  2
HIDDEN
 70
64
  3
- - - - - - - - - - - - - - - - - - - -
 72
65
 73
2
 40
0.2
 49
0.1
 74
0
 49
-0.1
 74
0
  0
LTYPE
  5
1F7
100
AcDbSymbolTableRecord
100
AcDbLinetypeTableRecord
  2
PHANTOM
 70
64
  3
_____ _ _ _____ _ _ _____ _ _ _____
 72
65
 73
6
 40
0.8
 49
0.45
 74
0
 49
-0.05
 74
0
 49
0.1
 74
0
 49
-0.05
 74
0
 49
0.1
 74
0
 49
-0.05
 74
0
  0
LTYPE
  5
1F8
100
AcDbSymbolTableRecord
100
AcDbLinetypeTableRecord
  2
DOT
 70
64
  3
. . . . . . . . . . . . . . . . . . . .
 72
65
 73
2
 40
0.2
 49
0.1
 74
0
 49
-0.1
 74
0
  0
LTYPE
  5
1F9
100
AcDbSymbolTableRecord
100
AcDbLinetypeTableRecord
  2
DASHED
 70
64
  3
- - - - - - - - - - - - - - - - - - - -
 72
65
 73
2
 40
0.2
 49
0.1
 74
0
 49
-0.1
 74
0
  0
ENDTAB
  0
TABLE
  2
LAYER
  5
2
100
AcDbSymbolTable
 70
36
  0
LAYER
  5
10
100
AcDbSymbolTableRecord
100
AcDbLayerTableRecord
  2
0
 70
0
 62
7
  6
CONTINUOUS
370
-3
390
F
  0
LAYER
  5
1FA
100
AcDbSymbolTableRecord
100
AcDbLayerTableRecord
  2
DEFAULT_1
 70
0
 62
7
  6
CENTER
370
-3
390
F
  0
LAYER
  5
1FB
100
AcDbSymbolTableRecord
100
AcDbLayerTableRecord
  2
DEFAULT_2
 70
0
 62
8
  6
HIDDEN
370
-3
390
F
  0
LAYER
  5
1FC
100
AcDbSymbolTableRecord
100
AcDbLayerTableRecord
  2
DEFAULT_3
 70
0
 62
7
  6
PHANTOM
370
-3
390
F
  0
LAYER
  5
1FD
100
AcDbSymbolTableRecord
100
AcDbLayerTableRecord
  2
01_ALL_DTM_PLN
 70
0
 62
7
  6
CONTINUOUS
370
-3
390
F
  0
LAYER
  5
1FE
100
AcDbSymbolTableRecord
100
AcDbLayerTableRecord
  2
01__ASM_ALL_DTM_PLN
 70
0
 62
7
  6
CONTINUOUS
370
-3
390
F
  0
LAYER
  5
1FF
100
AcDbSymbolTableRecord
100
AcDbLayerTableRecord
  2
01__ASM_DEF_DTM_PLN
 70
0
 62
7
  6
CONTINUOUS
370
-3
390
F
  0
LAYER
  5
200
100
AcDbSymbolTableRecord
100
AcDbLayerTableRecord
  2
01___PRT_ALL_DTM_PLN
 70
0
 62
7
  6
CONTINUOUS
370
-3
390
F
  0
LAYER
  5
201
100
AcDbSymbolTableRecord
100
AcDbLayerTableRecord
  2
01___PRT_DEF_DTM_PLN
 70
0
 62
7
  6
CONTINUOUS
370
-3
390
F
  0
LAYER
  5
202
100
AcDbSymbolTableRecord
100
AcDbLayerTableRecord
  2
02_ALL_AXES
 70
0
 62
7
  6
CONTINUOUS
370
-3
390
F
  0
LAYER
  5
203
100
AcDbSymbolTableRecord
100
AcDbLayerTableRecord
  2
02__ASM_ALL_AXES
 70
0
 62
7
  6
CONTINUOUS
370
-3
390
F
  0
LAYER
  5
204
100
AcDbSymbolTableRecord
100
AcDbLayerTableRecord
  2
02___PRT_ALL_AXES
 70
0
 62
7
  6
CONTINUOUS
370
-3
390
F
  0
LAYER
  5
205
100
AcDbSymbolTableRecord
100
AcDbLayerTableRecord
  2
03_ALL_CURVES
 70
0
 62
7
  6
CONTINUOUS
370
-3
390
F
  0
LAYER
  5
206
100
AcDbSymbolTableRecord
100
AcDbLayerTableRecord
  2
03__ASM_ALL_CURVES
 70
0
 62
7
  6
CONTINUOUS
370
-3
390
F
  0
LAYER
  5
207
100
AcDbSymbolTableRecord
100
AcDbLayerTableRecord
  2
03___PRT_ALL_CURVES
 70
0
 62
7
  6
CONTINUOUS
370
-3
390
F
  0
LAYER
  5
208
100
AcDbSymbolTableRecord
100
AcDbLayerTableRecord
  2
04_ALL_DTM_PNT
 70
0
 62
7
  6
CONTINUOUS
370
-3
390
F
  0
LAYER
  5
209
100
AcDbSymbolTableRecord
100
AcDbLayerTableRecord
  2
04__ASM_ALL_DTM_PNT
 70
0
 62
7
  6
CONTINUOUS
370
-3
390
F
  0
LAYER
  5
20A
100
AcDbSymbolTableRecord
100
AcDbLayerTableRecord
  2
04___PRT_ALL_DTM_PNT
 70
0
 62
7
  6
CONTINUOUS
370
-3
390
F
  0
LAYER
  5
20B
100
AcDbSymbolTableRecord
100
AcDbLayerTableRecord
  2
05_ALL_DTM_CSYS
 70
0
 62
7
  6
CONTINUOUS
370
-3
390
F
  0
LAYER
  5
20C
100
AcDbSymbolTableRecord
100
AcDbLayerTableRecord
  2
05__ASM_ALL_DTM_CSYS
 70
0
 62
7
  6
CONTINUOUS
370
-3
390
F
  0
LAYER
  5
20D
100
AcDbSymbolTableRecord
100
AcDbLayerTableRecord
  2
05__ASM_DEF_DTM_CSYS
 70
0
 62
7
  6
CONTINUOUS
370
-3
390
F
  0
LAYER
  5
20E
100
AcDbSymbolTableRecord
100
AcDbLayerTableRecord
  2
05___PRT_ALL_DTM_CSYS
 70
0
 62
7
  6
CONTINUOUS
370
-3
390
F
  0
LAYER
  5
20F
100
AcDbSymbolTableRecord
100
AcDbLayerTableRecord
  2
05___PRT_DEF_DTM_CSYS
 70
0
 62
7
  6
CONTINUOUS
370
-3
390
F
  0
LAYER
  5
210
100
AcDbSymbolTableRecord
100
AcDbLayerTableRecord
  2
06_ALL_SURFS
 70
0
 62
7
  6
CONTINUOUS
370
-3
390
F
  0
LAYER
  5
211
100
AcDbSymbolTableRecord
100
AcDbLayerTableRecord
  2
06__ASM_ALL_SURFS
 70
0
 62
7
  6
CONTINUOUS
370
-3
390
F
  0
LAYER
  5
212
100
AcDbSymbolTableRecord
100
AcDbLayerTableRecord
  2
06___PRT_ALL_SURFS
 70
0
 62
7
  6
CONTINUOUS
370
-3
390
F
  0
LAYER
  5
213
100
AcDbSymbolTableRecord
100
AcDbLayerTableRecord
  2
07__ASM_ALL_SKELETONS
 70
0
 62
7
  6
CONTINUOUS
370
-3
390
F
  0
LAYER
  5
214
100
AcDbSymbolTableRecord
100
AcDbLayerTableRecord
  2
WHITE
 70
0
 62
7
  6
CONTINUOUS
370
-3
390
F
  0
ENDTAB
  0
TABLE
  2
STYLE
  5
3
100
AcDbSymbolTable
 70
1
  0
STYLE
  5
11
100
AcDbSymbolTableRecord
100
AcDbTextStyleTableRecord
  2
STANDARD
 70
0
 40
0.0
 41
0.8
 50
0.0
 71
0
 42
0.2
  3
txt
  4

  0
STYLE
  5
215
100
AcDbSymbolTableRecord
100
AcDbTextStyleTableRecord
  2
TEXTSTYLE_1
 70
0
 40
0.0
 41
0.8
 50
0.0
 71
0
 42
0.2
  3
gdt
  4

  0
ENDTAB
  0
TABLE
  2
VIEW
  5
6
100
AcDbSymbolTable
 70
0
  0
ENDTAB
  0
TABLE
  2
UCS
  5
7
100
AcDbSymbolTable
 70
0
  0
ENDTAB
  0
TABLE
  2
APPID
  5
9
100
AcDbSymbolTable
 70
1
  0
APPID
  5
216
100
AcDbSymbolTableRecord
100
AcDbRegAppTableRecord
  2
ACAD
 70
0
  0
ENDTAB
  0
TABLE
  2
BLOCK_RECORD
  5
1
100
AcDbSymbolTable
 70
0
  0
BLOCK_RECORD
  5
217
100
AcDbSymbolTableRecord
100
AcDbBlockTableRecord
  2
*Model_Space
  0
BLOCK_RECORD
  5
218
100
AcDbSymbolTableRecord
100
AcDbBlockTableRecord
  2
*Paper_Space
  0
BLOCK_RECORD
  5
219
100
AcDbSymbolTableRecord
100
AcDbBlockTableRecord
  2
_FILLED
  0
BLOCK_RECORD
  5
21A
100
AcDbSymbolTableRecord
100
AcDbBlockTableRecord
  2
*D0
  0
BLOCK_RECORD
  5
21B
100
AcDbSymbolTableRecord
100
AcDbBlockTableRecord
  2
*D1
  0
BLOCK_RECORD
  5
21C
100
AcDbSymbolTableRecord
100
AcDbBlockTableRecord
  2
*D2
  0
BLOCK_RECORD
  5
21D
100
AcDbSymbolTableRecord
100
AcDbBlockTableRecord
  2
*D3
  0
BLOCK_RECORD
  5
21E
100
AcDbSymbolTableRecord
100
AcDbBlockTableRecord
  2
*D4
  0
BLOCK_RECORD
  5
21F
100
AcDbSymbolTableRecord
100
AcDbBlockTableRecord
  2
*D5
  0
BLOCK_RECORD
  5
220
100
AcDbSymbolTableRecord
100
AcDbBlockTableRecord
  2
*D6
  0
BLOCK_RECORD
  5
221
100
AcDbSymbolTableRecord
100
AcDbBlockTableRecord
  2
*D7
  0
BLOCK_RECORD
  5
222
100
AcDbSymbolTableRecord
100
AcDbBlockTableRecord
  2
*D8
  0
BLOCK_RECORD
  5
223
100
AcDbSymbolTableRecord
100
AcDbBlockTableRecord
  2
*D9
  0
BLOCK_RECORD
  5
224
100
AcDbSymbolTableRecord
100
AcDbBlockTableRecord
  2
*D10
  0
BLOCK_RECORD
  5
225
100
AcDbSymbolTableRecord
100
AcDbBlockTableRecord
  2
*D11
  0
ENDTAB
  0
TABLE
  2
DIMSTYLE
  5
A
100
AcDbSymbolTable
 70
1
100
AcDbDimStyleTable
 71
0
  0
DIMSTYLE
105
226
100
AcDbSymbolTableRecord
100
AcDbDimStyleTableRecord
  2
STANDARD
 70
0
  3

  4

 40
1.0
 41
3.0
 42
0.5
 43
0.38
 44
0.5
 45
0.0
 46
0.0
 47
0.001
 48
0.001
140
1.8
141
0.09
142
0.0
143
25.4
144
1.0
145
0.0
146
1.0
147
0.625
 71
1.0
 72
0.0
 73
0
 74
0
 75
0
 76
0
 77
1
 78
8
170
0
171
2
172
0
173
0
174
0
175
0
176
0
177
0
178
0
270
2
271
3
272
3
273
2
274
2
275
0
280
0
281
0
282
0
283
1
284
8
285
0
286
0
287
3
288
0
340
11
278
46
341
219
342
219
343
219
344
219
  0
DIMSTYLE
105
227
100
AcDbSymbolTableRecord
100
AcDbDimStyleTableRecord
  2
DIMSTYLE_1
 70
0
  3

  4

 40
1.0
 41
3.0
 42
0.5
 43
0.38
 44
0.5
 45
0.0
 46
0.0
 47
0.5
 48
0.5
140
8.0
141
0.09
142
0.0
143
25.4
144
1.0
145
0.0
146
1.0
147
2.0
 71
0.0
 72
0.0
 73
0
 74
0
 75
0
 76
0
 77
1
 78
8
170
0
171
2
172
0
173
0
174
0
175
0
176
0
177
0
178
0
270
2
271
3
272
3
273
2
274
2
275
0
280
0
281
0
282
0
283
1
284
8
285
0
286
0
287
3
288
0
340
11
278
46
341
219
342
219
343
219
344
219
  0
DIMSTYLE
105
228
100
AcDbSymbolTableRecord
100
AcDbDimStyleTableRecord
  2
DIMSTYLE_2
 70
0
  3

  4

 40
1.0
 41
3.0
 42
0.5
 43
0.38
 44
0.5
 45
0.0
 46
0.0
 47
0.8
 48
0.8
140
8.0
141
0.09
142
0.0
143
25.4
144
1.0
145
0.0
146
1.0
147
2.0
 71
0.0
 72
0.0
 73
0
 74
0
 75
0
 76
0
 77
1
 78
8
170
0
171
2
172
0
173
0
174
0
175
0
176
0
177
0
178
0
270
2
271
3
272
3
273
2
274
2
275
0
280
0
281
0
282
0
283
1
284
8
285
0
286
0
287
3
288
0
340
11
278
46
341
219
342
219
343
219
344
219
  0
DIMSTYLE
105
229
100
AcDbSymbolTableRecord
100
AcDbDimStyleTableRecord
  2
DIMSTYLE_3
 70
0
  3

  4

 40
1.0
 41
3.0
 42
0.5
 43
0.38
 44
0.5
 45
0.0
 46
0.0
 47
0.001
 48
0.001
140
8.0
141
0.09
142
0.0
143
25.4
144
1.0
145
0.0
146
1.0
147
2.0
 71
0.0
 72
0.0
 73
0
 74
0
 75
0
 76
0
 77
1
 78
8
170
0
171
2
172
0
173
0
174
0
175
0
176
0
177
0
178
0
270
2
271
3
272
3
273
2
274
2
275
0
280
0
281
0
282
0
283
1
284
8
285
0
286
0
287
3
288
0
340
11
278
46
341
219
342
219
343
219
344
219
  0
ENDTAB
  0
ENDSEC
  0
SECTION
  2
BLOCKS
  0
BLOCK
  5
20
100
AcDbEntity
  8
0
100
AcDbBlockBegin
  2
*Model_Space
 70
0
 10
0.0
 20
0.0
 30
0.0
  3
*Model_Space
  1

  0
ENDBLK
  5
21
100
AcDbEntity
  8
0
100
AcDbBlockEnd
  0
BLOCK
  5
1C
100
AcDbEntity
  8
0
100
AcDbBlockBegin
  2
*Paper_Space
 70
0
 10
0.0
 20
0.0
 30
0.0
  3
*Paper_Space
  1

  0
ENDBLK
  5
1D
100
AcDbEntity
  8
0
100
AcDbBlockEnd
  0
BLOCK
  5
22A
100
AcDbEntity
  8
0
100
AcDbBlockBegin
  2
_FILLED
 70
64
 10
0.0
 20
0.0
  3
_FILLED
  1

  0
SOLID
  5
22B
100
AcDbEntity
  8
0
  6
BYBLOCK
 62
0
100
AcDbTrace
 10
0.0
 20
0.0
 11
-1.0
 21
0.1666666667
 12
-1.0
 22
-0.1666666667
 13
-1.0
 23
-0.1666666667
  0
ENDBLK
  5
22C
100
AcDbEntity
  8
0
  6
BYBLOCK
 62
0
100
AcDbBlockEnd
  0
BLOCK
  5
22D
100
AcDbEntity
  8
0
100
AcDbBlockBegin
 62
2
  6
CONTINUOUS
  2
*D0
 70
65
 10
0.0
 20
0.0
  3
*D0
  1

  0
LINE
  5
22E
100
AcDbEntity
  8
0
100
AcDbLine
 62
2
  6
CONTINUOUS
 10
280.612748139
 20
719.9653380893
 11
162.9445939072
 21
719.9653380893
  0
LINE
  5
22F
100
AcDbEntity
  8
0
100
AcDbLine
 62
2
  6
CONTINUOUS
 10
280.612748139
 20
319.9653380893
 11
162.9445939072
 21
319.9653380893
  0
LINE
  5
230
100
AcDbEntity
  8
0
100
AcDbLine
 62
2
  6
CONTINUOUS
 10
163.4445939072
 20
719.9653380893
 11
163.4445939072
 21
519.9653380893
  0
LINE
  5
231
100
AcDbEntity
  8
0
100
AcDbLine
 62
2
  6
CONTINUOUS
 10
163.4445939072
 20
319.9653380893
 11
163.4445939072
 21
519.9653380893
  0
INSERT
  5
232
100
AcDbEntity
  8
0
100
AcDbBlockReference
 62
2
  6
CONTINUOUS
  2
_FILLED
 10
163.4445939072
 20
719.9653380893
 41
3.0
 42
3.0
 43
3.0
 50
90.0
  0
INSERT
  5
233
100
AcDbEntity
  8
0
100
AcDbBlockReference
 62
2
  6
CONTINUOUS
  2
_FILLED
 10
163.4445939072
 20
319.9653380893
 41
3.0
 42
3.0
 43
3.0
 50
270.0
  0
ENDBLK
  5
234
100
AcDbEntity
  8
0
  6
BYBLOCK
 62
0
100
AcDbBlockEnd
  0
BLOCK
  5
235
100
AcDbEntity
  8
0
100
AcDbBlockBegin
 62
2
  6
CONTINUOUS
  2
*D1
 70
65
 10
0.0
 20
0.0
  3
*D1
  1

  0
LINE
  5
236
100
AcDbEntity
  8
0
100
AcDbLine
 62
2
  6
CONTINUOUS
 10
268.612748139
 20
331.9653380893
 11
268.612748139
 21
239.5571452888
  0
LINE
  5
237
100
AcDbEntity
  8
0
100
AcDbLine
 62
2
  6
CONTINUOUS
 10
668.612748139
 20
331.9653380893
 11
668.612748139
 21
239.5571452888
  0
LINE
  5
238
100
AcDbEntity
  8
0
100
AcDbLine
 62
2
  6
CONTINUOUS
 10
268.612748139
 20
240.0571452888
 11
468.612748139
 21
240.0571452888
  0
LINE
  5
239
100
AcDbEntity
  8
0
100
AcDbLine
 62
2
  6
CONTINUOUS
 10
668.612748139
 20
240.0571452888
 11
468.612748139
 21
240.0571452888
  0
INSERT
  5
23A
100
AcDbEntity
  8
0
100
AcDbBlockReference
 62
2
  6
CONTINUOUS
  2
_FILLED
 10
268.612748139
 20
240.0571452888
 41
3.0
 42
3.0
 43
3.0
 50
180.0
  0
INSERT
  5
23B
100
AcDbEntity
  8
0
100
AcDbBlockReference
 62
2
  6
CONTINUOUS
  2
_FILLED
 10
668.612748139
 20
240.0571452888
 41
3.0
 42
3.0
 43
3.0
  0
ENDBLK
  5
23C
100
AcDbEntity
  8
0
  6
BYBLOCK
 62
0
100
AcDbBlockEnd
  0
BLOCK
  5
23D
100
AcDbEntity
  8
0
100
AcDbBlockBegin
 62
2
  6
CONTINUOUS
  2
*D2
 70
65
 10
0.0
 20
0.0
  3
*D2
  1

  0
LINE
  5
23E
100
AcDbEntity
  8
0
100
AcDbLine
 62
2
  6
CONTINUOUS
 10
698.612748139
 20
331.9653380893
 11
698.612748139
 21
239.5633069381
  0
LINE
  5
23F
100
AcDbEntity
  8
0
100
AcDbLine
 62
2
  6
CONTINUOUS
 10
1038.612748139
 20
331.9653380893
 11
1038.612748139
 21
239.5633069381
  0
LINE
  5
240
100
AcDbEntity
  8
0
100
AcDbLine
 62
2
  6
CONTINUOUS
 10
698.612748139
 20
240.0633069381
 11
868.612748139
 21
240.0633069381
  0
LINE
  5
241
100
AcDbEntity
  8
0
100
AcDbLine
 62
2
  6
CONTINUOUS
 10
1038.612748139
 20
240.0633069381
 11
868.612748139
 21
240.0633069381
  0
INSERT
  5
242
100
AcDbEntity
  8
0
100
AcDbBlockReference
 62
2
  6
CONTINUOUS
  2
_FILLED
 10
698.612748139
 20
240.0633069381
 41
3.0
 42
3.0
 43
3.0
 50
180.0
  0
INSERT
  5
243
100
AcDbEntity
  8
0
100
AcDbBlockReference
 62
2
  6
CONTINUOUS
  2
_FILLED
 10
1038.612748139
 20
240.0633069381
 41
3.0
 42
3.0
 43
3.0
  0
ENDBLK
  5
244
100
AcDbEntity
  8
0
  6
BYBLOCK
 62
0
100
AcDbBlockEnd
  0
BLOCK
  5
245
100
AcDbEntity
  8
0
100
AcDbBlockBegin
 62
2
  6
CONTINUOUS
  2
*D3
 70
65
 10
0.0
 20
0.0
  3
*D3
  1

  0
LINE
  5
246
100
AcDbEntity
  8
0
100
AcDbLine
 62
2
  6
CONTINUOUS
 10
1026.612748139
 20
319.9653380893
 11
1146.2064319992
 21
319.9653380893
  0
LINE
  5
247
100
AcDbEntity
  8
0
100
AcDbLine
 62
2
  6
CONTINUOUS
 10
1026.612748139
 20
619.9653380893
 11
1146.2064319992
 21
619.9653380893
  0
LINE
  5
248
100
AcDbEntity
  8
0
100
AcDbLine
 62
2
  6
CONTINUOUS
 10
1145.7064319992
 20
319.9653380893
 11
1145.7064319992
 21
469.9653380893
  0
LINE
  5
249
100
AcDbEntity
  8
0
100
AcDbLine
 62
2
  6
CONTINUOUS
 10
1145.7064319992
 20
619.9653380893
 11
1145.7064319992
 21
469.9653380893
  0
INSERT
  5
24A
100
AcDbEntity
  8
0
100
AcDbBlockReference
 62
2
  6
CONTINUOUS
  2
_FILLED
 10
1145.7064319992
 20
319.9653380893
 41
3.0
 42
3.0
 43
3.0
 50
270.0
  0
INSERT
  5
24B
100
AcDbEntity
  8
0
100
AcDbBlockReference
 62
2
  6
CONTINUOUS
  2
_FILLED
 10
1145.7064319992
 20
619.9653380893
 41
3.0
 42
3.0
 43
3.0
 50
90.0
  0
ENDBLK
  5
24C
100
AcDbEntity
  8
0
  6
BYBLOCK
 62
0
100
AcDbBlockEnd
  0
BLOCK
  5
24D
100
AcDbEntity
  8
0
100
AcDbBlockBegin
 62
2
  6
CONTINUOUS
  2
*D4
 70
65
 10
0.0
 20
0.0
  3
*D4
  1

  0
LINE
  5
24E
100
AcDbEntity
  8
0
100
AcDbLine
 62
2
  6
CONTINUOUS
 10
223.612748139
 20
760.4653380893
 11
223.612748139
 21
800.6631404065
  0
LINE
  5
24F
100
AcDbEntity
  8
0
100
AcDbLine
 62
2
  6
CONTINUOUS
 10
468.612748139
 20
607.8313380893
 11
468.612748139
 21
800.6631404065
  0
LINE
  5
250
100
AcDbEntity
  8
0
100
AcDbLine
 62
2
  6
CONTINUOUS
 10
223.612748139
 20
800.1631404065
 11
346.112748139
 21
800.1631404065
  0
LINE
  5
251
100
AcDbEntity
  8
0
100
AcDbLine
 62
2
  6
CONTINUOUS
 10
468.612748139
 20
800.1631404065
 11
346.112748139
 21
800.1631404065
  0
INSERT
  5
252
100
AcDbEntity
  8
0
100
AcDbBlockReference
 62
2
  6
CONTINUOUS
  2
_FILLED
 10
223.612748139
 20
800.1631404065
 41
3.0
 42
3.0
 43
3.0
 50
180.0
  0
INSERT
  5
253
100
AcDbEntity
  8
0
100
AcDbBlockReference
 62
2
  6
CONTINUOUS
  2
_FILLED
 10
468.612748139
 20
800.1631404065
 41
3.0
 42
3.0
 43
3.0
  0
ENDBLK
  5
254
100
AcDbEntity
  8
0
  6
BYBLOCK
 62
0
100
AcDbBlockEnd
  0
BLOCK
  5
255
100
AcDbEntity
  8
0
100
AcDbBlockBegin
 62
2
  6
CONTINUOUS
  2
*D5
 70
65
 10
0.0
 20
0.0
  3
*D5
  1

  0
LINE
  5
256
100
AcDbEntity
  8
0
100
AcDbLine
 62
2
  6
CONTINUOUS
 10
468.612748139
 20
607.1963380893
 11
468.612748139
 21
800.6631404065
  0
LINE
  5
257
100
AcDbEntity
  8
0
100
AcDbLine
 62
2
  6
CONTINUOUS
 10
868.612748139
 20
475.5453380893
 11
868.612748139
 21
800.6631404065
  0
LINE
  5
258
100
AcDbEntity
  8
0
100
AcDbLine
 62
2
  6
CONTINUOUS
 10
468.612748139
 20
800.1631404065
 11
668.612748139
 21
800.1631404065
  0
LINE
  5
259
100
AcDbEntity
  8
0
100
AcDbLine
 62
2
  6
CONTINUOUS
 10
868.612748139
 20
800.1631404065
 11
668.612748139
 21
800.1631404065
  0
INSERT
  5
25A
100
AcDbEntity
  8
0
100
AcDbBlockReference
 62
2
  6
CONTINUOUS
  2
_FILLED
 10
468.612748139
 20
800.1631404065
 41
3.0
 42
3.0
 43
3.0
 50
180.0
  0
INSERT
  5
25B
100
AcDbEntity
  8
0
100
AcDbBlockReference
 62
2
  6
CONTINUOUS
  2
_FILLED
 10
868.612748139
 20
800.1631404065
 41
3.0
 42
3.0
 43
3.0
  0
ENDBLK
  5
25C
100
AcDbEntity
  8
0
  6
BYBLOCK
 62
0
100
AcDbBlockEnd
  0
BLOCK
  5
25D
100
AcDbEntity
  8
0
100
AcDbBlockBegin
 62
2
  6
CONTINUOUS
  2
*D6
 70
65
 10
0.0
 20
0.0
  3
*D6
  1

  0
LINE
  5
25E
100
AcDbEntity
  8
0
100
AcDbLine
 62
2
  6
CONTINUOUS
 10
233.112748139
 20
769.9653380893
 11
192.812671206
 21
769.9653380893
  0
LINE
  5
25F
100
AcDbEntity
  8
0
100
AcDbLine
 62
2
  6
CONTINUOUS
 10
460.365748139
 20
599.9653380893
 11
192.812671206
 21
599.9653380893
  0
LINE
  5
260
100
AcDbEntity
  8
0
100
AcDbLine
 62
2
  6
CONTINUOUS
 10
193.312671206
 20
769.9653380893
 11
193.312671206
 21
684.9653380893
  0
LINE
  5
261
100
AcDbEntity
  8
0
100
AcDbLine
 62
2
  6
CONTINUOUS
 10
193.312671206
 20
599.9653380893
 11
193.312671206
 21
684.9653380893
  0
INSERT
  5
262
100
AcDbEntity
  8
0
100
AcDbBlockReference
 62
2
  6
CONTINUOUS
  2
_FILLED
 10
193.312671206
 20
769.9653380893
 41
3.0
 42
3.0
 43
3.0
 50
90.0
  0
INSERT
  5
263
100
AcDbEntity
  8
0
100
AcDbBlockReference
 62
2
  6
CONTINUOUS
  2
_FILLED
 10
193.312671206
 20
599.9653380893
 41
3.0
 42
3.0
 43
3.0
 50
270.0
  0
ENDBLK
  5
264
100
AcDbEntity
  8
0
  6
BYBLOCK
 62
0
100
AcDbBlockEnd
  0
BLOCK
  5
265
100
AcDbEntity
  8
0
100
AcDbBlockBegin
 62
2
  6
CONTINUOUS
  2
*D7
 70
65
 10
0.0
 20
0.0
  3
*D7
  1

  0
LINE
  5
266
100
AcDbEntity
  8
0
100
AcDbLine
 62
2
  6
CONTINUOUS
 10
1074.112748139
 20
769.9653380893
 11
1114.1197502721
 21
769.9653380893
  0
LINE
  5
267
100
AcDbEntity
  8
0
100
AcDbLine
 62
2
  6
CONTINUOUS
 10
872.668748139
 20
469.9653380893
 11
1114.1197502721
 21
469.9653380893
  0
LINE
  5
268
100
AcDbEntity
  8
0
100
AcDbLine
 62
2
  6
CONTINUOUS
 10
1113.6197502721
 20
769.9653380893
 11
1113.6197502721
 21
619.9653380893
  0
LINE
  5
269
100
AcDbEntity
  8
0
100
AcDbLine
 62
2
  6
CONTINUOUS
 10
1113.6197502721
 20
469.9653380893
 11
1113.6197502721
 21
619.9653380893
  0
INSERT
  5
26A
100
AcDbEntity
  8
0
100
AcDbBlockReference
 62
2
  6
CONTINUOUS
  2
_FILLED
 10
1113.6197502721
 20
769.9653380893
 41
3.0
 42
3.0
 43
3.0
 50
90.0
  0
INSERT
  5
26B
100
AcDbEntity
  8
0
100
AcDbBlockReference
 62
2
  6
CONTINUOUS
  2
_FILLED
 10
1113.6197502721
 20
469.9653380893
 41
3.0
 42
3.0
 43
3.0
 50
270.0
  0
ENDBLK
  5
26C
100
AcDbEntity
  8
0
  6
BYBLOCK
 62
0
100
AcDbBlockEnd
  0
BLOCK
  5
26D
100
AcDbEntity
  8
0
100
AcDbBlockBegin
 62
2
  6
CONTINUOUS
  2
*D8
 70
65
 10
0.0
 20
0.0
  3
*D8
  1

  0
LINE
  5
26E
100
AcDbEntity
  8
0
100
AcDbLine
 62
2
  6
CONTINUOUS
 10
223.612748139
 20
760.4653380893
 11
223.612748139
 21
830.642463674
  0
LINE
  5
26F
100
AcDbEntity
  8
0
100
AcDbLine
 62
2
  6
CONTINUOUS
 10
1083.612748139
 20
760.4653380893
 11
1083.612748139
 21
830.642463674
  0
LINE
  5
270
100
AcDbEntity
  8
0
100
AcDbLine
 62
2
  6
CONTINUOUS
 10
223.612748139
 20
830.142463674
 11
653.612748139
 21
830.142463674
  0
LINE
  5
271
100
AcDbEntity
  8
0
100
AcDbLine
 62
2
  6
CONTINUOUS
 10
1083.612748139
 20
830.142463674
 11
653.612748139
 21
830.142463674
  0
INSERT
  5
272
100
AcDbEntity
  8
0
100
AcDbBlockReference
 62
2
  6
CONTINUOUS
  2
_FILLED
 10
223.612748139
 20
830.142463674
 41
3.0
 42
3.0
 43
3.0
 50
180.0
  0
INSERT
  5
273
100
AcDbEntity
  8
0
100
AcDbBlockReference
 62
2
  6
CONTINUOUS
  2
_FILLED
 10
1083.612748139
 20
830.142463674
 41
3.0
 42
3.0
 43
3.0
  0
ENDBLK
  5
274
100
AcDbEntity
  8
0
  6
BYBLOCK
 62
0
100
AcDbBlockEnd
  0
BLOCK
  5
275
100
AcDbEntity
  8
0
100
AcDbBlockBegin
 62
2
  6
CONTINUOUS
  2
*D9
 70
65
 10
0.0
 20
0.0
  3
*D9
  1

  0
LINE
  5
276
100
AcDbEntity
  8
0
100
AcDbLine
 62
2
  6
CONTINUOUS
 10
1074.112748139
 20
769.9653380893
 11
1174.6984620159
 21
769.9653380893
  0
LINE
  5
277
100
AcDbEntity
  8
0
100
AcDbLine
 62
2
  6
CONTINUOUS
 10
1074.112748139
 20
269.9653380893
 11
1174.6984620159
 21
269.9653380893
  0
LINE
  5
278
100
AcDbEntity
  8
0
100
AcDbLine
 62
2
  6
CONTINUOUS
 10
1174.1984620159
 20
769.9653380893
 11
1174.1984620159
 21
519.9653380893
  0
LINE
  5
279
100
AcDbEntity
  8
0
100
AcDbLine
 62
2
  6
CONTINUOUS
 10
1174.1984620159
 20
269.9653380893
 11
1174.1984620159
 21
519.9653380893
  0
INSERT
  5
27A
100
AcDbEntity
  8
0
100
AcDbBlockReference
 62
2
  6
CONTINUOUS
  2
_FILLED
 10
1174.1984620159
 20
769.9653380893
 41
3.0
 42
3.0
 43
3.0
 50
90.0
  0
INSERT
  5
27B
100
AcDbEntity
  8
0
100
AcDbBlockReference
 62
2
  6
CONTINUOUS
  2
_FILLED
 10
1174.1984620159
 20
269.9653380893
 41
3.0
 42
3.0
 43
3.0
 50
270.0
  0
ENDBLK
  5
27C
100
AcDbEntity
  8
0
  6
BYBLOCK
 62
0
100
AcDbBlockEnd
  0
BLOCK
  5
27D
100
AcDbEntity
  8
0
100
AcDbBlockBegin
 62
2
  6
CONTINUOUS
  2
*D10
 70
65
 10
0.0
 20
0.0
  3
*D10
  1

  0
LINE
  5
27E
100
AcDbEntity
  8
0
100
AcDbLine
 62
2
  6
CONTINUOUS
 10
228.212962376
 20
1221.7238424602
 11
192.6971917283
 21
1221.7238424602
  0
LINE
  5
27F
100
AcDbEntity
  8
0
100
AcDbLine
 62
2
  6
CONTINUOUS
 10
283.1993485214
 20
1005.9238424602
 11
192.6971917283
 21
1005.9238424602
  0
LINE
  5
280
100
AcDbEntity
  8
0
100
AcDbLine
 62
2
  6
CONTINUOUS
 10
193.1971917283
 20
1221.7238424602
 11
193.1971917283
 21
1113.8238424602
  0
LINE
  5
281
100
AcDbEntity
  8
0
100
AcDbLine
 62
2
  6
CONTINUOUS
 10
193.1971917283
 20
1005.9238424602
 11
193.1971917283
 21
1113.8238424602
  0
INSERT
  5
282
100
AcDbEntity
  8
0
100
AcDbBlockReference
 62
2
  6
CONTINUOUS
  2
_FILLED
 10
193.1971917283
 20
1221.7238424602
 41
3.0
 42
3.0
 43
3.0
 50
90.0
  0
INSERT
  5
283
100
AcDbEntity
  8
0
100
AcDbBlockReference
 62
2
  6
CONTINUOUS
  2
_FILLED
 10
193.1971917283
 20
1005.9238424602
 41
3.0
 42
3.0
 43
3.0
 50
270.0
  0
ENDBLK
  5
284
100
AcDbEntity
  8
0
  6
BYBLOCK
 62
0
100
AcDbBlockEnd
  0
BLOCK
  5
285
100
AcDbEntity
  8
0
100
AcDbBlockBegin
 62
2
  6
CONTINUOUS
  2
*D11
 70
65
 10
0.0
 20
0.0
  3
*D11
  1

  0
LINE
  5
286
100
AcDbEntity
  8
0
100
AcDbLine
 62
2
  6
CONTINUOUS
 10
1079.1840952771
 20
1221.7238424602
 11
1114.6921897767
 21
1221.7238424602
  0
LINE
  5
287
100
AcDbEntity
  8
0
100
AcDbLine
 62
2
  6
CONTINUOUS
 10
1023.1986592326
 20
1035.9238424602
 11
1114.6921897767
 21
1035.9238424602
  0
LINE
  5
288
100
AcDbEntity
  8
0
100
AcDbLine
 62
2
  6
CONTINUOUS
 10
1114.1921897767
 20
1221.7238424602
 11
1114.1921897767
 21
1128.8238424602
  0
LINE
  5
289
100
AcDbEntity
  8
0
100
AcDbLine
 62
2
  6
CONTINUOUS
 10
1114.1921897767
 20
1035.9238424602
 11
1114.1921897767
 21
1128.8238424602
  0
INSERT
  5
28A
100
AcDbEntity
  8
0
100
AcDbBlockReference
 62
2
  6
CONTINUOUS
  2
_FILLED
 10
1114.1921897767
 20
1221.7238424602
 41
3.0
 42
3.0
 43
3.0
 50
90.0
  0
INSERT
  5
28B
100
AcDbEntity
  8
0
100
AcDbBlockReference
 62
2
  6
CONTINUOUS
  2
_FILLED
 10
1114.1921897767
 20
1035.9238424602
 41
3.0
 42
3.0
 43
3.0
 50
270.0
  0
ENDBLK
  5
28C
100
AcDbEntity
  8
0
  6
BYBLOCK
 62
0
100
AcDbBlockEnd
  0
ENDSEC
  0
SECTION
  2
ENTITIES
  0
DIMENSION
  5
28D
100
AcDbEntity
  8
0
100
AcDbDimension
 62
2
  6
CONTINUOUS
  2
*D0
 10
163.4445939072
 20
319.9653380893
 11
163.4445939072
 21
507.6224809465
 70
160
 71
2
 42
400.0
  3
DIMSTYLE_1
100
AcDbAlignedDimension
 13
281.112748139
 23
719.9653380893
 14
281.112748139
 24
319.9653380893
 50
270.0
100
AcDbRotatedDimension
  0
DIMENSION
  5
28E
100
AcDbEntity
  8
0
100
AcDbDimension
 62
2
  6
CONTINUOUS
  2
*D1
 10
668.612748139
 20
240.0571452888
 11
456.2698909961
 21
240.0571452888
 70
160
 71
2
 42
400.0
  3
DIMSTYLE_1
100
AcDbAlignedDimension
 13
268.612748139
 23
332.4653380893
 14
668.612748139
 24
332.4653380893
100
AcDbRotatedDimension
  0
DIMENSION
  5
28F
100
AcDbEntity
  8
0
100
AcDbDimension
 62
2
  6
CONTINUOUS
  2
*D2
 10
1038.612748139
 20
240.0633069381
 11
856.2698909961
 21
240.0633069381
 70
160
 71
2
 42
340.0
  3
DIMSTYLE_1
100
AcDbAlignedDimension
 13
698.612748139
 23
332.4653380893
 14
1038.612748139
 24
332.4653380893
100
AcDbRotatedDimension
  0
DIMENSION
  5
290
100
AcDbEntity
  8
0
100
AcDbDimension
 62
2
  6
CONTINUOUS
  2
*D3
 10
1145.7064319992
 20
619.9653380893
 11
1145.7064319992
 21
457.6224809465
 70
160
 71
2
 42
300.0
  3
DIMSTYLE_1
100
AcDbAlignedDimension
 13
1026.112748139
 23
319.9653380893
 14
1026.112748139
 24
619.9653380893
 50
90.0
100
AcDbRotatedDimension
  0
DIMENSION
  5
291
100
AcDbEntity
  8
0
100
AcDbDimension
 62
2
  6
CONTINUOUS
  2
*D4
 10
468.612748139
 20
800.1631404065
 11
333.7698909961
 21
800.1631404065
 70
160
 71
2
 42
245.0
  3
DIMSTYLE_1
100
AcDbAlignedDimension
 13
223.612748139
 23
759.9653380893
 14
468.612748139
 24
607.3313380893
100
AcDbRotatedDimension
  0
DIMENSION
  5
292
100
AcDbEntity
  8
0
100
AcDbDimension
 62
2
  6
CONTINUOUS
  2
*D5
 10
868.612748139
 20
800.1631404065
 11
656.2698909961
 21
800.1631404065
 70
160
 71
2
 42
400.0
  3
DIMSTYLE_1
100
AcDbAlignedDimension
 13
468.612748139
 23
606.6963380893
 14
868.612748139
 24
475.0453380893
100
AcDbRotatedDimension
  0
DIMENSION
  5
293
100
AcDbEntity
  8
0
100
AcDbDimension
 62
2
  6
CONTINUOUS
  2
*D6
 10
193.312671206
 20
599.9653380893
 11
193.312671206
 21
672.6224809465
 70
160
 71
2
 42
170.0
  3
DIMSTYLE_1
100
AcDbAlignedDimension
 13
233.612748139
 23
769.9653380893
 14
460.865748139
 24
599.9653380893
 50
270.0
100
AcDbRotatedDimension
  0
DIMENSION
  5
294
100
AcDbEntity
  8
0
100
AcDbDimension
 62
2
  6
CONTINUOUS
  2
*D7
 10
1113.6197502721
 20
469.9653380893
 11
1113.6197502721
 21
635.6973593584
 70
160
 71
2
 42
300.0
  3
DIMSTYLE_1
100
AcDbAlignedDimension
 13
1073.612748139
 23
769.9653380893
 14
872.168748139
 24
469.9653380893
 50
270.0
100
AcDbRotatedDimension
  0
DIMENSION
  5
295
100
AcDbEntity
  8
0
100
AcDbDimension
 62
2
  6
CONTINUOUS
  2
*D8
 10
1083.612748139
 20
830.142463674
 11
641.2698909961
 21
830.142463674
 70
160
 71
2
 42
860.0
  3
DIMSTYLE_2
100
AcDbAlignedDimension
 13
223.612748139
 23
759.9653380893
 14
1083.612748139
 24
759.9653380893
100
AcDbRotatedDimension
  0
DIMENSION
  5
296
100
AcDbEntity
  8
0
100
AcDbDimension
 62
2
  6
CONTINUOUS
  2
*D9
 10
1174.1984620159
 20
269.9653380893
 11
1174.1984620159
 21
507.6224809465
 70
160
 71
2
 42
500.0
  3
DIMSTYLE_2
100
AcDbAlignedDimension
 13
1073.612748139
 23
769.9653380893
 14
1073.612748139
 24
269.9653380893
 50
270.0
100
AcDbRotatedDimension
  0
DIMENSION
  5
297
100
AcDbEntity
  8
0
100
AcDbDimension
 62
2
  6
CONTINUOUS
  2
*D10
 10
193.1971917283
 20
1005.9238424602
 11
193.1971917283
 21
1101.4809853173
 70
160
 71
2
 42
215.8
  3
DIMSTYLE_3
100
AcDbAlignedDimension
 13
228.712962376
 23
1221.7238424602
 14
283.6993485214
 24
1005.9238424602
 50
270.0
100
AcDbRotatedDimension
  0
DIMENSION
  5
298
100
AcDbEntity
  8
0
100
AcDbDimension
 62
2
  6
CONTINUOUS
  2
*D11
 10
1114.1921897767
 20
1035.9238424602
 11
1114.1921897767
 21
1116.4809853173
 70
160
 71
2
 42
185.8
  3
DIMSTYLE_3
100
AcDbAlignedDimension
 13
1078.6840952771
 23
1221.7238424602
 14
1022.6986592326
 24
1035.9238424602
 50
270.0
100
AcDbRotatedDimension
  0
LWPOLYLINE
  5
299
100
AcDbEntity
  8
0
100
AcDbPolyline
 62
2
  6
CONTINUOUS
 90
19
 70
0
 43
0.2500000019
 10
856.2699392361
 20
257.206171224
 10
861.7556336806
 20
257.206171224
 10
859.0127864583
 20
251.4918878038
 10
860.1555659722
 20
251.1109153646
 10
860.8412777778
 20
250.7299704861
 10
861.2984557292
 20
249.9680807292
 10
861.5269895833
 20
249.2061634115
 10
861.7556336806
 20
248.0633012153
 10
861.7556336806
 20
246.9204390191
 10
861.5269895833
 20
245.7776043837
 10
861.2984557292
 20
245.015687066
 10
860.8412777778
 20
244.2537697483
 10
860.3842100694
 20
243.8728248698
 10
859.4698541667
 20
243.4918799913
 10
858.5556085069
 20
243.4918799913
 10
857.6413628472
 20
243.8728248698
 10
857.1841848958
 20
244.2537697483
 10
856.7270069444
 20
245.015687066
 10
856.2699392361
 20
246.5394941406
  0
LWPOLYLINE
  5
29A
100
AcDbEntity
  8
0
100
AcDbPolyline
 62
2
  6
CONTINUOUS
 90
9
 70
0
 43
0.2500000019
 10
176.1698083767
 20
680.8510789931
 10
176.1698083767
 20
686.3367734375
 10
177.3126705729
 20
685.1938836806
 10
179.217422526
 20
684.0510490451
 10
181.8840917969
 20
682.679625434
 10
184.1698161892
 20
681.9939136285
 10
186.0745681424
 20
681.5367907986
 10
187.9793476563
 20
681.3082018229
 10
189.8840996094
 20
681.3082018229
  0
LINE
  5
29B
100
AcDbEntity
  8
0
100
AcDbLine
 62
7
  6
CONTINUOUS
 10
1073.612748139
 20
269.9653380893
 11
233.612748139
 21
269.9653380893
  0
LINE
  5
29C
100
AcDbEntity
  8
0
100
AcDbLine
 62
7
  6
CONTINUOUS
 10
1073.612748139
 20
274.9797716388
 11
233.612748139
 21
274.9797716388
  0
LINE
  5
29D
100
AcDbEntity
  8
0
100
AcDbLine
 62
7
  6
CONTINUOUS
 10
1052.612748139
 20
295.2621665983
 11
254.612748139
 21
295.2621665983
  0
LINE
  5
29E
100
AcDbEntity
  8
0
100
AcDbLine
 62
7
  6
CONTINUOUS
 10
281.112748139
 20
319.9653380893
 11
656.112748139
 21
319.9653380893
  0
LINE
  5
29F
100
AcDbEntity
  8
0
100
AcDbLine
 62
7
  6
CONTINUOUS
 10
711.112748139
 20
319.9653380893
 11
1026.112748139
 21
319.9653380893
  0
LINE
  5
2A0
100
AcDbEntity
  8
0
100
AcDbLine
 62
7
  6
CONTINUOUS
 10
223.612748139
 20
279.9653380893
 11
223.612748139
 21
759.9653380893
  0
LINE
  5
2A1
100
AcDbEntity
  8
0
100
AcDbLine
 62
7
  6
CONTINUOUS
 10
228.6271816884
 20
279.9653380893
 11
228.6271816884
 21
759.9653380893
  0
LINE
  5
2A2
100
AcDbEntity
  8
0
100
AcDbLine
 62
7
  6
CONTINUOUS
 10
248.9095766479
 20
300.9653380893
 11
248.9095766479
 21
738.9653380893
  0
LINE
  5
2A3
100
AcDbEntity
  8
0
100
AcDbLine
 62
7
  6
CONTINUOUS
 10
268.612748139
 20
707.4653380893
 11
268.612748139
 21
332.4653380893
  0
LWPOLYLINE
  5
2A4
100
AcDbEntity
  8
0
100
AcDbPolyline
 62
2
  6
CONTINUOUS
 90
25
 70
0
 43
0.2500000019
 10
149.7302990451
 20
515.8510694444
 10
148.2064919705
 20
516.0796032986
 10
147.4446022135
 20
516.3081922743
 10
146.6826848958
 20
516.7653151042
 10
146.3017400174
 20
517.2224930556
 10
145.9207951389
 20
518.1367938368
 10
145.9207951389
 20
519.0510394965
 10
146.3017400174
 20
519.9653402778
 10
146.6826848958
 20
520.4224631076
 10
147.4446022135
 20
520.879641059
 10
148.2064919705
 20
521.1081749132
 10
149.7302990451
 20
521.3367638889
 10
156.206499783
 20
521.3367638889
 10
157.7303068576
 20
521.1081749132
 10
158.4922241753
 20
520.879641059
 10
159.2541139323
 20
520.4224631076
 10
159.6350588108
 20
519.9653402778
 10
160.01603125
 20
519.0510394965
 10
160.01603125
 20
518.1367938368
 10
159.6350588108
 20
517.2224930556
 10
159.2541139323
 20
516.7653151042
 10
158.4922241753
 20
516.3081922743
 10
157.7303068576
 20
516.0796032986
 10
156.206499783
 20
515.8510694444
 10
149.7302990451
 20
515.8510694444
  0
LWPOLYLINE
  5
2A5
100
AcDbEntity
  8
0
100
AcDbPolyline
 62
2
  6
CONTINUOUS
 90
25
 70
0
 43
0.2500000019
 10
149.7302990451
 20
524.0796111111
 10
148.2064919705
 20
524.3082000868
 10
147.4446022135
 20
524.5367890625
 10
146.6826848958
 20
524.9939118924
 10
146.3017400174
 20
525.4510347222
 10
145.9207951389
 20
526.3653355035
 10
145.9207951389
 20
527.2796362847
 10
146.3017400174
 20
528.193937066
 10
146.6826848958
 20
528.6510598958
 10
147.4446022135
 20
529.1081827257
 10
148.2064919705
 20
529.3367717014
 10
149.7302990451
 20
529.5653606771
 10
156.206499783
 20
529.5653606771
 10
157.7303068576
 20
529.3367717014
 10
158.4922241753
 20
529.1081827257
 10
159.2541139323
 20
528.6510598958
 10
159.6350588108
 20
528.193937066
 10
160.01603125
 20
527.2796362847
 10
160.01603125
 20
526.3653355035
 10
159.6350588108
 20
525.4510347222
 10
159.2541139323
 20
524.9939118924
 10
158.4922241753
 20
524.5367890625
 10
157.7303068576
 20
524.3082000868
 10
156.206499783
 20
524.0796111111
 10
149.7302990451
 20
524.0796111111
  0
LWPOLYLINE
  5
2A6
100
AcDbEntity
  8
0
100
AcDbPolyline
 62
2
  6
CONTINUOUS
 90
4
 70
0
 43
0.2500000019
 10
346.5698810764
 20
803.5917282986
 10
346.5698810764
 20
817.6869644097
 10
341.9984874132
 20
807.0202873264
 10
347.4841818576
 20
807.0202873264
  0
LWPOLYLINE
  5
2A7
100
AcDbEntity
  8
0
100
AcDbPolyline
 62
2
  6
CONTINUOUS
 90
17
 70
0
 43
0.2500000019
 10
333.769890625
 20
814.6393502604
 10
334.2270134549
 20
816.1631297743
 10
334.6841914062
 20
816.9250195312
 10
335.1413142361
 20
817.3060195312
 10
336.0556150174
 20
817.6869644097
 10
336.9699157986
 20
817.6869644097
 10
337.8841614583
 20
817.3060195312
 10
338.3413394097
 20
816.9250195312
 10
338.7984622396
 20
816.1631297743
 10
339.0270512153
 20
815.4012400174
 10
339.2555850694
 20
814.2584053819
 10
339.2555850694
 20
813.8774053819
 10
339.0270512153
 20
812.7345707465
 10
334.2270134549
 20
805.496452691
 10
333.9984796007
 20
804.734562934
 10
333.769890625
 20
803.5917282986
 10
339.2555850694
 20
803.5917282986
  0
LWPOLYLINE
  5
2A8
100
AcDbEntity
  8
0
100
AcDbPolyline
 62
2
  6
CONTINUOUS
 90
4
 70
0
 43
0.2500000019
 10
160.01603125
 20
512.193921441
 10
145.9207951389
 20
512.193921441
 10
156.5874446615
 20
507.6224726563
 10
156.5874446615
 20
513.1082222222
  0
LWPOLYLINE
  5
2A9
100
AcDbEntity
  8
0
100
AcDbPolyline
 62
2
  6
CONTINUOUS
 90
25
 70
0
 43
0.2500000019
 10
1131.9921206597
 20
465.8510481771
 10
1130.4683411458
 20
466.0796371528
 10
1129.7064513889
 20
466.3081710069
 10
1128.9445616319
 20
466.7653489583
 10
1128.5635616319
 20
467.2224717882
 10
1128.182671875
 20
468.1367725694
 10
1128.182671875
 20
469.0510733507
 10
1128.5635616319
 20
469.9653190104
 10
1128.9445616319
 20
470.4224969618
 10
1129.7064513889
 20
470.8796197917
 10
1130.4683411458
 20
471.1082087674
 10
1131.9921206597
 20
471.3367426215
 10
1138.4683489583
 20
471.3367426215
 10
1139.9921284722
 20
471.1082087674
 10
1140.7540182292
 20
470.8796197917
 10
1141.5159079861
 20
470.4224969618
 10
1141.8969079861
 20
469.9653190104
 10
1142.2779079861
 20
469.0510733507
 10
1142.2779079861
 20
468.1367725694
 10
1141.8969079861
 20
467.2224717882
 10
1141.5159079861
 20
466.7653489583
 10
1140.7540182292
 20
466.3081710069
 10
1139.9921284722
 20
466.0796371528
 10
1138.4683489583
 20
465.8510481771
 10
1131.9921206597
 20
465.8510481771
  0
LWPOLYLINE
  5
2AA
100
AcDbEntity
  8
0
100
AcDbPolyline
 62
2
  6
CONTINUOUS
 90
25
 70
0
 43
0.2500000019
 10
1131.9921206597
 20
474.0796449653
 10
1130.4683411458
 20
474.3081788194
 10
1129.7064513889
 20
474.5367677951
 10
1128.9445616319
 20
474.993890625
 10
1128.5635616319
 20
475.4510685764
 10
1128.182671875
 20
476.3653142361
 10
1128.182671875
 20
477.2796150174
 10
1128.5635616319
 20
478.1939157986
 10
1128.9445616319
 20
478.6510386285
 10
1129.7064513889
 20
479.1082165799
 10
1130.4683411458
 20
479.336750434
 10
1131.9921206597
 20
479.5653394097
 10
1138.4683489583
 20
479.5653394097
 10
1139.9921284722
 20
479.336750434
 10
1140.7540182292
 20
479.1082165799
 10
1141.5159079861
 20
478.6510386285
 10
1141.8969079861
 20
478.1939157986
 10
1142.2779079861
 20
477.2796150174
 10
1142.2779079861
 20
476.3653142361
 10
1141.8969079861
 20
475.4510685764
 10
1141.5159079861
 20
474.993890625
 10
1140.7540182292
 20
474.5367677951
 10
1139.9921284722
 20
474.3081788194
 10
1138.4683489583
 20
474.0796449653
 10
1131.9921206597
 20
474.0796449653
  0
LWPOLYLINE
  5
2AB
100
AcDbEntity
  8
0
100
AcDbPolyline
 62
2
  6
CONTINUOUS
 90
3
 70
0
 43
0.2500000019
 10
178.0745878906
 20
674.6796176215
 10
176.1698083767
 20
675.3653294271
 10
189.8840996094
 20
675.3653294271
  0
LWPOLYLINE
  5
2AC
100
AcDbEntity
  8
0
100
AcDbPolyline
 62
2
  6
CONTINUOUS
 90
4
 70
0
 43
0.2500000019
 10
460.841328125
 20
243.4857063802
 10
460.841328125
 20
257.5809424913
 10
456.2698793403
 20
246.9142929688
 10
461.7556289062
 20
246.9142929688
  0
LINE
  5
2AD
100
AcDbEntity
  8
0
100
AcDbLine
 62
7
  6
CONTINUOUS
 10
1026.112748139
 20
619.9653380893
 11
711.112748139
 21
619.9653380893
  0
LWPOLYLINE
  5
2AE
100
AcDbEntity
  8
0
100
AcDbPolyline
 62
2
  6
CONTINUOUS
 90
25
 70
0
 43
0.2500000019
 10
1160.4842178819
 20
515.8510694444
 10
1158.960328125
 20
516.0796032986
 10
1158.1984383681
 20
516.3081922743
 10
1157.4365486111
 20
516.7653151042
 10
1157.0556588542
 20
517.2224930556
 10
1156.6746588542
 20
518.1367938368
 10
1156.6746588542
 20
519.0510394965
 10
1157.0556588542
 20
519.9653402778
 10
1157.4365486111
 20
520.4224631076
 10
1158.1984383681
 20
520.879641059
 10
1158.960328125
 20
521.1081749132
 10
1160.4842178819
 20
521.3367638889
 10
1166.9603359375
 20
521.3367638889
 10
1168.4842256944
 20
521.1081749132
 10
1169.2461154514
 20
520.879641059
 10
1170.0080052083
 20
520.4224631076
 10
1170.3888949653
 20
519.9653402778
 10
1170.7698949653
 20
519.0510394965
 10
1170.7698949653
 20
518.1367938368
 10
1170.3888949653
 20
517.2224930556
 10
1170.0080052083
 20
516.7653151042
 10
1169.2461154514
 20
516.3081922743
 10
1168.4842256944
 20
516.0796032986
 10
1166.9603359375
 20
515.8510694444
 10
1160.4842178819
 20
515.8510694444
  0
LWPOLYLINE
  5
2AF
100
AcDbEntity
  8
0
100
AcDbPolyline
 62
2
  6
CONTINUOUS
 90
25
 70
0
 43
0.2500000019
 10
1160.4842178819
 20
524.0796111111
 10
1158.960328125
 20
524.3082000868
 10
1158.1984383681
 20
524.5367890625
 10
1157.4365486111
 20
524.9939118924
 10
1157.0556588542
 20
525.4510347222
 10
1156.6746588542
 20
526.3653355035
 10
1156.6746588542
 20
527.2796362847
 10
1157.0556588542
 20
528.193937066
 10
1157.4365486111
 20
528.6510598958
 10
1158.1984383681
 20
529.1081827257
 10
1158.960328125
 20
529.3367717014
 10
1160.4842178819
 20
529.5653606771
 10
1166.9603359375
 20
529.5653606771
 10
1168.4842256944
 20
529.3367717014
 10
1169.2461154514
 20
529.1081827257
 10
1170.0080052083
 20
528.6510598958
 10
1170.3888949653
 20
528.193937066
 10
1170.7698949653
 20
527.2796362847
 10
1170.7698949653
 20
526.3653355035
 10
1170.3888949653
 20
525.4510347222
 10
1170.0080052083
 20
524.9939118924
 10
1169.2461154514
 20
524.5367890625
 10
1168.4842256944
 20
524.3082000868
 10
1166.9603359375
 20
524.0796111111
 10
1160.4842178819
 20
524.0796111111
  0
LWPOLYLINE
  5
2B0
100
AcDbEntity
  8
0
100
AcDbPolyline
 62
2
  6
CONTINUOUS
 90
25
 70
0
 43
0.2500000019
 10
179.5983949653
 20
689.0796206597
 10
178.0745878906
 20
689.3082096354
 10
177.3126705729
 20
689.5367434896
 10
176.5507532552
 20
689.993921441
 10
176.1698083767
 20
690.4510442708
 10
175.7888634983
 20
691.3653450521
 10
175.7888634983
 20
692.2796458333
 10
176.1698083767
 20
693.1938914931
 10
176.5507532552
 20
693.6510694444
 10
177.3126705729
 20
694.1081922743
 10
178.0745878906
 20
694.33678125
 10
179.5983949653
 20
694.5653151042
 10
186.0745681424
 20
694.5653151042
 10
187.598375217
 20
694.33678125
 10
188.3602925347
 20
694.1081922743
 10
189.1221822917
 20
693.6510694444
 10
189.5031547309
 20
693.1938914931
 10
189.8840996094
 20
692.2796458333
 10
189.8840996094
 20
691.3653450521
 10
189.5031547309
 20
690.4510442708
 10
189.1221822917
 20
689.993921441
 10
188.3602925347
 20
689.5367434896
 10
187.598375217
 20
689.3082096354
 10
186.0745681424
 20
689.0796206597
 10
179.5983949653
 20
689.0796206597
  0
LWPOLYLINE
  5
2B1
100
AcDbEntity
  8
0
100
AcDbPolyline
 62
2
  6
CONTINUOUS
 90
25
 70
0
 43
0.2500000019
 10
464.4984761285
 20
253.7714385851
 10
464.7270099826
 20
255.2952456597
 10
464.9555989583
 20
256.0571354167
 10
465.4127217882
 20
256.8190527344
 10
465.8698997396
 20
257.1999976128
 10
466.7842005208
 20
257.5809424913
 10
467.6984461806
 20
257.5809424913
 10
468.6127469618
 20
257.1999976128
 10
469.0698697917
 20
256.8190527344
 10
469.5270477431
 20
256.0571354167
 10
469.7555815972
 20
255.2952456597
 10
469.9841705729
 20
253.7714385851
 10
469.9841705729
 20
247.2952378472
 10
469.7555815972
 20
245.7714307726
 10
469.5270477431
 20
245.0095134549
 10
469.0698697917
 20
244.2476236979
 10
468.6127469618
 20
243.8666788194
 10
467.6984461806
 20
243.4857063802
 10
466.7842005208
 20
243.4857063802
 10
465.8698997396
 20
243.8666788194
 10
465.4127217882
 20
244.2476236979
 10
464.9555989583
 20
245.0095134549
 10
464.7270099826
 20
245.7714307726
 10
464.4984761285
 20
247.2952378472
 10
464.4984761285
 20
253.7714385851
  0
LWPOLYLINE
  5
2B2
100
AcDbEntity
  8
0
100
AcDbPolyline
 62
2
  6
CONTINUOUS
 90
25
 70
0
 43
0.2500000019
 10
472.7270177951
 20
253.7714385851
 10
472.9556067708
 20
255.2952456597
 10
473.1841957465
 20
256.0571354167
 10
473.6413185764
 20
256.8190527344
 10
474.0984414063
 20
257.1999976128
 10
475.0127421875
 20
257.5809424913
 10
475.9270429688
 20
257.5809424913
 10
476.84134375
 20
257.1999976128
 10
477.2984665799
 20
256.8190527344
 10
477.7555894097
 20
256.0571354167
 10
477.9841783854
 20
255.2952456597
 10
478.2127673611
 20
253.7714385851
 10
478.2127673611
 20
247.2952378472
 10
477.9841783854
 20
245.7714307726
 10
477.7555894097
 20
245.0095134549
 10
477.2984665799
 20
244.2476236979
 10
476.84134375
 20
243.8666788194
 10
475.9270429688
 20
243.4857063802
 10
475.0127421875
 20
243.4857063802
 10
474.0984414063
 20
243.8666788194
 10
473.6413185764
 20
244.2476236979
 10
473.1841957465
 20
245.0095134549
 10
472.9556067708
 20
245.7714307726
 10
472.7270177951
 20
247.2952378472
 10
472.7270177951
 20
253.7714385851
  0
LINE
  5
2B3
100
AcDbEntity
  8
0
100
AcDbLine
 62
7
  6
CONTINUOUS
 10
708.612748139
 20
655.9135448056
 11
1062.9643338845
 21
655.9135448055
  0
LINE
  5
2B4
100
AcDbEntity
  8
0
100
AcDbLine
 62
7
  6
CONTINUOUS
 10
656.112748139
 20
719.9653380893
 11
281.112748139
 21
719.9653380893
  0
LINE
  5
2B5
100
AcDbEntity
  8
0
100
AcDbLine
 62
7
  6
CONTINUOUS
 10
702.5609548552
 20
749.3169238348
 11
1052.612748139
 21
749.3169238348
  0
LINE
  5
2B6
100
AcDbEntity
  8
0
100
AcDbLine
 62
7
  6
CONTINUOUS
 10
233.612748139
 20
764.9509045399
 11
1073.612748139
 21
764.9509045399
  0
LINE
  5
2B7
100
AcDbEntity
  8
0
100
AcDbLine
 62
7
  6
CONTINUOUS
 10
233.612748139
 20
769.9653380893
 11
1073.612748139
 21
769.9653380893
  0
LWPOLYLINE
  5
2B8
100
AcDbEntity
  8
0
100
AcDbPolyline
 62
2
  6
CONTINUOUS
 90
25
 70
0
 43
0.2500000019
 10
1099.9054383681
 20
643.9259392361
 10
1098.3816588542
 20
644.1545282118
 10
1097.6197690972
 20
644.383062066
 10
1096.8578793403
 20
644.8402400174
 10
1096.4768793403
 20
645.2973628472
 10
1096.0959895833
 20
646.2116636285
 10
1096.0959895833
 20
647.1259092882
 10
1096.4768793403
 20
648.0402100694
 10
1096.8578793403
 20
648.4973328993
 10
1097.6197690972
 20
648.9545108507
 10
1098.3816588542
 20
649.1830998264
 10
1099.9054383681
 20
649.4116336806
 10
1106.3816666667
 20
649.4116336806
 10
1107.9054461806
 20
649.1830998264
 10
1108.6673359375
 20
648.9545108507
 10
1109.4292256944
 20
648.4973328993
 10
1109.8102256944
 20
648.0402100694
 10
1110.1912256944
 20
647.1259092882
 10
1110.1912256944
 20
646.2116636285
 10
1109.8102256944
 20
645.2973628472
 10
1109.4292256944
 20
644.8402400174
 10
1108.6673359375
 20
644.383062066
 10
1107.9054461806
 20
644.1545282118
 10
1106.3816666667
 20
643.9259392361
 10
1099.9054383681
 20
643.9259392361
  0
LWPOLYLINE
  5
2B9
100
AcDbEntity
  8
0
100
AcDbPolyline
 62
2
  6
CONTINUOUS
 90
25
 70
0
 43
0.2500000019
 10
1099.9054383681
 20
652.1544809028
 10
1098.3816588542
 20
652.3830698785
 10
1097.6197690972
 20
652.6116588542
 10
1096.8578793403
 20
653.068781684
 10
1096.4768793403
 20
653.5259045139
 10
1096.0959895833
 20
654.4402052951
 10
1096.0959895833
 20
655.3545060764
 10
1096.4768793403
 20
656.2688068576
 10
1096.8578793403
 20
656.7259296875
 10
1097.6197690972
 20
657.1830525174
 10
1098.3816588542
 20
657.4116414931
 10
1099.9054383681
 20
657.6402304688
 10
1106.3816666667
 20
657.6402304688
 10
1107.9054461806
 20
657.4116414931
 10
1108.6673359375
 20
657.1830525174
 10
1109.4292256944
 20
656.7259296875
 10
1109.8102256944
 20
656.2688068576
 10
1110.1912256944
 20
655.3545060764
 10
1110.1912256944
 20
654.4402052951
 10
1109.8102256944
 20
653.5259045139
 10
1109.4292256944
 20
653.068781684
 10
1108.6673359375
 20
652.6116588542
 10
1107.9054461806
 20
652.3830698785
 10
1106.3816666667
 20
652.1544809028
 10
1099.9054383681
 20
652.1544809028
  0
LWPOLYLINE
  5
2BA
100
AcDbEntity
  8
0
100
AcDbPolyline
 62
2
  6
CONTINUOUS
 90
25
 70
0
 43
0.2500000019
 10
649.4984500868
 20
843.8567365451
 10
649.4984500868
 20
836.9996184896
 10
649.7270390625
 20
835.8567287326
 10
649.9556280382
 20
835.0948389757
 10
650.4127508681
 20
834.3329492187
 10
650.8698736979
 20
833.9520043403
 10
651.7841744792
 20
833.5710594618
 10
652.6984752604
 20
833.5710594618
 10
653.6127209201
 20
833.9520043403
 10
654.0698988715
 20
834.3329492187
 10
654.5270217014
 20
835.0948389757
 10
654.7556106771
 20
835.8567287326
 10
654.9841996528
 20
836.9996184896
 10
654.9841996528
 20
838.5233980035
 10
654.7556106771
 20
839.6662877604
 10
654.5270217014
 20
840.4281775174
 10
654.0698988715
 20
841.1900672743
 10
653.6127209201
 20
841.5710121528
 10
652.6984752604
 20
841.9520121528
 10
651.7841744792
 20
841.9520121528
 10
650.8698736979
 20
841.5710121528
 10
650.4127508681
 20
841.1900672743
 10
649.9556280382
 20
840.4281775174
 10
649.7270390625
 20
839.6662877604
 10
649.4984500868
 20
838.5233980035
  0
LWPOLYLINE
  5
2BB
100
AcDbEntity
  8
0
100
AcDbPolyline
 62
2
  6
CONTINUOUS
 90
4
 70
0
 43
0.2500000019
 10
660.8413029514
 20
803.5917282986
 10
660.8413029514
 20
817.6869644097
 10
656.2699092882
 20
807.0202873264
 10
661.7556588542
 20
807.0202873264
  0
LINE
  5
2BC
100
AcDbEntity
  8
0
100
AcDbLine
 62
7
  6
CONTINUOUS
 10
668.612748139
 20
332.4653380893
 11
668.612748139
 21
707.4653380893
  0
LINE
  5
2BD
100
AcDbEntity
  8
0
100
AcDbLine
 62
7
  6
CONTINUOUS
 10
696.5121255243
 20
661.9653380893
 11
696.5121255243
 21
744.7955248104
  0
LINE
  5
2BE
100
AcDbEntity
  8
0
100
AcDbLine
 62
7
  6
CONTINUOUS
 10
698.612748139
 20
607.4653380893
 11
698.612748139
 21
332.4653380893
  0
LINE
  5
2BF
100
AcDbEntity
  8
0
100
AcDbLine
 62
7
  6
CONTINUOUS
 10
702.5609548552
 20
661.9653380893
 11
702.5609548552
 21
749.3169238348
  0
LWPOLYLINE
  5
2C0
100
AcDbEntity
  8
0
100
AcDbPolyline
 62
2
  6
CONTINUOUS
 90
25
 70
0
 43
0.2500000019
 10
657.727046875
 20
843.8567365451
 10
657.9555807292
 20
845.3805711806
 10
658.1842248264
 20
846.1424609375
 10
658.6412925347
 20
846.9043506944
 10
659.0984704861
 20
847.2852955729
 10
660.0127161458
 20
847.6662955729
 10
660.9270720486
 20
847.6662955729
 10
661.8413177083
 20
847.2852955729
 10
662.2984956597
 20
846.9043506944
 10
662.7555633681
 20
846.1424609375
 10
662.9842074653
 20
845.3805711806
 10
663.2127413194
 20
843.8567365451
 10
663.2127413194
 20
837.3805633681
 10
662.9842074653
 20
835.8567287326
 10
662.7555633681
 20
835.0948389757
 10
662.2984956597
 20
834.3329492187
 10
661.8413177083
 20
833.9520043403
 10
660.9270720486
 20
833.5710594618
 10
660.0127161458
 20
833.5710594618
 10
659.0984704861
 20
833.9520043403
 10
658.6412925347
 20
834.3329492187
 10
658.1842248264
 20
835.0948389757
 10
657.9555807292
 20
835.8567287326
 10
657.727046875
 20
837.3805633681
 10
657.727046875
 20
843.8567365451
  0
LWPOLYLINE
  5
2C1
100
AcDbEntity
  8
0
100
AcDbPolyline
 62
2
  6
CONTINUOUS
 90
25
 70
0
 43
0.2500000019
 10
664.4985060764
 20
813.8774053819
 10
664.7270399306
 20
815.4012400174
 10
664.9555737847
 20
816.1631297743
 10
665.4127517361
 20
816.9250195312
 10
665.8699296875
 20
817.3060195312
 10
666.7841753472
 20
817.6869644097
 10
667.6984210069
 20
817.6869644097
 10
668.6127769097
 20
817.3060195312
 10
669.0698446181
 20
816.9250195312
 10
669.5270225694
 20
816.1631297743
 10
669.7555564236
 20
815.4012400174
 10
669.9842005208
 20
813.8774053819
 10
669.9842005208
 20
807.4012322049
 10
669.7555564236
 20
805.877452691
 10
669.5270225694
 20
805.1155078125
 10
669.0698446181
 20
804.3536180556
 10
668.6127769097
 20
803.9726731771
 10
667.6984210069
 20
803.5917282986
 10
666.7841753472
 20
803.5917282986
 10
665.8699296875
 20
803.9726731771
 10
665.4127517361
 20
804.3536180556
 10
664.9555737847
 20
805.1155078125
 10
664.7270399306
 20
805.877452691
 10
664.4985060764
 20
807.4012322049
 10
664.4985060764
 20
813.8774053819
  0
LWPOLYLINE
  5
2C2
100
AcDbEntity
  8
0
100
AcDbPolyline
 62
2
  6
CONTINUOUS
 90
25
 70
0
 43
0.2500000019
 10
672.7270477431
 20
813.8774053819
 10
672.9555815972
 20
815.4012400174
 10
673.1842256944
 20
816.1631297743
 10
673.6412934028
 20
816.9250195312
 10
674.0984713542
 20
817.3060195312
 10
675.0127170139
 20
817.6869644097
 10
675.9270729167
 20
817.6869644097
 10
676.8413185764
 20
817.3060195312
 10
677.2984965278
 20
816.9250195312
 10
677.7555642361
 20
816.1631297743
 10
677.9842083333
 20
815.4012400174
 10
678.2127421875
 20
813.8774053819
 10
678.2127421875
 20
807.4012322049
 10
677.9842083333
 20
805.877452691
 10
677.7555642361
 20
805.1155078125
 10
677.2984965278
 20
804.3536180556
 10
676.8413185764
 20
803.9726731771
 10
675.9270729167
 20
803.5917282986
 10
675.0127170139
 20
803.5917282986
 10
674.0984713542
 20
803.9726731771
 10
673.6412934028
 20
804.3536180556
 10
673.1842256944
 20
805.1155078125
 10
672.9555815972
 20
805.877452691
 10
672.7270477431
 20
807.4012322049
 10
672.7270477431
 20
813.8774053819
  0
LWPOLYLINE
  5
2C3
100
AcDbEntity
  8
0
100
AcDbPolyline
 62
2
  6
CONTINUOUS
 90
22
 70
0
 43
0.2500000019
 10
355.7127235243
 20
817.3060195312
 10
350.6841519097
 20
817.3060195312
 10
350.6841519097
 20
811.9726809896
 10
351.3698637153
 20
812.3536258681
 10
352.5127534722
 20
812.7345707465
 10
353.4270542535
 20
812.7345707465
 10
354.3412999132
 20
812.3536258681
 10
354.7984778646
 20
811.9726809896
 10
355.2556006944
 20
811.2107361111
 10
355.4841896701
 20
810.4488463542
 10
355.7127235243
 20
808.9250668403
 10
355.7127235243
 20
807.4012322049
 10
355.4841896701
 20
805.877452691
 10
355.2556006944
 20
805.1155078125
 10
354.7984778646
 20
804.3536180556
 10
354.3412999132
 20
803.9726731771
 10
353.4270542535
 20
803.5917282986
 10
352.5127534722
 20
803.5917282986
 10
351.598452691
 20
803.9726731771
 10
351.1413298611
 20
804.3536180556
 10
350.6841519097
 20
805.1155078125
 10
350.2270290799
 20
806.2583975694
  0
LWPOLYLINE
  5
2C4
100
AcDbEntity
  8
0
100
AcDbPolyline
 62
2
  6
CONTINUOUS
 90
11
 70
0
 43
0.2500000019
 10
654.9841996528
 20
844.9996263021
 10
654.5270217014
 20
846.1424609375
 10
654.0698988715
 20
846.9043506944
 10
653.6127209201
 20
847.2852955729
 10
652.6984752604
 20
847.6662955729
 10
651.7841744792
 20
847.6662955729
 10
650.8698736979
 20
847.2852955729
 10
650.4127508681
 20
846.9043506944
 10
649.9556280382
 20
846.1424609375
 10
649.7270390625
 20
845.3805711806
 10
649.4984500868
 20
843.8567365451
  0
LWPOLYLINE
  5
2C5
100
AcDbEntity
  8
0
100
AcDbPolyline
 62
2
  6
CONTINUOUS
 90
43
 70
0
 43
0.2500000019
 10
643.3270438368
 20
840.8091223958
 10
642.4127430556
 20
841.1900672743
 10
641.9556202257
 20
841.5710121528
 10
641.72703125
 20
841.9520121528
 10
641.4984422743
 20
842.7139019097
 10
641.2699084201
 20
843.8567365451
 10
641.2699084201
 20
844.6186814236
 10
641.4984422743
 20
845.761516059
 10
641.72703125
 20
846.523405816
 10
641.9556202257
 20
846.9043506944
 10
642.4127430556
 20
847.2852955729
 10
643.5556328125
 20
847.6662955729
 10
644.4698784722
 20
847.6662955729
 10
645.6127682292
 20
847.2852955729
 10
646.069891059
 20
846.9043506944
 10
646.2984800347
 20
846.523405816
 10
646.5270138889
 20
845.761516059
 10
646.7556028646
 20
844.6186814236
 10
646.7556028646
 20
843.8567365451
 10
646.5270138889
 20
842.7139019097
 10
646.2984800347
 20
841.9520121528
 10
646.069891059
 20
841.5710121528
 10
644.6984674479
 20
840.8091223958
 10
643.3270438368
 20
840.8091223958
 10
642.4127430556
 20
840.4281775174
 10
641.9556202257
 20
840.0472326389
 10
641.4984422743
 20
839.2853428819
 10
641.2699084201
 20
838.142453125
 10
641.2699084201
 20
836.2377287326
 10
641.4984422743
 20
835.0948389757
 10
641.9556202257
 20
834.3329492187
 10
642.4127430556
 20
833.9520043403
 10
643.3270438368
 20
833.5710594618
 10
644.6984674479
 20
833.5710594618
 10
645.6127682292
 20
833.9520043403
 10
646.069891059
 20
834.3329492187
 10
646.5270138889
 20
835.0948389757
 10
646.7556028646
 20
836.2377287326
 10
646.7556028646
 20
838.142453125
 10
646.5270138889
 20
839.2853428819
 10
646.069891059
 20
840.0472326389
 10
645.6127682292
 20
840.4281775174
 10
644.6984674479
 20
840.8091223958
  0
LWPOLYLINE
  5
2C6
100
AcDbEntity
  8
0
100
AcDbPolyline
 62
2
  6
CONTINUOUS
 90
4
 70
0
 43
0.2500000019
 10
869.0699296875
 20
243.4918799913
 10
869.0699296875
 20
257.5871161024
 10
864.4984809028
 20
246.9204390191
 10
869.9841753472
 20
246.9204390191
  0
LWPOLYLINE
  5
2C7
100
AcDbEntity
  8
0
100
AcDbPolyline
 62
2
  6
CONTINUOUS
 90
25
 70
0
 43
0.2500000019
 10
872.7270225694
 20
253.7775846354
 10
872.9555564236
 20
255.3013917101
 10
873.1842005208
 20
256.0633090278
 10
873.6412682292
 20
256.8251987847
 10
874.0984461806
 20
257.206171224
 10
875.0128020833
 20
257.5871161024
 10
875.9270477431
 20
257.5871161024
 10
876.8412934028
 20
257.206171224
 10
877.2984713542
 20
256.8251987847
 10
877.7556493056
 20
256.0633090278
 10
877.9841831597
 20
255.3013917101
 10
878.2127170139
 20
253.7775846354
 10
878.2127170139
 20
247.3014114583
 10
877.9841831597
 20
245.7776043837
 10
877.7556493056
 20
245.015687066
 10
877.2984713542
 20
244.2537697483
 10
876.8412934028
 20
243.8728248698
 10
875.9270477431
 20
243.4918799913
 10
875.0128020833
 20
243.4918799913
 10
874.0984461806
 20
243.8728248698
 10
873.6412682292
 20
244.2537697483
 10
873.1842005208
 20
245.015687066
 10
872.9555564236
 20
245.7776043837
 10
872.7270225694
 20
247.3014114583
 10
872.7270225694
 20
253.7775846354
  0
LINE
  5
2C8
100
AcDbEntity
  8
0
100
AcDbLine
 62
7
  6
CONTINUOUS
 10
1038.612748139
 20
332.4653380893
 11
1038.612748139
 21
607.4653380893
  0
LINE
  5
2C9
100
AcDbEntity
  8
0
100
AcDbLine
 62
7
  6
CONTINUOUS
 10
1062.9643338845
 20
738.9653380893
 11
1062.9643338845
 21
655.9135448055
  0
LINE
  5
2CA
100
AcDbEntity
  8
0
100
AcDbLine
 62
7
  6
CONTINUOUS
 10
1078.5983145895
 20
759.9653380893
 11
1078.5983145895
 21
279.9653380893
  0
LINE
  5
2CB
100
AcDbEntity
  8
0
100
AcDbLine
 62
7
  6
CONTINUOUS
 10
1083.612748139
 20
759.9653380893
 11
1083.612748139
 21
279.9653380893
  0
LWPOLYLINE
  5
2CC
100
AcDbEntity
  8
0
100
AcDbPolyline
 62
2
  6
CONTINUOUS
 90
19
 70
0
 43
0.2500000019
 10
1096.4768793403
 20
635.6973424479
 10
1096.4768793403
 20
641.1830920139
 10
1102.1912178819
 20
638.4401896701
 10
1102.5721076389
 20
639.5830794271
 10
1102.9531076389
 20
640.2687912326
 10
1103.7149973958
 20
640.7259140625
 10
1104.4768871528
 20
640.9545030382
 10
1105.6197769097
 20
641.1830920139
 10
1106.7625564236
 20
641.1830920139
 10
1107.9054461806
 20
640.9545030382
 10
1108.6673359375
 20
640.7259140625
 10
1109.4292256944
 20
640.2687912326
 10
1109.8102256944
 20
639.8116684028
 10
1110.1912256944
 20
638.8973676215
 10
1110.1912256944
 20
637.9830668403
 10
1109.8102256944
 20
637.068766059
 10
1109.4292256944
 20
636.6116432292
 10
1108.6673359375
 20
636.1545203993
 10
1107.1435564236
 20
635.6973424479
  0
LWPOLYLINE
  5
2CD
100
AcDbEntity
  8
0
100
AcDbPolyline
 62
2
  6
CONTINUOUS
 90
19
 70
0
 43
0.2500000019
 10
1128.5635616319
 20
457.6224789497
 10
1128.5635616319
 20
463.1082009549
 10
1134.2779001736
 20
460.3653261719
 10
1134.6587899306
 20
461.5081883681
 10
1135.0397899306
 20
462.1939001736
 10
1135.8016796875
 20
462.651078125
 10
1136.5635694444
 20
462.8796119792
 10
1137.7064592014
 20
463.1082009549
 10
1138.8492387153
 20
463.1082009549
 10
1139.9921284722
 20
462.8796119792
 10
1140.7540182292
 20
462.651078125
 10
1141.5159079861
 20
462.1939001736
 10
1141.8969079861
 20
461.7367773437
 10
1142.2779079861
 20
460.8224765625
 10
1142.2779079861
 20
459.908203342
 10
1141.8969079861
 20
458.9939025608
 10
1141.5159079861
 20
458.5367797309
 10
1140.7540182292
 20
458.0796293403
 10
1139.2302387153
 20
457.6224789497
  0
LWPOLYLINE
  5
2CE
100
AcDbEntity
  8
0
100
AcDbPolyline
 62
2
  6
CONTINUOUS
 90
22
 70
0
 43
0.2500000019
 10
1157.0556588542
 20
513.1082222222
 10
1157.0556588542
 20
508.0796506076
 10
1162.3888871528
 20
508.0796506076
 10
1162.0079973958
 20
508.7653624132
 10
1161.6269973958
 20
509.9081970486
 10
1161.6269973958
 20
510.8224978299
 10
1162.0079973958
 20
511.7367434896
 10
1162.3888871528
 20
512.193921441
 10
1163.1508871528
 20
512.6510442708
 10
1163.9127769097
 20
512.8796332465
 10
1165.4365564236
 20
513.1082222222
 10
1166.9603359375
 20
513.1082222222
 10
1168.4842256944
 20
512.8796332465
 10
1169.2461154514
 20
512.6510442708
 10
1170.0080052083
 20
512.193921441
 10
1170.3888949653
 20
511.7367434896
 10
1170.7698949653
 20
510.8224978299
 10
1170.7698949653
 20
509.9081970486
 10
1170.3888949653
 20
508.9938962674
 10
1170.0080052083
 20
508.5367734375
 10
1169.2461154514
 20
508.0796506076
 10
1168.1032256944
 20
507.6224726563
  0
LWPOLYLINE
  5
2CF
100
AcDbEntity
  8
0
100
AcDbPolyline
 62
2
  6
CONTINUOUS
 90
22
 70
0
 43
0.2500000019
 10
176.054328776
 20
1123.4238098958
 10
176.054328776
 20
1118.3952934028
 10
181.3876673177
 20
1118.3952934028
 10
181.0067224392
 20
1119.0810052083
 10
180.62575
 20
1120.2238949653
 10
180.62575
 20
1121.138140625
 10
181.0067224392
 20
1122.0523862847
 10
181.3876673177
 20
1122.5095642361
 10
182.1495846354
 20
1122.9667421875
 10
182.9114743924
 20
1123.1952760417
 10
184.435281467
 20
1123.4238098958
 10
185.9590885417
 20
1123.4238098958
 10
187.4828956163
 20
1123.1952760417
 10
188.244812934
 20
1122.9667421875
 10
189.006702691
 20
1122.5095642361
 10
189.3876751302
 20
1122.0523862847
 10
189.7686200087
 20
1121.138140625
 10
189.7686200087
 20
1120.2238949653
 10
189.3876751302
 20
1119.3095390625
 10
189.006702691
 20
1118.8523611111
 10
188.244812934
 20
1118.3952934028
 10
187.1019507378
 20
1117.9381154514
  0
LINE
  5
2D0
100
AcDbEntity
  8
0
100
AcDbLine
 62
7
  6
CONTINUOUS
 10
223.6985288265
 20
1219.7238424602
 11
223.6985288265
 21
1218.7238424602
  0
LINE
  5
2D1
100
AcDbEntity
  8
0
100
AcDbLine
 62
7
  6
CONTINUOUS
 10
227.4549565241
 20
1221.0408010127
 11
226.806714048
 21
1220.0425951357
  0
LINE
  5
2D2
100
AcDbEntity
  8
0
100
AcDbLine
 62
7
  6
CONTINUOUS
 10
255.6985288265
 20
1205.9238424602
 11
255.6985288265
 21
1206.7238424602
  0
LINE
  5
2D3
100
AcDbEntity
  8
0
100
AcDbLine
 62
7
  6
CONTINUOUS
 10
267.8985288265
 20
1021.7238458099
 11
267.8985288265
 21
1204.9238424602
  0
LINE
  5
2D4
100
AcDbEntity
  8
0
100
AcDbLine
 62
7
  6
CONTINUOUS
 10
281.5355288265
 20
1205.9238424602
 11
281.5355288265
 21
1206.7238424602
  0
LINE
  5
2D5
100
AcDbEntity
  8
0
100
AcDbLine
 62
7
  6
CONTINUOUS
 10
239.7262617569
 20
1218.7238424602
 11
242.41750899
 21
1211.3297014569
  0
LINE
  5
2D6
100
AcDbEntity
  8
0
100
AcDbLine
 62
7
  6
CONTINUOUS
 10
407.2876306134
 20
1000.7247704615
 11
407.2243806181
 21
1000.7624221711
  0
LINE
  5
2D7
100
AcDbEntity
  8
0
100
AcDbLine
 62
7
  6
CONTINUOUS
 10
410.6477547521
 20
998.6246781435
 11
407.2876216539
 21
1000.7247613299
  0
LINE
  5
2D8
100
AcDbEntity
  8
0
100
AcDbLine
 62
7
  6
CONTINUOUS
 10
926.2611790902
 20
1030.4124086034
 11
913.9055840626
 21
1027.1017368938
  0
LINE
  5
2D9
100
AcDbEntity
  8
0
100
AcDbLine
 62
7
  6
CONTINUOUS
 10
423.4914735905
 20
995.1017368938
 11
411.1358785629
 21
998.4124086034
  0
LWPOLYLINE
  5
2DA
100
AcDbEntity
  8
0
100
AcDbPolyline
 62
2
  6
CONTINUOUS
 90
3
 70
0
 43
0.2500000019
 10
177.9591082899
 20
1111.7667092014
 10
176.054328776
 20
1112.4524210069
 10
189.7686200087
 20
1112.4524210069
  0
LWPOLYLINE
  5
2DB
100
AcDbEntity
  8
0
100
AcDbPolyline
 62
7
  6
CONTINUOUS
 90
10
 70
0
 10
406.5301908208
 20
1000.9770911847
 10
406.5827896237
 20
1000.9718114564
 10
406.664860203
 20
1000.9602462328
 10
406.7510240201
 20
1000.9436574828
 10
406.8414189431
 20
1000.921209113
 10
406.9329258057
 20
1000.8930049536
 10
407.0257231003
 20
1000.858469891
 10
407.1191638718
 20
1000.8172513456
 10
407.2123389694
 20
1000.7691772703
 10
407.2243806181
 20
1000.7624221711
  0
LWPOLYLINE
  5
2DC
100
AcDbEntity
  8
0
100
AcDbPolyline
 62
2
  6
CONTINUOUS
 90
17
 70
0
 43
0.2500000019
 10
178.7209980469
 20
1101.4810321181
 10
177.1971909722
 20
1101.9380998264
 10
176.4352736545
 20
1102.3952777778
 10
176.054328776
 20
1102.8524557292
 10
175.6733838976
 20
1103.7667013889
 10
175.6733838976
 20
1104.6809470486
 10
176.054328776
 20
1105.5953029514
 10
176.4352736545
 20
1106.0523706597
 10
177.1971909722
 20
1106.5095486111
 10
177.9591082899
 20
1106.7380824653
 10
179.1019429253
 20
1106.9667265625
 10
179.4829153646
 20
1106.9667265625
 10
180.62575
 20
1106.7380824653
 10
187.8638680556
 20
1101.9380998264
 10
188.6257578125
 20
1101.7095659722
 10
189.7686200087
 20
1101.4810321181
 10
189.7686200087
 20
1106.9667265625
  0
LINE
  5
2DD
100
AcDbEntity
  8
0
100
AcDbLine
 62
7
  6
CONTINUOUS
 10
530.7308569974
 20
1000.960021813
 11
530.8103429688
 21
1000.9713496045
  0
LINE
  5
2DE
100
AcDbEntity
  8
0
100
AcDbLine
 62
7
  6
CONTINUOUS
 10
530.8103429688
 20
1000.9713496045
 11
530.8668607266
 21
1000.9770893067
  0
LWPOLYLINE
  5
2DF
100
AcDbEntity
  8
0
100
AcDbPolyline
 62
7
  6
CONTINUOUS
 90
7
 70
0
 10
530.8668482104
 20
1000.9770784188
 10
549.5750602485
 20
1002.4344787511
 10
569.4179577401
 20
1003.7030519972
 10
589.2514359451
 20
1004.6858352407
 10
609.0693095286
 20
1005.3830563458
 10
628.8653930892
 20
1005.7953037723
 10
642.698761728
 20
1005.8897183764
  0
LINE
  5
2E0
100
AcDbEntity
  8
0
100
AcDbLine
 62
7
  6
CONTINUOUS
 10
513.9055840626
 20
995.1017368938
 11
423.4914735905
 21
995.1017368938
  0
LINE
  5
2E1
100
AcDbEntity
  8
0
100
AcDbLine
 62
7
  6
CONTINUOUS
 10
283.6985288265
 20
1005.9238424602
 11
653.6985288265
 21
1005.9238424602
  0
LWPOLYLINE
  5
2E2
100
AcDbEntity
  8
0
100
AcDbPolyline
 62
7
  6
CONTINUOUS
 90
7
 70
0
 10
294.6982959251
 20
1005.8897183764
 10
308.531664565
 20
1005.7953037723
 10
328.3277481262
 20
1005.3830563458
 10
348.14562171
 20
1004.6858352406
 10
367.9790999148
 20
1003.7030519971
 10
387.8219974057
 20
1002.434478751
 10
406.5302113778
 20
1000.9770782549
  0
LINE
  5
2E3
100
AcDbEntity
  8
0
100
AcDbLine
 62
7
  6
CONTINUOUS
 10
513.9055840626
 20
995.1017368938
 11
526.2611790902
 21
998.4124086034
  0
LINE
  5
2E4
100
AcDbEntity
  8
0
100
AcDbLine
 62
7
  6
CONTINUOUS
 10
1017.7122390843
 20
1035.9238424602
 11
930.8963960902
 21
1032.9472992718
  0
LINE
  5
2E5
100
AcDbEntity
  8
0
100
AcDbLine
 62
7
  6
CONTINUOUS
 10
823.4914735905
 20
1027.1017368938
 11
913.9055840626
 21
1027.1017368938
  0
LINE
  5
2E6
100
AcDbEntity
  8
0
100
AcDbLine
 62
7
  6
CONTINUOUS
 10
1022.6985288265
 20
1035.9238424602
 11
714.6985288265
 21
1035.9238424602
  0
LINE
  5
2E7
100
AcDbEntity
  8
0
100
AcDbLine
 62
7
  6
CONTINUOUS
 10
719.6848185688
 20
1035.9238424602
 11
806.5006615628
 21
1032.9472992718
  0
LINE
  5
2E8
100
AcDbEntity
  8
0
100
AcDbLine
 62
7
  6
CONTINUOUS
 10
811.1358785629
 20
1030.4124086034
 11
823.4914735905
 21
1027.1017368938
  0
LINE
  5
2E9
100
AcDbEntity
  8
0
100
AcDbLine
 62
7
  6
CONTINUOUS
 10
655.8615288265
 20
1205.9238424602
 11
655.8615288265
 21
1206.7238424602
  0
LINE
  5
2EA
100
AcDbEntity
  8
0
100
AcDbLine
 62
7
  6
CONTINUOUS
 10
669.4985288265
 20
1021.7238424602
 11
669.4985288265
 21
1204.9238424602
  0
LINE
  5
2EB
100
AcDbEntity
  8
0
100
AcDbLine
 62
7
  6
CONTINUOUS
 10
681.6985288265
 20
1205.9238424602
 11
681.6985288265
 21
1206.7238424602
  0
LINE
  5
2EC
100
AcDbEntity
  8
0
100
AcDbLine
 62
7
  6
CONTINUOUS
 10
685.6985288265
 20
1205.9238424602
 11
685.6985288265
 21
1206.7238424602
  0
LINE
  5
2ED
100
AcDbEntity
  8
0
100
AcDbLine
 62
7
  6
CONTINUOUS
 10
526.749302901
 20
998.6246781435
 11
530.1094359992
 21
1000.7247613299
  0
LINE
  5
2EE
100
AcDbEntity
  8
0
100
AcDbLine
 62
7
  6
CONTINUOUS
 10
530.1094351373
 20
1000.7247622939
 11
530.1705373139
 21
1000.7611958287
  0
LINE
  5
2EF
100
AcDbEntity
  8
0
100
AcDbLine
 62
7
  6
CONTINUOUS
 10
807.3434082741
 20
1032.6898946922
 11
810.6477547521
 21
1030.6246781435
  0
LINE
  5
2F0
100
AcDbEntity
  8
0
100
AcDbLine
 62
7
  6
CONTINUOUS
 10
697.8985288265
 20
1204.9238424602
 11
697.8985288265
 21
1052.7238424602
  0
LINE
  5
2F1
100
AcDbEntity
  8
0
100
AcDbLine
 62
7
  6
CONTINUOUS
 10
711.5355288265
 20
1205.9238424602
 11
711.5355288265
 21
1206.7238424602
  0
LWPOLYLINE
  5
2F2
100
AcDbEntity
  8
0
100
AcDbPolyline
 62
7
  6
CONTINUOUS
 90
3
 70
0
 10
530.1705317421
 20
1000.7612028565
 10
530.2526585824
 20
1000.8049424177
 10
530.3519388317
 20
1000.8504594695
  0
LINE
  5
2F3
100
AcDbEntity
  8
0
100
AcDbLine
 62
7
  6
CONTINUOUS
 10
530.3519388317
 20
1000.8504594695
 11
530.4502310227
 21
1000.8882188331
  0
LWPOLYLINE
  5
2F4
100
AcDbEntity
  8
0
100
AcDbPolyline
 62
7
  6
CONTINUOUS
 90
4
 70
0
 10
530.4502310227
 20
1000.8882188331
 10
530.5471768443
 20
1000.9188345104
 10
530.6406174261
 20
1000.9424580803
 10
530.7308569974
 20
1000.960021813
  0
LWPOLYLINE
  5
2F5
100
AcDbEntity
  8
0
100
AcDbPolyline
 62
7
  6
CONTINUOUS
 90
25
 70
0
 10
1058.5732507046
 20
1206.7239930087
 10
1058.7285248086
 20
1206.7258238444
 10
1059.0775356697
 20
1206.7433722074
 10
1059.4286432266
 20
1206.7799505558
 10
1059.7798328021
 20
1206.8357368478
 10
1060.1296945115
 20
1206.9106318771
 10
1060.4769462199
 20
1207.0042786537
 10
1060.8201399152
 20
1207.1160651203
 10
1061.1582005932
 20
1207.2456969834
 10
1061.4897990639
 20
1207.3928128686
 10
1061.8137027652
 20
1207.5569473939
 10
1062.1288212608
 20
1207.7375790203
 10
1062.4335917328
 20
1207.9337654391
 10
1062.7270118733
 20
1208.1449999109
 10
1063.0072840561
 20
1208.3701659884
 10
1063.2730497608
 20
1208.6080139757
 10
1063.5231879149
 20
1208.857024674
 10
1063.7567996537
 20
1209.1153882441
 10
1063.973049731
 20
1209.381228776
 10
1064.1708593865
 20
1209.6529083942
 10
1064.3500792107
 20
1209.9293651175
 10
1064.5103308721
 20
1210.208670488
 10
1064.6510615098
 20
1210.4888742844
 10
1064.771822983
 20
1210.7671473542
 10
1064.8333832296
 20
1210.9281224635
  0
LINE
  5
2F6
100
AcDbEntity
  8
0
100
AcDbLine
 62
7
  6
CONTINUOUS
 10
1051.6985288265
 20
1205.9238424602
 11
685.6985288265
 21
1205.9238424602
  0
LINE
  5
2F7
100
AcDbEntity
  8
0
100
AcDbLine
 62
7
  6
CONTINUOUS
 10
681.6985288265
 20
1205.9238424602
 11
255.6985288265
 21
1205.9238424602
  0
LINE
  5
2F8
100
AcDbEntity
  8
0
100
AcDbLine
 62
7
  6
CONTINUOUS
 10
1058.5732693045
 20
1206.7238424602
 11
248.9953573355
 21
1206.7238424602
  0
LINE
  5
2F9
100
AcDbEntity
  8
0
100
AcDbLine
 62
7
  6
CONTINUOUS
 10
1083.6985288265
 20
1218.7238424602
 11
223.6985288265
 21
1218.7238424602
  0
LINE
  5
2FA
100
AcDbEntity
  8
06___PRT_ALL_SURFS
100
AcDbLine
 62
7
  6
CONTINUOUS
 10
1083.6985288265
 20
1219.7238424602
 11
223.6985288265
 21
1219.7238424602
  0
LINE
  5
2FB
100
AcDbEntity
  8
0
100
AcDbLine
 62
7
  6
CONTINUOUS
 10
1078.6840952771
 20
1221.7238424602
 11
228.712962376
 21
1221.7238424602
  0
LWPOLYLINE
  5
2FC
100
AcDbEntity
  8
0
100
AcDbPolyline
 62
2
  6
CONTINUOUS
 90
3
 70
0
 43
0.2500000019
 10
1098.9540407986
 20
1118.5381684028
 10
1097.0493715278
 20
1119.2238802083
 10
1110.7636076389
 20
1119.2238802083
  0
LINE
  5
2FD
100
AcDbEntity
  8
0
100
AcDbLine
 62
7
  6
CONTINUOUS
 10
930.053649379
 20
1032.6898946922
 11
926.749302901
 21
1030.6246781435
  0
LINE
  5
2FE
100
AcDbEntity
  8
0
100
AcDbLine
 62
7
  6
CONTINUOUS
 10
1064.8333917799
 20
1210.9281387209
 11
1067.6707958962
 21
1218.7238424602
  0
LINE
  5
2FF
100
AcDbEntity
  8
0
100
AcDbLine
 62
7
  6
CONTINUOUS
 10
1025.8615288265
 20
1205.9238424602
 11
1025.8615288265
 21
1206.7238424602
  0
LINE
  5
300
100
AcDbEntity
  8
0
100
AcDbLine
 62
7
  6
CONTINUOUS
 10
1039.4985288265
 20
1204.9238424602
 11
1039.4985288265
 21
1052.7238424602
  0
LINE
  5
301
100
AcDbEntity
  8
0
100
AcDbLine
 62
7
  6
CONTINUOUS
 10
1051.6985288265
 20
1205.9238424602
 11
1051.6985288265
 21
1206.7238424602
  0
LINE
  5
302
100
AcDbEntity
  8
0
100
AcDbLine
 62
7
  6
CONTINUOUS
 10
1083.6985288265
 20
1219.7238424602
 11
1083.6985288265
 21
1218.7238424602
  0
LWPOLYLINE
  5
303
100
AcDbEntity
  8
0
100
AcDbPolyline
 62
2
  6
CONTINUOUS
 90
22
 70
0
 43
0.2500000019
 10
1097.0493715278
 20
1138.4238107639
 10
1097.0493715278
 20
1133.3952942708
 10
1102.3827100694
 20
1133.3952942708
 10
1102.0017100694
 20
1134.0810060764
 10
1101.6207100694
 20
1135.2238958333
 10
1101.6207100694
 20
1136.1381414931
 10
1102.0017100694
 20
1137.0523871528
 10
1102.3827100694
 20
1137.5095651042
 10
1103.1445998264
 20
1137.9667430556
 10
1103.9064895833
 20
1138.1952769097
 10
1105.4302690972
 20
1138.4238107639
 10
1106.9540486111
 20
1138.4238107639
 10
1108.4779383681
 20
1138.1952769097
 10
1109.239828125
 20
1137.9667430556
 10
1110.0017178819
 20
1137.5095651042
 10
1110.3827178819
 20
1137.0523871528
 10
1110.7636076389
 20
1136.1381414931
 10
1110.7636076389
 20
1135.2238958333
 10
1110.3827178819
 20
1134.3095399306
 10
1110.0017178819
 20
1133.8523619792
 10
1109.239828125
 20
1133.3952942708
 10
1108.0969383681
 20
1132.9381163194
  0
LWPOLYLINE
  5
304
100
AcDbEntity
  8
0
100
AcDbPolyline
 62
2
  6
CONTINUOUS
 90
43
 70
0
 43
0.2500000019
 10
1103.5254895833
 20
1126.7667100694
 10
1103.1445998264
 20
1125.8524644097
 10
1102.7635998264
 20
1125.3952864583
 10
1102.3827100694
 20
1125.1667526042
 10
1101.6207100694
 20
1124.9381085069
 10
1100.4779305556
 20
1124.7095746528
 10
1099.7160407986
 20
1124.7095746528
 10
1098.5731510417
 20
1124.9381085069
 10
1097.8112612847
 20
1125.1667526042
 10
1097.4302612847
 20
1125.3952864583
 10
1097.0493715278
 20
1125.8524644097
 10
1096.6683715278
 20
1126.9952439236
 10
1096.6683715278
 20
1127.9095998264
 10
1097.0493715278
 20
1129.0523793403
 10
1097.4302612847
 20
1129.5095572917
 10
1097.8112612847
 20
1129.7380911458
 10
1098.5731510417
 20
1129.9667352431
 10
1099.7160407986
 20
1130.1952690972
 10
1100.4779305556
 20
1130.1952690972
 10
1101.6207100694
 20
1129.9667352431
 10
1102.3827100694
 20
1129.7380911458
 10
1102.7635998264
 20
1129.5095572917
 10
1103.5254895833
 20
1128.1381336806
 10
1103.5254895833
 20
1126.7667100694
 10
1103.9064895833
 20
1125.8524644097
 10
1104.2873793403
 20
1125.3952864583
 10
1105.0493793403
 20
1124.9381085069
 10
1106.1921588542
 20
1124.7095746528
 10
1108.0969383681
 20
1124.7095746528
 10
1109.239828125
 20
1124.9381085069
 10
1110.0017178819
 20
1125.3952864583
 10
1110.3827178819
 20
1125.8524644097
 10
1110.7636076389
 20
1126.7667100694
 10
1110.7636076389
 20
1128.1381336806
 10
1110.3827178819
 20
1129.0523793403
 10
1110.0017178819
 20
1129.5095572917
 10
1109.239828125
 20
1129.9667352431
 10
1108.0969383681
 20
1130.1952690972
 10
1106.1921588542
 20
1130.1952690972
 10
1105.0493793403
 20
1129.9667352431
 10
1104.2873793403
 20
1129.5095572917
 10
1103.9064895833
 20
1129.0523793403
 10
1103.5254895833
 20
1128.1381336806
  0
LINE
  5
305
100
AcDbEntity
  8
0
100
AcDbLine
 62
7
  6
CONTINUOUS
 10
1079.942101129
 20
1221.0408010127
 11
1080.5903436051
 21
1220.0425951357
  0
LINE
  5
306
100
AcDbEntity
  8
06___PRT_ALL_SURFS
100
AcDbLine
 62
7
  6
CONTINUOUS
 10
1079.942101129
 20
1221.0408010127
 11
1080.5903436051
 21
1220.0425951357
  0
CIRCLE
  5
307
100
AcDbEntity
  8
0
100
AcDbCircle
 62
7
  6
CONTINUOUS
 10
468.612748139
 20
599.9653380893
 40
45.0
  0
CIRCLE
  5
308
100
AcDbEntity
  8
0
100
AcDbCircle
 62
7
  6
CONTINUOUS
 10
868.612748139
 20
469.9653380893
 40
45.0
  0
CIRCLE
  5
309
100
AcDbEntity
  8
0
100
AcDbCircle
 62
7
  6
CONTINUOUS
 10
868.612748139
 20
702.9653380893
 40
17.5
  0
CIRCLE
  5
30A
100
AcDbEntity
  8
0
100
AcDbCircle
 62
7
  6
CONTINUOUS
 10
748.612748139
 20
702.9653380893
 40
17.5
  0
ARC
  5
30B
100
AcDbEntity
  8
0
100
AcDbCircle
 62
7
  6
CONTINUOUS
 10
281.112748139
 20
332.4653380893
 40
12.5
100
AcDbArc
 50
180.0
 51
270.0
  0
ARC
  5
30C
100
AcDbEntity
  8
0
100
AcDbCircle
 62
7
  6
CONTINUOUS
 10
281.112748139
 20
707.4653380893
 40
12.5
100
AcDbArc
 50
90.0
 51
180.0
  0
ARC
  5
30D
100
AcDbEntity
  8
0
100
AcDbCircle
 62
7
  6
CONTINUOUS
 10
656.112748139
 20
332.4653380893
 40
12.5
100
AcDbArc
 50
270.0
 51
360.0
  0
ARC
  5
30E
100
AcDbEntity
  8
0
100
AcDbCircle
 62
7
  6
CONTINUOUS
 10
711.112748139
 20
332.4653380893
 40
12.5
100
AcDbArc
 50
180.0
 51
270.0
  0
ARC
  5
30F
100
AcDbEntity
  8
0
100
AcDbCircle
 62
7
  6
CONTINUOUS
 10
1026.112748139
 20
332.4653380893
 40
12.5
100
AcDbArc
 50
270.0
 51
360.0
  0
ARC
  5
310
100
AcDbEntity
  8
0
100
AcDbCircle
 62
7
  6
CONTINUOUS
 10
656.112748139
 20
707.4653380893
 40
12.5
100
AcDbArc
 50
0.0
 51
90.0
  0
ARC
  5
311
100
AcDbEntity
  8
0
100
AcDbCircle
 62
7
  6
CONTINUOUS
 10
711.112748139
 20
607.4653380893
 40
12.5
100
AcDbArc
 50
90.0
 51
180.0
  0
ARC
  5
312
100
AcDbEntity
  8
0
100
AcDbCircle
 62
7
  6
CONTINUOUS
 10
1026.112748139
 20
607.4653380893
 40
12.5
100
AcDbArc
 50
0.0
 51
90.0
  0
ARC
  5
313
100
AcDbEntity
  8
0
100
AcDbCircle
 62
7
  6
CONTINUOUS
 10
708.612748139
 20
661.9653380893
 40
12.1006226146
100
AcDbArc
 50
180.0
 51
270.0
  0
ARC
  5
314
100
AcDbEntity
  8
0
100
AcDbCircle
 62
7
  6
CONTINUOUS
 10
1052.612748139
 20
738.9653380893
 40
10.3515857455
100
AcDbArc
 50
0.0
 51
90.0
  0
ARC
  5
315
100
AcDbEntity
  8
0
100
AcDbCircle
 62
7
  6
CONTINUOUS
 10
233.612748139
 20
279.9653380893
 40
10.0
100
AcDbArc
 50
180.0
 51
270.0
  0
ARC
  5
316
100
AcDbEntity
  8
0
100
AcDbCircle
 62
7
  6
CONTINUOUS
 10
233.612748139
 20
759.9653380893
 40
10.0
100
AcDbArc
 50
90.0
 51
180.0
  0
ARC
  5
317
100
AcDbEntity
  8
0
100
AcDbCircle
 62
7
  6
CONTINUOUS
 10
1073.612748139
 20
279.9653380893
 40
10.0
100
AcDbArc
 50
270.0
 51
360.0
  0
ARC
  5
318
100
AcDbEntity
  8
0
100
AcDbCircle
 62
7
  6
CONTINUOUS
 10
1073.612748139
 20
759.9653380893
 40
10.0
100
AcDbArc
 50
0.0
 51
90.0
  0
ARC
  5
319
100
AcDbEntity
  8
0
100
AcDbCircle
 62
7
  6
CONTINUOUS
 10
703.729051776
 20
741.4474489544
 40
7.9556951493
100
AcDbArc
 50
98.442989633
 51
155.1127367253
  0
ARC
  5
31A
100
AcDbEntity
  8
0
100
AcDbCircle
 62
7
  6
CONTINUOUS
 10
1056.6395842311
 20
655.9135448055
 40
6.3247496534
100
AcDbArc
 50
286.987937051
 51
360.0
  0
ARC
  5
31B
100
AcDbEntity
  8
0
100
AcDbCircle
 62
7
  6
CONTINUOUS
 10
708.612748139
 20
661.9653380893
 40
6.0517932837
100
AcDbArc
 50
180.0
 51
270.0
  0
ARC
  5
31C
100
AcDbEntity
  8
0
100
AcDbCircle
 62
7
  6
CONTINUOUS
 10
254.612748139
 20
300.9653380893
 40
5.703171491
100
AcDbArc
 50
180.0
 51
270.0
  0
ARC
  5
31D
100
AcDbEntity
  8
0
100
AcDbCircle
 62
7
  6
CONTINUOUS
 10
254.612748139
 20
738.9653380893
 40
5.703171491
100
AcDbArc
 50
90.0
 51
180.0
  0
ARC
  5
31E
100
AcDbEntity
  8
0
100
AcDbCircle
 62
7
  6
CONTINUOUS
 10
1052.612748139
 20
300.9653380893
 40
5.703171491
100
AcDbArc
 50
270.0
 51
360.0
  0
ARC
  5
31F
100
AcDbEntity
  8
0
100
AcDbCircle
 62
7
  6
CONTINUOUS
 10
233.612748139
 20
279.9653380893
 40
4.9855664505
100
AcDbArc
 50
180.0
 51
270.0
  0
ARC
  5
320
100
AcDbEntity
  8
0
100
AcDbCircle
 62
7
  6
CONTINUOUS
 10
233.612748139
 20
759.9653380893
 40
4.9855664505
100
AcDbArc
 50
90.0
 51
180.0
  0
ARC
  5
321
100
AcDbEntity
  8
0
100
AcDbCircle
 62
7
  6
CONTINUOUS
 10
1073.612748139
 20
279.9653380893
 40
4.9855664505
100
AcDbArc
 50
270.0
 51
360.0
  0
ARC
  5
322
100
AcDbEntity
  8
0
100
AcDbCircle
 62
7
  6
CONTINUOUS
 10
1073.612748139
 20
759.9653380893
 40
4.9855664505
100
AcDbArc
 50
0.0
 51
90.0
  0
ARC
  5
323
100
AcDbEntity
  8
0
100
AcDbCircle
 62
7
  6
CONTINUOUS
 10
283.6985288265
 20
1021.7238424602
 40
15.8
100
AcDbArc
 50
180.0
 51
270.0
  0
ARC
  5
324
100
AcDbEntity
  8
0
100
AcDbCircle
 62
7
  6
CONTINUOUS
 10
525.795304809
 20
1000.1510750907
 40
1.8
100
AcDbArc
 50
284.9999999121
 51
302.0053830496
  0
ARC
  5
325
100
AcDbEntity
  8
0
100
AcDbCircle
 62
7
  6
CONTINUOUS
 10
411.6017528441
 20
1000.1510750907
 40
1.8
100
AcDbArc
 50
237.9946169511
 51
255.0000000883
  0
ARC
  5
326
100
AcDbEntity
  8
0
100
AcDbCircle
 62
7
  6
CONTINUOUS
 10
531.0104329283
 20
999.2831649466
 40
1.6999999797
100
AcDbArc
 50
94.8403347651
 51
119.607537607
  0
ARC
  5
327
100
AcDbEntity
  8
0
100
AcDbCircle
 62
7
  6
CONTINUOUS
 10
406.3866374976
 20
999.2831704183
 40
1.699999788
100
AcDbArc
 50
60.4758655891
 51
85.15994634
  0
ARC
  5
328
100
AcDbEntity
  8
0
100
AcDbCircle
 62
7
  6
CONTINUOUS
 10
248.9953573355
 20
1213.7238424602
 40
7.0
100
AcDbArc
 50
200.0
 51
270.0
  0
ARC
  5
329
100
AcDbEntity
  8
0
100
AcDbCircle
 62
7
  6
CONTINUOUS
 10
228.712962376
 20
1220.2238424602
 40
1.5
100
AcDbArc
 50
90.0
 51
146.9999999999
  0
ARC
  5
32A
100
AcDbEntity
  8
0
100
AcDbCircle
 62
7
  6
CONTINUOUS
 10
266.8985288265
 20
1204.9238424602
 40
1.0
100
AcDbArc
 50
0.0
 51
90.0
  0
ARC
  5
32B
100
AcDbEntity
  8
0
100
AcDbCircle
 62
7
  6
CONTINUOUS
 10
226.2196446504
 20
1220.4238424602
 40
0.7
100
AcDbArc
 50
270.0
 51
326.9999999993
  0
ARC
  5
32C
100
AcDbEntity
  8
0
100
AcDbCircle
 62
7
  6
CONTINUOUS
 10
1022.6985288265
 20
1052.7238424602
 40
16.8
100
AcDbArc
 50
270.0
 51
360.0
  0
ARC
  5
32D
100
AcDbEntity
  8
0
100
AcDbCircle
 62
7
  6
CONTINUOUS
 10
714.6985288265
 20
1052.7238424602
 40
16.8
100
AcDbArc
 50
180.0
 51
270.0
  0
ARC
  5
32E
100
AcDbEntity
  8
0
100
AcDbCircle
 62
7
  6
CONTINUOUS
 10
653.6985288265
 20
1021.7238424602
 40
15.8
100
AcDbArc
 50
270.0
 51
360.0
  0
ARC
  5
32F
100
AcDbEntity
  8
0
100
AcDbCircle
 62
7
  6
CONTINUOUS
 10
811.6017528441
 20
1032.1510750907
 40
1.8
100
AcDbArc
 50
237.9946167919
 51
255.0
  0
ARC
  5
330
100
AcDbEntity
  8
0
100
AcDbCircle
 62
7
  6
CONTINUOUS
 10
925.795304809
 20
1032.1510750907
 40
1.8
100
AcDbArc
 50
285.0
 51
302.0053832081
  0
ARC
  5
331
100
AcDbEntity
  8
0
100
AcDbCircle
 62
7
  6
CONTINUOUS
 10
930.9546475648
 20
1031.2482975781
 40
1.6999999998
100
AcDbArc
 50
91.963657258
 51
122.0053830043
  0
ARC
  5
332
100
AcDbEntity
  8
0
100
AcDbCircle
 62
7
  6
CONTINUOUS
 10
806.4424100882
 20
1031.2482975781
 40
1.6999999998
100
AcDbArc
 50
57.9946169957
 51
88.036342742
  0
ARC
  5
333
100
AcDbEntity
  8
0
100
AcDbCircle
 62
7
  6
CONTINUOUS
 10
1058.4017003175
 20
1213.7238424602
 40
7.0
100
AcDbArc
 50
270.0
 51
340.0
  0
ARC
  5
334
100
AcDbEntity
  8
0
100
AcDbCircle
 62
7
  6
CONTINUOUS
 10
1078.6840952771
 20
1220.2238424602
 40
1.5
100
AcDbArc
 50
33.0
 51
90.0
  0
ARC
  5
335
100
AcDbEntity
  8
0
100
AcDbCircle
 62
7
  6
CONTINUOUS
 10
1040.4985288265
 20
1204.9238424602
 40
1.0
100
AcDbArc
 50
90.0
 51
180.0
  0
ARC
  5
336
100
AcDbEntity
  8
0
100
AcDbCircle
 62
7
  6
CONTINUOUS
 10
696.8985288265
 20
1204.9238424602
 40
1.0
100
AcDbArc
 50
0.0
 51
86.071312619
  0
ARC
  5
337
100
AcDbEntity
  8
0
100
AcDbCircle
 62
7
  6
CONTINUOUS
 10
670.4985288265
 20
1204.9238424602
 40
1.0
100
AcDbArc
 50
112.0099031662
 51
180.0
  0
ARC
  5
338
100
AcDbEntity
  8
0
100
AcDbCircle
 62
7
  6
CONTINUOUS
 10
1081.1774130027
 20
1220.4238424602
 40
0.7
100
AcDbArc
 50
213.0
 51
270.0
  0
SPLINE
  5
339
100
AcDbEntity
  8
0
100
AcDbSpline
 62
7
  6
CONTINUOUS
 70
0
 71
3
 72
25
 73
21
 74
0
 42
0.0000001
 43
0.0000001
 44
0.0000000001
 40
0.0
 40
0.0
 40
0.0
 40
0.0
 40
0.3403585077
 40
0.564860024
 40
0.7129999024
 40
0.8107776936
 40
0.8753260286
 40
0.9179428992
 40
0.9460815218
 40
0.9646665202
 40
0.976932851
 40
0.9850347142
 40
0.9903846413
 40
0.993917277
 40
0.9962503236
 40
0.9970996334
 40
0.9977891843
 40
0.9983469385
 40
0.9987992493
 40
1.0
 40
1.0
 40
1.0
 40
1.0
 10
254.612748139
 20
744.6685091921
 30
0.0
 10
304.7490294375
 20
744.6685093885
 30
0.0
 10
387.9553557637
 20
744.668509767
 30
0.0
 10
492.9833273444
 20
744.6685104767
 30
0.0
 10
562.2781094738
 20
744.6685112159
 30
0.0
 10
608.0110956847
 20
744.6685118946
 30
0.0
 10
638.2000861653
 20
744.6685126973
 30
0.0
 10
658.1309256083
 20
744.6685132454
 30
0.0
 10
671.2911668204
 20
744.6685143141
 30
0.0
 10
679.980641769
 20
744.668514292
 30
0.0
 10
685.7186161726
 20
744.6685169109
 30
0.0
 10
689.5070055659
 20
744.6685119372
 30
0.0
 10
692.0088874177
 20
744.6685311576
 30
0.0
 10
693.6609903082
 20
744.6684689801
 30
0.0
 10
694.6501468555
 20
744.6686677991
 30
0.0
 10
695.2204830231
 20
744.6681926995
 30
0.0
 10
695.5293489149
 20
744.6693705155
 30
0.0
 10
695.7796395347
 20
744.6664135726
 30
0.0
 10
696.1056084075
 20
744.6762099255
 30
0.0
 10
696.3446803
 20
744.7385411495
 30
0.0
 10
696.5121416736
 20
744.7954773121
 30
0.0
  0
SPLINE
  5
33A
100
AcDbEntity
  8
0
100
AcDbSpline
 62
7
  6
CONTINUOUS
 70
0
 71
3
 72
10
 73
6
 74
0
 42
0.0000001
 43
0.0000001
 44
0.0000000001
 40
0.0
 40
0.0
 40
0.0
 40
0.0
 40
0.0733401067
 40
0.2766935016
 40
1.0
 40
1.0
 40
1.0
 40
1.0
 10
1058.4874886116
 20
649.8647674432
 30
0.0
 10
1049.9342050619
 20
649.8638908343
 30
0.0
 10
1017.6648492752
 20
649.865800517
 30
0.0
 10
901.0399359288
 20
649.8631358494
 30
0.0
 10
792.9683059468
 20
649.8647156315
 30
0.0
 10
708.612748139
 20
649.8647154659
 30
0.0
  0
SPLINE
  5
33B
100
AcDbEntity
  8
0
100
AcDbSpline
 62
7
  6
CONTINUOUS
 70
0
 71
3
 72
45
 73
41
 74
0
 42
0.0000001
 43
0.0000001
 44
0.0000000001
 40
0.0
 40
0.0
 40
0.0
 40
0.0
 40
0.0009761145
 40
0.001951544
 40
0.0029278046
 40
0.0039043687
 40
0.0058574974
 40
0.0078106261
 40
0.0097637548
 40
0.0117168834
 40
0.0156231408
 40
0.0195293982
 40
0.0234356556
 40
0.027341913
 40
0.0312481703
 40
0.0390606851
 40
0.0468731998
 40
0.0546857146
 40
0.0624982294
 40
0.0781232589
 40
0.0937482884
 40
0.1093733179
 40
0.1249983474
 40
0.1406233769
 40
0.1562484064
 40
0.1874984654
 40
0.2187485245
 40
0.2499985835
 40
0.2812486425
 40
0.3124987015
 40
0.3437487605
 40
0.3749988196
 40
0.4374989376
 40
0.4999990557
 40
0.5624991737
 40
0.6249992917
 40
0.6874994098
 40
0.7499995278
 40
0.8749997639
 40
1.0
 40
1.0
 40
1.0
 40
1.0
 10
1058.4874886169
 20
649.8647154776
 30
0.0
 10
1058.4466342187
 20
649.7587919727
 30
0.0
 10
1058.37369909
 20
649.5434879848
 30
0.0
 10
1058.3099285972
 20
649.2066680305
 30
0.0
 10
1058.3174756145
 20
648.8651854665
 30
0.0
 10
1058.315021324
 20
648.4111915853
 30
0.0
 10
1058.3162247881
 20
647.843138721
 30
0.0
 10
1058.3158379935
 20
647.1616966077
 30
0.0
 10
1058.3159410176
 20
646.4801952771
 30
0.0
 10
1058.3159072818
 20
645.5715475219
 30
0.0
 10
1058.3159238252
 20
644.4357307297
 30
0.0
 10
1058.315918506
 20
643.0727536222
 30
0.0
 10
1058.3159199307
 20
641.7097756994
 30
0.0
 10
1058.3159195512
 20
640.3467979947
 30
0.0
 10
1058.3159196755
 20
638.5294943122
 30
0.0
 10
1058.3159196145
 20
636.2578647353
 30
0.0
 10
1058.3159196341
 20
633.5319092317
 30
0.0
 10
1058.3159196289
 20
630.8059537312
 30
0.0
 10
1058.3159196306
 20
627.1713463961
 30
0.0
 10
1058.3159196298
 20
622.6280872276
 30
0.0
 10
1058.31591963
 20
617.1761762252
 30
0.0
 10
1058.31591963
 20
611.7242652229
 30
0.0
 10
1058.31591963
 20
606.2723542205
 30
0.0
 10
1058.31591963
 20
600.8204432182
 30
0.0
 10
1058.31591963
 20
593.5512285484
 30
0.0
 10
1058.31591963
 20
584.4647102112
 30
0.0
 10
1058.31591963
 20
573.5608882065
 30
0.0
 10
1058.31591963
 20
562.6570662018
 30
0.0
 10
1058.31591963
 20
551.7532441971
 30
0.0
 10
1058.31591963
 20
540.8494221924
 30
0.0
 10
1058.31591963
 20
529.9456001877
 30
0.0
 10
1058.31591963
 20
515.4071708481
 30
0.0
 10
1058.31591963
 20
497.2341341737
 30
0.0
 10
1058.31591963
 20
475.4264901643
 30
0.0
 10
1058.31591963
 20
453.6188461549
 30
0.0
 10
1058.31591963
 20
431.8112021456
 30
0.0
 10
1058.31591963
 20
410.0035581362
 30
0.0
 10
1058.31591963
 20
380.926699457
 30
0.0
 10
1058.31591963
 20
344.5806261081
 30
0.0
 10
1058.31591963
 20
315.5037674289
 30
0.0
 10
1058.31591963
 20
300.9653380893
 30
0.0
  0
ENDSEC
  0
SECTION
  2
OBJECTS
  0
DICTIONARY
  5
C
100
AcDbDictionary
280
0
281
1
  3
ACAD_GROUP
350
D
  3
ACAD_MLINESTYLE
350
17
  3
ACAD_LAYOUT
350
1A
  3
ACAD_PLOTSETTINGS
350
19
  3
ACAD_PLOTSTYLENAME
350
E
  0
DICTIONARY
  5
D
102
{ACAD_REACTORS
330
C
102
}
100
AcDbDictionary
280
0
281
1
  0
ACDBDICTIONARYWDFLT
  5
E
102
{ACAD_REACTORS
330
C
102
}
100
AcDbDictionary
281
1
  3
Normal
350
F
100
AcDbDictionaryWithDefault
340
F
  0
DICTIONARY
  5
17
102
{ACAD_REACTORS
330
C
102
}
100
AcDbDictionary
280
0
281
1
  3
Standard
350
18
  0
DICTIONARY
  5
19
102
{ACAD_REACTORS
330
C
102
}
100
AcDbDictionary
281
1
  0
DICTIONARY
  5
1A
102
{ACAD_REACTORS
330
C
102
}
100
AcDbDictionary
281
1
  3
Model
350
33C
  3
Layout1
350
33D
  0
ACDBPLACEHOLDER
  5
F
102
{ACAD_REACTORS
330
E
102
}
  0
MLINESTYLE
  5
18
102
{ACAD_REACTORS
330
17
102
}
100
AcDbMlineStyle
  2
STANDARD
 70
0
  3

 62
256
 51
90.0
 52
90.0
 71
2
 49
0.5
 62
256
  6
BYLAYER
 49
-0.5
 62
256
  6
BYLAYER
  0
LAYOUT
  5
33C
102
{ACAD_REACTORS
330
1A
102
}
100
AcDbPlotSettings
  1

  2
none_device
  4

  6

 40
0.0
 41
0.0
 42
0.0
 43
0.0
 44
1270.0
 45
1524.0
 46
0.0
 47
0.0
 48
0.0
 49
0.0
140
0.0
141
0.0
142
1.0
143
1.0
 70
1024
 72
1
 73
0
 74
0
  7

 75
0
147
1.0
148
0.0
149
0.0
100
AcDbLayout
  1
Model
 70
0
 71
0
 10
0.0
 20
0.0
 11
1270.0
 21
1524.0
 12
0.0
 22
0.0
 32
0.0
 14
0.0
 24
0.0
 34
0.0
 15
0.0
 25
0.0
 35
0.0
146
0.0
 13
0.0
 23
0.0
 33
0.0
 16
1.0
 26
0.0
 36
0.0
 17
0.0
 27
1.0
 37
0.0
 76
0
330
217
345
0
346
0
  0
LAYOUT
  5
33D
102
{ACAD_REACTORS
330
1A
102
}
100
AcDbPlotSettings
  1

  2
none_device
  4

  6

 40
0.0
 41
0.0
 42
0.0
 43
0.0
 44
1270.0
 45
1524.0
 46
0.0
 47
0.0
 48
0.0
 49
0.0
140
0.0
141
0.0
142
1.0
143
1.0
 70
0
 72
1
 73
0
 74
0
  7

 75
0
147
1.0
148
0.0
149
0.0
100
AcDbLayout
  1
Layout1
 70
0
 71
1
 10
0.0
 20
0.0
 11
1270.0
 21
1524.0
 12
0.0
 22
0.0
 32
0.0
 14
0.0
 24
0.0
 34
0.0
 15
0.0
 25
0.0
 35
0.0
146
0.0
 13
0.0
 23
0.0
 33
0.0
 16
1.0
 26
0.0
 36
0.0
 17
0.0
 27
1.0
 37
0.0
 76
0
330
218
345
0
346
0
  0
ENDSEC
  0
EOF
