999
DXF file: W:\Engenharia\Produtos\Cubas_sobrepor\Quadrum\93915\93915.dxf
999
Pro/ENGINEER 2012230 by Parametric Technology Corporation
  0
SECTION
  2
HEADER
  9
$ACADVER
  1
AC1018
  9
$DWGCODEPAGE
  3
ANSI_1252
  9
$EXTMAX
 10
1270.0
 20
1524.0
 30
0.0
  9
$EXTMIN
 10
0.0
 20
0.0
 30
0.0
  9
$LIMMIN
 10
0.0
 20
0.0
  9
$LIMMAX
 10
1270.0
 20
1524.0
  9
$VIEWCTR
 10
635.0
 20
762.0
  9
$VIEWSIZE
 40
1524.0
  9
$CLAYER
  8
0
  9
$LTSCALE
 40
99.3422222222
  9
$CELTYPE
  6
BYLAYER
  9
$DIMSCALE
 40
1.0
  9
$DIMASZ
 40
3.0
  9
$DIMEXO
 40
0.5
  9
$DIMDLI
 40
68.6364444444
  9
$DIMEXE
 40
0.5
  9
$DIMCEN
 40
16.256
  9
$DIMLFAC
 40
1.0
  9
$DIMBLK
  1
_FILLED
  9
$DIMTXT
 40
1.8
  9
$DIMTOL
 70
1
  9
$DIMLIM
 70
0
  9
$DIMTFAC
 40
1.0
  9
$DIMTP
 40
0.001
  9
$DIMTM
 40
0.001
  9
$DIMGAP
 40
0.625
  9
$DIMDSEP
 70
46
  9
$PDMODE
 70
3
  9
$PDSIZE
 40
1.0
  9
$HANDSEED
  5
375
  9
$TILEMODE
 70
1
  9
$MEASUREMENT
 70
1
  9
$INSUNITS
 70
4
  0
ENDSEC
  0
SECTION
  2
CLASSES
  0
CLASS
  1
ACDBDICTIONARYWDFLT
  2
AcDbDictionaryWithDefault
  3
AutoCAD 2000
 90
0
 91
1
280
0
281
0
  0
CLASS
  1
ACDBPLACEHOLDER
  2
AcDbPlaceHolder
  3
AutoCAD 2000
 90
0
 91
1
280
0
281
0
  0
CLASS
  1
LAYOUT
  2
AcDbLayout
  3
AutoCAD 2000
 90
0
 91
0
280
0
281
0
  0
ENDSEC
  0
SECTION
  2
TABLES
  0
TABLE
  2
VPORT
  5
8
100
AcDbSymbolTable
 70
2
  0
VPORT
  5
1F4
100
AcDbSymbolTableRecord
100
AcDbViewportTableRecord
  2
*ACTIVE
 70
0
 10
0.0
 20
0.0
 11
1.0
 21
1.0
 12
635.0
 22
762.0
 13
0.0
 23
0.0
 14
1.0
 24
1.0
 15
0.0
 25
0.0
 16
0.0
 26
0.0
 36
1.0
 17
0.0
 27
0.0
 37
0.0
 40
1524.0
 41
0.8333333333
 42
50.0
 43
0.0
 44
0.0
 50
0.0
 51
0.0
 71
0
 72
100
 73
1
 74
1
 75
0
 76
0
 77
0
 78
0
  0
ENDTAB
  0
TABLE
  2
LTYPE
  5
5
100
AcDbSymbolTable
 70
6
  0
LTYPE
  5
14
100
AcDbSymbolTableRecord
100
AcDbLinetypeTableRecord
  2
BYBLOCK
 70
0
  3

 72
65
 73
0
 40
0.0
  0
LTYPE
  5
15
100
AcDbSymbolTableRecord
100
AcDbLinetypeTableRecord
  2
BYLAYER
 70
0
  3

 72
65
 73
0
 40
0.0
  0
LTYPE
  5
16
100
AcDbSymbolTableRecord
100
AcDbLinetypeTableRecord
  2
CONTINUOUS
 70
64
  3
Solid line
 72
65
 73
0
 40
0.0
  0
LTYPE
  5
1F5
100
AcDbSymbolTableRecord
100
AcDbLinetypeTableRecord
  2
CENTER
 70
64
  3
____ _ ____ _ ____ _ ____ _ ____ _ ____ _ ____
 72
65
 73
4
 40
0.6
 49
0.375
 74
0
 49
-0.075
 74
0
 49
0.075
 74
0
 49
-0.075
 74
0
  0
LTYPE
  5
1F6
100
AcDbSymbolTableRecord
100
AcDbLinetypeTableRecord
  2
HIDDEN
 70
64
  3
- - - - - - - - - - - - - - - - - - - -
 72
65
 73
2
 40
0.2
 49
0.1
 74
0
 49
-0.1
 74
0
  0
LTYPE
  5
1F7
100
AcDbSymbolTableRecord
100
AcDbLinetypeTableRecord
  2
PHANTOM
 70
64
  3
_____ _ _ _____ _ _ _____ _ _ _____
 72
65
 73
6
 40
0.8
 49
0.45
 74
0
 49
-0.05
 74
0
 49
0.1
 74
0
 49
-0.05
 74
0
 49
0.1
 74
0
 49
-0.05
 74
0
  0
LTYPE
  5
1F8
100
AcDbSymbolTableRecord
100
AcDbLinetypeTableRecord
  2
DOT
 70
64
  3
. . . . . . . . . . . . . . . . . . . .
 72
65
 73
2
 40
0.2
 49
0.1
 74
0
 49
-0.1
 74
0
  0
LTYPE
  5
1F9
100
AcDbSymbolTableRecord
100
AcDbLinetypeTableRecord
  2
DASHED
 70
64
  3
- - - - - - - - - - - - - - - - - - - -
 72
65
 73
2
 40
0.2
 49
0.1
 74
0
 49
-0.1
 74
0
  0
ENDTAB
  0
TABLE
  2
LAYER
  5
2
100
AcDbSymbolTable
 70
36
  0
LAYER
  5
10
100
AcDbSymbolTableRecord
100
AcDbLayerTableRecord
  2
0
 70
0
 62
7
  6
CONTINUOUS
370
-3
390
F
  0
LAYER
  5
1FA
100
AcDbSymbolTableRecord
100
AcDbLayerTableRecord
  2
DEFAULT_1
 70
0
 62
7
  6
CENTER
370
-3
390
F
  0
LAYER
  5
1FB
100
AcDbSymbolTableRecord
100
AcDbLayerTableRecord
  2
DEFAULT_2
 70
0
 62
8
  6
HIDDEN
370
-3
390
F
  0
LAYER
  5
1FC
100
AcDbSymbolTableRecord
100
AcDbLayerTableRecord
  2
DEFAULT_3
 70
0
 62
7
  6
PHANTOM
370
-3
390
F
  0
LAYER
  5
1FD
100
AcDbSymbolTableRecord
100
AcDbLayerTableRecord
  2
01_ALL_DTM_PLN
 70
0
 62
7
  6
CONTINUOUS
370
-3
390
F
  0
LAYER
  5
1FE
100
AcDbSymbolTableRecord
100
AcDbLayerTableRecord
  2
01__ASM_ALL_DTM_PLN
 70
0
 62
7
  6
CONTINUOUS
370
-3
390
F
  0
LAYER
  5
1FF
100
AcDbSymbolTableRecord
100
AcDbLayerTableRecord
  2
01__ASM_DEF_DTM_PLN
 70
0
 62
7
  6
CONTINUOUS
370
-3
390
F
  0
LAYER
  5
200
100
AcDbSymbolTableRecord
100
AcDbLayerTableRecord
  2
01___PRT_ALL_DTM_PLN
 70
0
 62
7
  6
CONTINUOUS
370
-3
390
F
  0
LAYER
  5
201
100
AcDbSymbolTableRecord
100
AcDbLayerTableRecord
  2
01___PRT_DEF_DTM_PLN
 70
0
 62
7
  6
CONTINUOUS
370
-3
390
F
  0
LAYER
  5
202
100
AcDbSymbolTableRecord
100
AcDbLayerTableRecord
  2
02_ALL_AXES
 70
0
 62
7
  6
CONTINUOUS
370
-3
390
F
  0
LAYER
  5
203
100
AcDbSymbolTableRecord
100
AcDbLayerTableRecord
  2
02__ASM_ALL_AXES
 70
0
 62
7
  6
CONTINUOUS
370
-3
390
F
  0
LAYER
  5
204
100
AcDbSymbolTableRecord
100
AcDbLayerTableRecord
  2
02___PRT_ALL_AXES
 70
0
 62
7
  6
CONTINUOUS
370
-3
390
F
  0
LAYER
  5
205
100
AcDbSymbolTableRecord
100
AcDbLayerTableRecord
  2
03_ALL_CURVES
 70
0
 62
7
  6
CONTINUOUS
370
-3
390
F
  0
LAYER
  5
206
100
AcDbSymbolTableRecord
100
AcDbLayerTableRecord
  2
03__ASM_ALL_CURVES
 70
0
 62
7
  6
CONTINUOUS
370
-3
390
F
  0
LAYER
  5
207
100
AcDbSymbolTableRecord
100
AcDbLayerTableRecord
  2
03___PRT_ALL_CURVES
 70
0
 62
7
  6
CONTINUOUS
370
-3
390
F
  0
LAYER
  5
208
100
AcDbSymbolTableRecord
100
AcDbLayerTableRecord
  2
04_ALL_DTM_PNT
 70
0
 62
7
  6
CONTINUOUS
370
-3
390
F
  0
LAYER
  5
209
100
AcDbSymbolTableRecord
100
AcDbLayerTableRecord
  2
04__ASM_ALL_DTM_PNT
 70
0
 62
7
  6
CONTINUOUS
370
-3
390
F
  0
LAYER
  5
20A
100
AcDbSymbolTableRecord
100
AcDbLayerTableRecord
  2
04___PRT_ALL_DTM_PNT
 70
0
 62
7
  6
CONTINUOUS
370
-3
390
F
  0
LAYER
  5
20B
100
AcDbSymbolTableRecord
100
AcDbLayerTableRecord
  2
05_ALL_DTM_CSYS
 70
0
 62
7
  6
CONTINUOUS
370
-3
390
F
  0
LAYER
  5
20C
100
AcDbSymbolTableRecord
100
AcDbLayerTableRecord
  2
05__ASM_ALL_DTM_CSYS
 70
0
 62
7
  6
CONTINUOUS
370
-3
390
F
  0
LAYER
  5
20D
100
AcDbSymbolTableRecord
100
AcDbLayerTableRecord
  2
05__ASM_DEF_DTM_CSYS
 70
0
 62
7
  6
CONTINUOUS
370
-3
390
F
  0
LAYER
  5
20E
100
AcDbSymbolTableRecord
100
AcDbLayerTableRecord
  2
05___PRT_ALL_DTM_CSYS
 70
0
 62
7
  6
CONTINUOUS
370
-3
390
F
  0
LAYER
  5
20F
100
AcDbSymbolTableRecord
100
AcDbLayerTableRecord
  2
05___PRT_DEF_DTM_CSYS
 70
0
 62
7
  6
CONTINUOUS
370
-3
390
F
  0
LAYER
  5
210
100
AcDbSymbolTableRecord
100
AcDbLayerTableRecord
  2
06_ALL_SURFS
 70
0
 62
7
  6
CONTINUOUS
370
-3
390
F
  0
LAYER
  5
211
100
AcDbSymbolTableRecord
100
AcDbLayerTableRecord
  2
06__ASM_ALL_SURFS
 70
0
 62
7
  6
CONTINUOUS
370
-3
390
F
  0
LAYER
  5
212
100
AcDbSymbolTableRecord
100
AcDbLayerTableRecord
  2
06___PRT_ALL_SURFS
 70
0
 62
7
  6
CONTINUOUS
370
-3
390
F
  0
LAYER
  5
213
100
AcDbSymbolTableRecord
100
AcDbLayerTableRecord
  2
07__ASM_ALL_SKELETONS
 70
0
 62
7
  6
CONTINUOUS
370
-3
390
F
  0
LAYER
  5
214
100
AcDbSymbolTableRecord
100
AcDbLayerTableRecord
  2
WHITE
 70
0
 62
7
  6
CONTINUOUS
370
-3
390
F
  0
ENDTAB
  0
TABLE
  2
STYLE
  5
3
100
AcDbSymbolTable
 70
1
  0
STYLE
  5
11
100
AcDbSymbolTableRecord
100
AcDbTextStyleTableRecord
  2
STANDARD
 70
0
 40
0.0
 41
0.8
 50
0.0
 71
0
 42
0.2
  3
txt
  4

  0
STYLE
  5
215
100
AcDbSymbolTableRecord
100
AcDbTextStyleTableRecord
  2
TEXTSTYLE_1
 70
0
 40
0.0
 41
0.8
 50
0.0
 71
0
 42
0.2
  3
gdt
  4

  0
ENDTAB
  0
TABLE
  2
VIEW
  5
6
100
AcDbSymbolTable
 70
0
  0
ENDTAB
  0
TABLE
  2
UCS
  5
7
100
AcDbSymbolTable
 70
0
  0
ENDTAB
  0
TABLE
  2
APPID
  5
9
100
AcDbSymbolTable
 70
1
  0
APPID
  5
216
100
AcDbSymbolTableRecord
100
AcDbRegAppTableRecord
  2
ACAD
 70
0
  0
ENDTAB
  0
TABLE
  2
BLOCK_RECORD
  5
1
100
AcDbSymbolTable
 70
0
  0
BLOCK_RECORD
  5
217
100
AcDbSymbolTableRecord
100
AcDbBlockTableRecord
  2
*Model_Space
  0
BLOCK_RECORD
  5
218
100
AcDbSymbolTableRecord
100
AcDbBlockTableRecord
  2
*Paper_Space
  0
BLOCK_RECORD
  5
219
100
AcDbSymbolTableRecord
100
AcDbBlockTableRecord
  2
_FILLED
  0
BLOCK_RECORD
  5
21A
100
AcDbSymbolTableRecord
100
AcDbBlockTableRecord
  2
*D0
  0
BLOCK_RECORD
  5
21B
100
AcDbSymbolTableRecord
100
AcDbBlockTableRecord
  2
*D1
  0
BLOCK_RECORD
  5
21C
100
AcDbSymbolTableRecord
100
AcDbBlockTableRecord
  2
*D2
  0
BLOCK_RECORD
  5
21D
100
AcDbSymbolTableRecord
100
AcDbBlockTableRecord
  2
*D3
  0
BLOCK_RECORD
  5
21E
100
AcDbSymbolTableRecord
100
AcDbBlockTableRecord
  2
*D4
  0
BLOCK_RECORD
  5
21F
100
AcDbSymbolTableRecord
100
AcDbBlockTableRecord
  2
*D5
  0
BLOCK_RECORD
  5
220
100
AcDbSymbolTableRecord
100
AcDbBlockTableRecord
  2
*D6
  0
ENDTAB
  0
TABLE
  2
DIMSTYLE
  5
A
100
AcDbSymbolTable
 70
1
100
AcDbDimStyleTable
 71
0
  0
DIMSTYLE
105
221
100
AcDbSymbolTableRecord
100
AcDbDimStyleTableRecord
  2
STANDARD
 70
0
  3

  4

 40
1.0
 41
3.0
 42
0.5
 43
0.38
 44
0.5
 45
0.0
 46
0.0
 47
0.001
 48
0.001
140
1.8
141
0.09
142
0.0
143
25.4
144
1.0
145
0.0
146
1.0
147
0.625
 71
1.0
 72
0.0
 73
0
 74
0
 75
0
 76
0
 77
1
 78
8
170
0
171
2
172
0
173
0
174
0
175
0
176
0
177
0
178
0
270
2
271
3
272
3
273
2
274
2
275
0
280
0
281
0
282
0
283
1
284
8
285
0
286
0
287
3
288
0
340
11
278
46
341
219
342
219
343
219
344
219
  0
DIMSTYLE
105
222
100
AcDbSymbolTableRecord
100
AcDbDimStyleTableRecord
  2
DIMSTYLE_1
 70
0
  3

  4

 40
1.0
 41
3.0
 42
0.5
 43
0.38
 44
0.5
 45
0.0
 46
0.0
 47
0.8
 48
0.8
140
8.0
141
0.09
142
0.0
143
25.4
144
1.0
145
0.0
146
1.0
147
2.0
 71
0.0
 72
0.0
 73
0
 74
0
 75
0
 76
0
 77
1
 78
8
170
0
171
2
172
0
173
0
174
0
175
0
176
0
177
0
178
0
270
2
271
3
272
3
273
2
274
2
275
0
280
0
281
0
282
0
283
1
284
8
285
0
286
0
287
3
288
0
340
11
278
46
341
219
342
219
343
219
344
219
  0
DIMSTYLE
105
223
100
AcDbSymbolTableRecord
100
AcDbDimStyleTableRecord
  2
DIMSTYLE_2
 70
0
  3

  4

 40
1.0
 41
3.0
 42
0.5
 43
0.38
 44
0.5
 45
0.0
 46
0.0
 47
0.5
 48
0.5
140
8.0
141
0.09
142
0.0
143
25.4
144
1.0
145
0.0
146
1.0
147
2.0
 71
0.0
 72
0.0
 73
0
 74
0
 75
0
 76
0
 77
1
 78
8
170
0
171
2
172
0
173
0
174
0
175
0
176
0
177
0
178
0
270
2
271
3
272
3
273
2
274
2
275
0
280
0
281
0
282
0
283
1
284
8
285
0
286
0
287
3
288
0
340
11
278
46
341
219
342
219
343
219
344
219
  0
DIMSTYLE
105
224
100
AcDbSymbolTableRecord
100
AcDbDimStyleTableRecord
  2
DIMSTYLE_3
 70
0
  3

  4

 40
1.0
 41
3.0
 42
0.5
 43
0.38
 44
0.5
 45
0.0
 46
0.0
 47
0.001
 48
0.001
140
8.0
141
0.09
142
0.0
143
25.4
144
1.0
145
0.0
146
1.0
147
2.0
 71
0.0
 72
0.0
 73
0
 74
0
 75
0
 76
0
 77
1
 78
8
170
0
171
2
172
0
173
0
174
0
175
0
176
0
177
0
178
0
270
2
271
3
272
3
273
2
274
2
275
0
280
0
281
0
282
0
283
1
284
8
285
0
286
0
287
3
288
0
340
11
278
46
341
219
342
219
343
219
344
219
  0
ENDTAB
  0
ENDSEC
  0
SECTION
  2
BLOCKS
  0
BLOCK
  5
20
100
AcDbEntity
  8
0
100
AcDbBlockBegin
  2
*Model_Space
 70
0
 10
0.0
 20
0.0
 30
0.0
  3
*Model_Space
  1

  0
ENDBLK
  5
21
100
AcDbEntity
  8
0
100
AcDbBlockEnd
  0
BLOCK
  5
1C
100
AcDbEntity
  8
0
100
AcDbBlockBegin
  2
*Paper_Space
 70
0
 10
0.0
 20
0.0
 30
0.0
  3
*Paper_Space
  1

  0
ENDBLK
  5
1D
100
AcDbEntity
  8
0
100
AcDbBlockEnd
  0
BLOCK
  5
225
100
AcDbEntity
  8
0
100
AcDbBlockBegin
  2
_FILLED
 70
64
 10
0.0
 20
0.0
  3
_FILLED
  1

  0
SOLID
  5
226
100
AcDbEntity
  8
0
  6
BYBLOCK
 62
0
100
AcDbTrace
 10
0.0
 20
0.0
 11
-1.0
 21
0.1666666667
 12
-1.0
 22
-0.1666666667
 13
-1.0
 23
-0.1666666667
  0
ENDBLK
  5
227
100
AcDbEntity
  8
0
  6
BYBLOCK
 62
0
100
AcDbBlockEnd
  0
BLOCK
  5
228
100
AcDbEntity
  8
0
100
AcDbBlockBegin
 62
2
  6
CONTINUOUS
  2
*D0
 70
65
 10
0.0
 20
0.0
  3
*D0
  1

  0
LINE
  5
229
100
AcDbEntity
  8
0
100
AcDbLine
 62
2
  6
CONTINUOUS
 10
209.9912509208
 20
767.2087970592
 11
209.9912509208
 21
837.5041624291
  0
LINE
  5
22A
100
AcDbEntity
  8
0
100
AcDbLine
 62
2
  6
CONTINUOUS
 10
1069.9912509208
 20
767.2087970592
 11
1069.9912509208
 21
837.5041624291
  0
LINE
  5
22B
100
AcDbEntity
  8
0
100
AcDbLine
 62
2
  6
CONTINUOUS
 10
209.9912509208
 20
837.0041624291
 11
639.9912509208
 21
837.0041624291
  0
LINE
  5
22C
100
AcDbEntity
  8
0
100
AcDbLine
 62
2
  6
CONTINUOUS
 10
1069.9912509208
 20
837.0041624291
 11
639.9912509208
 21
837.0041624291
  0
INSERT
  5
22D
100
AcDbEntity
  8
0
100
AcDbBlockReference
 62
2
  6
CONTINUOUS
  2
_FILLED
 10
209.9912509208
 20
837.0041624291
 41
3.0
 42
3.0
 43
3.0
 50
180.0
  0
INSERT
  5
22E
100
AcDbEntity
  8
0
100
AcDbBlockReference
 62
2
  6
CONTINUOUS
  2
_FILLED
 10
1069.9912509208
 20
837.0041624291
 41
3.0
 42
3.0
 43
3.0
  0
ENDBLK
  5
22F
100
AcDbEntity
  8
0
  6
BYBLOCK
 62
0
100
AcDbBlockEnd
  0
BLOCK
  5
230
100
AcDbEntity
  8
0
100
AcDbBlockBegin
 62
2
  6
CONTINUOUS
  2
*D1
 70
65
 10
0.0
 20
0.0
  3
*D1
  1

  0
LINE
  5
231
100
AcDbEntity
  8
0
100
AcDbLine
 62
2
  6
CONTINUOUS
 10
1060.4912509208
 20
776.7087970592
 11
1100.5372423951
 21
776.7087970592
  0
LINE
  5
232
100
AcDbEntity
  8
0
100
AcDbLine
 62
2
  6
CONTINUOUS
 10
1060.4912509208
 20
276.7087970592
 11
1100.5372423951
 21
276.7087970592
  0
LINE
  5
233
100
AcDbEntity
  8
0
100
AcDbLine
 62
2
  6
CONTINUOUS
 10
1100.0372423951
 20
776.7087970592
 11
1100.0372423951
 21
526.7087970592
  0
LINE
  5
234
100
AcDbEntity
  8
0
100
AcDbLine
 62
2
  6
CONTINUOUS
 10
1100.0372423951
 20
276.7087970592
 11
1100.0372423951
 21
526.7087970592
  0
INSERT
  5
235
100
AcDbEntity
  8
0
100
AcDbBlockReference
 62
2
  6
CONTINUOUS
  2
_FILLED
 10
1100.0372423951
 20
776.7087970592
 41
3.0
 42
3.0
 43
3.0
 50
90.0
  0
INSERT
  5
236
100
AcDbEntity
  8
0
100
AcDbBlockReference
 62
2
  6
CONTINUOUS
  2
_FILLED
 10
1100.0372423951
 20
276.7087970592
 41
3.0
 42
3.0
 43
3.0
 50
270.0
  0
ENDBLK
  5
237
100
AcDbEntity
  8
0
  6
BYBLOCK
 62
0
100
AcDbBlockEnd
  0
BLOCK
  5
238
100
AcDbEntity
  8
0
100
AcDbBlockBegin
 62
2
  6
CONTINUOUS
  2
*D2
 70
65
 10
0.0
 20
0.0
  3
*D2
  1

  0
LINE
  5
239
100
AcDbEntity
  8
0
100
AcDbLine
 62
2
  6
CONTINUOUS
 10
209.9912509208
 20
767.2087970592
 11
209.9912509208
 21
807.3249502187
  0
LINE
  5
23A
100
AcDbEntity
  8
0
100
AcDbLine
 62
2
  6
CONTINUOUS
 10
454.9912509208
 20
618.6387970592
 11
454.9912509208
 21
807.3249502187
  0
LINE
  5
23B
100
AcDbEntity
  8
0
100
AcDbLine
 62
2
  6
CONTINUOUS
 10
209.9912509208
 20
806.8249502187
 11
332.4912509208
 21
806.8249502187
  0
LINE
  5
23C
100
AcDbEntity
  8
0
100
AcDbLine
 62
2
  6
CONTINUOUS
 10
454.9912509208
 20
806.8249502187
 11
332.4912509208
 21
806.8249502187
  0
INSERT
  5
23D
100
AcDbEntity
  8
0
100
AcDbBlockReference
 62
2
  6
CONTINUOUS
  2
_FILLED
 10
209.9912509208
 20
806.8249502187
 41
3.0
 42
3.0
 43
3.0
 50
180.0
  0
INSERT
  5
23E
100
AcDbEntity
  8
0
100
AcDbBlockReference
 62
2
  6
CONTINUOUS
  2
_FILLED
 10
454.9912509208
 20
806.8249502187
 41
3.0
 42
3.0
 43
3.0
  0
ENDBLK
  5
23F
100
AcDbEntity
  8
0
  6
BYBLOCK
 62
0
100
AcDbBlockEnd
  0
BLOCK
  5
240
100
AcDbEntity
  8
0
100
AcDbBlockBegin
 62
2
  6
CONTINUOUS
  2
*D3
 70
65
 10
0.0
 20
0.0
  3
*D3
  1

  0
LINE
  5
241
100
AcDbEntity
  8
0
100
AcDbLine
 62
2
  6
CONTINUOUS
 10
266.9912509208
 20
726.7087970592
 11
149.5327298927
 21
726.7087970592
  0
LINE
  5
242
100
AcDbEntity
  8
0
100
AcDbLine
 62
2
  6
CONTINUOUS
 10
266.9912509208
 20
326.7087970592
 11
149.5327298927
 21
326.7087970592
  0
LINE
  5
243
100
AcDbEntity
  8
0
100
AcDbLine
 62
2
  6
CONTINUOUS
 10
150.0327298927
 20
726.7087970592
 11
150.0327298927
 21
526.7087970592
  0
LINE
  5
244
100
AcDbEntity
  8
0
100
AcDbLine
 62
2
  6
CONTINUOUS
 10
150.0327298927
 20
326.7087970592
 11
150.0327298927
 21
526.7087970592
  0
INSERT
  5
245
100
AcDbEntity
  8
0
100
AcDbBlockReference
 62
2
  6
CONTINUOUS
  2
_FILLED
 10
150.0327298927
 20
726.7087970592
 41
3.0
 42
3.0
 43
3.0
 50
90.0
  0
INSERT
  5
246
100
AcDbEntity
  8
0
100
AcDbBlockReference
 62
2
  6
CONTINUOUS
  2
_FILLED
 10
150.0327298927
 20
326.7087970592
 41
3.0
 42
3.0
 43
3.0
 50
270.0
  0
ENDBLK
  5
247
100
AcDbEntity
  8
0
  6
BYBLOCK
 62
0
100
AcDbBlockEnd
  0
BLOCK
  5
248
100
AcDbEntity
  8
0
100
AcDbBlockBegin
 62
2
  6
CONTINUOUS
  2
*D4
 70
65
 10
0.0
 20
0.0
  3
*D4
  1

  0
LINE
  5
249
100
AcDbEntity
  8
0
100
AcDbLine
 62
2
  6
CONTINUOUS
 10
254.9912509208
 20
338.7087970592
 11
254.9912509208
 21
246.2893864455
  0
LINE
  5
24A
100
AcDbEntity
  8
0
100
AcDbLine
 62
2
  6
CONTINUOUS
 10
654.9912509208
 20
338.7087970592
 11
654.9912509208
 21
246.2893864455
  0
LINE
  5
24B
100
AcDbEntity
  8
0
100
AcDbLine
 62
2
  6
CONTINUOUS
 10
254.9912509208
 20
246.7893864455
 11
454.9912509208
 21
246.7893864455
  0
LINE
  5
24C
100
AcDbEntity
  8
0
100
AcDbLine
 62
2
  6
CONTINUOUS
 10
654.9912509208
 20
246.7893864455
 11
454.9912509208
 21
246.7893864455
  0
INSERT
  5
24D
100
AcDbEntity
  8
0
100
AcDbBlockReference
 62
2
  6
CONTINUOUS
  2
_FILLED
 10
254.9912509208
 20
246.7893864455
 41
3.0
 42
3.0
 43
3.0
 50
180.0
  0
INSERT
  5
24E
100
AcDbEntity
  8
0
100
AcDbBlockReference
 62
2
  6
CONTINUOUS
  2
_FILLED
 10
654.9912509208
 20
246.7893864455
 41
3.0
 42
3.0
 43
3.0
  0
ENDBLK
  5
24F
100
AcDbEntity
  8
0
  6
BYBLOCK
 62
0
100
AcDbBlockEnd
  0
BLOCK
  5
250
100
AcDbEntity
  8
0
100
AcDbBlockBegin
 62
2
  6
CONTINUOUS
  2
*D5
 70
65
 10
0.0
 20
0.0
  3
*D5
  1

  0
LINE
  5
251
100
AcDbEntity
  8
0
100
AcDbLine
 62
2
  6
CONTINUOUS
 10
219.4912509208
 20
776.7087970592
 11
179.3576864817
 21
776.7087970592
  0
LINE
  5
252
100
AcDbEntity
  8
0
100
AcDbLine
 62
2
  6
CONTINUOUS
 10
447.1252509208
 20
606.7087970592
 11
179.3576864817
 21
606.7087970592
  0
LINE
  5
253
100
AcDbEntity
  8
0
100
AcDbLine
 62
2
  6
CONTINUOUS
 10
179.8576864817
 20
776.7087970592
 11
179.8576864817
 21
691.7087970592
  0
LINE
  5
254
100
AcDbEntity
  8
0
100
AcDbLine
 62
2
  6
CONTINUOUS
 10
179.8576864817
 20
606.7087970592
 11
179.8576864817
 21
691.7087970592
  0
INSERT
  5
255
100
AcDbEntity
  8
0
100
AcDbBlockReference
 62
2
  6
CONTINUOUS
  2
_FILLED
 10
179.8576864817
 20
776.7087970592
 41
3.0
 42
3.0
 43
3.0
 50
90.0
  0
INSERT
  5
256
100
AcDbEntity
  8
0
100
AcDbBlockReference
 62
2
  6
CONTINUOUS
  2
_FILLED
 10
179.8576864817
 20
606.7087970592
 41
3.0
 42
3.0
 43
3.0
 50
270.0
  0
ENDBLK
  5
257
100
AcDbEntity
  8
0
  6
BYBLOCK
 62
0
100
AcDbBlockEnd
  0
BLOCK
  5
258
100
AcDbEntity
  8
0
100
AcDbBlockBegin
 62
2
  6
CONTINUOUS
  2
*D6
 70
65
 10
0.0
 20
0.0
  3
*D6
  1

  0
LINE
  5
259
100
AcDbEntity
  8
0
100
AcDbLine
 62
2
  6
CONTINUOUS
 10
214.4920966685
 20
1252.2022293796
 11
178.8126550868
 21
1252.2022293796
  0
LINE
  5
25A
100
AcDbEntity
  8
0
100
AcDbLine
 62
2
  6
CONTINUOUS
 10
269.4784828137
 20
1036.4022293796
 11
178.8126550868
 21
1036.4022293796
  0
LINE
  5
25B
100
AcDbEntity
  8
0
100
AcDbLine
 62
2
  6
CONTINUOUS
 10
179.3126550868
 20
1252.2022293796
 11
179.3126550868
 21
1144.3022293796
  0
LINE
  5
25C
100
AcDbEntity
  8
0
100
AcDbLine
 62
2
  6
CONTINUOUS
 10
179.3126550868
 20
1036.4022293796
 11
179.3126550868
 21
1144.3022293796
  0
INSERT
  5
25D
100
AcDbEntity
  8
0
100
AcDbBlockReference
 62
2
  6
CONTINUOUS
  2
_FILLED
 10
179.3126550868
 20
1252.2022293796
 41
3.0
 42
3.0
 43
3.0
 50
90.0
  0
INSERT
  5
25E
100
AcDbEntity
  8
0
100
AcDbBlockReference
 62
2
  6
CONTINUOUS
  2
_FILLED
 10
179.3126550868
 20
1036.4022293796
 41
3.0
 42
3.0
 43
3.0
 50
270.0
  0
ENDBLK
  5
25F
100
AcDbEntity
  8
0
  6
BYBLOCK
 62
0
100
AcDbBlockEnd
  0
ENDSEC
  0
SECTION
  2
ENTITIES
  0
DIMENSION
  5
260
100
AcDbEntity
  8
0
100
AcDbDimension
 62
2
  6
CONTINUOUS
  2
*D0
 10
1069.9912509208
 20
837.0041624291
 11
627.648393778
 21
837.0041624291
 70
160
 71
2
 42
860.0
  3
DIMSTYLE_1
100
AcDbAlignedDimension
 13
209.9912509208
 23
766.7087970592
 14
1069.9912509208
 24
766.7087970592
100
AcDbRotatedDimension
  0
DIMENSION
  5
261
100
AcDbEntity
  8
0
100
AcDbDimension
 62
2
  6
CONTINUOUS
  2
*D1
 10
1100.0372423951
 20
276.7087970592
 11
1100.0372423951
 21
514.3659399163
 70
160
 71
2
 42
500.0
  3
DIMSTYLE_1
100
AcDbAlignedDimension
 13
1059.9912509208
 23
776.7087970592
 14
1059.9912509208
 24
276.7087970592
 50
270.0
100
AcDbRotatedDimension
  0
DIMENSION
  5
262
100
AcDbEntity
  8
0
100
AcDbDimension
 62
2
  6
CONTINUOUS
  2
*D2
 10
454.9912509208
 20
806.8249502187
 11
320.148393778
 21
806.8249502187
 70
160
 71
2
 42
245.0
  3
DIMSTYLE_2
100
AcDbAlignedDimension
 13
209.9912509208
 23
766.7087970592
 14
454.9912509208
 24
618.1387970592
100
AcDbRotatedDimension
  0
DIMENSION
  5
263
100
AcDbEntity
  8
0
100
AcDbDimension
 62
2
  6
CONTINUOUS
  2
*D3
 10
150.0327298927
 20
326.7087970592
 11
150.0327298927
 21
514.3659399163
 70
160
 71
2
 42
400.0
  3
DIMSTYLE_2
100
AcDbAlignedDimension
 13
267.4912509208
 23
726.7087970592
 14
267.4912509208
 24
326.7087970592
 50
270.0
100
AcDbRotatedDimension
  0
DIMENSION
  5
264
100
AcDbEntity
  8
0
100
AcDbDimension
 62
2
  6
CONTINUOUS
  2
*D4
 10
654.9912509208
 20
246.7893864455
 11
442.648393778
 21
246.7893864455
 70
160
 71
2
 42
400.0
  3
DIMSTYLE_2
100
AcDbAlignedDimension
 13
254.9912509208
 23
339.2087970592
 14
654.9912509208
 24
339.2087970592
100
AcDbRotatedDimension
  0
DIMENSION
  5
265
100
AcDbEntity
  8
0
100
AcDbDimension
 62
2
  6
CONTINUOUS
  2
*D5
 10
179.8576864817
 20
606.7087970592
 11
179.8576864817
 21
679.3659399163
 70
160
 71
2
 42
170.0
  3
DIMSTYLE_2
100
AcDbAlignedDimension
 13
219.9912509208
 23
776.7087970592
 14
447.6252509208
 24
606.7087970592
 50
270.0
100
AcDbRotatedDimension
  0
DIMENSION
  5
266
100
AcDbEntity
  8
0
100
AcDbDimension
 62
2
  6
CONTINUOUS
  2
*D6
 10
179.3126550868
 20
1036.4022293796
 11
179.3126550868
 21
1131.9593722367
 70
160
 71
2
 42
215.8
  3
DIMSTYLE_3
100
AcDbAlignedDimension
 13
214.9920966685
 23
1252.2022293796
 14
269.9784828137
 24
1036.4022293796
 50
270.0
100
AcDbRotatedDimension
  0
LWPOLYLINE
  5
267
100
AcDbEntity
  8
0
100
AcDbPolyline
 62
2
  6
CONTINUOUS
 90
9
 70
0
 43
0.2500000019
 10
162.7148363715
 20
687.5945364583
 10
162.7148363715
 20
693.0802309028
 10
163.8576985677
 20
691.9373411458
 10
165.7624505208
 20
690.7945065104
 10
168.4291197917
 20
689.4230828993
 10
170.7148166233
 20
688.7373710937
 10
172.6195961372
 20
688.2802482639
 10
174.5243480903
 20
688.0516592882
 10
176.4291276042
 20
688.0516592882
  0
LINE
  5
268
100
AcDbEntity
  8
0
100
AcDbLine
 62
7
  6
CONTINUOUS
 10
1059.9912509208
 20
276.7087970592
 11
219.9912509208
 21
276.7087970592
  0
LINE
  5
269
100
AcDbEntity
  8
0
100
AcDbLine
 62
7
  6
CONTINUOUS
 10
1059.9912509208
 20
281.7232306086
 11
219.9912509208
 21
281.7232306086
  0
LINE
  5
26A
100
AcDbEntity
  8
0
100
AcDbLine
 62
7
  6
CONTINUOUS
 10
674.9912509208
 20
299.9050029535
 11
240.9912509208
 21
299.9050029535
  0
LINE
  5
26B
100
AcDbEntity
  8
0
100
AcDbLine
 62
7
  6
CONTINUOUS
 10
1024.085047451
 20
325.9742306657
 11
929.0934582537
 21
325.9742306657
  0
LINE
  5
26C
100
AcDbEntity
  8
0
100
AcDbLine
 62
7
  6
CONTINUOUS
 10
905.0955830881
 20
325.9742306657
 11
810.1039938908
 21
325.9742306657
  0
LINE
  5
26D
100
AcDbEntity
  8
0
100
AcDbLine
 62
7
  6
CONTINUOUS
 10
786.1061187251
 20
325.9742306657
 11
691.1145295279
 21
325.9742306657
  0
LINE
  5
26E
100
AcDbEntity
  8
0
100
AcDbLine
 62
7
  6
CONTINUOUS
 10
267.4912509208
 20
326.7087970592
 11
642.4912509208
 21
326.7087970592
  0
LINE
  5
26F
100
AcDbEntity
  8
0
100
AcDbLine
 62
7
  6
CONTINUOUS
 10
209.9912509208
 20
286.7087970592
 11
209.9912509208
 21
766.7087970592
  0
LINE
  5
270
100
AcDbEntity
  8
0
100
AcDbLine
 62
7
  6
CONTINUOUS
 10
215.0056844703
 20
286.7087970592
 11
215.0056844703
 21
766.7087970592
  0
LINE
  5
271
100
AcDbEntity
  8
0
100
AcDbLine
 62
7
  6
CONTINUOUS
 10
233.1874568152
 20
307.7087970592
 11
233.1874568152
 21
745.7087970592
  0
LINE
  5
272
100
AcDbEntity
  8
0
100
AcDbLine
 62
7
  6
CONTINUOUS
 10
254.9912509208
 20
714.2087970592
 11
254.9912509208
 21
339.2087970592
  0
LINE
  5
273
100
AcDbEntity
  8
0
100
AcDbLine
 62
7
  6
CONTINUOUS
 10
691.0812633953
 20
330.4043718398
 11
786.0728525925
 21
330.4043718398
  0
LINE
  5
274
100
AcDbEntity
  8
0
100
AcDbLine
 62
7
  6
CONTINUOUS
 10
810.0707277582
 20
330.4043718398
 11
905.0623169555
 21
330.4043718398
  0
LINE
  5
275
100
AcDbEntity
  8
0
100
AcDbLine
 62
7
  6
CONTINUOUS
 10
929.0601921211
 20
330.4043718398
 11
1024.0517813184
 21
330.4043718398
  0
LWPOLYLINE
  5
276
100
AcDbEntity
  8
0
100
AcDbPolyline
 62
2
  6
CONTINUOUS
 90
17
 70
0
 43
0.2500000019
 10
320.1483689236
 20
821.3011176215
 10
320.605546875
 20
822.8249522569
 10
321.0626697049
 20
823.5868420139
 10
321.5198476563
 20
823.9677868924
 10
322.434093316
 20
824.3487868924
 10
323.3483940972
 20
824.3487868924
 10
324.2626948785
 20
823.9677868924
 10
324.7198177083
 20
823.5868420139
 10
325.1769405382
 20
822.8249522569
 10
325.4055295139
 20
822.0630625
 10
325.6341184896
 20
820.9201727431
 10
325.6341184896
 20
820.5392278646
 10
325.4055295139
 20
819.3963932292
 10
320.605546875
 20
812.1582751736
 10
320.3769578993
 20
811.3963854167
 10
320.1483689236
 20
810.2534956597
 10
325.6341184896
 20
810.2534956597
  0
LINE
  5
277
100
AcDbEntity
  8
0
100
AcDbLine
 62
7
  6
CONTINUOUS
 10
1024.0517813184
 20
415.0132222786
 11
929.0601921211
 21
415.0132222786
  0
LINE
  5
278
100
AcDbEntity
  8
0
100
AcDbLine
 62
7
  6
CONTINUOUS
 10
905.0623169555
 20
415.0132222786
 11
810.0707277582
 21
415.0132222786
  0
LINE
  5
279
100
AcDbEntity
  8
0
100
AcDbLine
 62
7
  6
CONTINUOUS
 10
786.0728525925
 20
415.0132222786
 11
691.0812633953
 21
415.0132222786
  0
LINE
  5
27A
100
AcDbEntity
  8
0
100
AcDbLine
 62
7
  6
CONTINUOUS
 10
691.1145295279
 20
419.4433634526
 11
786.1061187251
 21
419.4433634526
  0
LINE
  5
27B
100
AcDbEntity
  8
0
100
AcDbLine
 62
7
  6
CONTINUOUS
 10
810.1039938908
 20
419.4433634526
 11
905.0955830881
 21
419.4433634526
  0
LINE
  5
27C
100
AcDbEntity
  8
0
100
AcDbLine
 62
7
  6
CONTINUOUS
 10
929.0934582537
 20
419.4433634526
 11
1024.085047451
 21
419.4433634526
  0
LINE
  5
27D
100
AcDbEntity
  8
0
100
AcDbLine
 62
7
  6
CONTINUOUS
 10
1024.085047451
 20
429.9742306657
 11
929.0934582537
 21
429.9742306657
  0
LINE
  5
27E
100
AcDbEntity
  8
0
100
AcDbLine
 62
7
  6
CONTINUOUS
 10
905.0955830881
 20
429.9742306657
 11
810.1039938908
 21
429.9742306657
  0
LINE
  5
27F
100
AcDbEntity
  8
0
100
AcDbLine
 62
7
  6
CONTINUOUS
 10
786.1061187251
 20
429.9742306657
 11
691.1145295279
 21
429.9742306657
  0
LINE
  5
280
100
AcDbEntity
  8
0
100
AcDbLine
 62
7
  6
CONTINUOUS
 10
691.0812633953
 20
434.4043718398
 11
786.0728525925
 21
434.4043718398
  0
LINE
  5
281
100
AcDbEntity
  8
0
100
AcDbLine
 62
7
  6
CONTINUOUS
 10
810.0707277582
 20
434.4043718398
 11
905.0623169555
 21
434.4043718398
  0
LINE
  5
282
100
AcDbEntity
  8
0
100
AcDbLine
 62
7
  6
CONTINUOUS
 10
929.0601921211
 20
434.4043718398
 11
1024.0517813184
 21
434.4043718398
  0
LWPOLYLINE
  5
283
100
AcDbEntity
  8
0
100
AcDbPolyline
 62
2
  6
CONTINUOUS
 90
25
 70
0
 43
0.2500000019
 10
136.3184320747
 20
522.5945269097
 10
134.794625
 20
522.8230607639
 10
134.0327352431
 20
523.0516497396
 10
133.2708179253
 20
523.5087725694
 10
132.8898730469
 20
523.9659505208
 10
132.5089281684
 20
524.8802513021
 10
132.5089281684
 20
525.7944969618
 10
132.8898730469
 20
526.7087977431
 10
133.2708179253
 20
527.1659205729
 10
134.0327352431
 20
527.6230985243
 10
134.794625
 20
527.8516323785
 10
136.3184320747
 20
528.0802213542
 10
142.7946328125
 20
528.0802213542
 10
144.3184398872
 20
527.8516323785
 10
145.0803572049
 20
527.6230985243
 10
145.8422469618
 20
527.1659205729
 10
146.223219401
 20
526.7087977431
 10
146.6041642795
 20
525.7944969618
 10
146.6041642795
 20
524.8802513021
 10
146.223219401
 20
523.9659505208
 10
145.8422469618
 20
523.5087725694
 10
145.0803572049
 20
523.0516497396
 10
144.3184398872
 20
522.8230607639
 10
142.7946328125
 20
522.5945269097
 10
136.3184320747
 20
522.5945269097
  0
LWPOLYLINE
  5
284
100
AcDbEntity
  8
0
100
AcDbPolyline
 62
2
  6
CONTINUOUS
 90
4
 70
0
 43
0.2500000019
 10
332.9484144965
 20
810.2534956597
 10
332.9484144965
 20
824.3487868924
 10
328.3769657118
 20
813.682109809
 10
333.8626601563
 20
813.682109809
  0
LWPOLYLINE
  5
285
100
AcDbEntity
  8
0
100
AcDbPolyline
 62
2
  6
CONTINUOUS
 90
25
 70
0
 43
0.2500000019
 10
136.3184320747
 20
530.8230685764
 10
134.794625
 20
531.0516575521
 10
134.0327352431
 20
531.2802465278
 10
133.2708179253
 20
531.7373693576
 10
132.8898730469
 20
532.1944921875
 10
132.5089281684
 20
533.1087929687
 10
132.5089281684
 20
534.02309375
 10
132.8898730469
 20
534.9373945312
 10
133.2708179253
 20
535.3945173611
 10
134.0327352431
 20
535.851640191
 10
134.794625
 20
536.0802291667
 10
136.3184320747
 20
536.3088181424
 10
142.7946328125
 20
536.3088181424
 10
144.3184398872
 20
536.0802291667
 10
145.0803572049
 20
535.851640191
 10
145.8422469618
 20
535.3945173611
 10
146.223219401
 20
534.9373945312
 10
146.6041642795
 20
534.02309375
 10
146.6041642795
 20
533.1087929687
 10
146.223219401
 20
532.1944921875
 10
145.8422469618
 20
531.7373693576
 10
145.0803572049
 20
531.2802465278
 10
144.3184398872
 20
531.0516575521
 10
142.7946328125
 20
530.8230685764
 10
136.3184320747
 20
530.8230685764
  0
LWPOLYLINE
  5
286
100
AcDbEntity
  8
0
100
AcDbPolyline
 62
2
  6
CONTINUOUS
 90
4
 70
0
 43
0.2500000019
 10
447.2198064236
 20
250.2179466146
 10
447.2198064236
 20
264.3131827257
 10
442.6484127604
 20
253.6465332031
 10
448.1341072049
 20
253.6465332031
  0
LWPOLYLINE
  5
287
100
AcDbEntity
  8
0
100
AcDbPolyline
 62
2
  6
CONTINUOUS
 90
4
 70
0
 43
0.2500000019
 10
146.6041642795
 20
518.9373789062
 10
132.5089281684
 20
518.9373789062
 10
143.175577691
 20
514.3659301215
 10
143.175577691
 20
519.8516796875
  0
LINE
  5
288
100
AcDbEntity
  8
0
100
AcDbLine
 62
7
  6
CONTINUOUS
 10
1024.0517813184
 20
519.0132222786
 11
929.0601921211
 21
519.0132222786
  0
LINE
  5
289
100
AcDbEntity
  8
0
100
AcDbLine
 62
7
  6
CONTINUOUS
 10
905.0623169555
 20
519.0132222786
 11
810.0707277582
 21
519.0132222786
  0
LINE
  5
28A
100
AcDbEntity
  8
0
100
AcDbLine
 62
7
  6
CONTINUOUS
 10
786.0728525925
 20
519.0132222786
 11
691.0812633953
 21
519.0132222786
  0
LINE
  5
28B
100
AcDbEntity
  8
0
100
AcDbLine
 62
7
  6
CONTINUOUS
 10
691.1145295279
 20
523.4433634526
 11
786.1061187251
 21
523.4433634526
  0
LINE
  5
28C
100
AcDbEntity
  8
0
100
AcDbLine
 62
7
  6
CONTINUOUS
 10
810.1039938908
 20
523.4433634526
 11
905.0955830881
 21
523.4433634526
  0
LINE
  5
28D
100
AcDbEntity
  8
0
100
AcDbLine
 62
7
  6
CONTINUOUS
 10
929.0934582537
 20
523.4433634526
 11
1024.085047451
 21
523.4433634526
  0
LINE
  5
28E
100
AcDbEntity
  8
0
100
AcDbLine
 62
7
  6
CONTINUOUS
 10
1024.085047451
 20
533.9742306657
 11
929.0934582537
 21
533.9742306657
  0
LINE
  5
28F
100
AcDbEntity
  8
0
100
AcDbLine
 62
7
  6
CONTINUOUS
 10
905.0955830881
 20
533.9742306657
 11
810.1039938908
 21
533.9742306657
  0
LINE
  5
290
100
AcDbEntity
  8
0
100
AcDbLine
 62
7
  6
CONTINUOUS
 10
786.1061187251
 20
533.9742306657
 11
691.1145295279
 21
533.9742306657
  0
LINE
  5
291
100
AcDbEntity
  8
0
100
AcDbLine
 62
7
  6
CONTINUOUS
 10
691.0812633953
 20
538.4043718398
 11
786.0728525925
 21
538.4043718398
  0
LINE
  5
292
100
AcDbEntity
  8
0
100
AcDbLine
 62
7
  6
CONTINUOUS
 10
810.0707277582
 20
538.4043718398
 11
905.0623169555
 21
538.4043718398
  0
LINE
  5
293
100
AcDbEntity
  8
0
100
AcDbLine
 62
7
  6
CONTINUOUS
 10
929.0601921211
 20
538.4043718398
 11
1024.0517813184
 21
538.4043718398
  0
LWPOLYLINE
  5
294
100
AcDbEntity
  8
0
100
AcDbPolyline
 62
2
  6
CONTINUOUS
 90
3
 70
0
 43
0.2500000019
 10
164.6195883247
 20
681.4230750868
 10
162.7148363715
 20
682.1087868924
 10
176.4291276042
 20
682.1087868924
  0
LINE
  5
295
100
AcDbEntity
  8
0
100
AcDbLine
 62
7
  6
CONTINUOUS
 10
1024.0517813184
 20
623.0132222786
 11
929.0601921211
 21
623.0132222786
  0
LINE
  5
296
100
AcDbEntity
  8
0
100
AcDbLine
 62
7
  6
CONTINUOUS
 10
905.0623169555
 20
623.0132222786
 11
810.0707277582
 21
623.0132222786
  0
LINE
  5
297
100
AcDbEntity
  8
0
100
AcDbLine
 62
7
  6
CONTINUOUS
 10
786.0728525925
 20
623.0132222786
 11
691.0812633953
 21
623.0132222786
  0
LINE
  5
298
100
AcDbEntity
  8
0
100
AcDbLine
 62
7
  6
CONTINUOUS
 10
691.1145295279
 20
627.4433634526
 11
786.1061187251
 21
627.4433634526
  0
LINE
  5
299
100
AcDbEntity
  8
0
100
AcDbLine
 62
7
  6
CONTINUOUS
 10
810.1039938908
 20
627.4433634526
 11
905.0955830881
 21
627.4433634526
  0
LINE
  5
29A
100
AcDbEntity
  8
0
100
AcDbLine
 62
7
  6
CONTINUOUS
 10
929.0934582537
 20
627.4433634526
 11
1024.085047451
 21
627.4433634526
  0
LWPOLYLINE
  5
29B
100
AcDbEntity
  8
0
100
AcDbPolyline
 62
2
  6
CONTINUOUS
 90
25
 70
0
 43
0.2500000019
 10
1086.3229427083
 20
522.5945269097
 10
1084.7991631944
 20
522.8230607639
 10
1084.0372734375
 20
523.0516497396
 10
1083.2753836806
 20
523.5087725694
 10
1082.8943836806
 20
523.9659505208
 10
1082.5133836806
 20
524.8802513021
 10
1082.5133836806
 20
525.7944969618
 10
1082.8943836806
 20
526.7087977431
 10
1083.2753836806
 20
527.1659205729
 10
1084.0372734375
 20
527.6230985243
 10
1084.7991631944
 20
527.8516323785
 10
1086.3229427083
 20
528.0802213542
 10
1092.7991710069
 20
528.0802213542
 10
1094.3229505208
 20
527.8516323785
 10
1095.0848402778
 20
527.6230985243
 10
1095.8467300347
 20
527.1659205729
 10
1096.2277300347
 20
526.7087977431
 10
1096.6086197917
 20
525.7944969618
 10
1096.6086197917
 20
524.8802513021
 10
1096.2277300347
 20
523.9659505208
 10
1095.8467300347
 20
523.5087725694
 10
1095.0848402778
 20
523.0516497396
 10
1094.3229505208
 20
522.8230607639
 10
1092.7991710069
 20
522.5945269097
 10
1086.3229427083
 20
522.5945269097
  0
LWPOLYLINE
  5
29C
100
AcDbEntity
  8
0
100
AcDbPolyline
 62
2
  6
CONTINUOUS
 90
25
 70
0
 43
0.2500000019
 10
1086.3229427083
 20
530.8230685764
 10
1084.7991631944
 20
531.0516575521
 10
1084.0372734375
 20
531.2802465278
 10
1083.2753836806
 20
531.7373693576
 10
1082.8943836806
 20
532.1944921875
 10
1082.5133836806
 20
533.1087929687
 10
1082.5133836806
 20
534.02309375
 10
1082.8943836806
 20
534.9373945312
 10
1083.2753836806
 20
535.3945173611
 10
1084.0372734375
 20
535.851640191
 10
1084.7991631944
 20
536.0802291667
 10
1086.3229427083
 20
536.3088181424
 10
1092.7991710069
 20
536.3088181424
 10
1094.3229505208
 20
536.0802291667
 10
1095.0848402778
 20
535.851640191
 10
1095.8467300347
 20
535.3945173611
 10
1096.2277300347
 20
534.9373945312
 10
1096.6086197917
 20
534.02309375
 10
1096.6086197917
 20
533.1087929687
 10
1096.2277300347
 20
532.1944921875
 10
1095.8467300347
 20
531.7373693576
 10
1095.0848402778
 20
531.2802465278
 10
1094.3229505208
 20
531.0516575521
 10
1092.7991710069
 20
530.8230685764
 10
1086.3229427083
 20
530.8230685764
  0
LWPOLYLINE
  5
29D
100
AcDbEntity
  8
0
100
AcDbPolyline
 62
2
  6
CONTINUOUS
 90
25
 70
0
 43
0.2500000019
 10
166.1433953993
 20
695.823078125
 10
164.6195883247
 20
696.0516671007
 10
163.8576985677
 20
696.2802009549
 10
163.09578125
 20
696.7373789063
 10
162.7148363715
 20
697.1945017361
 10
162.3338639323
 20
698.1088025174
 10
162.3338639323
 20
699.0231032986
 10
162.7148363715
 20
699.9373489583
 10
163.09578125
 20
700.3945269097
 10
163.8576985677
 20
700.8516497396
 10
164.6195883247
 20
701.0802387153
 10
166.1433953993
 20
701.3087725694
 10
172.6195961372
 20
701.3087725694
 10
174.1434032118
 20
701.0802387153
 10
174.9052929688
 20
700.8516497396
 10
175.6672102865
 20
700.3945269097
 10
176.0481551649
 20
699.9373489583
 10
176.4291276042
 20
699.0231032986
 10
176.4291276042
 20
698.1088025174
 10
176.0481551649
 20
697.1945017361
 10
175.6672102865
 20
696.7373789063
 10
174.9052929688
 20
696.2802009549
 10
174.1434032118
 20
696.0516671007
 10
172.6195961372
 20
695.823078125
 10
166.1433953993
 20
695.823078125
  0
LWPOLYLINE
  5
29E
100
AcDbEntity
  8
0
100
AcDbPolyline
 62
2
  6
CONTINUOUS
 90
25
 70
0
 43
0.2500000019
 10
450.8769544271
 20
260.5036788194
 10
451.1055434028
 20
262.0274858941
 10
451.3341323785
 20
262.789375651
 10
451.7912552083
 20
263.5512929687
 10
452.2483780382
 20
263.9322378472
 10
453.1626788194
 20
264.3131827257
 10
454.0769796007
 20
264.3131827257
 10
454.9912252604
 20
263.9322378472
 10
455.4484032118
 20
263.5512929687
 10
455.9055260417
 20
262.789375651
 10
456.1341150174
 20
262.0274858941
 10
456.3627039931
 20
260.5036788194
 10
456.3627039931
 20
254.0274780816
 10
456.1341150174
 20
252.5036710069
 10
455.9055260417
 20
251.7417536892
 10
455.4484032118
 20
250.9798639323
 10
454.9912252604
 20
250.5989190538
 10
454.0769796007
 20
250.2179466146
 10
453.1626788194
 20
250.2179466146
 10
452.2483780382
 20
250.5989190538
 10
451.7912552083
 20
250.9798639323
 10
451.3341323785
 20
251.7417536892
 10
451.1055434028
 20
252.5036710069
 10
450.8769544271
 20
254.0274780816
 10
450.8769544271
 20
260.5036788194
  0
LWPOLYLINE
  5
29F
100
AcDbEntity
  8
0
100
AcDbPolyline
 62
2
  6
CONTINUOUS
 90
25
 70
0
 43
0.2500000019
 10
459.1055512153
 20
260.5036788194
 10
459.3340850694
 20
262.0274858941
 10
459.5626740451
 20
262.789375651
 10
460.019796875
 20
263.5512929687
 10
460.4769748264
 20
263.9322378472
 10
461.3912756076
 20
264.3131827257
 10
462.3055212674
 20
264.3131827257
 10
463.2198220486
 20
263.9322378472
 10
463.6769448785
 20
263.5512929687
 10
464.1341228299
 20
262.789375651
 10
464.362656684
 20
262.0274858941
 10
464.5912456597
 20
260.5036788194
 10
464.5912456597
 20
254.0274780816
 10
464.362656684
 20
252.5036710069
 10
464.1341228299
 20
251.7417536892
 10
463.6769448785
 20
250.9798639323
 10
463.2198220486
 20
250.5989190538
 10
462.3055212674
 20
250.2179466146
 10
461.3912756076
 20
250.2179466146
 10
460.4769748264
 20
250.5989190538
 10
460.019796875
 20
250.9798639323
 10
459.5626740451
 20
251.7417536892
 10
459.3340850694
 20
252.5036710069
 10
459.1055512153
 20
254.0274780816
 10
459.1055512153
 20
260.5036788194
  0
LINE
  5
2A0
100
AcDbEntity
  8
0
100
AcDbLine
 62
7
  6
CONTINUOUS
 10
695.0311702799
 20
656.7051427583
 11
953.8061848285
 21
657.9585406715
  0
LINE
  5
2A1
100
AcDbEntity
  8
0
100
AcDbLine
 62
7
  6
CONTINUOUS
 10
694.9912509208
 20
662.6570037754
 11
1049.3428366663
 21
662.6570037754
  0
LWPOLYLINE
  5
2A2
100
AcDbEntity
  8
0
100
AcDbPolyline
 62
2
  6
CONTINUOUS
 90
25
 70
0
 43
0.2500000019
 10
635.8769835069
 20
850.7184296875
 10
635.8769835069
 20
843.8613116319
 10
636.1055173611
 20
842.718421875
 10
636.3341063368
 20
841.9565321181
 10
636.7912291667
 20
841.1946423611
 10
637.2484071181
 20
840.8136974826
 10
638.1626527778
 20
840.4327526042
 10
639.076953559
 20
840.4327526042
 10
639.9912543403
 20
840.8136974826
 10
640.4483771701
 20
841.1946423611
 10
640.9055551215
 20
841.9565321181
 10
641.1340889757
 20
842.718421875
 10
641.3626779514
 20
843.8613116319
 10
641.3626779514
 20
845.3850911458
 10
641.1340889757
 20
846.5279809028
 10
640.9055551215
 20
847.2898706597
 10
640.4483771701
 20
848.0517604167
 10
639.9912543403
 20
848.4327604167
 10
639.076953559
 20
848.8137052951
 10
638.1626527778
 20
848.8137052951
 10
637.2484071181
 20
848.4327604167
 10
636.7912291667
 20
848.0517604167
 10
636.3341063368
 20
847.2898706597
 10
636.1055173611
 20
846.5279809028
 10
635.8769835069
 20
845.3850911458
  0
LWPOLYLINE
  5
2A3
100
AcDbEntity
  8
0
100
AcDbPolyline
 62
2
  6
CONTINUOUS
 90
25
 70
0
 43
0.2500000019
 10
644.1055251736
 20
850.7184296875
 10
644.3341141493
 20
852.2422643229
 10
644.562703125
 20
853.0041540799
 10
645.0198259549
 20
853.7660438368
 10
645.4769487847
 20
854.1470438368
 10
646.391249566
 20
854.5279887153
 10
647.3055503472
 20
854.5279887153
 10
648.2197960069
 20
854.1470438368
 10
648.6769739583
 20
853.7660438368
 10
649.1340967882
 20
853.0041540799
 10
649.3626857639
 20
852.2422643229
 10
649.5912747396
 20
850.7184296875
 10
649.5912747396
 20
844.2422565104
 10
649.3626857639
 20
842.718421875
 10
649.1340967882
 20
841.9565321181
 10
648.6769739583
 20
841.1946423611
 10
648.2197960069
 20
840.8136974826
 10
647.3055503472
 20
840.4327526042
 10
646.391249566
 20
840.4327526042
 10
645.4769487847
 20
840.8136974826
 10
645.0198259549
 20
841.1946423611
 10
644.562703125
 20
841.9565321181
 10
644.3341141493
 20
842.718421875
 10
644.1055251736
 20
844.2422565104
 10
644.1055251736
 20
850.7184296875
  0
LINE
  5
2A4
100
AcDbEntity
  8
0
100
AcDbLine
 62
7
  6
CONTINUOUS
 10
674.9912509208
 20
753.5124944928
 11
682.9690923195
 21
753.551135819
  0
LINE
  5
2A5
100
AcDbEntity
  8
0
100
AcDbLine
 62
7
  6
CONTINUOUS
 10
642.4912509208
 20
726.7087970592
 11
267.4912509208
 21
726.7087970592
  0
LINE
  5
2A6
100
AcDbEntity
  8
0
100
AcDbLine
 62
7
  6
CONTINUOUS
 10
240.9912509208
 20
753.5125911648
 11
674.9912509208
 21
753.5125911648
  0
LINE
  5
2A7
100
AcDbEntity
  8
0
100
AcDbLine
 62
7
  6
CONTINUOUS
 10
682.9690923195
 20
753.551135819
 11
685.7482508227
 21
753.551135819
  0
LINE
  5
2A8
100
AcDbEntity
  8
0
100
AcDbLine
 62
7
  6
CONTINUOUS
 10
688.9394576371
 20
756.0603828047
 11
1038.9912509208
 21
756.0603828047
  0
LINE
  5
2A9
100
AcDbEntity
  8
0
100
AcDbLine
 62
7
  6
CONTINUOUS
 10
654.9912509208
 20
339.2087970592
 11
654.9912509208
 21
714.2087970592
  0
LINE
  5
2AA
100
AcDbEntity
  8
0
100
AcDbLine
 62
7
  6
CONTINUOUS
 10
682.9690923195
 20
753.551135819
 11
682.9690923195
 21
668.7087970592
  0
LINE
  5
2AB
100
AcDbEntity
  8
0
100
AcDbLine
 62
7
  6
CONTINUOUS
 10
684.3805593777
 20
332.7087970592
 11
684.3805593777
 21
412.7087970592
  0
LINE
  5
2AC
100
AcDbEntity
  8
0
100
AcDbLine
 62
7
  6
CONTINUOUS
 10
684.3805593777
 20
436.7087970592
 11
684.3805593777
 21
516.7087970592
  0
LINE
  5
2AD
100
AcDbEntity
  8
0
100
AcDbLine
 62
7
  6
CONTINUOUS
 10
684.3805593777
 20
540.7087970592
 11
684.3805593777
 21
620.7087970592
  0
LINE
  5
2AE
100
AcDbEntity
  8
0
100
AcDbLine
 62
7
  6
CONTINUOUS
 10
688.7770421976
 20
620.7087970592
 11
688.7770421976
 21
540.7087970592
  0
LINE
  5
2AF
100
AcDbEntity
  8
0
100
AcDbLine
 62
7
  6
CONTINUOUS
 10
688.7770421976
 20
516.7087970592
 11
688.7770421976
 21
436.7087970592
  0
LINE
  5
2B0
100
AcDbEntity
  8
0
100
AcDbLine
 62
7
  6
CONTINUOUS
 10
688.7770421976
 20
412.7087970592
 11
688.7770421976
 21
332.7087970592
  0
LINE
  5
2B1
100
AcDbEntity
  8
0
100
AcDbLine
 62
7
  6
CONTINUOUS
 10
688.9394576371
 20
668.7087970592
 11
688.9394576371
 21
756.0603828047
  0
LINE
  5
2B2
100
AcDbEntity
  8
0
100
AcDbLine
 62
7
  6
CONTINUOUS
 10
685.7482508227
 20
753.551135819
 11
687.0600723955
 21
754.8629573918
  0
LINE
  5
2B3
100
AcDbEntity
  8
0
100
AcDbLine
 62
7
  6
CONTINUOUS
 10
219.9912509208
 20
771.6943635097
 11
1059.9912509208
 21
771.6943635097
  0
LINE
  5
2B4
100
AcDbEntity
  8
0
100
AcDbLine
 62
7
  6
CONTINUOUS
 10
219.9912509208
 20
776.7087970592
 11
1059.9912509208
 21
776.7087970592
  0
LWPOLYLINE
  5
2B5
100
AcDbEntity
  8
0
100
AcDbPolyline
 62
2
  6
CONTINUOUS
 90
22
 70
0
 43
0.2500000019
 10
342.0912569444
 20
823.9677868924
 10
337.0626853299
 20
823.9677868924
 10
337.0626853299
 20
818.6344483507
 10
337.7483971354
 20
819.0154483507
 10
338.8912317708
 20
819.3963932292
 10
339.8055325521
 20
819.3963932292
 10
340.7198333333
 20
819.0154483507
 10
341.1769561632
 20
818.6344483507
 10
341.6341341146
 20
817.8725585938
 10
341.8626679687
 20
817.1106688368
 10
342.0912569444
 20
815.5868342014
 10
342.0912569444
 20
814.0630546875
 10
341.8626679687
 20
812.5392200521
 10
341.6341341146
 20
811.7773302951
 10
341.1769561632
 20
811.0154405382
 10
340.7198333333
 20
810.6344956597
 10
339.8055325521
 20
810.2534956597
 10
338.8912317708
 20
810.2534956597
 10
337.9769861111
 20
810.6344956597
 10
337.5198081597
 20
811.0154405382
 10
337.0626853299
 20
811.7773302951
 10
336.6055625
 20
812.9201649306
  0
LWPOLYLINE
  5
2B6
100
AcDbEntity
  8
0
100
AcDbPolyline
 62
2
  6
CONTINUOUS
 90
11
 70
0
 43
0.2500000019
 10
641.3626779514
 20
851.8613194444
 10
640.9055551215
 20
853.0041540799
 10
640.4483771701
 20
853.7660438368
 10
639.9912543403
 20
854.1470438368
 10
639.076953559
 20
854.5279887153
 10
638.1626527778
 20
854.5279887153
 10
637.2484071181
 20
854.1470438368
 10
636.7912291667
 20
853.7660438368
 10
636.3341063368
 20
853.0041540799
 10
636.1055173611
 20
852.2422643229
 10
635.8769835069
 20
850.7184296875
  0
LWPOLYLINE
  5
2B7
100
AcDbEntity
  8
0
100
AcDbPolyline
 62
2
  6
CONTINUOUS
 90
43
 70
0
 43
0.2500000019
 10
629.7055221354
 20
847.6708155382
 10
628.7912764757
 20
848.0517604167
 10
628.3340985243
 20
848.4327604167
 10
628.1055095486
 20
848.8137052951
 10
627.8769756944
 20
849.5755950521
 10
627.6483867187
 20
850.7184296875
 10
627.6483867187
 20
851.480374566
 10
627.8769756944
 20
852.6232092014
 10
628.1055095486
 20
853.3850989583
 10
628.3340985243
 20
853.7660438368
 10
628.7912764757
 20
854.1470438368
 10
629.9341111111
 20
854.5279887153
 10
630.8484118924
 20
854.5279887153
 10
631.9912465278
 20
854.1470438368
 10
632.4483693576
 20
853.7660438368
 10
632.6769583333
 20
853.3850989583
 10
632.905547309
 20
852.6232092014
 10
633.1340811632
 20
851.480374566
 10
633.1340811632
 20
850.7184296875
 10
632.905547309
 20
849.5755950521
 10
632.6769583333
 20
848.8137052951
 10
632.4483693576
 20
848.4327604167
 10
631.0769457465
 20
847.6708155382
 10
629.7055221354
 20
847.6708155382
 10
628.7912764757
 20
847.2898706597
 10
628.3340985243
 20
846.9089257812
 10
627.8769756944
 20
846.1470360243
 10
627.6483867187
 20
845.0041462674
 10
627.6483867187
 20
843.099421875
 10
627.8769756944
 20
841.9565321181
 10
628.3340985243
 20
841.1946423611
 10
628.7912764757
 20
840.8136974826
 10
629.7055221354
 20
840.4327526042
 10
631.0769457465
 20
840.4327526042
 10
631.9912465278
 20
840.8136974826
 10
632.4483693576
 20
841.1946423611
 10
632.905547309
 20
841.9565321181
 10
633.1340811632
 20
843.099421875
 10
633.1340811632
 20
845.0041462674
 10
632.905547309
 20
846.1470360243
 10
632.4483693576
 20
846.9089257812
 10
631.9912465278
 20
847.2898706597
 10
631.0769457465
 20
847.6708155382
  0
LINE
  5
2B8
100
AcDbEntity
  8
0
100
AcDbLine
 62
7
  6
CONTINUOUS
 10
788.3770737902
 20
332.7087970592
 11
788.3770737902
 21
412.7087970592
  0
LINE
  5
2B9
100
AcDbEntity
  8
0
100
AcDbLine
 62
7
  6
CONTINUOUS
 10
788.3770737902
 20
436.7087970592
 11
788.3770737902
 21
516.7087970592
  0
LINE
  5
2BA
100
AcDbEntity
  8
0
100
AcDbLine
 62
7
  6
CONTINUOUS
 10
788.3770737902
 20
540.7087970592
 11
788.3770737902
 21
620.7087970592
  0
LINE
  5
2BB
100
AcDbEntity
  8
0
100
AcDbLine
 62
7
  6
CONTINUOUS
 10
792.8400888753
 20
620.7087970592
 11
792.8400888753
 21
540.7087970592
  0
LINE
  5
2BC
100
AcDbEntity
  8
0
100
AcDbLine
 62
7
  6
CONTINUOUS
 10
792.8400888753
 20
516.7087970592
 11
792.8400888753
 21
436.7087970592
  0
LINE
  5
2BD
100
AcDbEntity
  8
0
100
AcDbLine
 62
7
  6
CONTINUOUS
 10
792.8400888753
 20
412.7087970592
 11
792.8400888753
 21
332.7087970592
  0
LINE
  5
2BE
100
AcDbEntity
  8
0
100
AcDbLine
 62
7
  6
CONTINUOUS
 10
803.3700237406
 20
332.7087970592
 11
803.3700237406
 21
412.7087970592
  0
LINE
  5
2BF
100
AcDbEntity
  8
0
100
AcDbLine
 62
7
  6
CONTINUOUS
 10
803.3700237406
 20
436.7087970592
 11
803.3700237406
 21
516.7087970592
  0
LINE
  5
2C0
100
AcDbEntity
  8
0
100
AcDbLine
 62
7
  6
CONTINUOUS
 10
803.3700237406
 20
540.7087970592
 11
803.3700237406
 21
620.7087970592
  0
LINE
  5
2C1
100
AcDbEntity
  8
0
100
AcDbLine
 62
7
  6
CONTINUOUS
 10
807.7665065605
 20
620.7087970592
 11
807.7665065605
 21
540.7087970592
  0
LINE
  5
2C2
100
AcDbEntity
  8
0
100
AcDbLine
 62
7
  6
CONTINUOUS
 10
807.7665065605
 20
516.7087970592
 11
807.7665065605
 21
436.7087970592
  0
LINE
  5
2C3
100
AcDbEntity
  8
0
100
AcDbLine
 62
7
  6
CONTINUOUS
 10
807.7665065605
 20
412.7087970592
 11
807.7665065605
 21
332.7087970592
  0
LINE
  5
2C4
100
AcDbEntity
  8
0
100
AcDbLine
 62
7
  6
CONTINUOUS
 10
907.3665381531
 20
332.7087970592
 11
907.3665381531
 21
412.7087970592
  0
LINE
  5
2C5
100
AcDbEntity
  8
0
100
AcDbLine
 62
7
  6
CONTINUOUS
 10
907.3665381531
 20
436.7087970592
 11
907.3665381531
 21
516.7087970592
  0
LINE
  5
2C6
100
AcDbEntity
  8
0
100
AcDbLine
 62
7
  6
CONTINUOUS
 10
907.3665381531
 20
540.7087970592
 11
907.3665381531
 21
620.7087970592
  0
LINE
  5
2C7
100
AcDbEntity
  8
0
100
AcDbLine
 62
7
  6
CONTINUOUS
 10
911.8295532382
 20
620.7087970592
 11
911.8295532382
 21
540.7087970592
  0
LINE
  5
2C8
100
AcDbEntity
  8
0
100
AcDbLine
 62
7
  6
CONTINUOUS
 10
911.8295532382
 20
516.7087970592
 11
911.8295532382
 21
436.7087970592
  0
LINE
  5
2C9
100
AcDbEntity
  8
0
100
AcDbLine
 62
7
  6
CONTINUOUS
 10
911.8295532382
 20
412.7087970592
 11
911.8295532382
 21
332.7087970592
  0
LINE
  5
2CA
100
AcDbEntity
  8
0
100
AcDbLine
 62
7
  6
CONTINUOUS
 10
922.3594881035
 20
332.7087970592
 11
922.3594881035
 21
412.7087970592
  0
LINE
  5
2CB
100
AcDbEntity
  8
0
100
AcDbLine
 62
7
  6
CONTINUOUS
 10
922.3594881035
 20
436.7087970592
 11
922.3594881035
 21
516.7087970592
  0
LINE
  5
2CC
100
AcDbEntity
  8
0
100
AcDbLine
 62
7
  6
CONTINUOUS
 10
922.3594881035
 20
540.7087970592
 11
922.3594881035
 21
620.7087970592
  0
LINE
  5
2CD
100
AcDbEntity
  8
0
100
AcDbLine
 62
7
  6
CONTINUOUS
 10
926.7559709234
 20
620.7087970592
 11
926.7559709234
 21
540.7087970592
  0
LINE
  5
2CE
100
AcDbEntity
  8
0
100
AcDbLine
 62
7
  6
CONTINUOUS
 10
926.7559709234
 20
516.7087970592
 11
926.7559709234
 21
436.7087970592
  0
LINE
  5
2CF
100
AcDbEntity
  8
0
100
AcDbLine
 62
7
  6
CONTINUOUS
 10
926.7559709234
 20
412.7087970592
 11
926.7559709234
 21
332.7087970592
  0
LINE
  5
2D0
100
AcDbEntity
  8
0
100
AcDbLine
 62
7
  6
CONTINUOUS
 10
1026.356002516
 20
332.7087970592
 11
1026.356002516
 21
412.7087970592
  0
LINE
  5
2D1
100
AcDbEntity
  8
0
100
AcDbLine
 62
7
  6
CONTINUOUS
 10
1026.356002516
 20
436.7087970592
 11
1026.356002516
 21
516.7087970592
  0
LINE
  5
2D2
100
AcDbEntity
  8
0
100
AcDbLine
 62
7
  6
CONTINUOUS
 10
1026.356002516
 20
540.7087970592
 11
1026.356002516
 21
620.7087970592
  0
LINE
  5
2D3
100
AcDbEntity
  8
0
100
AcDbLine
 62
7
  6
CONTINUOUS
 10
1030.8190176012
 20
620.7087970592
 11
1030.8190176012
 21
540.7087970592
  0
LINE
  5
2D4
100
AcDbEntity
  8
0
100
AcDbLine
 62
7
  6
CONTINUOUS
 10
1030.8190176012
 20
516.7087970592
 11
1030.8190176012
 21
436.7087970592
  0
LINE
  5
2D5
100
AcDbEntity
  8
0
100
AcDbLine
 62
7
  6
CONTINUOUS
 10
1030.8190176012
 20
412.7087970592
 11
1030.8190176012
 21
332.7087970592
  0
LINE
  5
2D6
100
AcDbEntity
  8
0
100
AcDbLine
 62
7
  6
CONTINUOUS
 10
1049.3428366663
 20
745.7087970592
 11
1049.3428366663
 21
662.6570037754
  0
LINE
  5
2D7
100
AcDbEntity
  8
0
100
AcDbLine
 62
7
  6
CONTINUOUS
 10
1064.9768173714
 20
766.7087970592
 11
1064.9768173714
 21
286.7087970592
  0
LINE
  5
2D8
100
AcDbEntity
  8
0
100
AcDbLine
 62
7
  6
CONTINUOUS
 10
1069.9912509208
 20
766.7087970592
 11
1069.9912509208
 21
286.7087970592
  0
LWPOLYLINE
  5
2D9
100
AcDbEntity
  8
0
100
AcDbPolyline
 62
2
  6
CONTINUOUS
 90
22
 70
0
 43
0.2500000019
 10
1082.8943836806
 20
519.8516796875
 10
1082.8943836806
 20
514.8231080729
 10
1088.2277222222
 20
514.8231080729
 10
1087.8467222222
 20
515.5088198785
 10
1087.4658324653
 20
516.6516545139
 10
1087.4658324653
 20
517.5659552951
 10
1087.8467222222
 20
518.4802009549
 10
1088.2277222222
 20
518.9373789062
 10
1088.9896119792
 20
519.3945017361
 10
1089.7515017361
 20
519.6230907118
 10
1091.2753914931
 20
519.8516796875
 10
1092.7991710069
 20
519.8516796875
 10
1094.3229505208
 20
519.6230907118
 10
1095.0848402778
 20
519.3945017361
 10
1095.8467300347
 20
518.9373789062
 10
1096.2277300347
 20
518.4802009549
 10
1096.6086197917
 20
517.5659552951
 10
1096.6086197917
 20
516.6516545139
 10
1096.2277300347
 20
515.7373537326
 10
1095.8467300347
 20
515.2802309028
 10
1095.0848402778
 20
514.8231080729
 10
1093.9419505208
 20
514.3659301215
  0
LWPOLYLINE
  5
2DA
100
AcDbEntity
  8
0
100
AcDbPolyline
 62
2
  6
CONTINUOUS
 90
22
 70
0
 43
0.2500000019
 10
162.1697947049
 20
1153.9022664931
 10
162.1697947049
 20
1148.8736397569
 10
167.5031332465
 20
1148.8736397569
 10
167.1221883681
 20
1149.5593515625
 10
166.7412159288
 20
1150.7022413194
 10
166.7412159288
 20
1151.6164869792
 10
167.1221883681
 20
1152.5308428819
 10
167.5031332465
 20
1152.9879105903
 10
168.2650230035
 20
1153.4450885417
 10
169.0269403212
 20
1153.6736223958
 10
170.5507473958
 20
1153.9022664931
 10
172.0745544705
 20
1153.9022664931
 10
173.5983615451
 20
1153.6736223958
 10
174.3602788628
 20
1153.4450885417
 10
175.1221686198
 20
1152.9879105903
 10
175.503141059
 20
1152.5308428819
 10
175.8840859375
 20
1151.6164869792
 10
175.8840859375
 20
1150.7022413194
 10
175.503141059
 20
1149.7879956597
 10
175.1221686198
 20
1149.3308177083
 10
174.3602788628
 20
1148.8736397569
 10
173.2174166667
 20
1148.4164618056
  0
LINE
  5
2DB
100
AcDbEntity
  8
0
100
AcDbLine
 62
7
  6
CONTINUOUS
 10
209.977663119
 20
1250.2022293796
 11
209.977663119
 21
1249.2022293796
  0
LINE
  5
2DC
100
AcDbEntity
  8
0
100
AcDbLine
 62
7
  6
CONTINUOUS
 10
213.7340908166
 20
1251.5191879321
 11
213.0858483404
 21
1250.5209820551
  0
LINE
  5
2DD
100
AcDbEntity
  8
0
100
AcDbLine
 62
7
  6
CONTINUOUS
 10
241.977663119
 20
1236.4022293796
 11
241.977663119
 21
1237.2022293796
  0
LINE
  5
2DE
100
AcDbEntity
  8
0
100
AcDbLine
 62
7
  6
CONTINUOUS
 10
254.177663119
 20
1052.2022327293
 11
254.177663119
 21
1235.4022293796
  0
LINE
  5
2DF
100
AcDbEntity
  8
0
100
AcDbLine
 62
7
  6
CONTINUOUS
 10
267.814663119
 20
1236.4022293796
 11
267.814663119
 21
1237.2022293796
  0
LINE
  5
2E0
100
AcDbEntity
  8
0
100
AcDbLine
 62
7
  6
CONTINUOUS
 10
226.0053960493
 20
1249.2022293796
 11
229.4150985302
 21
1239.8341488063
  0
LINE
  5
2E1
100
AcDbEntity
  8
0
100
AcDbLine
 62
7
  6
CONTINUOUS
 10
393.5667649059
 20
1031.203157381
 11
393.5035149106
 21
1031.2408090906
  0
LINE
  5
2E2
100
AcDbEntity
  8
0
100
AcDbLine
 62
7
  6
CONTINUOUS
 10
396.9268890446
 20
1029.1030650629
 11
393.5667559463
 21
1031.2031482493
  0
LINE
  5
2E3
100
AcDbEntity
  8
0
100
AcDbLine
 62
7
  6
CONTINUOUS
 10
409.7706078829
 20
1025.5801238132
 11
397.4150128554
 21
1028.8907955228
  0
LWPOLYLINE
  5
2E4
100
AcDbEntity
  8
0
100
AcDbPolyline
 62
2
  6
CONTINUOUS
 90
3
 70
0
 43
0.2500000019
 10
164.074546658
 20
1142.2450555556
 10
162.1697947049
 20
1142.9307673611
 10
175.8840859375
 20
1142.9307673611
  0
LWPOLYLINE
  5
2E5
100
AcDbEntity
  8
0
100
AcDbPolyline
 62
7
  6
CONTINUOUS
 90
10
 70
0
 10
392.8093251132
 20
1031.4554781041
 10
392.8619239162
 20
1031.4501983759
 10
392.9439944954
 20
1031.4386331523
 10
393.0301583126
 20
1031.4220444022
 10
393.1205532356
 20
1031.3995960325
 10
393.2120600982
 20
1031.371391873
 10
393.3048573928
 20
1031.3368568104
 10
393.3982981643
 20
1031.2956382651
 10
393.4914732618
 20
1031.2475641897
 10
393.5035149106
 20
1031.2408090906
  0
LWPOLYLINE
  5
2E6
100
AcDbEntity
  8
0
100
AcDbPolyline
 62
2
  6
CONTINUOUS
 90
17
 70
0
 43
0.2500000019
 10
164.8364639757
 20
1131.9593784722
 10
163.312656901
 20
1132.4165564236
 10
162.5507395833
 20
1132.8736241319
 10
162.1697947049
 20
1133.3308020833
 10
161.7888498264
 20
1134.2450477431
 10
161.7888498264
 20
1135.1594036458
 10
162.1697947049
 20
1136.0736493056
 10
162.5507395833
 20
1136.5308272569
 10
163.312656901
 20
1136.9878949653
 10
164.074546658
 20
1137.2165390625
 10
165.2174088542
 20
1137.4450729167
 10
165.5983812934
 20
1137.4450729167
 10
166.7412159288
 20
1137.2165390625
 10
173.9793339844
 20
1132.4165564236
 10
174.7412237413
 20
1132.1879123264
 10
175.8840859375
 20
1131.9593784722
 10
175.8840859375
 20
1137.4450729167
  0
LINE
  5
2E7
100
AcDbEntity
  8
0
100
AcDbLine
 62
7
  6
CONTINUOUS
 10
517.0099912899
 20
1031.4384087324
 11
517.0894772613
 21
1031.4497365239
  0
LINE
  5
2E8
100
AcDbEntity
  8
0
100
AcDbLine
 62
7
  6
CONTINUOUS
 10
517.0894772613
 20
1031.4497365239
 11
517.1459950191
 21
1031.4554762261
  0
LWPOLYLINE
  5
2E9
100
AcDbEntity
  8
0
100
AcDbPolyline
 62
7
  6
CONTINUOUS
 90
7
 70
0
 10
517.1459825029
 20
1031.4554653382
 10
535.854194541
 20
1032.9128656705
 10
555.6970920325
 20
1034.1814389167
 10
575.5305702375
 20
1035.1642221601
 10
595.3484438211
 20
1035.8614432653
 10
615.1445273817
 20
1036.2736906918
 10
628.9778960205
 20
1036.3681052958
  0
LINE
  5
2EA
100
AcDbEntity
  8
0
100
AcDbLine
 62
7
  6
CONTINUOUS
 10
500.1847183551
 20
1025.5801238132
 11
409.7706078829
 21
1025.5801238132
  0
LINE
  5
2EB
100
AcDbEntity
  8
0
100
AcDbLine
 62
7
  6
CONTINUOUS
 10
269.977663119
 20
1036.4022293796
 11
639.977663119
 21
1036.4022293796
  0
LWPOLYLINE
  5
2EC
100
AcDbEntity
  8
0
100
AcDbPolyline
 62
7
  6
CONTINUOUS
 90
7
 70
0
 10
280.9774302175
 20
1036.3681052958
 10
294.8107988575
 20
1036.2736906918
 10
314.6068824187
 20
1035.8614432652
 10
334.4247560025
 20
1035.16422216
 10
354.2582342073
 20
1034.1814389166
 10
374.1011316982
 20
1032.9128656704
 10
392.8093456703
 20
1031.4554651744
  0
LINE
  5
2ED
100
AcDbEntity
  8
0
100
AcDbLine
 62
7
  6
CONTINUOUS
 10
500.1847183551
 20
1025.5801238132
 11
512.5403133826
 21
1028.8907955228
  0
LINE
  5
2EE
100
AcDbEntity
  8
0
100
AcDbLine
 62
7
  6
CONTINUOUS
 10
642.140663119
 20
1236.4022293796
 11
642.140663119
 21
1237.2022293796
  0
LINE
  5
2EF
100
AcDbEntity
  8
0
100
AcDbLine
 62
7
  6
CONTINUOUS
 10
655.777663119
 20
1052.2022293796
 11
655.777663119
 21
1235.4022293796
  0
LINE
  5
2F0
100
AcDbEntity
  8
0
100
AcDbLine
 62
7
  6
CONTINUOUS
 10
667.977663119
 20
1236.4022293796
 11
667.977663119
 21
1237.2022293796
  0
LINE
  5
2F1
100
AcDbEntity
  8
0
100
AcDbLine
 62
7
  6
CONTINUOUS
 10
513.0284371935
 20
1029.1030650629
 11
516.3885702917
 21
1031.2031482493
  0
LINE
  5
2F2
100
AcDbEntity
  8
0
100
AcDbLine
 62
7
  6
CONTINUOUS
 10
516.3885694298
 20
1031.2031492134
 11
516.4496716064
 21
1031.2395827481
  0
LWPOLYLINE
  5
2F3
100
AcDbEntity
  8
0
100
AcDbPolyline
 62
7
  6
CONTINUOUS
 90
3
 70
0
 10
516.4496660346
 20
1031.2395897759
 10
516.5317928749
 20
1031.2833293371
 10
516.6310731241
 20
1031.3288463889
  0
LINE
  5
2F4
100
AcDbEntity
  8
0
100
AcDbLine
 62
7
  6
CONTINUOUS
 10
516.6310731241
 20
1031.3288463889
 11
516.7293653152
 21
1031.3666057525
  0
LWPOLYLINE
  5
2F5
100
AcDbEntity
  8
0
100
AcDbPolyline
 62
7
  6
CONTINUOUS
 90
4
 70
0
 10
516.7293653152
 20
1031.3666057525
 10
516.8263111368
 20
1031.3972214299
 10
516.9197517186
 20
1031.4208449997
 10
517.0099912899
 20
1031.4384087324
  0
LWPOLYLINE
  5
2F6
100
AcDbEntity
  8
0
100
AcDbPolyline
 62
7
  6
CONTINUOUS
 90
25
 70
0
 10
1047.0466674034
 20
1242.1534979369
 10
1047.374158184
 20
1242.1664082446
 10
1047.7004964623
 20
1242.1963131531
 10
1048.0248033916
 20
1242.2430582597
 10
1048.3462301505
 20
1242.306494285
 10
1048.6639245392
 20
1242.3864757225
 10
1048.9770174553
 20
1242.482855444
 10
1049.2846609375
 20
1242.5954289703
 10
1049.586066766
 20
1242.7238283325
 10
1049.8804503831
 20
1242.8676556196
 10
1050.1670390991
 20
1243.0265214046
 10
1050.4450621729
 20
1243.2000427667
 10
1050.7137165292
 20
1243.3878191526
 10
1050.9722615889
 20
1243.5893936471
 10
1051.2200243285
 20
1243.8041477089
 10
1051.4563534808
 20
1244.0314469675
 10
1051.680603549
 20
1244.2706569329
 10
1051.8921337738
 20
1244.5211434099
 10
1052.0902966657
 20
1244.7822547498
 10
1052.2745351511
 20
1245.0532793392
 10
1052.4444205259
 20
1245.3334131365
 10
1052.5995383089
 20
1245.6218403807
 10
1052.7394855568
 20
1245.9177556398
 10
1052.8638589283
 20
1246.2203413564
 10
1052.8966717077
 20
1246.308437152
  0
LINE
  5
2F7
100
AcDbEntity
  8
0
100
AcDbLine
 62
7
  6
CONTINUOUS
 10
1047.3574856928
 20
1242.1576341921
 11
674.9843166401
 21
1237.2022293796
  0
LINE
  5
2F8
100
AcDbEntity
  8
0
100
AcDbLine
 62
7
  6
CONTINUOUS
 10
667.977663119
 20
1236.4022293796
 11
241.977663119
 21
1236.4022293796
  0
LINE
  5
2F9
100
AcDbEntity
  8
0
100
AcDbLine
 62
7
  6
CONTINUOUS
 10
674.9843166401
 20
1237.2022293796
 11
233.1738690134
 21
1237.2022293796
  0
LINE
  5
2FA
100
AcDbEntity
  8
0
100
AcDbLine
 62
7
  6
CONTINUOUS
 10
1069.977663119
 20
1249.2022293796
 11
209.977663119
 21
1249.2022293796
  0
LINE
  5
2FB
100
AcDbEntity
  8
06___PRT_ALL_SURFS
100
AcDbLine
 62
7
  6
CONTINUOUS
 10
1069.977663119
 20
1250.2022293796
 11
209.977663119
 21
1250.2022293796
  0
LINE
  5
2FC
100
AcDbEntity
  8
0
100
AcDbLine
 62
7
  6
CONTINUOUS
 10
1064.9632295696
 20
1252.2022293796
 11
214.9920966685
 21
1252.2022293796
  0
LINE
  5
2FD
100
AcDbEntity
  8
0
100
AcDbLine
 62
7
  6
CONTINUOUS
 10
1053.9499301887
 20
1249.2022293796
 11
1052.8462667691
 21
1246.1699390556
  0
LINE
  5
2FE
100
AcDbEntity
  8
0
100
AcDbLine
 62
7
  6
CONTINUOUS
 10
1052.7901093113
 20
1246.0156477083
 11
1052.8433528728
 21
1246.1619331913
  0
LINE
  5
2FF
100
AcDbEntity
  8
0
100
AcDbLine
 62
7
  6
CONTINUOUS
 10
1069.977663119
 20
1250.2022293796
 11
1069.977663119
 21
1249.2022293796
  0
LINE
  5
300
100
AcDbEntity
  8
0
100
AcDbLine
 62
7
  6
CONTINUOUS
 10
1066.2212354215
 20
1251.5191879321
 11
1066.8694778976
 21
1250.5209820551
  0
LINE
  5
301
100
AcDbEntity
  8
06___PRT_ALL_SURFS
100
AcDbLine
 62
7
  6
CONTINUOUS
 10
1066.2212354215
 20
1251.5191879321
 11
1066.8694778976
 21
1250.5209820551
  0
CIRCLE
  5
302
100
AcDbEntity
  8
0
100
AcDbCircle
 62
7
  6
CONTINUOUS
 10
454.9912509208
 20
606.7087970592
 40
45.0
  0
ARC
  5
303
100
AcDbEntity
  8
0
100
AcDbCircle
 62
7
  6
CONTINUOUS
 10
267.4912509208
 20
339.2087970592
 40
12.5
100
AcDbArc
 50
180.0
 51
270.0
  0
ARC
  5
304
100
AcDbEntity
  8
0
100
AcDbCircle
 62
7
  6
CONTINUOUS
 10
267.4912509208
 20
714.2087970592
 40
12.5
100
AcDbArc
 50
90.0
 51
180.0
  0
ARC
  5
305
100
AcDbEntity
  8
0
100
AcDbCircle
 62
7
  6
CONTINUOUS
 10
219.9912509208
 20
286.7087970592
 40
10.0
100
AcDbArc
 50
180.0
 51
270.0
  0
ARC
  5
306
100
AcDbEntity
  8
0
100
AcDbCircle
 62
7
  6
CONTINUOUS
 10
219.9912509208
 20
766.7087970592
 40
10.0
100
AcDbArc
 50
90.0
 51
180.0
  0
ARC
  5
307
100
AcDbEntity
  8
0
100
AcDbCircle
 62
7
  6
CONTINUOUS
 10
240.9912509208
 20
307.7087970592
 40
7.8037941056
100
AcDbArc
 50
180.0
 51
270.0
  0
ARC
  5
308
100
AcDbEntity
  8
0
100
AcDbCircle
 62
7
  6
CONTINUOUS
 10
240.9912509208
 20
745.7087970592
 40
7.8037941056
100
AcDbArc
 50
90.0
 51
180.0
  0
ARC
  5
309
100
AcDbEntity
  8
0
100
AcDbCircle
 62
7
  6
CONTINUOUS
 10
219.9912509208
 20
286.7087970592
 40
4.9855664505
100
AcDbArc
 50
180.0
 51
270.0
  0
ARC
  5
30A
100
AcDbEntity
  8
0
100
AcDbCircle
 62
7
  6
CONTINUOUS
 10
219.9912509208
 20
766.7087970592
 40
4.9855664505
100
AcDbArc
 50
90.0
 51
180.0
  0
ARC
  5
30B
100
AcDbEntity
  8
0
100
AcDbCircle
 62
7
  6
CONTINUOUS
 10
642.4912509208
 20
339.2087970592
 40
12.5
100
AcDbArc
 50
270.0
 51
360.0
  0
ARC
  5
30C
100
AcDbEntity
  8
0
100
AcDbCircle
 62
7
  6
CONTINUOUS
 10
691.1148534485
 20
332.7084833503
 40
6.7342733853
100
AcDbArc
 50
179.9973309459
 51
269.9972440469
  0
ARC
  5
30D
100
AcDbEntity
  8
0
100
AcDbCircle
 62
7
  6
CONTINUOUS
 10
691.1148327566
 20
412.7090900741
 40
6.7342733853
100
AcDbArc
 50
90.0025798964
 51
180.0024929965
  0
ARC
  5
30E
100
AcDbEntity
  8
0
100
AcDbCircle
 62
7
  6
CONTINUOUS
 10
691.1148534485
 20
436.7084833503
 40
6.7342733853
100
AcDbArc
 50
179.9973309459
 51
269.9972440469
  0
ARC
  5
30F
100
AcDbEntity
  8
0
100
AcDbCircle
 62
7
  6
CONTINUOUS
 10
691.1148327566
 20
516.7090900741
 40
6.7342733853
100
AcDbArc
 50
90.0025798964
 51
180.0024929965
  0
ARC
  5
310
100
AcDbEntity
  8
0
100
AcDbCircle
 62
7
  6
CONTINUOUS
 10
786.1057948045
 20
332.7084833503
 40
6.7342733853
100
AcDbArc
 50
270.002755953
 51
0.002669054
  0
ARC
  5
311
100
AcDbEntity
  8
0
100
AcDbCircle
 62
7
  6
CONTINUOUS
 10
786.1058154964
 20
412.7090900741
 40
6.7342733853
100
AcDbArc
 50
359.9975070035
 51
89.9974201036
  0
ARC
  5
312
100
AcDbEntity
  8
0
100
AcDbCircle
 62
7
  6
CONTINUOUS
 10
810.1043178114
 20
332.7084833503
 40
6.7342733853
100
AcDbArc
 50
179.9973309459
 51
269.9972440469
  0
ARC
  5
313
100
AcDbEntity
  8
0
100
AcDbCircle
 62
7
  6
CONTINUOUS
 10
810.1042971195
 20
412.7090900741
 40
6.7342733853
100
AcDbArc
 50
90.0025798964
 51
180.0024929965
  0
ARC
  5
314
100
AcDbEntity
  8
0
100
AcDbCircle
 62
7
  6
CONTINUOUS
 10
810.1043178114
 20
436.7084833503
 40
6.7342733853
100
AcDbArc
 50
179.997330946
 51
269.9972440469
  0
ARC
  5
315
100
AcDbEntity
  8
0
100
AcDbCircle
 62
7
  6
CONTINUOUS
 10
810.1042971195
 20
516.7090900741
 40
6.7342733853
100
AcDbArc
 50
90.0025798964
 51
180.0024929965
  0
ARC
  5
316
100
AcDbEntity
  8
0
100
AcDbCircle
 62
7
  6
CONTINUOUS
 10
786.1057948045
 20
436.7084833503
 40
6.7342733853
100
AcDbArc
 50
270.002755953
 51
0.002669054
  0
ARC
  5
317
100
AcDbEntity
  8
0
100
AcDbCircle
 62
7
  6
CONTINUOUS
 10
786.1058154964
 20
516.7090900741
 40
6.7342733853
100
AcDbArc
 50
359.9975070035
 51
89.9974201036
  0
ARC
  5
318
100
AcDbEntity
  8
0
100
AcDbCircle
 62
7
  6
CONTINUOUS
 10
691.081372491
 20
332.7086879718
 40
2.3043232153
100
AcDbArc
 50
179.9972876083
 51
269.9972873845
  0
ARC
  5
319
100
AcDbEntity
  8
0
100
AcDbCircle
 62
7
  6
CONTINUOUS
 10
691.0813654107
 20
412.7088990655
 40
2.3043232153
100
AcDbArc
 50
90.0025365588
 51
180.0025363342
  0
ARC
  5
31A
100
AcDbEntity
  8
0
100
AcDbCircle
 62
7
  6
CONTINUOUS
 10
691.081372491
 20
436.7086879718
 40
2.3043232153
100
AcDbArc
 50
179.9972876083
 51
269.9972873845
  0
ARC
  5
31B
100
AcDbEntity
  8
0
100
AcDbCircle
 62
7
  6
CONTINUOUS
 10
691.0813654107
 20
516.7088990655
 40
2.3043232153
100
AcDbArc
 50
90.0025365588
 51
180.0025363342
  0
ARC
  5
31C
100
AcDbEntity
  8
0
100
AcDbCircle
 62
7
  6
CONTINUOUS
 10
786.0727434968
 20
332.7086879718
 40
2.3043232153
100
AcDbArc
 50
270.0027126156
 51
0.0027123918
  0
ARC
  5
31D
100
AcDbEntity
  8
0
100
AcDbCircle
 62
7
  6
CONTINUOUS
 10
786.0727505772
 20
412.7088990655
 40
2.3043232153
100
AcDbArc
 50
359.9974636658
 51
89.9974634412
  0
ARC
  5
31E
100
AcDbEntity
  8
0
100
AcDbCircle
 62
7
  6
CONTINUOUS
 10
810.0708368539
 20
332.7086879718
 40
2.3043232153
100
AcDbArc
 50
179.9972876083
 51
269.9972873845
  0
ARC
  5
31F
100
AcDbEntity
  8
0
100
AcDbCircle
 62
7
  6
CONTINUOUS
 10
810.0708297736
 20
412.7088990655
 40
2.3043232153
100
AcDbArc
 50
90.0025365588
 51
180.0025363342
  0
ARC
  5
320
100
AcDbEntity
  8
0
100
AcDbCircle
 62
7
  6
CONTINUOUS
 10
786.0727434968
 20
436.7086879718
 40
2.3043232153
100
AcDbArc
 50
270.0027126156
 51
0.0027123918
  0
ARC
  5
321
100
AcDbEntity
  8
0
100
AcDbCircle
 62
7
  6
CONTINUOUS
 10
786.0727505772
 20
516.7088990655
 40
2.3043232153
100
AcDbArc
 50
359.9974636658
 51
89.9974634412
  0
ARC
  5
322
100
AcDbEntity
  8
0
100
AcDbCircle
 62
7
  6
CONTINUOUS
 10
810.0708368539
 20
436.7086879718
 40
2.3043232153
100
AcDbArc
 50
179.9972876083
 51
269.9972873845
  0
ARC
  5
323
100
AcDbEntity
  8
0
100
AcDbCircle
 62
7
  6
CONTINUOUS
 10
810.0708297736
 20
516.7088990655
 40
2.3043232153
100
AcDbArc
 50
90.0025365588
 51
180.0025363342
  0
CIRCLE
  5
324
100
AcDbEntity
  8
0
100
AcDbCircle
 62
7
  6
CONTINUOUS
 10
734.9912509208
 20
709.7087970592
 40
17.5
  0
ARC
  5
325
100
AcDbEntity
  8
0
100
AcDbCircle
 62
7
  6
CONTINUOUS
 10
642.4912509208
 20
714.2087970592
 40
12.5
100
AcDbArc
 50
0.0
 51
90.0
  0
ARC
  5
326
100
AcDbEntity
  8
0
100
AcDbCircle
 62
7
  6
CONTINUOUS
 10
694.9729586992
 20
668.7088679916
 40
12.0038663799
100
AcDbArc
 50
180.0003385685
 51
270.2778513907
  0
ARC
  5
327
100
AcDbEntity
  8
0
100
AcDbCircle
 62
7
  6
CONTINUOUS
 10
691.1148534485
 20
540.7084833503
 40
6.7342733853
100
AcDbArc
 50
179.9973309459
 51
269.9972440469
  0
ARC
  5
328
100
AcDbEntity
  8
0
100
AcDbCircle
 62
7
  6
CONTINUOUS
 10
786.1057948045
 20
540.7084833503
 40
6.7342733853
100
AcDbArc
 50
270.002755953
 51
0.0026690539
  0
ARC
  5
329
100
AcDbEntity
  8
0
100
AcDbCircle
 62
7
  6
CONTINUOUS
 10
786.1058154964
 20
620.7090900741
 40
6.7342733853
100
AcDbArc
 50
359.9975070035
 51
89.9974201036
  0
ARC
  5
32A
100
AcDbEntity
  8
0
100
AcDbCircle
 62
7
  6
CONTINUOUS
 10
691.1148327566
 20
620.7090900741
 40
6.7342733853
100
AcDbArc
 50
90.0025798964
 51
180.0024929965
  0
ARC
  5
32B
100
AcDbEntity
  8
0
100
AcDbCircle
 62
7
  6
CONTINUOUS
 10
810.1043178114
 20
540.7084833503
 40
6.7342733853
100
AcDbArc
 50
179.9973309459
 51
269.9972440469
  0
ARC
  5
32C
100
AcDbEntity
  8
0
100
AcDbCircle
 62
7
  6
CONTINUOUS
 10
810.1042971195
 20
620.7090900741
 40
6.7342733853
100
AcDbArc
 50
90.0025798964
 51
180.0024929965
  0
ARC
  5
32D
100
AcDbEntity
  8
0
100
AcDbCircle
 62
7
  6
CONTINUOUS
 10
694.9912509208
 20
668.7087970592
 40
6.0517932837
100
AcDbArc
 50
180.0
 51
270.0
  0
ARC
  5
32E
100
AcDbEntity
  8
0
100
AcDbCircle
 62
7
  6
CONTINUOUS
 10
810.0708368539
 20
540.7086879718
 40
2.3043232153
100
AcDbArc
 50
179.9972876083
 51
269.9972873845
  0
ARC
  5
32F
100
AcDbEntity
  8
0
100
AcDbCircle
 62
7
  6
CONTINUOUS
 10
810.0708297736
 20
620.7088990655
 40
2.3043232153
100
AcDbArc
 50
90.0025365588
 51
180.0025363342
  0
ARC
  5
330
100
AcDbEntity
  8
0
100
AcDbCircle
 62
7
  6
CONTINUOUS
 10
786.0727434968
 20
540.7086879718
 40
2.3043232153
100
AcDbArc
 50
270.0027126156
 51
0.0027123918
  0
ARC
  5
331
100
AcDbEntity
  8
0
100
AcDbCircle
 62
7
  6
CONTINUOUS
 10
691.081372491
 20
540.7086879718
 40
2.3043232153
100
AcDbArc
 50
179.9972876083
 51
269.9972873845
  0
ARC
  5
332
100
AcDbEntity
  8
0
100
AcDbCircle
 62
7
  6
CONTINUOUS
 10
691.0813654107
 20
620.7088990655
 40
2.3043232153
100
AcDbArc
 50
90.0025365588
 51
180.0025363342
  0
ARC
  5
333
100
AcDbEntity
  8
0
100
AcDbCircle
 62
7
  6
CONTINUOUS
 10
786.0727505772
 20
620.7088990655
 40
2.3043232153
100
AcDbArc
 50
359.9974636658
 51
89.9974634412
  0
ARC
  5
334
100
AcDbEntity
  8
0
100
AcDbCircle
 62
7
  6
CONTINUOUS
 10
1059.9912509208
 20
286.7087970592
 40
10.0
100
AcDbArc
 50
270.0
 51
360.0
  0
ARC
  5
335
100
AcDbEntity
  8
0
100
AcDbCircle
 62
7
  6
CONTINUOUS
 10
1039.0738965007
 20
307.6851402854
 40
7.9734711719
100
AcDbArc
 50
269.9073029268
 51
0.1700025803
  0
ARC
  5
336
100
AcDbEntity
  8
0
100
AcDbCircle
 62
7
  6
CONTINUOUS
 10
905.0952591674
 20
332.7084833503
 40
6.7342733853
100
AcDbArc
 50
270.002755953
 51
0.0026690539
  0
ARC
  5
337
100
AcDbEntity
  8
0
100
AcDbCircle
 62
7
  6
CONTINUOUS
 10
929.0937821743
 20
332.7084833503
 40
6.7342733853
100
AcDbArc
 50
179.9973309459
 51
269.9972440469
  0
ARC
  5
338
100
AcDbEntity
  8
0
100
AcDbCircle
 62
7
  6
CONTINUOUS
 10
929.0937821743
 20
436.7084833503
 40
6.7342733853
100
AcDbArc
 50
179.9973309459
 51
269.9972440469
  0
ARC
  5
339
100
AcDbEntity
  8
0
100
AcDbCircle
 62
7
  6
CONTINUOUS
 10
929.0937614824
 20
516.7090900741
 40
6.7342733853
100
AcDbArc
 50
90.0025798964
 51
180.0024929965
  0
ARC
  5
33A
100
AcDbEntity
  8
0
100
AcDbCircle
 62
7
  6
CONTINUOUS
 10
905.0952591674
 20
436.7084833503
 40
6.7342733853
100
AcDbArc
 50
270.002755953
 51
0.0026690539
  0
ARC
  5
33B
100
AcDbEntity
  8
0
100
AcDbCircle
 62
7
  6
CONTINUOUS
 10
905.0952798593
 20
516.7090900741
 40
6.7342733853
100
AcDbArc
 50
359.9975070035
 51
89.9974201036
  0
ARC
  5
33C
100
AcDbEntity
  8
0
100
AcDbCircle
 62
7
  6
CONTINUOUS
 10
905.0952798593
 20
412.7090900741
 40
6.7342733853
100
AcDbArc
 50
359.9975070035
 51
89.9974201036
  0
ARC
  5
33D
100
AcDbEntity
  8
0
100
AcDbCircle
 62
7
  6
CONTINUOUS
 10
929.0937614824
 20
412.7090900741
 40
6.7342733853
100
AcDbArc
 50
90.0025798964
 51
180.0024929965
  0
ARC
  5
33E
100
AcDbEntity
  8
0
100
AcDbCircle
 62
7
  6
CONTINUOUS
 10
1024.0847235304
 20
332.7084833503
 40
6.7342733853
100
AcDbArc
 50
270.002755953
 51
0.002669054
  0
ARC
  5
33F
100
AcDbEntity
  8
0
100
AcDbCircle
 62
7
  6
CONTINUOUS
 10
1024.0847235304
 20
436.7084833503
 40
6.7342733853
100
AcDbArc
 50
270.002755953
 51
0.002669054
  0
ARC
  5
340
100
AcDbEntity
  8
0
100
AcDbCircle
 62
7
  6
CONTINUOUS
 10
1024.0847442222
 20
516.7090900741
 40
6.7342733853
100
AcDbArc
 50
359.9975070035
 51
89.9974201036
  0
ARC
  5
341
100
AcDbEntity
  8
0
100
AcDbCircle
 62
7
  6
CONTINUOUS
 10
1024.0847442222
 20
412.7090900741
 40
6.7342733853
100
AcDbArc
 50
359.9975070035
 51
89.9974201036
  0
ARC
  5
342
100
AcDbEntity
  8
0
100
AcDbCircle
 62
7
  6
CONTINUOUS
 10
1059.9912509208
 20
286.7087970592
 40
4.9855664505
100
AcDbArc
 50
270.0
 51
360.0
  0
ARC
  5
343
100
AcDbEntity
  8
0
100
AcDbCircle
 62
7
  6
CONTINUOUS
 10
905.0622078598
 20
332.7086879718
 40
2.3043232153
100
AcDbArc
 50
270.0027126156
 51
0.0027123918
  0
ARC
  5
344
100
AcDbEntity
  8
0
100
AcDbCircle
 62
7
  6
CONTINUOUS
 10
929.0603012168
 20
332.7086879718
 40
2.3043232153
100
AcDbArc
 50
179.9972876082
 51
269.9972873845
  0
ARC
  5
345
100
AcDbEntity
  8
0
100
AcDbCircle
 62
7
  6
CONTINUOUS
 10
905.0622078598
 20
436.7086879718
 40
2.3043232153
100
AcDbArc
 50
270.0027126156
 51
0.0027123918
  0
ARC
  5
346
100
AcDbEntity
  8
0
100
AcDbCircle
 62
7
  6
CONTINUOUS
 10
905.0622149401
 20
516.7088990655
 40
2.3043232153
100
AcDbArc
 50
359.9974636658
 51
89.9974634412
  0
ARC
  5
347
100
AcDbEntity
  8
0
100
AcDbCircle
 62
7
  6
CONTINUOUS
 10
905.0622149401
 20
412.7088990655
 40
2.3043232153
100
AcDbArc
 50
359.9974636658
 51
89.9974634412
  0
ARC
  5
348
100
AcDbEntity
  8
0
100
AcDbCircle
 62
7
  6
CONTINUOUS
 10
929.0602941365
 20
412.7088990655
 40
2.3043232153
100
AcDbArc
 50
90.0025365588
 51
180.0025363342
  0
ARC
  5
349
100
AcDbEntity
  8
0
100
AcDbCircle
 62
7
  6
CONTINUOUS
 10
929.0603012168
 20
436.7086879718
 40
2.3043232153
100
AcDbArc
 50
179.9972876082
 51
269.9972873845
  0
ARC
  5
34A
100
AcDbEntity
  8
0
100
AcDbCircle
 62
7
  6
CONTINUOUS
 10
929.0602941365
 20
516.7088990655
 40
2.3043232153
100
AcDbArc
 50
90.0025365588
 51
180.0025363342
  0
ARC
  5
34B
100
AcDbEntity
  8
0
100
AcDbCircle
 62
7
  6
CONTINUOUS
 10
1024.0516722227
 20
332.7086879718
 40
2.3043232153
100
AcDbArc
 50
270.0027126156
 51
0.0027123918
  0
ARC
  5
34C
100
AcDbEntity
  8
0
100
AcDbCircle
 62
7
  6
CONTINUOUS
 10
1024.051679303
 20
412.7088990655
 40
2.3043232153
100
AcDbArc
 50
359.9974636658
 51
89.9974634412
  0
ARC
  5
34D
100
AcDbEntity
  8
0
100
AcDbCircle
 62
7
  6
CONTINUOUS
 10
1024.0516722227
 20
436.7086879718
 40
2.3043232153
100
AcDbArc
 50
270.0027126156
 51
0.0027123918
  0
ARC
  5
34E
100
AcDbEntity
  8
0
100
AcDbCircle
 62
7
  6
CONTINUOUS
 10
1024.051679303
 20
516.7088990655
 40
2.3043232153
100
AcDbArc
 50
359.9974636658
 51
89.9974634412
  0
CIRCLE
  5
34F
100
AcDbEntity
  8
0
100
AcDbCircle
 62
7
  6
CONTINUOUS
 10
854.9912509208
 20
709.7087970592
 40
17.5
  0
ARC
  5
350
100
AcDbEntity
  8
0
100
AcDbCircle
 62
7
  6
CONTINUOUS
 10
1038.9912509208
 20
745.7087970592
 40
10.3515857455
100
AcDbArc
 50
0.0
 51
90.0
  0
ARC
  5
351
100
AcDbEntity
  8
0
100
AcDbCircle
 62
7
  6
CONTINUOUS
 10
1039.5963711017
 20
664.9487442285
 40
10.0122757307
100
AcDbArc
 50
320.8220798747
 51
346.768089533
  0
ARC
  5
352
100
AcDbEntity
  8
0
100
AcDbCircle
 62
7
  6
CONTINUOUS
 10
1059.9912509208
 20
766.7087970592
 40
10.0
100
AcDbArc
 50
0.0
 51
90.0
  0
ARC
  5
353
100
AcDbEntity
  8
0
100
AcDbCircle
 62
7
  6
CONTINUOUS
 10
905.0952591674
 20
540.7084833503
 40
6.7342733853
100
AcDbArc
 50
270.002755953
 51
0.0026690539
  0
ARC
  5
354
100
AcDbEntity
  8
0
100
AcDbCircle
 62
7
  6
CONTINUOUS
 10
905.0952798593
 20
620.7090900741
 40
6.7342733853
100
AcDbArc
 50
359.9975070035
 51
89.9974201036
  0
ARC
  5
355
100
AcDbEntity
  8
0
100
AcDbCircle
 62
7
  6
CONTINUOUS
 10
929.0937821743
 20
540.7084833503
 40
6.7342733853
100
AcDbArc
 50
179.9973309459
 51
269.9972440469
  0
ARC
  5
356
100
AcDbEntity
  8
0
100
AcDbCircle
 62
7
  6
CONTINUOUS
 10
1024.0847235304
 20
540.7084833503
 40
6.7342733853
100
AcDbArc
 50
270.002755953
 51
0.002669054
  0
ARC
  5
357
100
AcDbEntity
  8
0
100
AcDbCircle
 62
7
  6
CONTINUOUS
 10
1024.0847442222
 20
620.7090900741
 40
6.7342733853
100
AcDbArc
 50
359.9975070035
 51
89.9974201036
  0
ARC
  5
358
100
AcDbEntity
  8
0
100
AcDbCircle
 62
7
  6
CONTINUOUS
 10
929.0937614824
 20
620.7090900741
 40
6.7342733853
100
AcDbArc
 50
90.0025798964
 51
180.0024929965
  0
ARC
  5
359
100
AcDbEntity
  8
0
100
AcDbCircle
 62
7
  6
CONTINUOUS
 10
1059.9912509208
 20
766.7087970592
 40
4.9855664505
100
AcDbArc
 50
0.0
 51
90.0
  0
ARC
  5
35A
100
AcDbEntity
  8
0
100
AcDbCircle
 62
7
  6
CONTINUOUS
 10
905.0622078598
 20
540.7086879718
 40
2.3043232153
100
AcDbArc
 50
270.0027126156
 51
0.0027123918
  0
ARC
  5
35B
100
AcDbEntity
  8
0
100
AcDbCircle
 62
7
  6
CONTINUOUS
 10
905.0622149401
 20
620.7088990655
 40
2.3043232153
100
AcDbArc
 50
359.9974636658
 51
89.9974634412
  0
ARC
  5
35C
100
AcDbEntity
  8
0
100
AcDbCircle
 62
7
  6
CONTINUOUS
 10
1024.0516722227
 20
540.7086879718
 40
2.3043232153
100
AcDbArc
 50
270.0027126156
 51
0.0027123918
  0
ARC
  5
35D
100
AcDbEntity
  8
0
100
AcDbCircle
 62
7
  6
CONTINUOUS
 10
929.0603012168
 20
540.7086879718
 40
2.3043232153
100
AcDbArc
 50
179.9972876082
 51
269.9972873845
  0
ARC
  5
35E
100
AcDbEntity
  8
0
100
AcDbCircle
 62
7
  6
CONTINUOUS
 10
929.0602941365
 20
620.7088990655
 40
2.3043232153
100
AcDbArc
 50
90.0025365588
 51
180.0025363342
  0
ARC
  5
35F
100
AcDbEntity
  8
0
100
AcDbCircle
 62
7
  6
CONTINUOUS
 10
1024.051679303
 20
620.7088990655
 40
2.3043232153
100
AcDbArc
 50
359.9974636658
 51
89.9974634412
  0
ARC
  5
360
100
AcDbEntity
  8
0
100
AcDbCircle
 62
7
  6
CONTINUOUS
 10
865.0073903578
 20
19726.7140317947
 40
19068.9622477506
100
AcDbArc
 50
270.2668112964
 51
270.5479095339
  0
ARC
  5
361
100
AcDbEntity
  8
0
100
AcDbCircle
 62
7
  6
CONTINUOUS
 10
269.977663119
 20
1052.2022293796
 40
15.8
100
AcDbArc
 50
180.0
 51
270.0
  0
ARC
  5
362
100
AcDbEntity
  8
0
100
AcDbCircle
 62
7
  6
CONTINUOUS
 10
512.0744391015
 20
1030.6294620101
 40
1.8
100
AcDbArc
 50
284.9999999121
 51
302.0053830496
  0
ARC
  5
363
100
AcDbEntity
  8
0
100
AcDbCircle
 62
7
  6
CONTINUOUS
 10
397.8808871366
 20
1030.6294620101
 40
1.8
100
AcDbArc
 50
237.9946169511
 51
255.0000000883
  0
ARC
  5
364
100
AcDbEntity
  8
0
100
AcDbCircle
 62
7
  6
CONTINUOUS
 10
517.2895672208
 20
1029.7615518661
 40
1.6999999797
100
AcDbArc
 50
94.8403347651
 51
119.607537607
  0
ARC
  5
365
100
AcDbEntity
  8
0
100
AcDbCircle
 62
7
  6
CONTINUOUS
 10
392.6657717901
 20
1029.7615573378
 40
1.699999788
100
AcDbArc
 50
60.4758655891
 51
85.15994634
  0
ARC
  5
366
100
AcDbEntity
  8
0
100
AcDbCircle
 62
7
  6
CONTINUOUS
 10
233.1738690134
 20
1241.2022293796
 40
4.0
100
AcDbArc
 50
200.0
 51
270.0
  0
ARC
  5
367
100
AcDbEntity
  8
0
100
AcDbCircle
 62
7
  6
CONTINUOUS
 10
214.9920966685
 20
1250.7022293796
 40
1.5
100
AcDbArc
 50
90.0
 51
147.0
  0
ARC
  5
368
100
AcDbEntity
  8
0
100
AcDbCircle
 62
7
  6
CONTINUOUS
 10
253.177663119
 20
1235.4022293796
 40
1.0
100
AcDbArc
 50
0.0
 51
90.0
  0
ARC
  5
369
100
AcDbEntity
  8
0
100
AcDbCircle
 62
7
  6
CONTINUOUS
 10
212.4987789429
 20
1250.9022293796
 40
0.7
100
AcDbArc
 50
270.0
 51
326.9999999994
  0
ARC
  5
36A
100
AcDbEntity
  8
0
100
AcDbCircle
 62
7
  6
CONTINUOUS
 10
639.977663119
 20
1052.2022293796
 40
15.8
100
AcDbArc
 50
270.0
 51
360.0
  0
ARC
  5
36B
100
AcDbEntity
  8
0
100
AcDbCircle
 62
7
  6
CONTINUOUS
 10
1046.962566161
 20
1248.4676763335
 40
6.3147384616
100
AcDbArc
 50
270.7625607644
 51
339.9999201521
  0
ARC
  5
36C
100
AcDbEntity
  8
0
100
AcDbCircle
 62
7
  6
CONTINUOUS
 10
1047.2772030848
 20
1248.0272682738
 40
5.868416568
100
AcDbArc
 50
270.7786608846
 51
339.9580400383
  0
ARC
  5
36D
100
AcDbEntity
  8
0
100
AcDbCircle
 62
7
  6
CONTINUOUS
 10
1064.9632295696
 20
1250.7022293796
 40
1.5
100
AcDbArc
 50
33.0
 51
90.0
  0
ARC
  5
36E
100
AcDbEntity
  8
0
100
AcDbCircle
 62
7
  6
CONTINUOUS
 10
656.777663119
 20
1235.4022293796
 40
1.0
100
AcDbArc
 50
112.009903167
 51
180.0
  0
ARC
  5
36F
100
AcDbEntity
  8
0
100
AcDbCircle
 62
7
  6
CONTINUOUS
 10
1067.4565472952
 20
1250.9022293796
 40
0.7
100
AcDbArc
 50
213.0
 51
270.0
  0
SPLINE
  5
370
100
AcDbEntity
  8
0
100
AcDbSpline
 62
7
  6
CONTINUOUS
 70
0
 71
3
 72
9
 73
5
 74
0
 42
0.0000001
 43
0.0000001
 44
0.0000000001
 40
0.0
 40
0.0
 40
0.0
 40
0.0
 40
0.5000003402
 40
1.0
 40
1.0
 40
1.0
 40
1.0
 10
1047.3577670415
 20
658.6236830927
 30
0.0
 10
1047.3513236273
 20
600.137777775
 30
0.0
 10
1046.9725490057
 20
483.1667297454
 30
0.0
 10
1046.8188824228
 20
366.1941787123
 30
0.0
 10
1047.0468891113
 20
307.7087970592
 30
0.0
  0
SPLINE
  5
371
100
AcDbEntity
  8
0
100
AcDbSpline
 62
7
  6
CONTINUOUS
 70
0
 71
3
 72
11
 73
7
 74
0
 42
0.0000001
 43
0.0000001
 44
0.0000000001
 40
0.0
 40
0.0
 40
0.0
 40
0.0
 40
0.5000000014
 40
0.7499999982
 40
0.8749999991
 40
1.0
 40
1.0
 40
1.0
 40
1.0
 10
1039.0609957561
 20
299.7112361352
 30
0.0
 10
978.3826960526
 20
299.7528090364
 30
0.0
 10
887.3653159153
 20
299.8882445856
 30
0.0
 10
781.1782813893
 20
299.9640443219
 30
0.0
 10
720.4999628497
 20
299.9541677797
 30
0.0
 10
690.160817447
 20
299.9241382529
 30
0.0
 10
674.9912509208
 20
299.9050412593
 30
0.0
  0
SPLINE
  5
372
100
AcDbEntity
  8
0
100
AcDbSpline
 62
7
  6
CONTINUOUS
 70
0
 71
3
 72
9
 73
5
 74
0
 42
0.0000001
 43
0.0000001
 44
0.0000000001
 40
0.0
 40
0.0
 40
0.0
 40
0.0
 40
0.4483203578
 40
1.0
 40
1.0
 40
1.0
 40
1.0
 10
687.0600723955
 20
754.8629573918
 30
0.0
 10
687.1893067922
 20
755.1861246263
 30
0.0
 10
687.7105498845
 20
755.8250953035
 30
0.0
 10
688.5111658403
 20
756.0603952472
 30
0.0
 10
688.9394576371
 20
756.0603828047
 30
0.0
  0
ENDSEC
  0
SECTION
  2
OBJECTS
  0
DICTIONARY
  5
C
100
AcDbDictionary
280
0
281
1
  3
ACAD_GROUP
350
D
  3
ACAD_MLINESTYLE
350
17
  3
ACAD_LAYOUT
350
1A
  3
ACAD_PLOTSETTINGS
350
19
  3
ACAD_PLOTSTYLENAME
350
E
  0
DICTIONARY
  5
D
102
{ACAD_REACTORS
330
C
102
}
100
AcDbDictionary
280
0
281
1
  0
ACDBDICTIONARYWDFLT
  5
E
102
{ACAD_REACTORS
330
C
102
}
100
AcDbDictionary
281
1
  3
Normal
350
F
100
AcDbDictionaryWithDefault
340
F
  0
DICTIONARY
  5
17
102
{ACAD_REACTORS
330
C
102
}
100
AcDbDictionary
280
0
281
1
  3
Standard
350
18
  0
DICTIONARY
  5
19
102
{ACAD_REACTORS
330
C
102
}
100
AcDbDictionary
281
1
  0
DICTIONARY
  5
1A
102
{ACAD_REACTORS
330
C
102
}
100
AcDbDictionary
281
1
  3
Model
350
373
  3
Layout1
350
374
  0
ACDBPLACEHOLDER
  5
F
102
{ACAD_REACTORS
330
E
102
}
  0
MLINESTYLE
  5
18
102
{ACAD_REACTORS
330
17
102
}
100
AcDbMlineStyle
  2
STANDARD
 70
0
  3

 62
256
 51
90.0
 52
90.0
 71
2
 49
0.5
 62
256
  6
BYLAYER
 49
-0.5
 62
256
  6
BYLAYER
  0
LAYOUT
  5
373
102
{ACAD_REACTORS
330
1A
102
}
100
AcDbPlotSettings
  1

  2
none_device
  4

  6

 40
0.0
 41
0.0
 42
0.0
 43
0.0
 44
1270.0
 45
1524.0
 46
0.0
 47
0.0
 48
0.0
 49
0.0
140
0.0
141
0.0
142
1.0
143
1.0
 70
1024
 72
1
 73
0
 74
0
  7

 75
0
147
1.0
148
0.0
149
0.0
100
AcDbLayout
  1
Model
 70
0
 71
0
 10
0.0
 20
0.0
 11
1270.0
 21
1524.0
 12
0.0
 22
0.0
 32
0.0
 14
0.0
 24
0.0
 34
0.0
 15
0.0
 25
0.0
 35
0.0
146
0.0
 13
0.0
 23
0.0
 33
0.0
 16
1.0
 26
0.0
 36
0.0
 17
0.0
 27
1.0
 37
0.0
 76
0
330
217
345
0
346
0
  0
LAYOUT
  5
374
102
{ACAD_REACTORS
330
1A
102
}
100
AcDbPlotSettings
  1

  2
none_device
  4

  6

 40
0.0
 41
0.0
 42
0.0
 43
0.0
 44
1270.0
 45
1524.0
 46
0.0
 47
0.0
 48
0.0
 49
0.0
140
0.0
141
0.0
142
1.0
143
1.0
 70
0
 72
1
 73
0
 74
0
  7

 75
0
147
1.0
148
0.0
149
0.0
100
AcDbLayout
  1
Layout1
 70
0
 71
1
 10
0.0
 20
0.0
 11
1270.0
 21
1524.0
 12
0.0
 22
0.0
 32
0.0
 14
0.0
 24
0.0
 34
0.0
 15
0.0
 25
0.0
 35
0.0
146
0.0
 13
0.0
 23
0.0
 33
0.0
 16
1.0
 26
0.0
 36
0.0
 17
0.0
 27
1.0
 37
0.0
 76
0
330
218
345
0
346
0
  0
ENDSEC
  0
EOF
