999
DXF file: S:\Engenharia\Wildfire\Engenharia\Produtos\Cubas\Quadrum\93914123\93914123.dxf
999
Pro/ENGINEER 2013150 by Parametric Technology Corporation
  0
SECTION
  2
HEADER
  9
$ACADVER
  1
AC1021
  9
$DWGCODEPAGE
  3
ANSI_1252
  9
$EXTMAX
 10
1000.0
 20
1000.0
 30
0.0
  9
$EXTMIN
 10
0.0
 20
0.0
 30
0.0
  9
$LIMMIN
 10
0.0
 20
0.0
  9
$LIMMAX
 10
1000.0
 20
1000.0
  9
$VIEWCTR
 10
500.0
 20
500.0
  9
$VIEWSIZE
 40
1000.0
  9
$CLAYER
  8
0
  9
$LTSCALE
 40
65.1851851852
  9
$CELTYPE
  6
BYLAYER
  9
$DIMSCALE
 40
1.0
  9
$DIMASZ
 40
3.0
  9
$DIMEXO
 40
0.5
  9
$DIMDLI
 40
45.037037037
  9
$DIMEXE
 40
0.5
  9
$DIMCEN
 40
10.6666666667
  9
$DIMLFAC
 40
1.0
  9
$DIMBLK
  1
_FILLED
  9
$DIMTXT
 40
1.8
  9
$DIMTOL
 70
1
  9
$DIMLIM
 70
0
  9
$DIMTFAC
 40
1.0
  9
$DIMTP
 40
0.001
  9
$DIMTM
 40
0.001
  9
$DIMGAP
 40
0.625
  9
$DIMDSEP
 70
46
  9
$PDMODE
 70
3
  9
$PDSIZE
 40
1.0
  9
$HANDSEED
  5
332
  9
$TILEMODE
 70
1
  9
$MEASUREMENT
 70
1
  9
$INSUNITS
 70
4
  0
ENDSEC
  0
SECTION
  2
CLASSES
  0
CLASS
  1
ACDBDICTIONARYWDFLT
  2
AcDbDictionaryWithDefault
  3
AutoCAD 2000
 90
0
 91
1
280
0
281
0
  0
CLASS
  1
ACDBPLACEHOLDER
  2
AcDbPlaceHolder
  3
AutoCAD 2000
 90
0
 91
1
280
0
281
0
  0
CLASS
  1
LAYOUT
  2
AcDbLayout
  3
AutoCAD 2000
 90
0
 91
0
280
0
281
0
  0
ENDSEC
  0
SECTION
  2
TABLES
  0
TABLE
  2
VPORT
  5
8
100
AcDbSymbolTable
 70
2
  0
VPORT
  5
1F4
100
AcDbSymbolTableRecord
100
AcDbViewportTableRecord
  2
*ACTIVE
 70
0
 10
0.0
 20
0.0
 11
1.0
 21
1.0
 12
500.0
 22
500.0
 13
0.0
 23
0.0
 14
1.0
 24
1.0
 15
0.0
 25
0.0
 16
0.0
 26
0.0
 36
1.0
 17
0.0
 27
0.0
 37
0.0
 40
1000.0
 41
1.0
 42
50.0
 43
0.0
 44
0.0
 50
0.0
 51
0.0
 71
0
 72
100
 73
1
 74
1
 75
0
 76
0
 77
0
 78
0
  0
ENDTAB
  0
TABLE
  2
LTYPE
  5
5
100
AcDbSymbolTable
 70
6
  0
LTYPE
  5
14
100
AcDbSymbolTableRecord
100
AcDbLinetypeTableRecord
  2
BYBLOCK
 70
0
  3

 72
65
 73
0
 40
0.0
  0
LTYPE
  5
15
100
AcDbSymbolTableRecord
100
AcDbLinetypeTableRecord
  2
BYLAYER
 70
0
  3

 72
65
 73
0
 40
0.0
  0
LTYPE
  5
16
100
AcDbSymbolTableRecord
100
AcDbLinetypeTableRecord
  2
CONTINUOUS
 70
64
  3
Solid line
 72
65
 73
0
 40
0.0
  0
LTYPE
  5
1F5
100
AcDbSymbolTableRecord
100
AcDbLinetypeTableRecord
  2
CENTER
 70
64
  3
____ _ ____ _ ____ _ ____ _ ____ _ ____ _ ____
 72
65
 73
4
 40
0.6
 49
0.375
 74
0
 49
-0.075
 74
0
 49
0.075
 74
0
 49
-0.075
 74
0
  0
LTYPE
  5
1F6
100
AcDbSymbolTableRecord
100
AcDbLinetypeTableRecord
  2
HIDDEN
 70
64
  3
- - - - - - - - - - - - - - - - - - - -
 72
65
 73
2
 40
0.2
 49
0.1
 74
0
 49
-0.1
 74
0
  0
LTYPE
  5
1F7
100
AcDbSymbolTableRecord
100
AcDbLinetypeTableRecord
  2
PHANTOM
 70
64
  3
_____ _ _ _____ _ _ _____ _ _ _____
 72
65
 73
6
 40
0.8
 49
0.45
 74
0
 49
-0.05
 74
0
 49
0.1
 74
0
 49
-0.05
 74
0
 49
0.1
 74
0
 49
-0.05
 74
0
  0
LTYPE
  5
1F8
100
AcDbSymbolTableRecord
100
AcDbLinetypeTableRecord
  2
DOT
 70
64
  3
. . . . . . . . . . . . . . . . . . . .
 72
65
 73
2
 40
0.2
 49
0.1
 74
0
 49
-0.1
 74
0
  0
LTYPE
  5
1F9
100
AcDbSymbolTableRecord
100
AcDbLinetypeTableRecord
  2
DASHED
 70
64
  3
- - - - - - - - - - - - - - - - - - - -
 72
65
 73
2
 40
0.2
 49
0.1
 74
0
 49
-0.1
 74
0
  0
ENDTAB
  0
TABLE
  2
LAYER
  5
2
100
AcDbSymbolTable
 70
36
  0
LAYER
  5
10
100
AcDbSymbolTableRecord
100
AcDbLayerTableRecord
  2
0
 70
0
 62
7
  6
CONTINUOUS
370
-3
390
F
  0
LAYER
  5
1FA
100
AcDbSymbolTableRecord
100
AcDbLayerTableRecord
  2
DEFAULT_1
 70
0
 62
7
  6
CENTER
370
-3
390
F
  0
LAYER
  5
1FB
100
AcDbSymbolTableRecord
100
AcDbLayerTableRecord
  2
DEFAULT_2
 70
0
 62
8
  6
HIDDEN
370
-3
390
F
  0
LAYER
  5
1FC
100
AcDbSymbolTableRecord
100
AcDbLayerTableRecord
  2
DEFAULT_3
 70
0
 62
7
  6
PHANTOM
370
-3
390
F
  0
LAYER
  5
1FD
100
AcDbSymbolTableRecord
100
AcDbLayerTableRecord
  2
01_ALL_DTM_PLN
 70
0
 62
7
  6
CONTINUOUS
370
-3
390
F
  0
LAYER
  5
1FE
100
AcDbSymbolTableRecord
100
AcDbLayerTableRecord
  2
01__ASM_ALL_DTM_PLN
 70
0
 62
7
  6
CONTINUOUS
370
-3
390
F
  0
LAYER
  5
1FF
100
AcDbSymbolTableRecord
100
AcDbLayerTableRecord
  2
01__ASM_DEF_DTM_PLN
 70
0
 62
7
  6
CONTINUOUS
370
-3
390
F
  0
LAYER
  5
200
100
AcDbSymbolTableRecord
100
AcDbLayerTableRecord
  2
01___PRT_ALL_DTM_PLN
 70
0
 62
7
  6
CONTINUOUS
370
-3
390
F
  0
LAYER
  5
201
100
AcDbSymbolTableRecord
100
AcDbLayerTableRecord
  2
01___PRT_DEF_DTM_PLN
 70
0
 62
7
  6
CONTINUOUS
370
-3
390
F
  0
LAYER
  5
202
100
AcDbSymbolTableRecord
100
AcDbLayerTableRecord
  2
02_ALL_AXES
 70
0
 62
7
  6
CONTINUOUS
370
-3
390
F
  0
LAYER
  5
203
100
AcDbSymbolTableRecord
100
AcDbLayerTableRecord
  2
02__ASM_ALL_AXES
 70
0
 62
7
  6
CONTINUOUS
370
-3
390
F
  0
LAYER
  5
204
100
AcDbSymbolTableRecord
100
AcDbLayerTableRecord
  2
02___PRT_ALL_AXES
 70
0
 62
7
  6
CONTINUOUS
370
-3
390
F
  0
LAYER
  5
205
100
AcDbSymbolTableRecord
100
AcDbLayerTableRecord
  2
03_ALL_CURVES
 70
0
 62
7
  6
CONTINUOUS
370
-3
390
F
  0
LAYER
  5
206
100
AcDbSymbolTableRecord
100
AcDbLayerTableRecord
  2
03__ASM_ALL_CURVES
 70
0
 62
7
  6
CONTINUOUS
370
-3
390
F
  0
LAYER
  5
207
100
AcDbSymbolTableRecord
100
AcDbLayerTableRecord
  2
03___PRT_ALL_CURVES
 70
0
 62
7
  6
CONTINUOUS
370
-3
390
F
  0
LAYER
  5
208
100
AcDbSymbolTableRecord
100
AcDbLayerTableRecord
  2
04_ALL_DTM_PNT
 70
0
 62
7
  6
CONTINUOUS
370
-3
390
F
  0
LAYER
  5
209
100
AcDbSymbolTableRecord
100
AcDbLayerTableRecord
  2
04__ASM_ALL_DTM_PNT
 70
0
 62
7
  6
CONTINUOUS
370
-3
390
F
  0
LAYER
  5
20A
100
AcDbSymbolTableRecord
100
AcDbLayerTableRecord
  2
04___PRT_ALL_DTM_PNT
 70
0
 62
7
  6
CONTINUOUS
370
-3
390
F
  0
LAYER
  5
20B
100
AcDbSymbolTableRecord
100
AcDbLayerTableRecord
  2
05_ALL_DTM_CSYS
 70
0
 62
7
  6
CONTINUOUS
370
-3
390
F
  0
LAYER
  5
20C
100
AcDbSymbolTableRecord
100
AcDbLayerTableRecord
  2
05__ASM_ALL_DTM_CSYS
 70
0
 62
7
  6
CONTINUOUS
370
-3
390
F
  0
LAYER
  5
20D
100
AcDbSymbolTableRecord
100
AcDbLayerTableRecord
  2
05__ASM_DEF_DTM_CSYS
 70
0
 62
7
  6
CONTINUOUS
370
-3
390
F
  0
LAYER
  5
20E
100
AcDbSymbolTableRecord
100
AcDbLayerTableRecord
  2
05___PRT_ALL_DTM_CSYS
 70
0
 62
7
  6
CONTINUOUS
370
-3
390
F
  0
LAYER
  5
20F
100
AcDbSymbolTableRecord
100
AcDbLayerTableRecord
  2
05___PRT_DEF_DTM_CSYS
 70
0
 62
7
  6
CONTINUOUS
370
-3
390
F
  0
LAYER
  5
210
100
AcDbSymbolTableRecord
100
AcDbLayerTableRecord
  2
06_ALL_SURFS
 70
0
 62
7
  6
CONTINUOUS
370
-3
390
F
  0
LAYER
  5
211
100
AcDbSymbolTableRecord
100
AcDbLayerTableRecord
  2
06__ASM_ALL_SURFS
 70
0
 62
7
  6
CONTINUOUS
370
-3
390
F
  0
LAYER
  5
212
100
AcDbSymbolTableRecord
100
AcDbLayerTableRecord
  2
06___PRT_ALL_SURFS
 70
0
 62
7
  6
CONTINUOUS
370
-3
390
F
  0
LAYER
  5
213
100
AcDbSymbolTableRecord
100
AcDbLayerTableRecord
  2
07__ASM_ALL_SKELETONS
 70
0
 62
7
  6
CONTINUOUS
370
-3
390
F
  0
LAYER
  5
214
100
AcDbSymbolTableRecord
100
AcDbLayerTableRecord
  2
WHITE
 70
0
 62
7
  6
CONTINUOUS
370
-3
390
F
  0
ENDTAB
  0
TABLE
  2
STYLE
  5
3
100
AcDbSymbolTable
 70
1
  0
STYLE
  5
11
100
AcDbSymbolTableRecord
100
AcDbTextStyleTableRecord
  2
STANDARD
 70
0
 40
0.0
 41
0.8
 50
0.0
 71
0
 42
0.2
  3
txt
  4

  0
STYLE
  5
215
100
AcDbSymbolTableRecord
100
AcDbTextStyleTableRecord
  2
TEXTSTYLE_1
 70
0
 40
0.0
 41
0.8
 50
0.0
 71
0
 42
0.2
  3
gdt
  4

  0
ENDTAB
  0
TABLE
  2
VIEW
  5
6
100
AcDbSymbolTable
 70
0
  0
ENDTAB
  0
TABLE
  2
UCS
  5
7
100
AcDbSymbolTable
 70
0
  0
ENDTAB
  0
TABLE
  2
APPID
  5
9
100
AcDbSymbolTable
 70
1
  0
APPID
  5
216
100
AcDbSymbolTableRecord
100
AcDbRegAppTableRecord
  2
ACAD
 70
0
  0
ENDTAB
  0
TABLE
  2
BLOCK_RECORD
  5
1
100
AcDbSymbolTable
 70
0
  0
BLOCK_RECORD
  5
217
100
AcDbSymbolTableRecord
100
AcDbBlockTableRecord
  2
*Model_Space
  0
BLOCK_RECORD
  5
218
100
AcDbSymbolTableRecord
100
AcDbBlockTableRecord
  2
*Paper_Space
  0
BLOCK_RECORD
  5
219
100
AcDbSymbolTableRecord
100
AcDbBlockTableRecord
  2
_FILLED
  0
BLOCK_RECORD
  5
21A
100
AcDbSymbolTableRecord
100
AcDbBlockTableRecord
  2
*D0
  0
BLOCK_RECORD
  5
21B
100
AcDbSymbolTableRecord
100
AcDbBlockTableRecord
  2
*D1
  0
BLOCK_RECORD
  5
21C
100
AcDbSymbolTableRecord
100
AcDbBlockTableRecord
  2
*D2
  0
ENDTAB
  0
TABLE
  2
DIMSTYLE
  5
A
100
AcDbSymbolTable
 70
1
100
AcDbDimStyleTable
 71
0
  0
DIMSTYLE
105
21D
100
AcDbSymbolTableRecord
100
AcDbDimStyleTableRecord
  2
STANDARD
 70
0
  3

  4

 40
1.0
 41
3.0
 42
0.5
 43
0.38
 44
0.5
 45
0.0
 46
0.0
 47
0.001
 48
0.001
140
1.8
141
0.09
142
0.0
143
25.4
144
1.0
145
0.0
146
1.0
147
0.625
 71
1.0
 72
0.0
 73
0
 74
0
 75
0
 76
0
 77
1
 78
8
170
0
171
2
172
0
173
0
174
0
175
0
176
0
177
0
178
0
270
2
271
3
272
3
273
2
274
2
275
0
280
0
281
0
282
0
283
1
284
8
285
0
286
0
287
3
288
0
340
11
278
46
341
219
342
219
343
219
344
219
  0
DIMSTYLE
105
21E
100
AcDbSymbolTableRecord
100
AcDbDimStyleTableRecord
  2
DIMSTYLE_1
 70
0
  3

  4

 40
1.0
 41
3.0
 42
0.5
 43
0.38
 44
0.5
 45
0.0
 46
0.0
 47
0.001
 48
0.001
140
1.8
141
0.09
142
0.0
143
25.4
144
1.0
145
0.0
146
1.0
147
0.45
 71
0.0
 72
0.0
 73
0
 74
0
 75
0
 76
0
 77
1
 78
8
170
0
171
2
172
0
173
0
174
0
175
0
176
0
177
0
178
0
270
2
271
3
272
3
273
2
274
2
275
0
280
0
281
0
282
0
283
1
284
8
285
0
286
0
287
3
288
0
340
11
278
46
341
219
342
219
343
219
344
219
  0
ENDTAB
  0
ENDSEC
  0
SECTION
  2
BLOCKS
  0
BLOCK
  5
20
100
AcDbEntity
  8
0
100
AcDbBlockBegin
  2
*Model_Space
 70
0
 10
0.0
 20
0.0
 30
0.0
  3
*Model_Space
  1

  0
ENDBLK
  5
21
100
AcDbEntity
  8
0
100
AcDbBlockEnd
  0
BLOCK
  5
1C
100
AcDbEntity
  8
0
100
AcDbBlockBegin
  2
*Paper_Space
 70
0
 10
0.0
 20
0.0
 30
0.0
  3
*Paper_Space
  1

  0
ENDBLK
  5
1D
100
AcDbEntity
  8
0
100
AcDbBlockEnd
  0
BLOCK
  5
21F
100
AcDbEntity
  8
0
100
AcDbBlockBegin
  2
_FILLED
 70
64
 10
0.0
 20
0.0
  3
_FILLED
  1

  0
SOLID
  5
220
100
AcDbEntity
  8
0
  6
BYBLOCK
 62
0
100
AcDbTrace
 10
0.0
 20
0.0
 11
-1.0
 21
0.1666666667
 12
-1.0
 22
-0.1666666667
 13
-1.0
 23
-0.1666666667
  0
ENDBLK
  5
221
100
AcDbEntity
  8
0
  6
BYBLOCK
 62
0
100
AcDbBlockEnd
  0
BLOCK
  5
222
100
AcDbEntity
  8
0
100
AcDbBlockBegin
 62
2
  6
CONTINUOUS
  2
*D0
 70
65
 10
0.0
 20
0.0
  3
*D0
  1

  0
MTEXT
  5
223
100
AcDbEntity
  8
0
100
AcDbMText
 62
2
  6
CONTINUOUS
  7
STANDARD
 71
2
 72
1
 10
105.7675726541
 20
347.1355698529
 30
0.0
 11
0.0
 21
1.0
 31
0.0
 44
0.9
  1
510
 40
1.8
 41
8.3314285714
  0
LINE
  5
224
100
AcDbEntity
  8
0
100
AcDbLine
 62
2
  6
CONTINUOUS
 10
120.8390012255
 20
92.1355698529
 11
107.8390012255
 21
92.1355698529
  0
LINE
  5
225
100
AcDbEntity
  8
0
100
AcDbLine
 62
2
  6
CONTINUOUS
 10
120.8390012255
 20
602.1355698529
 11
107.8390012255
 21
602.1355698529
  0
LINE
  5
226
100
AcDbEntity
  8
0
100
AcDbLine
 62
2
  6
CONTINUOUS
 10
108.3390012255
 20
92.1355698529
 11
108.3390012255
 21
347.1355698529
  0
LINE
  5
227
100
AcDbEntity
  8
0
100
AcDbLine
 62
2
  6
CONTINUOUS
 10
108.3390012255
 20
602.1355698529
 11
108.3390012255
 21
347.1355698529
  0
INSERT
  5
228
100
AcDbEntity
  8
0
100
AcDbBlockReference
 62
2
  6
CONTINUOUS
  2
_FILLED
 10
108.3390012255
 20
92.1355698529
 41
3.0
 42
3.0
 43
3.0
 50
270.0
  0
INSERT
  5
229
100
AcDbEntity
  8
0
100
AcDbBlockReference
 62
2
  6
CONTINUOUS
  2
_FILLED
 10
108.3390012255
 20
602.1355698529
 41
3.0
 42
3.0
 43
3.0
 50
90.0
  0
ENDBLK
  5
22A
100
AcDbEntity
  8
0
  6
BYBLOCK
 62
0
100
AcDbBlockEnd
  0
BLOCK
  5
22B
100
AcDbEntity
  8
0
100
AcDbBlockBegin
 62
2
  6
CONTINUOUS
  2
*D1
 70
65
 10
0.0
 20
0.0
  3
*D1
  1

  0
MTEXT
  5
22C
100
AcDbEntity
  8
0
100
AcDbMText
 62
2
  6
CONTINUOUS
  7
STANDARD
 71
2
 72
1
 10
497.8390012255
 20
87.7069984244
 30
0.0
 11
1.0
 21
0.0
 31
0.0
 44
0.9
  1
765
 40
1.8
 41
8.3314285714
  0
LINE
  5
22D
100
AcDbEntity
  8
0
100
AcDbLine
 62
2
  6
CONTINUOUS
 10
115.3390012255
 20
97.6355698529
 11
115.3390012255
 21
84.6355698529
  0
LINE
  5
22E
100
AcDbEntity
  8
0
100
AcDbLine
 62
2
  6
CONTINUOUS
 10
880.3390012255
 20
97.6355698529
 11
880.3390012255
 21
84.6355698529
  0
LINE
  5
22F
100
AcDbEntity
  8
0
100
AcDbLine
 62
2
  6
CONTINUOUS
 10
115.3390012255
 20
85.1355698529
 11
497.8390012255
 21
85.1355698529
  0
LINE
  5
230
100
AcDbEntity
  8
0
100
AcDbLine
 62
2
  6
CONTINUOUS
 10
880.3390012255
 20
85.1355698529
 11
497.8390012255
 21
85.1355698529
  0
INSERT
  5
231
100
AcDbEntity
  8
0
100
AcDbBlockReference
 62
2
  6
CONTINUOUS
  2
_FILLED
 10
115.3390012255
 20
85.1355698529
 41
3.0
 42
3.0
 43
3.0
 50
180.0
  0
INSERT
  5
232
100
AcDbEntity
  8
0
100
AcDbBlockReference
 62
2
  6
CONTINUOUS
  2
_FILLED
 10
880.3390012255
 20
85.1355698529
 41
3.0
 42
3.0
 43
3.0
  0
ENDBLK
  5
233
100
AcDbEntity
  8
0
  6
BYBLOCK
 62
0
100
AcDbBlockEnd
  0
BLOCK
  5
234
100
AcDbEntity
  8
0
100
AcDbBlockBegin
 62
2
  6
CONTINUOUS
  2
*D2
 70
65
 10
0.0
 20
0.0
  3
*D2
  1

  0
MTEXT
  5
235
100
AcDbEntity
  8
0
100
AcDbMText
 62
2
  6
CONTINUOUS
  7
STANDARD
 71
2
 72
1
 10
105.7675726541
 20
812.0847152188
 30
0.0
 11
0.0
 21
1.0
 31
0.0
 44
0.9
  1
202.5
 40
1.8
 41
13.8857142857
  0
LINE
  5
236
100
AcDbEntity
  8
0
100
AcDbLine
 62
2
  6
CONTINUOUS
 10
157.5890012255
 20
710.8347152188
 11
107.8390012255
 21
710.8347152188
  0
LINE
  5
237
100
AcDbEntity
  8
0
100
AcDbLine
 62
2
  6
CONTINUOUS
 10
114.8390012255
 20
913.3347152188
 11
107.8390012255
 21
913.3347152188
  0
LINE
  5
238
100
AcDbEntity
  8
0
100
AcDbLine
 62
2
  6
CONTINUOUS
 10
108.3390012255
 20
710.8347152188
 11
108.3390012255
 21
812.0847152188
  0
LINE
  5
239
100
AcDbEntity
  8
0
100
AcDbLine
 62
2
  6
CONTINUOUS
 10
108.3390012255
 20
913.3347152188
 11
108.3390012255
 21
812.0847152188
  0
INSERT
  5
23A
100
AcDbEntity
  8
0
100
AcDbBlockReference
 62
2
  6
CONTINUOUS
  2
_FILLED
 10
108.3390012255
 20
710.8347152188
 41
3.0
 42
3.0
 43
3.0
 50
270.0
  0
INSERT
  5
23B
100
AcDbEntity
  8
0
100
AcDbBlockReference
 62
2
  6
CONTINUOUS
  2
_FILLED
 10
108.3390012255
 20
913.3347152188
 41
3.0
 42
3.0
 43
3.0
 50
90.0
  0
ENDBLK
  5
23C
100
AcDbEntity
  8
0
  6
BYBLOCK
 62
0
100
AcDbBlockEnd
  0
ENDSEC
  0
SECTION
  2
ENTITIES
  0
DIMENSION
  5
23D
100
AcDbEntity
  8
0
100
AcDbDimension
 62
2
  6
CONTINUOUS
  2
*D0
 10
108.3390012255
 20
602.1355698529
 11
108.3390012255
 21
347.1355698529
 70
160
 71
2
 42
510.0
  3
DIMSTYLE_1
100
AcDbAlignedDimension
 13
121.3390012255
 23
92.1355698529
 14
121.3390012255
 24
602.1355698529
 50
90.0
100
AcDbRotatedDimension
  0
DIMENSION
  5
23E
100
AcDbEntity
  8
0
100
AcDbDimension
 62
2
  6
CONTINUOUS
  2
*D1
 10
880.3390012255
 20
85.1355698529
 11
497.8390012255
 21
85.1355698529
 70
160
 71
2
 42
765.0
  3
DIMSTYLE_1
100
AcDbAlignedDimension
 13
115.3390012255
 23
98.1355698529
 14
880.3390012255
 24
98.1355698529
100
AcDbRotatedDimension
  0
DIMENSION
  5
23F
100
AcDbEntity
  8
0
100
AcDbDimension
 62
2
  6
CONTINUOUS
  2
*D2
 10
108.3390012255
 20
913.3347152188
 11
108.3390012255
 21
812.0847152188
 70
160
 71
2
 42
202.5
  3
DIMSTYLE_1
100
AcDbAlignedDimension
 13
158.0890012255
 23
710.8347152188
 14
115.3390012255
 24
913.3347152188
 50
90.0
100
AcDbRotatedDimension
  0
LINE
  5
240
100
AcDbEntity
  8
0
100
AcDbLine
 62
7
  6
CONTINUOUS
 10
115.3390012255
 20
596.1355698529
 11
115.3390012255
 21
98.1355698529
  0
LINE
  5
241
100
AcDbEntity
  8
0
100
AcDbLine
 62
7
  6
CONTINUOUS
 10
142.5890012255
 20
134.6355698529
 11
142.5890012255
 21
504.6355698529
  0
LINE
  5
242
100
AcDbEntity
  8
0
100
AcDbLine
 62
7
  6
CONTINUOUS
 10
143.0890012255
 20
131.6355698529
 11
143.0890012255
 21
507.6355698529
  0
LINE
  5
243
100
AcDbEntity
  8
0
100
AcDbLine
 62
7
  6
CONTINUOUS
 10
155.0890012255
 20
519.838724878
 11
155.0890012255
 21
519.6355698529
  0
LINE
  5
244
100
AcDbEntity
  8
0
100
AcDbLine
 62
7
  6
CONTINUOUS
 10
155.0890012255
 20
119.4324148279
 11
155.0890012255
 21
119.6355698529
  0
LINE
  5
245
100
AcDbEntity
  8
0
100
AcDbLine
 62
7
  6
CONTINUOUS
 10
158.0890012255
 20
504.6355698529
 11
158.0890012255
 21
134.6355698529
  0
LINE
  5
246
100
AcDbEntity
  8
0
100
AcDbLine
 62
7
  6
CONTINUOUS
 10
164.0890012255
 20
493.6355698529
 11
164.0890012255
 21
145.6355698529
  0
LINE
  5
247
100
AcDbEntity
  8
0
100
AcDbLine
 62
7
  6
CONTINUOUS
 10
121.3390012255
 20
92.1355698529
 11
874.3390012255
 21
92.1355698529
  0
LINE
  5
248
100
AcDbEntity
  8
0
100
AcDbLine
 62
7
  6
CONTINUOUS
 10
837.5890012255
 20
119.1355698529
 11
527.5890012255
 21
119.1355698529
  0
LINE
  5
249
100
AcDbEntity
  8
0
100
AcDbLine
 62
7
  6
CONTINUOUS
 10
468.0890012255
 20
119.1355698529
 11
158.0890012255
 21
119.1355698529
  0
LINE
  5
24A
100
AcDbEntity
  8
0
100
AcDbLine
 62
7
  6
CONTINUOUS
 10
840.5890012255
 20
119.6355698529
 11
524.5890012255
 21
119.6355698529
  0
LINE
  5
24B
100
AcDbEntity
  8
0
100
AcDbLine
 62
7
  6
CONTINUOUS
 10
471.0890012255
 20
119.6355698529
 11
155.0890012255
 21
119.6355698529
  0
LINE
  5
24C
100
AcDbEntity
  8
0
100
AcDbLine
 62
7
  6
CONTINUOUS
 10
852.7921562505
 20
131.6355698529
 11
852.5890012255
 21
131.6355698529
  0
LINE
  5
24D
100
AcDbEntity
  8
0
100
AcDbLine
 62
7
  6
CONTINUOUS
 10
483.2921562505
 20
131.6355698529
 11
483.0890012255
 21
131.6355698529
  0
LINE
  5
24E
100
AcDbEntity
  8
0
100
AcDbLine
 62
7
  6
CONTINUOUS
 10
142.8858462004
 20
131.6355698529
 11
143.0890012255
 21
131.6355698529
  0
LINE
  5
24F
100
AcDbEntity
  8
0
100
AcDbLine
 62
7
  6
CONTINUOUS
 10
512.3858462004
 20
131.6355698529
 11
512.5890012255
 21
131.6355698529
  0
LINE
  5
250
100
AcDbEntity
  8
0
100
AcDbLine
 62
7
  6
CONTINUOUS
 10
158.0890012255
 20
134.6355698529
 11
468.0890012255
 21
134.6355698529
  0
LINE
  5
251
100
AcDbEntity
  8
0
100
AcDbLine
 62
7
  6
CONTINUOUS
 10
527.5890012255
 20
134.6355698529
 11
837.5890012255
 21
134.6355698529
  0
LINE
  5
252
100
AcDbEntity
  8
0
100
AcDbLine
 62
7
  6
CONTINUOUS
 10
286.4494011049
 20
344.7985310626
 11
285.9451594859
 21
343.7613751519
  0
LINE
  5
253
100
AcDbEntity
  8
0
100
AcDbLine
 62
7
  6
CONTINUOUS
 10
164.0890012255
 20
145.6355698529
 11
279.9769477091
 21
347.0783761567
  0
LINE
  5
254
100
AcDbEntity
  8
0
100
AcDbLine
 62
7
  6
CONTINUOUS
 10
169.0890012255
 20
140.6355698529
 11
285.9451594837
 21
343.7613751474
  0
LINE
  5
255
100
AcDbEntity
  8
0
100
AcDbLine
 62
7
  6
CONTINUOUS
 10
280.5908783496
 20
348.0537826511
 11
279.9769477067
 21
347.078376153
  0
LINE
  5
256
100
AcDbEntity
  8
0
100
AcDbLine
 62
7
  6
CONTINUOUS
 10
169.0890012255
 20
140.6355698529
 11
457.0890012255
 21
140.6355698529
  0
LINE
  5
257
100
AcDbEntity
  8
0
100
AcDbLine
 62
7
  6
CONTINUOUS
 10
538.5890012255
 20
140.6355698529
 11
826.5890012255
 21
140.6355698529
  0
LINE
  5
258
100
AcDbEntity
  8
0
100
AcDbLine
 62
7
  6
CONTINUOUS
 10
362.3535599131
 20
435.6366079566
 11
363.1945457959
 21
436.2493209409
  0
LINE
  5
259
100
AcDbEntity
  8
0
100
AcDbLine
 62
7
  6
CONTINUOUS
 10
457.0890012255
 20
498.6355698529
 11
363.1945458271
 21
436.2493209641
  0
LINE
  5
25A
100
AcDbEntity
  8
0
100
AcDbLine
 62
7
  6
CONTINUOUS
 10
462.0890012255
 20
493.6355698529
 11
366.9665753993
 21
430.4334211497
  0
LINE
  5
25B
100
AcDbEntity
  8
0
100
AcDbLine
 62
7
  6
CONTINUOUS
 10
366.0616139298
 20
429.9148300387
 11
366.9665754133
 21
430.4334211575
  0
LINE
  5
25C
100
AcDbEntity
  8
0
100
AcDbLine
 62
7
  6
CONTINUOUS
 10
345.5871240576
 20
348.0537827206
 11
346.2010547411
 21
347.0783761578
  0
LINE
  5
25D
100
AcDbEntity
  8
0
100
AcDbLine
 62
7
  6
CONTINUOUS
 10
457.0890012255
 20
140.6355698529
 11
340.2328429673
 21
343.7613751474
  0
LINE
  5
25E
100
AcDbEntity
  8
0
100
AcDbLine
 62
7
  6
CONTINUOUS
 10
462.0890012255
 20
145.6355698529
 11
346.2010547419
 21
347.0783761567
  0
LINE
  5
25F
100
AcDbEntity
  8
0
100
AcDbLine
 62
7
  6
CONTINUOUS
 10
339.7286013919
 20
344.7985309682
 11
340.2328429737
 21
343.761375134
  0
LINE
  5
260
100
AcDbEntity
  8
0
100
AcDbLine
 62
7
  6
CONTINUOUS
 10
164.0890012255
 20
493.6355698529
 11
259.2114270516
 21
430.4334211497
  0
LINE
  5
261
100
AcDbEntity
  8
0
100
AcDbLine
 62
7
  6
CONTINUOUS
 10
263.8244421042
 20
435.6366082735
 11
262.9834566154
 21
436.2493209703
  0
LINE
  5
262
100
AcDbEntity
  8
0
100
AcDbLine
 62
7
  6
CONTINUOUS
 10
462.0890012255
 20
145.6355698529
 11
462.0890012255
 21
493.6355698529
  0
LINE
  5
263
100
AcDbEntity
  8
0
100
AcDbLine
 62
7
  6
CONTINUOUS
 10
468.0890012255
 20
134.6355698529
 11
468.0890012255
 21
504.6355698529
  0
LINE
  5
264
100
AcDbEntity
  8
0
100
AcDbLine
 62
7
  6
CONTINUOUS
 10
471.0890012255
 20
519.838724878
 11
471.0890012255
 21
519.6355698529
  0
LINE
  5
265
100
AcDbEntity
  8
0
100
AcDbLine
 62
7
  6
CONTINUOUS
 10
471.0890012255
 20
119.4324148279
 11
471.0890012255
 21
119.6355698529
  0
LINE
  5
266
100
AcDbEntity
  8
0
100
AcDbLine
 62
7
  6
CONTINUOUS
 10
260.1163885418
 20
429.9148300269
 11
259.2114270554
 21
430.4334211476
  0
LINE
  5
267
100
AcDbEntity
  8
0
100
AcDbLine
 62
7
  6
CONTINUOUS
 10
169.0890012255
 20
498.6355698529
 11
262.9834566239
 21
436.2493209641
  0
LINE
  5
268
100
AcDbEntity
  8
0
100
AcDbLine
 62
7
  6
CONTINUOUS
 10
483.0890012255
 20
507.6355698529
 11
483.0890012255
 21
131.6355698529
  0
LINE
  5
269
100
AcDbEntity
  8
0
100
AcDbLine
 62
7
  6
CONTINUOUS
 10
483.5890012255
 20
504.6355698529
 11
483.5890012255
 21
134.6355698529
  0
LINE
  5
26A
100
AcDbEntity
  8
0
100
AcDbLine
 62
7
  6
CONTINUOUS
 10
512.0890012255
 20
134.6355698529
 11
512.0890012255
 21
504.6355698529
  0
LINE
  5
26B
100
AcDbEntity
  8
0
100
AcDbLine
 62
7
  6
CONTINUOUS
 10
512.5890012255
 20
131.6355698529
 11
512.5890012255
 21
507.6355698529
  0
LINE
  5
26C
100
AcDbEntity
  8
0
100
AcDbLine
 62
7
  6
CONTINUOUS
 10
524.5890012255
 20
519.838724878
 11
524.5890012255
 21
519.6355698529
  0
LINE
  5
26D
100
AcDbEntity
  8
0
100
AcDbLine
 62
7
  6
CONTINUOUS
 10
524.5890012255
 20
119.4324148279
 11
524.5890012255
 21
119.6355698529
  0
LINE
  5
26E
100
AcDbEntity
  8
0
100
AcDbLine
 62
7
  6
CONTINUOUS
 10
527.5890012255
 20
504.6355698529
 11
527.5890012255
 21
134.6355698529
  0
LINE
  5
26F
100
AcDbEntity
  8
0
100
AcDbLine
 62
7
  6
CONTINUOUS
 10
533.5890012255
 20
493.6355698529
 11
533.5890012255
 21
145.6355698529
  0
LINE
  5
270
100
AcDbEntity
  8
0
100
AcDbLine
 62
7
  6
CONTINUOUS
 10
826.5890012255
 20
498.6355698529
 11
732.6945458271
 21
436.2493209641
  0
LINE
  5
271
100
AcDbEntity
  8
0
100
AcDbLine
 62
7
  6
CONTINUOUS
 10
831.5890012255
 20
493.6355698529
 11
736.4665753993
 21
430.4334211497
  0
LINE
  5
272
100
AcDbEntity
  8
0
100
AcDbLine
 62
7
  6
CONTINUOUS
 10
735.5616139298
 20
429.9148300387
 11
736.4665754133
 21
430.4334211575
  0
LINE
  5
273
100
AcDbEntity
  8
0
100
AcDbLine
 62
7
  6
CONTINUOUS
 10
731.8535599131
 20
435.6366079566
 11
732.6945457959
 21
436.2493209409
  0
LINE
  5
274
100
AcDbEntity
  8
0
100
AcDbLine
 62
7
  6
CONTINUOUS
 10
655.9494011049
 20
344.7985310626
 11
655.4451594859
 21
343.7613751519
  0
LINE
  5
275
100
AcDbEntity
  8
0
100
AcDbLine
 62
7
  6
CONTINUOUS
 10
533.5890012255
 20
145.6355698529
 11
649.4769477091
 21
347.0783761567
  0
LINE
  5
276
100
AcDbEntity
  8
0
100
AcDbLine
 62
7
  6
CONTINUOUS
 10
538.5890012255
 20
140.6355698529
 11
655.4451594837
 21
343.7613751474
  0
LINE
  5
277
100
AcDbEntity
  8
0
100
AcDbLine
 62
7
  6
CONTINUOUS
 10
650.0908783496
 20
348.0537826511
 11
649.4769477067
 21
347.078376153
  0
LINE
  5
278
100
AcDbEntity
  8
0
100
AcDbLine
 62
7
  6
CONTINUOUS
 10
826.5890008787
 20
498.6355698529
 11
538.5890012255
 21
498.6355698529
  0
LINE
  5
279
100
AcDbEntity
  8
0
100
AcDbLine
 62
7
  6
CONTINUOUS
 10
457.0890008787
 20
498.6355698529
 11
169.0890012255
 21
498.6355698529
  0
LINE
  5
27A
100
AcDbEntity
  8
0
100
AcDbLine
 62
7
  6
CONTINUOUS
 10
629.6163885418
 20
429.9148300269
 11
628.7114270554
 21
430.4334211476
  0
LINE
  5
27B
100
AcDbEntity
  8
0
100
AcDbLine
 62
7
  6
CONTINUOUS
 10
533.5890012255
 20
493.6355698529
 11
628.7114270516
 21
430.4334211497
  0
LINE
  5
27C
100
AcDbEntity
  8
0
100
AcDbLine
 62
7
  6
CONTINUOUS
 10
538.5890012255
 20
498.6355698529
 11
632.4834566239
 21
436.2493209641
  0
LINE
  5
27D
100
AcDbEntity
  8
0
100
AcDbLine
 62
7
  6
CONTINUOUS
 10
633.3244421042
 20
435.6366082735
 11
632.4834566154
 21
436.2493209703
  0
LINE
  5
27E
100
AcDbEntity
  8
0
100
AcDbLine
 62
7
  6
CONTINUOUS
 10
837.5890012255
 20
504.6355698529
 11
527.5890012255
 21
504.6355698529
  0
LINE
  5
27F
100
AcDbEntity
  8
0
100
AcDbLine
 62
7
  6
CONTINUOUS
 10
468.0890012255
 20
504.6355698529
 11
158.0890012255
 21
504.6355698529
  0
LINE
  5
280
100
AcDbEntity
  8
0
100
AcDbLine
 62
7
  6
CONTINUOUS
 10
852.7921562505
 20
507.6355698529
 11
852.5890012255
 21
507.6355698529
  0
LINE
  5
281
100
AcDbEntity
  8
0
100
AcDbLine
 62
7
  6
CONTINUOUS
 10
483.2921562505
 20
507.6355698529
 11
483.0890012255
 21
507.6355698529
  0
LINE
  5
282
100
AcDbEntity
  8
0
100
AcDbLine
 62
7
  6
CONTINUOUS
 10
142.8858462004
 20
507.6355698529
 11
143.0890012255
 21
507.6355698529
  0
LINE
  5
283
100
AcDbEntity
  8
0
100
AcDbLine
 62
7
  6
CONTINUOUS
 10
512.3858462004
 20
507.6355698529
 11
512.5890012255
 21
507.6355698529
  0
LINE
  5
284
100
AcDbEntity
  8
0
100
AcDbLine
 62
7
  6
CONTINUOUS
 10
155.0890012255
 20
519.6355698529
 11
471.0890012255
 21
519.6355698529
  0
LINE
  5
285
100
AcDbEntity
  8
0
100
AcDbLine
 62
7
  6
CONTINUOUS
 10
524.5890012255
 20
519.6355698529
 11
840.5890012255
 21
519.6355698529
  0
LINE
  5
286
100
AcDbEntity
  8
0
100
AcDbLine
 62
7
  6
CONTINUOUS
 10
158.0890012255
 20
520.1355698529
 11
468.0890012255
 21
520.1355698529
  0
LINE
  5
287
100
AcDbEntity
  8
0
100
AcDbLine
 62
7
  6
CONTINUOUS
 10
527.5890012255
 20
520.1355698529
 11
837.5890012255
 21
520.1355698529
  0
LINE
  5
288
100
AcDbEntity
  8
0
100
AcDbLine
 62
7
  6
CONTINUOUS
 10
715.0871240576
 20
348.0537827206
 11
715.7010547411
 21
347.0783761578
  0
LINE
  5
289
100
AcDbEntity
  8
0
100
AcDbLine
 62
7
  6
CONTINUOUS
 10
826.5890012255
 20
140.6355698529
 11
709.7328429673
 21
343.7613751474
  0
LINE
  5
28A
100
AcDbEntity
  8
0
100
AcDbLine
 62
7
  6
CONTINUOUS
 10
831.5890012255
 20
145.6355698529
 11
715.7010547419
 21
347.0783761567
  0
LINE
  5
28B
100
AcDbEntity
  8
0
100
AcDbLine
 62
7
  6
CONTINUOUS
 10
709.2286013919
 20
344.7985309682
 11
709.7328429737
 21
343.761375134
  0
LINE
  5
28C
100
AcDbEntity
  8
0
100
AcDbLine
 62
7
  6
CONTINUOUS
 10
874.3390012255
 20
602.1355698529
 11
121.3390012255
 21
602.1355698529
  0
LINE
  5
28D
100
AcDbEntity
  8
0
100
AcDbLine
 62
7
  6
CONTINUOUS
 10
831.5890012255
 20
145.6355698529
 11
831.5890012255
 21
493.6355698529
  0
LINE
  5
28E
100
AcDbEntity
  8
0
100
AcDbLine
 62
7
  6
CONTINUOUS
 10
837.5890012255
 20
134.6355698529
 11
837.5890012255
 21
504.6355698529
  0
LINE
  5
28F
100
AcDbEntity
  8
0
100
AcDbLine
 62
7
  6
CONTINUOUS
 10
840.5890012255
 20
519.838724878
 11
840.5890012255
 21
519.6355698529
  0
LINE
  5
290
100
AcDbEntity
  8
0
100
AcDbLine
 62
7
  6
CONTINUOUS
 10
840.5890012255
 20
119.4324148279
 11
840.5890012255
 21
119.6355698529
  0
LINE
  5
291
100
AcDbEntity
  8
0
100
AcDbLine
 62
7
  6
CONTINUOUS
 10
852.5890012255
 20
507.6355698529
 11
852.5890012255
 21
131.6355698529
  0
LINE
  5
292
100
AcDbEntity
  8
0
100
AcDbLine
 62
7
  6
CONTINUOUS
 10
853.0890012255
 20
504.6355698529
 11
853.0890012255
 21
134.6355698529
  0
LINE
  5
293
100
AcDbEntity
  8
0
100
AcDbLine
 62
7
  6
CONTINUOUS
 10
880.3390012255
 20
98.1355698529
 11
880.3390012255
 21
596.1355698529
  0
LINE
  5
294
100
AcDbEntity
  8
0
100
AcDbLine
 62
7
  6
CONTINUOUS
 10
115.3390012255
 20
913.3347152188
 11
115.3390012255
 21
911.8347152188
  0
LINE
  5
295
100
AcDbEntity
  8
0
100
AcDbLine
 62
7
  6
CONTINUOUS
 10
130.0890012255
 20
911.8347152188
 11
130.0890012255
 21
910.8347152188
  0
LINE
  5
296
100
AcDbEntity
  8
0
100
AcDbLine
 62
7
  6
CONTINUOUS
 10
142.0890012255
 20
726.8347152188
 11
142.0890012255
 21
910.0347152188
  0
LINE
  5
297
100
AcDbEntity
  8
0
100
AcDbLine
 62
7
  6
CONTINUOUS
 10
154.6331571028
 20
911.8347152188
 11
154.6331571028
 21
910.8347152188
  0
LINE
  5
298
100
AcDbEntity
  8
0
100
AcDbLine
 62
7
  6
CONTINUOUS
 10
254.9695213186
 20
703.7053651957
 11
251.5314979776
 21
705.7105606104
  0
LINE
  5
299
100
AcDbEntity
  8
0
100
AcDbLine
 62
7
  6
CONTINUOUS
 10
255.4595178616
 20
703.5011340012
 11
254.9695213201
 21
703.7053651948
  0
LINE
  5
29A
100
AcDbEntity
  8
0
100
AcDbLine
 62
7
  6
CONTINUOUS
 10
727.8478202706
 20
700.1864244871
 11
740.2184845903
 21
703.5011340014
  0
LINE
  5
29B
100
AcDbEntity
  8
0
100
AcDbLine
 62
7
  6
CONTINUOUS
 10
267.8301821804
 20
700.1864244871
 11
255.4595178606
 21
703.5011340014
  0
LWPOLYLINE
  5
29C
100
AcDbEntity
  8
0
100
AcDbPolyline
 62
7
  6
CONTINUOUS
 90
10
 70
0
 10
250.9530893088
 20
705.9006359628
 10
250.9711896272
 20
705.898468155
 10
251.0343612354
 20
705.8891423794
 10
251.1018423587
 20
705.8761104947
 10
251.1710249642
 20
705.8593699491
 10
251.2420395553
 20
705.838501345
 10
251.3143676836
 20
705.8132385282
 10
251.3872050568
 20
705.7834851323
 10
251.4598231895
 20
705.7492267351
 10
251.5314979776
 20
705.7105606104
  0
LWPOLYLINE
  5
29D
100
AcDbEntity
  8
0
100
AcDbPolyline
 62
7
  6
CONTINUOUS
 90
7
 70
0
 10
744.7249111311
 20
705.900631652
 10
758.4938884222
 20
707.3408778664
 10
773.2958067708
 20
708.6126288861
 10
788.0946579918
 20
709.5976598993
 10
802.8826492108
 20
710.2958538294
 10
817.6519877305
 20
710.7076995989
 10
826.5894164746
 20
710.7891512709
  0
LINE
  5
29E
100
AcDbEntity
  8
0
100
AcDbLine
 62
7
  6
CONTINUOUS
 10
727.8478202706
 20
700.1864244871
 11
637.3301821804
 21
700.1864244871
  0
LINE
  5
29F
100
AcDbEntity
  8
0
100
AcDbLine
 62
7
  6
CONTINUOUS
 10
358.3478202706
 20
700.1864244871
 11
267.8301821804
 21
700.1864244871
  0
LWPOLYLINE
  5
2A0
100
AcDbEntity
  8
0
100
AcDbPolyline
 62
7
  6
CONTINUOUS
 90
7
 70
0
 10
375.2249111311
 20
705.900631652
 10
388.9938884222
 20
707.3408778664
 10
403.7958067708
 20
708.6126288861
 10
418.5946579918
 20
709.5976598993
 10
433.3826492108
 20
710.2958538294
 10
448.1519877305
 20
710.7076995989
 10
457.0894164746
 20
710.7891512709
  0
LINE
  5
2A1
100
AcDbEntity
  8
0
100
AcDbLine
 62
7
  6
CONTINUOUS
 10
158.0890012255
 20
710.8347152188
 11
468.0890012255
 21
710.8347152188
  0
LINE
  5
2A2
100
AcDbEntity
  8
0
100
AcDbLine
 62
7
  6
CONTINUOUS
 10
527.5890012255
 20
710.8347152188
 11
837.5890012255
 21
710.8347152188
  0
LWPOLYLINE
  5
2A3
100
AcDbEntity
  8
0
100
AcDbPolyline
 62
7
  6
CONTINUOUS
 90
7
 70
0
 10
169.0885859763
 20
710.7891512709
 10
178.0260147206
 20
710.7076995989
 10
192.7953532405
 20
710.2958538293
 10
207.5833444595
 20
709.5976598992
 10
222.3821956805
 20
708.612628886
 10
237.1841140289
 20
707.3408778664
 10
250.953088277
 20
705.9006319977
  0
LWPOLYLINE
  5
2A4
100
AcDbEntity
  8
0
100
AcDbPolyline
 62
7
  6
CONTINUOUS
 90
7
 70
0
 10
538.5885859763
 20
710.7891512709
 10
547.5260147206
 20
710.7076995989
 10
562.2953532405
 20
710.2958538293
 10
577.0833444595
 20
709.5976598992
 10
591.8821956805
 20
708.612628886
 10
606.6841140289
 20
707.3408778664
 10
620.453088277
 20
705.9006319977
  0
LWPOLYLINE
  5
2A5
100
AcDbEntity
  8
0
100
AcDbPolyline
 62
7
  6
CONTINUOUS
 90
10
 70
0
 10
620.4530893088
 20
705.9006359628
 10
620.4711896272
 20
705.898468155
 10
620.5343612354
 20
705.8891423794
 10
620.6018423587
 20
705.8761104947
 10
620.6710249642
 20
705.8593699491
 10
620.7420395553
 20
705.838501345
 10
620.8143676836
 20
705.8132385282
 10
620.8872050568
 20
705.7834851323
 10
620.9598231895
 20
705.7492267351
 10
621.0314979776
 20
705.7105606104
  0
LINE
  5
2A6
100
AcDbEntity
  8
0
100
AcDbLine
 62
7
  6
CONTINUOUS
 10
358.3478202706
 20
700.1864244871
 11
370.7184845903
 21
703.5011340014
  0
LINE
  5
2A7
100
AcDbEntity
  8
0
100
AcDbLine
 62
7
  6
CONTINUOUS
 10
637.3301821804
 20
700.1864244871
 11
624.9595178606
 21
703.5011340014
  0
LINE
  5
2A8
100
AcDbEntity
  8
0
100
AcDbLine
 62
7
  6
CONTINUOUS
 10
471.5448453482
 20
911.8347152188
 11
471.5448453482
 21
910.8347152188
  0
LINE
  5
2A9
100
AcDbEntity
  8
0
100
AcDbLine
 62
7
  6
CONTINUOUS
 10
624.9595178616
 20
703.5011340012
 11
624.4695213201
 21
703.7053651948
  0
LINE
  5
2AA
100
AcDbEntity
  8
0
100
AcDbLine
 62
7
  6
CONTINUOUS
 10
624.4695213186
 20
703.7053651957
 11
621.0314979776
 21
705.7105606104
  0
LINE
  5
2AB
100
AcDbEntity
  8
0
100
AcDbLine
 62
7
  6
CONTINUOUS
 10
484.0890012255
 20
726.8347152188
 11
484.0890012255
 21
910.0347152188
  0
LINE
  5
2AC
100
AcDbEntity
  8
0
100
AcDbLine
 62
7
  6
CONTINUOUS
 10
496.0890012255
 20
911.8347152188
 11
496.0890012255
 21
910.8347152188
  0
LINE
  5
2AD
100
AcDbEntity
  8
0
100
AcDbLine
 62
7
  6
CONTINUOUS
 10
499.5890012255
 20
911.8347152188
 11
499.5890012255
 21
910.8347152188
  0
LINE
  5
2AE
100
AcDbEntity
  8
0
100
AcDbLine
 62
7
  6
CONTINUOUS
 10
511.5890012255
 20
726.8347152188
 11
511.5890012255
 21
910.0347152188
  0
LINE
  5
2AF
100
AcDbEntity
  8
0
100
AcDbLine
 62
7
  6
CONTINUOUS
 10
524.1331571028
 20
911.8347152188
 11
524.1331571028
 21
910.8347152188
  0
LINE
  5
2B0
100
AcDbEntity
  8
0
100
AcDbLine
 62
7
  6
CONTINUOUS
 10
371.2084811324
 20
703.7053651957
 11
374.6385323999
 21
705.7059425975
  0
LINE
  5
2B1
100
AcDbEntity
  8
0
100
AcDbLine
 62
7
  6
CONTINUOUS
 10
370.7184845894
 20
703.5011340012
 11
371.2084811309
 21
703.7053651948
  0
LINE
  5
2B2
100
AcDbEntity
  8
0
100
AcDbLine
 62
7
  6
CONTINUOUS
 10
130.0890012255
 20
910.8347152188
 11
496.0890012255
 21
910.8347152188
  0
LINE
  5
2B3
100
AcDbEntity
  8
0
100
AcDbLine
 62
7
  6
CONTINUOUS
 10
499.5890012255
 20
910.8347152188
 11
865.5890012255
 21
910.8347152188
  0
LINE
  5
2B4
100
AcDbEntity
  8
0
100
AcDbLine
 62
7
  6
CONTINUOUS
 10
115.3390012255
 20
911.8347152188
 11
880.3390012255
 21
911.8347152188
  0
LINE
  5
2B5
100
AcDbEntity
  8
0
100
AcDbLine
 62
7
  6
CONTINUOUS
 10
115.3390012255
 20
913.3347152188
 11
880.3390012255
 21
913.3347152188
  0
LINE
  5
2B6
100
AcDbEntity
  8
0
100
AcDbLine
 62
7
  6
CONTINUOUS
 10
740.2184845894
 20
703.5011340012
 11
740.7084811309
 21
703.7053651948
  0
LINE
  5
2B7
100
AcDbEntity
  8
0
100
AcDbLine
 62
7
  6
CONTINUOUS
 10
740.7084811324
 20
703.7053651957
 11
744.1385323999
 21
705.7059425975
  0
LINE
  5
2B8
100
AcDbEntity
  8
0
100
AcDbLine
 62
7
  6
CONTINUOUS
 10
841.0448453482
 20
911.8347152188
 11
841.0448453482
 21
910.8347152188
  0
LINE
  5
2B9
100
AcDbEntity
  8
0
100
AcDbLine
 62
7
  6
CONTINUOUS
 10
853.5890012255
 20
726.8347152188
 11
853.5890012255
 21
910.0347152188
  0
LINE
  5
2BA
100
AcDbEntity
  8
0
100
AcDbLine
 62
7
  6
CONTINUOUS
 10
865.5890012255
 20
911.8347152188
 11
865.5890012255
 21
910.8347152188
  0
LINE
  5
2BB
100
AcDbEntity
  8
0
100
AcDbLine
 62
7
  6
CONTINUOUS
 10
880.3390012255
 20
913.3347152188
 11
880.3390012255
 21
911.8347152188
  0
ARC
  5
2BC
100
AcDbEntity
  8
0
100
AcDbCircle
 62
7
  6
CONTINUOUS
 10
468.0890012255
 20
134.6355698529
 40
15.5
100
AcDbArc
 50
270.0
 51
360.0
  0
ARC
  5
2BD
100
AcDbEntity
  8
0
100
AcDbCircle
 62
7
  6
CONTINUOUS
 10
158.0890012255
 20
134.6355698529
 40
15.5
100
AcDbArc
 50
180.0
 51
270.0
  0
ARC
  5
2BE
100
AcDbEntity
  8
0
100
AcDbCircle
 62
7
  6
CONTINUOUS
 10
155.0890012255
 20
131.6355698529
 40
12.0
100
AcDbArc
 50
264.3470468932
 51
270.0
  0
ARC
  5
2BF
100
AcDbEntity
  8
0
100
AcDbCircle
 62
7
  6
CONTINUOUS
 10
155.0890012255
 20
131.6355698529
 40
12.0
100
AcDbArc
 50
180.0
 51
185.6529534782
  0
ARC
  5
2C0
100
AcDbEntity
  8
0
100
AcDbCircle
 62
7
  6
CONTINUOUS
 10
471.0890012255
 20
131.6355698529
 40
12.0
100
AcDbArc
 50
354.3470468932
 51
360.0
  0
ARC
  5
2C1
100
AcDbEntity
  8
0
100
AcDbCircle
 62
7
  6
CONTINUOUS
 10
471.0890012255
 20
131.6355698529
 40
12.0
100
AcDbArc
 50
270.0
 51
275.6529534782
  0
ARC
  5
2C2
100
AcDbEntity
  8
0
100
AcDbCircle
 62
7
  6
CONTINUOUS
 10
121.3390012255
 20
98.1355698529
 40
6.0
100
AcDbArc
 50
180.0
 51
270.0
  0
ARC
  5
2C3
100
AcDbEntity
  8
0
100
AcDbCircle
 62
7
  6
CONTINUOUS
 10
169.0890012255
 20
145.6355698529
 40
5.0
100
AcDbArc
 50
180.0
 51
270.0
  0
ARC
  5
2C4
100
AcDbEntity
  8
0
100
AcDbCircle
 62
7
  6
CONTINUOUS
 10
457.0890012255
 20
145.6355698529
 40
5.0
100
AcDbArc
 50
270.0
 51
360.0
  0
ARC
  5
2C5
100
AcDbEntity
  8
0
100
AcDbCircle
 62
7
  6
CONTINUOUS
 10
312.0256554206
 20
398.9587149172
 40
62.2749217191
100
AcDbArc
 50
29.8075286747
 51
36.0837598473
  0
ARC
  5
2C6
100
AcDbEntity
  8
0
100
AcDbCircle
 62
7
  6
CONTINUOUS
 10
314.1510246655
 20
398.9595718885
 40
62.2733483128
100
AcDbArc
 50
143.9161607853
 51
150.1925506927
  0
ARC
  5
2C7
100
AcDbEntity
  8
0
100
AcDbCircle
 62
7
  6
CONTINUOUS
 10
312.9354075095
 20
399.6670777986
 40
62.176643418
100
AcDbArc
 50
359.9707740456
 51
29.6579841301
  0
ARC
  5
2C8
100
AcDbEntity
  8
0
100
AcDbCircle
 62
7
  6
CONTINUOUS
 10
313.2413381582
 20
399.6674101925
 40
62.1753868054
100
AcDbArc
 50
150.341708972
 51
180.0295328523
  0
ARC
  5
2C9
100
AcDbEntity
  8
0
100
AcDbCircle
 62
7
  6
CONTINUOUS
 10
313.0890012255
 20
399.6355698529
 40
60.9700918469
100
AcDbArc
 50
244.0897157543
 51
295.9102842457
  0
ARC
  5
2CA
100
AcDbEntity
  8
0
100
AcDbCircle
 62
7
  6
CONTINUOUS
 10
313.0890012255
 20
399.6355698529
 40
60.9652781283
100
AcDbArc
 50
237.7878024535
 51
244.0897157543
  0
ARC
  5
2CB
100
AcDbEntity
  8
0
100
AcDbCircle
 62
7
  6
CONTINUOUS
 10
313.0890012255
 20
399.6355698529
 40
60.9652724139
100
AcDbArc
 50
295.9102842457
 51
302.2121975465
  0
ARC
  5
2CC
100
AcDbEntity
  8
0
100
AcDbCircle
 62
7
  6
CONTINUOUS
 10
313.2120254408
 20
399.6081333704
 40
60.922695821
100
AcDbArc
 50
0.0258031048
 51
29.8321969281
  0
ARC
  5
2CD
100
AcDbEntity
  8
0
100
AcDbCircle
 62
7
  6
CONTINUOUS
 10
312.9650186081
 20
399.608388901
 40
60.9217373044
100
AcDbArc
 50
150.167563156
 51
179.9744368111
  0
ARC
  5
2CE
100
AcDbEntity
  8
0
100
AcDbCircle
 62
7
  6
CONTINUOUS
 10
314.3238316422
 20
400.4219795995
 40
60.5965765881
100
AcDbArc
 50
29.6873111985
 51
36.245311417
  0
ARC
  5
2CF
100
AcDbEntity
  8
0
100
AcDbCircle
 62
7
  6
CONTINUOUS
 10
311.8526596097
 20
400.4229597209
 40
60.5947783262
100
AcDbArc
 50
143.7545911663
 51
150.3127862182
  0
CIRCLE
  5
2D0
100
AcDbEntity
  8
0
100
AcDbCircle
 62
7
  6
CONTINUOUS
 10
313.0890012255
 20
399.6355698529
 40
57.6156625908
  0
CIRCLE
  5
2D1
100
AcDbEntity
  8
0
100
AcDbCircle
 62
7
  6
CONTINUOUS
 10
313.0890012255
 20
399.6355698529
 40
57.3706643198
  0
CIRCLE
  5
2D2
100
AcDbEntity
  8
02___PRT_ALL_AXES
100
AcDbCircle
 62
7
  6
CONTINUOUS
 10
313.0890012255
 20
399.6355698529
 40
45.0
  0
CIRCLE
  5
2D3
100
AcDbEntity
  8
02___PRT_ALL_AXES
100
AcDbCircle
 62
7
  6
CONTINUOUS
 10
170.3390012255
 20
561.1355698529
 40
17.5
  0
ARC
  5
2D4
100
AcDbEntity
  8
0
100
AcDbCircle
 62
7
  6
CONTINUOUS
 10
158.0890012255
 20
504.6355698529
 40
15.5
100
AcDbArc
 50
90.0
 51
180.0
  0
ARC
  5
2D5
100
AcDbEntity
  8
0
100
AcDbCircle
 62
7
  6
CONTINUOUS
 10
468.0890012255
 20
504.6355698529
 40
15.5
100
AcDbArc
 50
0.0
 51
90.0
  0
ARC
  5
2D6
100
AcDbEntity
  8
0
100
AcDbCircle
 62
7
  6
CONTINUOUS
 10
471.0890012255
 20
507.6355698529
 40
12.0
100
AcDbArc
 50
84.3470468932
 51
90.0
  0
ARC
  5
2D7
100
AcDbEntity
  8
0
100
AcDbCircle
 62
7
  6
CONTINUOUS
 10
471.0890012255
 20
507.6355698529
 40
12.0
100
AcDbArc
 50
0.0
 51
5.6529534782
  0
ARC
  5
2D8
100
AcDbEntity
  8
0
100
AcDbCircle
 62
7
  6
CONTINUOUS
 10
155.0890012255
 20
507.6355698529
 40
12.0
100
AcDbArc
 50
174.3470468932
 51
180.0
  0
ARC
  5
2D9
100
AcDbEntity
  8
0
100
AcDbCircle
 62
7
  6
CONTINUOUS
 10
155.0890012255
 20
507.6355698529
 40
12.0
100
AcDbArc
 50
90.0
 51
95.6529534783
  0
ARC
  5
2DA
100
AcDbEntity
  8
0
100
AcDbCircle
 62
7
  6
CONTINUOUS
 10
121.3390012255
 20
596.1355698529
 40
6.0
100
AcDbArc
 50
90.0
 51
180.0
  0
ARC
  5
2DB
100
AcDbEntity
  8
0
100
AcDbCircle
 62
7
  6
CONTINUOUS
 10
169.0890012255
 20
493.6355698529
 40
5.0
100
AcDbArc
 50
90.0
 51
180.0
  0
ARC
  5
2DC
100
AcDbEntity
  8
0
100
AcDbCircle
 62
7
  6
CONTINUOUS
 10
457.0890012255
 20
493.6355698529
 40
5.0
100
AcDbArc
 50
0.0000000004
 51
90.0000039738
  0
ARC
  5
2DD
100
AcDbEntity
  8
0
100
AcDbCircle
 62
7
  6
CONTINUOUS
 10
527.5890012255
 20
134.6355698529
 40
15.5
100
AcDbArc
 50
180.0
 51
270.0
  0
ARC
  5
2DE
100
AcDbEntity
  8
0
100
AcDbCircle
 62
7
  6
CONTINUOUS
 10
837.5890012255
 20
134.6355698529
 40
15.5
100
AcDbArc
 50
270.0
 51
360.0
  0
ARC
  5
2DF
100
AcDbEntity
  8
0
100
AcDbCircle
 62
7
  6
CONTINUOUS
 10
524.5890012255
 20
131.6355698529
 40
12.0
100
AcDbArc
 50
264.3470468932
 51
270.0
  0
ARC
  5
2E0
100
AcDbEntity
  8
0
100
AcDbCircle
 62
7
  6
CONTINUOUS
 10
524.5890012255
 20
131.6355698529
 40
12.0
100
AcDbArc
 50
180.0
 51
185.6529534782
  0
ARC
  5
2E1
100
AcDbEntity
  8
0
100
AcDbCircle
 62
7
  6
CONTINUOUS
 10
840.5890012255
 20
131.6355698529
 40
12.0
100
AcDbArc
 50
354.3470468932
 51
360.0
  0
ARC
  5
2E2
100
AcDbEntity
  8
0
100
AcDbCircle
 62
7
  6
CONTINUOUS
 10
840.5890012255
 20
131.6355698529
 40
12.0
100
AcDbArc
 50
270.0
 51
275.6529534782
  0
ARC
  5
2E3
100
AcDbEntity
  8
0
100
AcDbCircle
 62
7
  6
CONTINUOUS
 10
874.3390012255
 20
98.1355698529
 40
6.0
100
AcDbArc
 50
270.0
 51
360.0
  0
ARC
  5
2E4
100
AcDbEntity
  8
0
100
AcDbCircle
 62
7
  6
CONTINUOUS
 10
538.5890012255
 20
145.6355698529
 40
5.0
100
AcDbArc
 50
180.0
 51
270.0
  0
ARC
  5
2E5
100
AcDbEntity
  8
0
100
AcDbCircle
 62
7
  6
CONTINUOUS
 10
826.5890012255
 20
145.6355698529
 40
5.0
100
AcDbArc
 50
270.0
 51
360.0
  0
ARC
  5
2E6
100
AcDbEntity
  8
0
100
AcDbCircle
 62
7
  6
CONTINUOUS
 10
681.5256554206
 20
398.9587149172
 40
62.2749217191
100
AcDbArc
 50
29.8075286747
 51
36.0837598473
  0
ARC
  5
2E7
100
AcDbEntity
  8
0
100
AcDbCircle
 62
7
  6
CONTINUOUS
 10
683.6510246656
 20
398.9595718885
 40
62.2733483129
100
AcDbArc
 50
143.9161607853
 51
150.1925506927
  0
ARC
  5
2E8
100
AcDbEntity
  8
0
100
AcDbCircle
 62
7
  6
CONTINUOUS
 10
682.4354075095
 20
399.6670777986
 40
62.176643418
100
AcDbArc
 50
359.9707740456
 51
29.6579841301
  0
ARC
  5
2E9
100
AcDbEntity
  8
0
100
AcDbCircle
 62
7
  6
CONTINUOUS
 10
682.7413381582
 20
399.6674101925
 40
62.1753868054
100
AcDbArc
 50
150.341708972
 51
180.0295328523
  0
ARC
  5
2EA
100
AcDbEntity
  8
0
100
AcDbCircle
 62
7
  6
CONTINUOUS
 10
682.5890012255
 20
399.6355698529
 40
60.9700918469
100
AcDbArc
 50
244.0897157543
 51
295.9102842457
  0
ARC
  5
2EB
100
AcDbEntity
  8
0
100
AcDbCircle
 62
7
  6
CONTINUOUS
 10
682.5890012255
 20
399.6355698529
 40
60.9652781283
100
AcDbArc
 50
237.7878024535
 51
244.0897157543
  0
ARC
  5
2EC
100
AcDbEntity
  8
0
100
AcDbCircle
 62
7
  6
CONTINUOUS
 10
682.5890012255
 20
399.6355698529
 40
60.9652724139
100
AcDbArc
 50
295.9102842457
 51
302.2121975465
  0
ARC
  5
2ED
100
AcDbEntity
  8
0
100
AcDbCircle
 62
7
  6
CONTINUOUS
 10
682.7120254408
 20
399.6081333704
 40
60.922695821
100
AcDbArc
 50
0.0258031048
 51
29.8321969281
  0
ARC
  5
2EE
100
AcDbEntity
  8
0
100
AcDbCircle
 62
7
  6
CONTINUOUS
 10
682.4650186081
 20
399.608388901
 40
60.9217373044
100
AcDbArc
 50
150.167563156
 51
179.9744368111
  0
ARC
  5
2EF
100
AcDbEntity
  8
0
100
AcDbCircle
 62
7
  6
CONTINUOUS
 10
683.8238316423
 20
400.4219795996
 40
60.596576588
100
AcDbArc
 50
29.6873111985
 51
36.245311417
  0
ARC
  5
2F0
100
AcDbEntity
  8
0
100
AcDbCircle
 62
7
  6
CONTINUOUS
 10
681.3526596097
 20
400.4229597209
 40
60.5947783262
100
AcDbArc
 50
143.7545911663
 51
150.3127862182
  0
CIRCLE
  5
2F1
100
AcDbEntity
  8
0
100
AcDbCircle
 62
7
  6
CONTINUOUS
 10
682.5890012255
 20
399.6355698529
 40
57.6156625908
  0
CIRCLE
  5
2F2
100
AcDbEntity
  8
0
100
AcDbCircle
 62
7
  6
CONTINUOUS
 10
682.5890012255
 20
399.6355698529
 40
57.3706643198
  0
CIRCLE
  5
2F3
100
AcDbEntity
  8
02___PRT_ALL_AXES
100
AcDbCircle
 62
7
  6
CONTINUOUS
 10
682.5890012255
 20
399.6355698529
 40
45.0
  0
CIRCLE
  5
2F4
100
AcDbEntity
  8
02___PRT_ALL_AXES
100
AcDbCircle
 62
7
  6
CONTINUOUS
 10
497.8390012255
 20
561.1355698529
 40
17.5
  0
ARC
  5
2F5
100
AcDbEntity
  8
0
100
AcDbCircle
 62
7
  6
CONTINUOUS
 10
527.5890012255
 20
504.6355698529
 40
15.5
100
AcDbArc
 50
90.0
 51
180.0
  0
ARC
  5
2F6
100
AcDbEntity
  8
0
100
AcDbCircle
 62
7
  6
CONTINUOUS
 10
837.5890012255
 20
504.6355698529
 40
15.5
100
AcDbArc
 50
0.0
 51
90.0
  0
ARC
  5
2F7
100
AcDbEntity
  8
0
100
AcDbCircle
 62
7
  6
CONTINUOUS
 10
840.5890012255
 20
507.6355698529
 40
12.0
100
AcDbArc
 50
84.3470468932
 51
90.0
  0
ARC
  5
2F8
100
AcDbEntity
  8
0
100
AcDbCircle
 62
7
  6
CONTINUOUS
 10
840.5890012255
 20
507.6355698529
 40
12.0
100
AcDbArc
 50
0.0
 51
5.6529534782
  0
ARC
  5
2F9
100
AcDbEntity
  8
0
100
AcDbCircle
 62
7
  6
CONTINUOUS
 10
524.5890012255
 20
507.6355698529
 40
12.0
100
AcDbArc
 50
174.3470468932
 51
180.0
  0
ARC
  5
2FA
100
AcDbEntity
  8
0
100
AcDbCircle
 62
7
  6
CONTINUOUS
 10
524.5890012255
 20
507.6355698529
 40
12.0
100
AcDbArc
 50
90.0
 51
95.6529534783
  0
ARC
  5
2FB
100
AcDbEntity
  8
0
100
AcDbCircle
 62
7
  6
CONTINUOUS
 10
874.3390012255
 20
596.1355698529
 40
6.0
100
AcDbArc
 50
0.0
 51
90.0
  0
ARC
  5
2FC
100
AcDbEntity
  8
0
100
AcDbCircle
 62
7
  6
CONTINUOUS
 10
538.5890012255
 20
493.6355698529
 40
5.0
100
AcDbArc
 50
90.0
 51
180.0
  0
ARC
  5
2FD
100
AcDbEntity
  8
0
100
AcDbCircle
 62
7
  6
CONTINUOUS
 10
826.5890012255
 20
493.6355698529
 40
5.0
100
AcDbArc
 50
0.0000000004
 51
90.0000039738
  0
ARC
  5
2FE
100
AcDbEntity
  8
0
100
AcDbCircle
 62
7
  6
CONTINUOUS
 10
468.0890012255
 20
726.8347152188
 40
16.0
100
AcDbArc
 50
270.0
 51
360.0
  0
ARC
  5
2FF
100
AcDbEntity
  8
0
100
AcDbCircle
 62
7
  6
CONTINUOUS
 10
158.0890012255
 20
726.8347152188
 40
16.0
100
AcDbArc
 50
180.0
 51
270.0
  0
ARC
  5
300
100
AcDbEntity
  8
0
100
AcDbCircle
 62
7
  6
CONTINUOUS
 10
255.9771559508
 20
705.432985654
 40
2.0
100
AcDbArc
 50
239.7471254485
 51
255.0000000292
  0
ARC
  5
301
100
AcDbEntity
  8
0
100
AcDbCircle
 62
7
  6
CONTINUOUS
 10
370.2008465001
 20
705.432985654
 40
2.0
100
AcDbArc
 50
284.999999971
 51
300.2528745517
  0
ARC
  5
302
100
AcDbEntity
  8
0
100
AcDbCircle
 62
7
  6
CONTINUOUS
 10
250.783745211
 20
704.4102276674
 40
1.4999999875
100
AcDbArc
 50
59.7471430765
 51
83.5183046471
  0
ARC
  5
303
100
AcDbEntity
  8
0
100
AcDbCircle
 62
7
  6
CONTINUOUS
 10
375.394253002
 20
704.4102274052
 40
1.4999999593
100
AcDbArc
 50
96.481598167
 51
120.2527699957
  0
ARC
  5
304
100
AcDbEntity
  8
0
100
AcDbCircle
 62
7
  6
CONTINUOUS
 10
141.2890012255
 20
910.0347152188
 40
0.8
100
AcDbArc
 50
0.0
 51
89.9999997233
  0
ARC
  5
305
100
AcDbEntity
  8
0
100
AcDbCircle
 62
7
  6
CONTINUOUS
 10
484.8890012255
 20
910.0347152188
 40
0.8
100
AcDbArc
 50
112.0095710562
 51
180.0
  0
ARC
  5
306
100
AcDbEntity
  8
0
100
AcDbCircle
 62
7
  6
CONTINUOUS
 10
837.5890012255
 20
726.8347152188
 40
16.0
100
AcDbArc
 50
270.0
 51
360.0
  0
ARC
  5
307
100
AcDbEntity
  8
0
100
AcDbCircle
 62
7
  6
CONTINUOUS
 10
527.5890012255
 20
726.8347152188
 40
16.0
100
AcDbArc
 50
180.0
 51
270.0
  0
ARC
  5
308
100
AcDbEntity
  8
0
100
AcDbCircle
 62
7
  6
CONTINUOUS
 10
625.4771559508
 20
705.432985654
 40
2.0
100
AcDbArc
 50
239.7471254485
 51
255.0000000292
  0
ARC
  5
309
100
AcDbEntity
  8
0
100
AcDbCircle
 62
7
  6
CONTINUOUS
 10
739.7008465001
 20
705.432985654
 40
2.0
100
AcDbArc
 50
284.999999971
 51
300.2528745517
  0
ARC
  5
30A
100
AcDbEntity
  8
0
100
AcDbCircle
 62
7
  6
CONTINUOUS
 10
620.283745211
 20
704.4102276674
 40
1.4999999875
100
AcDbArc
 50
59.7471430765
 51
83.5183046471
  0
ARC
  5
30B
100
AcDbEntity
  8
0
100
AcDbCircle
 62
7
  6
CONTINUOUS
 10
744.894253002
 20
704.4102274052
 40
1.4999999593
100
AcDbArc
 50
96.481598167
 51
120.2527699957
  0
ARC
  5
30C
100
AcDbEntity
  8
0
100
AcDbCircle
 62
7
  6
CONTINUOUS
 10
510.7890012255
 20
910.0347152188
 40
0.8
100
AcDbArc
 50
0.0
 51
89.9999997232
  0
ARC
  5
30D
100
AcDbEntity
  8
0
100
AcDbCircle
 62
7
  6
CONTINUOUS
 10
854.3890012255
 20
910.0347152188
 40
0.8
100
AcDbArc
 50
112.0095686961
 51
180.0
  0
SPLINE
  5
30E
100
AcDbEntity
  8
0
100
AcDbSpline
 62
7
  6
CONTINUOUS
 70
0
 71
3
 72
15
 73
11
 74
0
 42
0.0000001
 43
0.0000001
 44
0.0000000001
 40
0.0
 40
0.0
 40
0.0
 40
0.0
 40
0.1249490195
 40
0.249926569
 40
0.3749434108
 40
0.5000057158
 40
0.6250659616
 40
0.7500788828
 40
0.8750532641
 40
1.0
 40
1.0
 40
1.0
 40
1.0
 10
732.6945458271
 20
436.2493209641
 30
0.0
 10
729.8340617698
 20
440.1517407949
 30
0.0
 10
723.1632739026
 20
447.3091416089
 30
0.0
 10
710.9411418842
 20
455.3884684923
 30
0.0
 10
697.1471346184
 20
460.3547048261
 30
0.0
 10
682.5883882872
 20
462.0177507979
 30
0.0
 10
668.0297899371
 20
460.3546164441
 30
0.0
 10
654.2362329703
 20
455.3881784825
 30
0.0
 10
642.0145100158
 20
447.3089272845
 30
0.0
 10
635.343889536
 20
440.1516686417
 30
0.0
 10
632.4834566239
 20
436.2493209641
 30
0.0
  0
SPLINE
  5
30F
100
AcDbEntity
  8
0
100
AcDbSpline
 62
7
  6
CONTINUOUS
 70
0
 71
3
 72
11
 73
7
 74
0
 42
0.0000001
 43
0.0000001
 44
0.0000000001
 40
0.0
 40
0.0
 40
0.0
 40
0.0
 40
0.2499576612
 40
0.4999498924
 40
0.7499859733
 40
1.0
 40
1.0
 40
1.0
 40
1.0
 10
715.0871241006
 20
348.0537826524
 30
0.0
 10
719.4138801045
 20
350.777437858
 30
0.0
 10
727.4159365017
 20
357.3476111499
 30
0.0
 10
736.5615333856
 20
369.8580272694
 30
0.0
 10
742.3187498284
 20
384.2475609169
 30
0.0
 10
743.6337579744
 20
394.5217743594
 30
0.0
 10
743.6347150838
 20
399.6355698529
 30
0.0
  0
SPLINE
  5
310
100
AcDbEntity
  8
0
100
AcDbSpline
 62
7
  6
CONTINUOUS
 70
0
 71
3
 72
11
 73
7
 74
0
 42
0.0000001
 43
0.0000001
 44
0.0000000001
 40
0.0
 40
0.0
 40
0.0
 40
0.0
 40
0.2499753081
 40
0.4999907784
 40
0.7500110714
 40
1.0
 40
1.0
 40
1.0
 40
1.0
 10
621.5432873672
 20
399.6355698529
 30
0.0
 10
621.5442129277
 20
394.522564343
 30
0.0
 10
622.8587577448
 20
384.2495549236
 30
0.0
 10
628.6151588967
 20
369.8604095788
 30
0.0
 10
637.7606350924
 20
357.3488713466
 30
0.0
 10
645.7635817061
 20
350.7777831955
 30
0.0
 10
650.0908783504
 20
348.0537826524
 30
0.0
  0
SPLINE
  5
311
100
AcDbEntity
  8
0
100
AcDbSpline
 62
7
  6
CONTINUOUS
 70
0
 71
3
 72
19
 73
15
 74
0
 42
0.0000001
 43
0.0000001
 44
0.0000000001
 40
0.0
 40
0.0
 40
0.0
 40
0.0
 40
0.1932354459
 40
0.3794997168
 40
0.5517934782
 40
0.7036182363
 40
0.8289240063
 40
0.8799749391
 40
0.9225325659
 40
0.9561336384
 40
0.9804111858
 40
0.9889556868
 40
0.9950784428
 40
1.0
 40
1.0
 40
1.0
 40
1.0
 10
527.5890012255
 20
134.6355698529
 30
0.0
 10
527.3823484154
 20
133.6721731399
 30
0.0
 10
527.0190991841
 20
131.7712846724
 30
0.0
 10
526.4645120851
 20
129.0129273334
 30
0.0
 10
525.9520319508
 20
126.461429427
 30
0.0
 10
525.5053964681
 20
124.2137236733
 30
0.0
 10
525.1757368081
 20
122.5731842536
 30
0.0
 10
524.9566887575
 20
121.4785227548
 30
0.0
 10
524.8305701323
 20
120.8425101085
 30
0.0
 10
524.7280375834
 20
120.340079345
 30
0.0
 10
524.6665397802
 20
120.0083850888
 30
0.0
 10
524.6211222657
 20
119.8130503775
 30
0.0
 10
524.6130548148
 20
119.7161651151
 30
0.0
 10
524.5796965657
 20
119.658876254
 30
0.0
 10
524.5890012255
 20
119.6355698529
 30
0.0
  0
SPLINE
  5
312
100
AcDbEntity
  8
0
100
AcDbSpline
 62
7
  6
CONTINUOUS
 70
0
 71
3
 72
19
 73
15
 74
0
 42
0.0000001
 43
0.0000001
 44
0.0000000001
 40
0.0
 40
0.0
 40
0.0
 40
0.0
 40
0.1932354459
 40
0.3794997168
 40
0.5517934782
 40
0.7036182363
 40
0.8289240063
 40
0.8799749391
 40
0.9225325659
 40
0.9561336384
 40
0.9804111858
 40
0.9889556868
 40
0.9950784428
 40
1.0
 40
1.0
 40
1.0
 40
1.0
 10
837.5890012255
 20
134.6355698529
 30
0.0
 10
838.5523979385
 20
134.4289170429
 30
0.0
 10
840.453286406
 20
134.0656678115
 30
0.0
 10
843.211643745
 20
133.5110807126
 30
0.0
 10
845.7631416514
 20
132.9986005783
 30
0.0
 10
848.0108474051
 20
132.5519650956
 30
0.0
 10
849.6513868249
 20
132.2223054355
 30
0.0
 10
850.7460483236
 20
132.0032573849
 30
0.0
 10
851.38206097
 20
131.8771387598
 30
0.0
 10
851.8844917335
 20
131.7746062109
 30
0.0
 10
852.2161859896
 20
131.7131084077
 30
0.0
 10
852.4115207009
 20
131.6676908931
 30
0.0
 10
852.5084059634
 20
131.6596234423
 30
0.0
 10
852.5656948245
 20
131.6262651932
 30
0.0
 10
852.5890012255
 20
131.6355698529
 30
0.0
  0
SPLINE
  5
313
100
AcDbEntity
  8
0
100
AcDbSpline
 62
7
  6
CONTINUOUS
 70
0
 71
3
 72
21
 73
17
 74
0
 42
0.0000001
 43
0.0000001
 44
0.0000000001
 40
0.0
 40
0.0
 40
0.0
 40
0.0
 40
0.0012577886
 40
0.0049413683
 40
0.0110479541
 40
0.0195743746
 40
0.0438463932
 40
0.0774724713
 40
0.1200482032
 40
0.1710983617
 40
0.2300789221
 40
0.2963930336
 40
0.4482124579
 40
0.6205021774
 40
0.8067657126
 40
1.0
 40
1.0
 40
1.0
 40
1.0
 10
852.5890012255
 20
507.6355698529
 30
0.0
 10
852.5838720286
 20
507.639420087
 30
0.0
 10
852.5560903925
 20
507.6238383139
 30
0.0
 10
852.5035927844
 20
507.6238728454
 30
0.0
 10
852.4103430893
 20
507.5999626961
 30
0.0
 10
852.2167556158
 20
507.5647976218
 30
0.0
 10
851.8841365627
 20
507.4946246671
 30
0.0
 10
851.3824442182
 20
507.3937467538
 30
0.0
 10
850.7462150775
 20
507.2652021941
 30
0.0
 10
849.9831964074
 20
507.1129207853
 30
0.0
 10
849.1014414873
 20
506.9365909463
 30
0.0
 10
847.7160241361
 20
506.6587518024
 30
0.0
 10
845.7631812158
 20
506.2719367409
 30
0.0
 10
843.2115762923
 20
505.7601943287
 30
0.0
 10
840.4532928951
 20
505.2053843201
 30
0.0
 10
838.5523935301
 20
504.8422217174
 30
0.0
 10
837.5890012255
 20
504.6355698529
 30
0.0
  0
SPLINE
  5
314
100
AcDbEntity
  8
0
100
AcDbSpline
 62
7
  6
CONTINUOUS
 70
0
 71
3
 72
19
 73
15
 74
0
 42
0.0000001
 43
0.0000001
 44
0.0000000001
 40
0.0
 40
0.0
 40
0.0
 40
0.0
 40
0.1932354459
 40
0.3794997168
 40
0.5517934782
 40
0.7036182363
 40
0.8289240063
 40
0.8799749391
 40
0.9225325659
 40
0.9561336384
 40
0.9804111858
 40
0.9889556868
 40
0.9950784428
 40
1.0
 40
1.0
 40
1.0
 40
1.0
 10
837.5890012255
 20
504.6355698529
 30
0.0
 10
837.7956540356
 20
505.598966566
 30
0.0
 10
838.1589032669
 20
507.4998550335
 30
0.0
 10
838.7134903659
 20
510.2582123725
 30
0.0
 10
839.2259705001
 20
512.8097102788
 30
0.0
 10
839.6726059829
 20
515.0574160325
 30
0.0
 10
840.0022656429
 20
516.6979554523
 30
0.0
 10
840.2213136935
 20
517.792616951
 30
0.0
 10
840.3474323187
 20
518.4286295974
 30
0.0
 10
840.4499648676
 20
518.9310603609
 30
0.0
 10
840.5114626707
 20
519.2627546171
 30
0.0
 10
840.5568801853
 20
519.4580893284
 30
0.0
 10
840.5649476362
 20
519.5549745908
 30
0.0
 10
840.5983058852
 20
519.6122634519
 30
0.0
 10
840.5890012255
 20
519.6355698529
 30
0.0
  0
SPLINE
  5
315
100
AcDbEntity
  8
0
100
AcDbSpline
 62
7
  6
CONTINUOUS
 70
0
 71
3
 72
19
 73
15
 74
0
 42
0.0000001
 43
0.0000001
 44
0.0000000001
 40
0.0
 40
0.0
 40
0.0
 40
0.0
 40
0.1932354459
 40
0.3794997168
 40
0.5517934782
 40
0.7036182363
 40
0.8289240063
 40
0.8799749391
 40
0.9225325659
 40
0.9561336384
 40
0.9804111858
 40
0.9889556868
 40
0.9950784428
 40
1.0
 40
1.0
 40
1.0
 40
1.0
 10
527.5890012255
 20
504.6355698529
 30
0.0
 10
526.6256045125
 20
504.842222663
 30
0.0
 10
524.7247160449
 20
505.2054718943
 30
0.0
 10
521.966358706
 20
505.7600589933
 30
0.0
 10
519.4148607996
 20
506.2725391276
 30
0.0
 10
517.1671550459
 20
506.7191746103
 30
0.0
 10
515.5266156261
 20
507.0488342703
 30
0.0
 10
514.4319541274
 20
507.267882321
 30
0.0
 10
513.795941481
 20
507.3940009461
 30
0.0
 10
513.2935107175
 20
507.496533495
 30
0.0
 10
512.9618164614
 20
507.5580312982
 30
0.0
 10
512.76648175
 20
507.6034488128
 30
0.0
 10
512.6695964876
 20
507.6115162636
 30
0.0
 10
512.6123076265
 20
507.6448745127
 30
0.0
 10
512.5890012255
 20
507.6355698529
 30
0.0
  0
SPLINE
  5
316
100
AcDbEntity
  8
0
100
AcDbSpline
 62
7
  6
CONTINUOUS
 70
0
 71
3
 72
15
 73
11
 74
0
 42
0.0000001
 43
0.0000001
 44
0.0000000001
 40
0.0
 40
0.0
 40
0.0
 40
0.0
 40
0.124952844
 40
0.2499365273
 40
0.3749564882
 40
0.5000051529
 40
0.6250519556
 40
0.7500687473
 40
0.8750493806
 40
1.0
 40
1.0
 40
1.0
 40
1.0
 10
731.8535603455
 20
435.6366082725
 30
0.0
 10
729.0427114741
 20
439.4930034992
 30
0.0
 10
722.4886543573
 20
446.5734515596
 30
0.0
 10
710.4888413461
 20
454.6143783531
 30
0.0
 10
696.9456494949
 20
459.6661585803
 30
0.0
 10
682.5884538979
 20
461.4300702556
 30
0.0
 10
668.2313560632
 20
459.6661418268
 30
0.0
 10
654.6885969297
 20
454.6140833443
 30
0.0
 10
642.6891367207
 20
446.5732534137
 30
0.0
 10
636.1352418964
 20
439.4929341395
 30
0.0
 10
633.3244421055
 20
435.6366082725
 30
0.0
  0
SPLINE
  5
317
100
AcDbEntity
  8
0
100
AcDbSpline
 62
7
  6
CONTINUOUS
 70
0
 71
3
 72
11
 73
7
 74
0
 42
0.0000001
 43
0.0000001
 44
0.0000000001
 40
0.0
 40
0.0
 40
0.0
 40
0.0
 40
0.2499925914
 40
0.5000044159
 40
0.7500164825
 40
1.0
 40
1.0
 40
1.0
 40
1.0
 10
620.5659596123
 20
399.63536217
 30
0.0
 10
620.5646832736
 20
394.4318950257
 30
0.0
 10
621.8692571514
 20
383.9772460716
 30
0.0
 10
627.6621038555
 20
369.3070237174
 30
0.0
 10
636.9391785205
 20
356.5506710336
 30
0.0
 10
645.0758051779
 20
349.8539933593
 30
0.0
 10
649.4769477091
 20
347.0783761567
 30
0.0
  0
SPLINE
  5
318
100
AcDbEntity
  8
0
100
AcDbSpline
 62
7
  6
CONTINUOUS
 70
0
 71
3
 72
9
 73
5
 74
0
 42
0.0000001
 43
0.0000001
 44
0.0000000001
 40
0.0
 40
0.0
 40
0.0
 40
0.0
 40
0.2320715229
 40
1.0
 40
1.0
 40
1.0
 40
1.0
 10
649.4790619421
 20
347.0816967967
 30
0.0
 10
649.9247259558
 20
346.7979450073
 30
0.0
 10
651.8663347119
 20
345.6091462111
 30
0.0
 10
653.8701912698
 20
344.5202232495
 30
0.0
 10
655.4452530667
 20
343.7615694376
 30
0.0
  0
SPLINE
  5
319
100
AcDbEntity
  8
0
100
AcDbSpline
 62
7
  6
CONTINUOUS
 70
0
 71
3
 72
21
 73
17
 74
0
 42
0.0000001
 43
0.0000001
 44
0.0000000001
 40
0.0
 40
0.0
 40
0.0
 40
0.0
 40
0.0012577886
 40
0.0049413683
 40
0.0110479541
 40
0.0195743746
 40
0.0438463932
 40
0.0774724713
 40
0.1200482032
 40
0.1710983617
 40
0.2300789221
 40
0.2963930336
 40
0.4482124579
 40
0.6205021774
 40
0.8067657126
 40
1.0
 40
1.0
 40
1.0
 40
1.0
 10
524.5890012255
 20
519.6355698529
 30
0.0
 10
524.5851509914
 20
519.6304406561
 30
0.0
 10
524.6007327645
 20
519.6026590199
 30
0.0
 10
524.600698233
 20
519.5501614118
 30
0.0
 10
524.6246083823
 20
519.4569117167
 30
0.0
 10
524.6597734566
 20
519.2633242433
 30
0.0
 10
524.7299464113
 20
518.9307051901
 30
0.0
 10
524.8308243246
 20
518.4290128456
 30
0.0
 10
524.9593688843
 20
517.7927837049
 30
0.0
 10
525.1116502931
 20
517.0297650349
 30
0.0
 10
525.2879801321
 20
516.1480101148
 30
0.0
 10
525.5658192761
 20
514.7625927636
 30
0.0
 10
525.9526343375
 20
512.8097498432
 30
0.0
 10
526.4643767497
 20
510.2581449198
 30
0.0
 10
527.0191867583
 20
507.4998615225
 30
0.0
 10
527.3823493611
 20
505.5989621575
 30
0.0
 10
527.5890012255
 20
504.6355698529
 30
0.0
  0
SPLINE
  5
31A
100
AcDbEntity
  8
0
100
AcDbSpline
 62
7
  6
CONTINUOUS
 70
0
 71
3
 72
21
 73
17
 74
0
 42
0.0000001
 43
0.0000001
 44
0.0000000001
 40
0.0
 40
0.0
 40
0.0
 40
0.0
 40
0.0012577886
 40
0.0049413683
 40
0.0110479541
 40
0.0195743746
 40
0.0438463932
 40
0.0774724713
 40
0.1200482032
 40
0.1710983617
 40
0.2300789221
 40
0.2963930336
 40
0.4482124579
 40
0.6205021774
 40
0.8067657126
 40
1.0
 40
1.0
 40
1.0
 40
1.0
 10
840.5890012255
 20
119.6355698529
 30
0.0
 10
840.5928514596
 20
119.6406990498
 30
0.0
 10
840.5772696865
 20
119.6684806859
 30
0.0
 10
840.577304218
 20
119.720978294
 30
0.0
 10
840.5533940686
 20
119.8142279892
 30
0.0
 10
840.5182289944
 20
120.0078154626
 30
0.0
 10
840.4480560397
 20
120.3404345157
 30
0.0
 10
840.3471781264
 20
120.8421268603
 30
0.0
 10
840.2186335667
 20
121.4783560009
 30
0.0
 10
840.0663521578
 20
122.241374671
 30
0.0
 10
839.8900223189
 20
123.1231295911
 30
0.0
 10
839.6121831749
 20
124.5085469423
 30
0.0
 10
839.2253681135
 20
126.4613898626
 30
0.0
 10
838.7136257013
 20
129.0129947861
 30
0.0
 10
838.1588156927
 20
131.7712781834
 30
0.0
 10
837.7956530899
 20
133.6721775484
 30
0.0
 10
837.5890012255
 20
134.6355698529
 30
0.0
  0
SPLINE
  5
31B
100
AcDbEntity
  8
0
100
AcDbSpline
 62
7
  6
CONTINUOUS
 70
0
 71
3
 72
21
 73
17
 74
0
 42
0.0000001
 43
0.0000001
 44
0.0000000001
 40
0.0
 40
0.0
 40
0.0
 40
0.0
 40
0.0012577886
 40
0.0049413683
 40
0.0110479541
 40
0.0195743746
 40
0.0438463932
 40
0.0774724713
 40
0.1200482032
 40
0.1710983617
 40
0.2300789221
 40
0.2963930336
 40
0.4482124579
 40
0.6205021774
 40
0.8067657126
 40
1.0
 40
1.0
 40
1.0
 40
1.0
 10
512.5890012255
 20
131.6355698529
 30
0.0
 10
512.5941304224
 20
131.6317196188
 30
0.0
 10
512.6219120585
 20
131.647301392
 30
0.0
 10
512.6744096666
 20
131.6472668605
 30
0.0
 10
512.7676593617
 20
131.6711770098
 30
0.0
 10
512.9612468352
 20
131.7063420841
 30
0.0
 10
513.2938658883
 20
131.7765150388
 30
0.0
 10
513.7955582328
 20
131.8773929521
 30
0.0
 10
514.4317873735
 20
132.0059375117
 30
0.0
 10
515.1948060436
 20
132.1582189206
 30
0.0
 10
516.0765609637
 20
132.3345487596
 30
0.0
 10
517.4619783149
 20
132.6123879035
 30
0.0
 10
519.4148212352
 20
132.999202965
 30
0.0
 10
521.9664261587
 20
133.5109453772
 30
0.0
 10
524.7247095559
 20
134.0657553858
 30
0.0
 10
526.6256089209
 20
134.4289179885
 30
0.0
 10
527.5890012255
 20
134.6355698529
 30
0.0
  0
SPLINE
  5
31C
100
AcDbEntity
  8
0
100
AcDbSpline
 62
7
  6
CONTINUOUS
 70
0
 71
3
 72
11
 73
7
 74
0
 42
0.0000001
 43
0.0000001
 44
0.0000000001
 40
0.0
 40
0.0
 40
0.0
 40
0.0
 40
0.2499917078
 40
0.4999996705
 40
0.7500075727
 40
1.0
 40
1.0
 40
1.0
 40
1.0
 10
655.4451594837
 20
343.7613751474
 30
0.0
 10
659.6475782624
 20
341.7214361446
 30
0.0
 10
668.5484223834
 20
338.5847950217
 30
0.0
 10
682.5889811667
 20
336.9990920622
 30
0.0
 10
696.6295510803
 20
338.5847981456
 30
0.0
 10
705.5304120833
 20
341.7214302942
 30
0.0
 10
709.7328429673
 20
343.7613751474
 30
0.0
  0
SPLINE
  5
31D
100
AcDbEntity
  8
0
100
AcDbSpline
 62
7
  6
CONTINUOUS
 70
0
 71
3
 72
9
 73
5
 74
0
 42
0.0000001
 43
0.0000001
 44
0.0000000001
 40
0.0
 40
0.0
 40
0.0
 40
0.0
 40
0.2134390701
 40
1.0
 40
1.0
 40
1.0
 40
1.0
 10
709.7327208326
 20
343.7616287142
 30
0.0
 10
710.1704880772
 20
343.9724865622
 30
0.0
 10
712.2053971164
 20
344.9931824611
 30
0.0
 10
714.1884398034
 20
346.1200480678
 30
0.0
 10
715.6989054078
 20
347.081751931
 30
0.0
  0
SPLINE
  5
31E
100
AcDbEntity
  8
0
100
AcDbSpline
 62
7
  6
CONTINUOUS
 70
0
 71
3
 72
11
 73
7
 74
0
 42
0.0000001
 43
0.0000001
 44
0.0000000001
 40
0.0
 40
0.0
 40
0.0
 40
0.0
 40
0.2499527071
 40
0.4999371589
 40
0.7499699111
 40
1.0
 40
1.0
 40
1.0
 40
1.0
 10
715.7010547419
 20
347.0783761567
 30
0.0
 10
720.10165566
 20
349.8536459499
 30
0.0
 10
728.2373897121
 20
356.549406257
 30
0.0
 10
737.5146024449
 20
369.304639365
 30
0.0
 10
743.3082515198
 20
383.9752638731
 30
0.0
 10
744.6132738199
 20
394.4311166597
 30
0.0
 10
744.6120428386
 20
399.63536217
 30
0.0
  0
SPLINE
  5
31F
100
AcDbEntity
  8
0
100
AcDbSpline
 62
7
  6
CONTINUOUS
 70
0
 71
3
 72
15
 73
11
 74
0
 42
0.0000001
 43
0.0000001
 44
0.0000000001
 40
0.0
 40
0.0
 40
0.0
 40
0.0
 40
0.1249490195
 40
0.249926569
 40
0.3749434108
 40
0.5000057158
 40
0.6250659616
 40
0.7500788828
 40
0.8750532641
 40
1.0
 40
1.0
 40
1.0
 40
1.0
 10
363.1945458271
 20
436.2493209641
 30
0.0
 10
360.3340617698
 20
440.1517407949
 30
0.0
 10
353.6632739026
 20
447.3091416089
 30
0.0
 10
341.4411418842
 20
455.3884684923
 30
0.0
 10
327.6471346184
 20
460.3547048261
 30
0.0
 10
313.0883882872
 20
462.0177507979
 30
0.0
 10
298.5297899371
 20
460.3546164441
 30
0.0
 10
284.7362329703
 20
455.3881784825
 30
0.0
 10
272.5145100158
 20
447.3089272845
 30
0.0
 10
265.843889536
 20
440.1516686417
 30
0.0
 10
262.9834566239
 20
436.2493209641
 30
0.0
  0
SPLINE
  5
320
100
AcDbEntity
  8
0
100
AcDbSpline
 62
7
  6
CONTINUOUS
 70
0
 71
3
 72
11
 73
7
 74
0
 42
0.0000001
 43
0.0000001
 44
0.0000000001
 40
0.0
 40
0.0
 40
0.0
 40
0.0
 40
0.2499576612
 40
0.4999498924
 40
0.7499859733
 40
1.0
 40
1.0
 40
1.0
 40
1.0
 10
345.5871241006
 20
348.0537826524
 30
0.0
 10
349.9138801045
 20
350.777437858
 30
0.0
 10
357.9159365017
 20
357.3476111499
 30
0.0
 10
367.0615333856
 20
369.8580272694
 30
0.0
 10
372.8187498284
 20
384.2475609169
 30
0.0
 10
374.1337579744
 20
394.5217743594
 30
0.0
 10
374.1347150838
 20
399.6355698529
 30
0.0
  0
SPLINE
  5
321
100
AcDbEntity
  8
0
100
AcDbSpline
 62
7
  6
CONTINUOUS
 70
0
 71
3
 72
11
 73
7
 74
0
 42
0.0000001
 43
0.0000001
 44
0.0000000001
 40
0.0
 40
0.0
 40
0.0
 40
0.0
 40
0.2499753081
 40
0.4999907784
 40
0.7500110714
 40
1.0
 40
1.0
 40
1.0
 40
1.0
 10
252.0432873672
 20
399.6355698529
 30
0.0
 10
252.0442129277
 20
394.522564343
 30
0.0
 10
253.3587577448
 20
384.2495549236
 30
0.0
 10
259.1151588967
 20
369.8604095788
 30
0.0
 10
268.2606350924
 20
357.3488713466
 30
0.0
 10
276.2635817061
 20
350.7777831955
 30
0.0
 10
280.5908783504
 20
348.0537826524
 30
0.0
  0
SPLINE
  5
322
100
AcDbEntity
  8
0
100
AcDbSpline
 62
7
  6
CONTINUOUS
 70
0
 71
3
 72
19
 73
15
 74
0
 42
0.0000001
 43
0.0000001
 44
0.0000000001
 40
0.0
 40
0.0
 40
0.0
 40
0.0
 40
0.1932354459
 40
0.3794997168
 40
0.5517934782
 40
0.7036182363
 40
0.8289240063
 40
0.8799749391
 40
0.9225325659
 40
0.9561336384
 40
0.9804111858
 40
0.9889556868
 40
0.9950784428
 40
1.0
 40
1.0
 40
1.0
 40
1.0
 10
158.0890012255
 20
134.6355698529
 30
0.0
 10
157.8823484154
 20
133.6721731399
 30
0.0
 10
157.5190991841
 20
131.7712846724
 30
0.0
 10
156.9645120851
 20
129.0129273334
 30
0.0
 10
156.4520319508
 20
126.461429427
 30
0.0
 10
156.0053964681
 20
124.2137236733
 30
0.0
 10
155.6757368081
 20
122.5731842536
 30
0.0
 10
155.4566887575
 20
121.4785227548
 30
0.0
 10
155.3305701323
 20
120.8425101085
 30
0.0
 10
155.2280375834
 20
120.340079345
 30
0.0
 10
155.1665397802
 20
120.0083850888
 30
0.0
 10
155.1211222657
 20
119.8130503775
 30
0.0
 10
155.1130548148
 20
119.7161651151
 30
0.0
 10
155.0796965657
 20
119.658876254
 30
0.0
 10
155.0890012255
 20
119.6355698529
 30
0.0
  0
SPLINE
  5
323
100
AcDbEntity
  8
0
100
AcDbSpline
 62
7
  6
CONTINUOUS
 70
0
 71
3
 72
19
 73
15
 74
0
 42
0.0000001
 43
0.0000001
 44
0.0000000001
 40
0.0
 40
0.0
 40
0.0
 40
0.0
 40
0.1932354459
 40
0.3794997168
 40
0.5517934782
 40
0.7036182363
 40
0.8289240063
 40
0.8799749391
 40
0.9225325659
 40
0.9561336384
 40
0.9804111858
 40
0.9889556868
 40
0.9950784428
 40
1.0
 40
1.0
 40
1.0
 40
1.0
 10
468.0890012255
 20
134.6355698529
 30
0.0
 10
469.0523979385
 20
134.4289170429
 30
0.0
 10
470.953286406
 20
134.0656678115
 30
0.0
 10
473.711643745
 20
133.5110807126
 30
0.0
 10
476.2631416514
 20
132.9986005783
 30
0.0
 10
478.5108474051
 20
132.5519650956
 30
0.0
 10
480.1513868249
 20
132.2223054355
 30
0.0
 10
481.2460483236
 20
132.0032573849
 30
0.0
 10
481.88206097
 20
131.8771387598
 30
0.0
 10
482.3844917335
 20
131.7746062109
 30
0.0
 10
482.7161859896
 20
131.7131084077
 30
0.0
 10
482.9115207009
 20
131.6676908931
 30
0.0
 10
483.0084059633
 20
131.6596234423
 30
0.0
 10
483.0656948245
 20
131.6262651932
 30
0.0
 10
483.0890012255
 20
131.6355698529
 30
0.0
  0
SPLINE
  5
324
100
AcDbEntity
  8
0
100
AcDbSpline
 62
7
  6
CONTINUOUS
 70
0
 71
3
 72
21
 73
17
 74
0
 42
0.0000001
 43
0.0000001
 44
0.0000000001
 40
0.0
 40
0.0
 40
0.0
 40
0.0
 40
0.0012577886
 40
0.0049413683
 40
0.0110479541
 40
0.0195743746
 40
0.0438463932
 40
0.0774724713
 40
0.1200482032
 40
0.1710983617
 40
0.2300789221
 40
0.2963930336
 40
0.4482124579
 40
0.6205021774
 40
0.8067657126
 40
1.0
 40
1.0
 40
1.0
 40
1.0
 10
483.0890012255
 20
507.6355698529
 30
0.0
 10
483.0838720286
 20
507.639420087
 30
0.0
 10
483.0560903925
 20
507.6238383139
 30
0.0
 10
483.0035927844
 20
507.6238728454
 30
0.0
 10
482.9103430893
 20
507.5999626961
 30
0.0
 10
482.7167556158
 20
507.5647976218
 30
0.0
 10
482.3841365627
 20
507.4946246671
 30
0.0
 10
481.8824442182
 20
507.3937467538
 30
0.0
 10
481.2462150775
 20
507.2652021941
 30
0.0
 10
480.4831964074
 20
507.1129207853
 30
0.0
 10
479.6014414873
 20
506.9365909463
 30
0.0
 10
478.2160241361
 20
506.6587518024
 30
0.0
 10
476.2631812158
 20
506.2719367409
 30
0.0
 10
473.7115762923
 20
505.7601943287
 30
0.0
 10
470.9532928951
 20
505.2053843201
 30
0.0
 10
469.0523935301
 20
504.8422217174
 30
0.0
 10
468.0890012255
 20
504.6355698529
 30
0.0
  0
SPLINE
  5
325
100
AcDbEntity
  8
0
100
AcDbSpline
 62
7
  6
CONTINUOUS
 70
0
 71
3
 72
19
 73
15
 74
0
 42
0.0000001
 43
0.0000001
 44
0.0000000001
 40
0.0
 40
0.0
 40
0.0
 40
0.0
 40
0.1932354459
 40
0.3794997168
 40
0.5517934782
 40
0.7036182363
 40
0.8289240063
 40
0.8799749391
 40
0.9225325659
 40
0.9561336384
 40
0.9804111858
 40
0.9889556868
 40
0.9950784428
 40
1.0
 40
1.0
 40
1.0
 40
1.0
 10
468.0890012255
 20
504.6355698529
 30
0.0
 10
468.2956540356
 20
505.598966566
 30
0.0
 10
468.6589032669
 20
507.4998550335
 30
0.0
 10
469.2134903659
 20
510.2582123725
 30
0.0
 10
469.7259705001
 20
512.8097102788
 30
0.0
 10
470.1726059829
 20
515.0574160325
 30
0.0
 10
470.5022656429
 20
516.6979554523
 30
0.0
 10
470.7213136935
 20
517.792616951
 30
0.0
 10
470.8474323187
 20
518.4286295974
 30
0.0
 10
470.9499648676
 20
518.9310603609
 30
0.0
 10
471.0114626707
 20
519.2627546171
 30
0.0
 10
471.0568801853
 20
519.4580893284
 30
0.0
 10
471.0649476362
 20
519.5549745908
 30
0.0
 10
471.0983058852
 20
519.6122634519
 30
0.0
 10
471.0890012255
 20
519.6355698529
 30
0.0
  0
SPLINE
  5
326
100
AcDbEntity
  8
0
100
AcDbSpline
 62
7
  6
CONTINUOUS
 70
0
 71
3
 72
19
 73
15
 74
0
 42
0.0000001
 43
0.0000001
 44
0.0000000001
 40
0.0
 40
0.0
 40
0.0
 40
0.0
 40
0.1932354459
 40
0.3794997168
 40
0.5517934782
 40
0.7036182363
 40
0.8289240063
 40
0.8799749391
 40
0.9225325659
 40
0.9561336384
 40
0.9804111858
 40
0.9889556868
 40
0.9950784428
 40
1.0
 40
1.0
 40
1.0
 40
1.0
 10
158.0890012255
 20
504.6355698529
 30
0.0
 10
157.1256045125
 20
504.842222663
 30
0.0
 10
155.2247160449
 20
505.2054718943
 30
0.0
 10
152.466358706
 20
505.7600589933
 30
0.0
 10
149.9148607996
 20
506.2725391276
 30
0.0
 10
147.6671550459
 20
506.7191746103
 30
0.0
 10
146.0266156261
 20
507.0488342703
 30
0.0
 10
144.9319541274
 20
507.267882321
 30
0.0
 10
144.295941481
 20
507.3940009461
 30
0.0
 10
143.7935107175
 20
507.496533495
 30
0.0
 10
143.4618164614
 20
507.5580312982
 30
0.0
 10
143.26648175
 20
507.6034488128
 30
0.0
 10
143.1695964876
 20
507.6115162636
 30
0.0
 10
143.1123076265
 20
507.6448745127
 30
0.0
 10
143.0890012255
 20
507.6355698529
 30
0.0
  0
SPLINE
  5
327
100
AcDbEntity
  8
0
100
AcDbSpline
 62
7
  6
CONTINUOUS
 70
0
 71
3
 72
15
 73
11
 74
0
 42
0.0000001
 43
0.0000001
 44
0.0000000001
 40
0.0
 40
0.0
 40
0.0
 40
0.0
 40
0.124952844
 40
0.2499365273
 40
0.3749564882
 40
0.5000051529
 40
0.6250519556
 40
0.7500687473
 40
0.8750493806
 40
1.0
 40
1.0
 40
1.0
 40
1.0
 10
362.3535603455
 20
435.6366082725
 30
0.0
 10
359.5427114741
 20
439.4930034992
 30
0.0
 10
352.9886543573
 20
446.5734515596
 30
0.0
 10
340.9888413461
 20
454.6143783531
 30
0.0
 10
327.4456494949
 20
459.6661585803
 30
0.0
 10
313.0884538979
 20
461.4300702556
 30
0.0
 10
298.7313560632
 20
459.6661418268
 30
0.0
 10
285.1885969297
 20
454.6140833443
 30
0.0
 10
273.1891367207
 20
446.5732534137
 30
0.0
 10
266.6352418964
 20
439.4929341395
 30
0.0
 10
263.8244421055
 20
435.6366082725
 30
0.0
  0
SPLINE
  5
328
100
AcDbEntity
  8
0
100
AcDbSpline
 62
7
  6
CONTINUOUS
 70
0
 71
3
 72
11
 73
7
 74
0
 42
0.0000001
 43
0.0000001
 44
0.0000000001
 40
0.0
 40
0.0
 40
0.0
 40
0.0
 40
0.2499925914
 40
0.5000044159
 40
0.7500164825
 40
1.0
 40
1.0
 40
1.0
 40
1.0
 10
251.0659596123
 20
399.63536217
 30
0.0
 10
251.0646832736
 20
394.4318950257
 30
0.0
 10
252.3692571514
 20
383.9772460716
 30
0.0
 10
258.1621038555
 20
369.3070237174
 30
0.0
 10
267.4391785205
 20
356.5506710336
 30
0.0
 10
275.5758051779
 20
349.8539933593
 30
0.0
 10
279.9769477091
 20
347.0783761567
 30
0.0
  0
SPLINE
  5
329
100
AcDbEntity
  8
0
100
AcDbSpline
 62
7
  6
CONTINUOUS
 70
0
 71
3
 72
9
 73
5
 74
0
 42
0.0000001
 43
0.0000001
 44
0.0000000001
 40
0.0
 40
0.0
 40
0.0
 40
0.0
 40
0.2320715229
 40
1.0
 40
1.0
 40
1.0
 40
1.0
 10
279.9790619421
 20
347.0816967967
 30
0.0
 10
280.4247259558
 20
346.7979450073
 30
0.0
 10
282.3663347119
 20
345.6091462111
 30
0.0
 10
284.3701912698
 20
344.5202232495
 30
0.0
 10
285.9452530667
 20
343.7615694376
 30
0.0
  0
SPLINE
  5
32A
100
AcDbEntity
  8
0
100
AcDbSpline
 62
7
  6
CONTINUOUS
 70
0
 71
3
 72
21
 73
17
 74
0
 42
0.0000001
 43
0.0000001
 44
0.0000000001
 40
0.0
 40
0.0
 40
0.0
 40
0.0
 40
0.0012577886
 40
0.0049413683
 40
0.0110479541
 40
0.0195743746
 40
0.0438463932
 40
0.0774724713
 40
0.1200482032
 40
0.1710983617
 40
0.2300789221
 40
0.2963930336
 40
0.4482124579
 40
0.6205021774
 40
0.8067657126
 40
1.0
 40
1.0
 40
1.0
 40
1.0
 10
155.0890012255
 20
519.6355698529
 30
0.0
 10
155.0851509914
 20
519.6304406561
 30
0.0
 10
155.1007327645
 20
519.6026590199
 30
0.0
 10
155.100698233
 20
519.5501614118
 30
0.0
 10
155.1246083823
 20
519.4569117167
 30
0.0
 10
155.1597734566
 20
519.2633242433
 30
0.0
 10
155.2299464113
 20
518.9307051901
 30
0.0
 10
155.3308243246
 20
518.4290128456
 30
0.0
 10
155.4593688843
 20
517.7927837049
 30
0.0
 10
155.6116502931
 20
517.0297650349
 30
0.0
 10
155.7879801321
 20
516.1480101148
 30
0.0
 10
156.0658192761
 20
514.7625927636
 30
0.0
 10
156.4526343375
 20
512.8097498432
 30
0.0
 10
156.9643767497
 20
510.2581449198
 30
0.0
 10
157.5191867583
 20
507.4998615225
 30
0.0
 10
157.8823493611
 20
505.5989621575
 30
0.0
 10
158.0890012255
 20
504.6355698529
 30
0.0
  0
SPLINE
  5
32B
100
AcDbEntity
  8
0
100
AcDbSpline
 62
7
  6
CONTINUOUS
 70
0
 71
3
 72
21
 73
17
 74
0
 42
0.0000001
 43
0.0000001
 44
0.0000000001
 40
0.0
 40
0.0
 40
0.0
 40
0.0
 40
0.0012577886
 40
0.0049413683
 40
0.0110479541
 40
0.0195743746
 40
0.0438463932
 40
0.0774724713
 40
0.1200482032
 40
0.1710983617
 40
0.2300789221
 40
0.2963930336
 40
0.4482124579
 40
0.6205021774
 40
0.8067657126
 40
1.0
 40
1.0
 40
1.0
 40
1.0
 10
471.0890012255
 20
119.6355698529
 30
0.0
 10
471.0928514596
 20
119.6406990498
 30
0.0
 10
471.0772696865
 20
119.6684806859
 30
0.0
 10
471.0773042179
 20
119.720978294
 30
0.0
 10
471.0533940686
 20
119.8142279892
 30
0.0
 10
471.0182289944
 20
120.0078154626
 30
0.0
 10
470.9480560397
 20
120.3404345157
 30
0.0
 10
470.8471781264
 20
120.8421268603
 30
0.0
 10
470.7186335667
 20
121.4783560009
 30
0.0
 10
470.5663521578
 20
122.241374671
 30
0.0
 10
470.3900223189
 20
123.1231295911
 30
0.0
 10
470.1121831749
 20
124.5085469423
 30
0.0
 10
469.7253681135
 20
126.4613898626
 30
0.0
 10
469.2136257013
 20
129.0129947861
 30
0.0
 10
468.6588156927
 20
131.7712781834
 30
0.0
 10
468.2956530899
 20
133.6721775484
 30
0.0
 10
468.0890012255
 20
134.6355698529
 30
0.0
  0
SPLINE
  5
32C
100
AcDbEntity
  8
0
100
AcDbSpline
 62
7
  6
CONTINUOUS
 70
0
 71
3
 72
21
 73
17
 74
0
 42
0.0000001
 43
0.0000001
 44
0.0000000001
 40
0.0
 40
0.0
 40
0.0
 40
0.0
 40
0.0012577886
 40
0.0049413683
 40
0.0110479541
 40
0.0195743746
 40
0.0438463932
 40
0.0774724713
 40
0.1200482032
 40
0.1710983617
 40
0.2300789221
 40
0.2963930336
 40
0.4482124579
 40
0.6205021774
 40
0.8067657126
 40
1.0
 40
1.0
 40
1.0
 40
1.0
 10
143.0890012255
 20
131.6355698529
 30
0.0
 10
143.0941304224
 20
131.6317196188
 30
0.0
 10
143.1219120585
 20
131.647301392
 30
0.0
 10
143.1744096666
 20
131.6472668605
 30
0.0
 10
143.2676593617
 20
131.6711770098
 30
0.0
 10
143.4612468352
 20
131.7063420841
 30
0.0
 10
143.7938658883
 20
131.7765150388
 30
0.0
 10
144.2955582328
 20
131.8773929521
 30
0.0
 10
144.9317873735
 20
132.0059375117
 30
0.0
 10
145.6948060436
 20
132.1582189206
 30
0.0
 10
146.5765609637
 20
132.3345487596
 30
0.0
 10
147.9619783149
 20
132.6123879035
 30
0.0
 10
149.9148212352
 20
132.999202965
 30
0.0
 10
152.4664261587
 20
133.5109453772
 30
0.0
 10
155.2247095559
 20
134.0657553858
 30
0.0
 10
157.1256089209
 20
134.4289179885
 30
0.0
 10
158.0890012255
 20
134.6355698529
 30
0.0
  0
SPLINE
  5
32D
100
AcDbEntity
  8
0
100
AcDbSpline
 62
7
  6
CONTINUOUS
 70
0
 71
3
 72
11
 73
7
 74
0
 42
0.0000001
 43
0.0000001
 44
0.0000000001
 40
0.0
 40
0.0
 40
0.0
 40
0.0
 40
0.2499917078
 40
0.4999996705
 40
0.7500075727
 40
1.0
 40
1.0
 40
1.0
 40
1.0
 10
285.9451594837
 20
343.7613751474
 30
0.0
 10
290.1475782624
 20
341.7214361446
 30
0.0
 10
299.0484223834
 20
338.5847950217
 30
0.0
 10
313.0889811667
 20
336.9990920622
 30
0.0
 10
327.1295510803
 20
338.5847981456
 30
0.0
 10
336.0304120833
 20
341.7214302942
 30
0.0
 10
340.2328429673
 20
343.7613751474
 30
0.0
  0
SPLINE
  5
32E
100
AcDbEntity
  8
0
100
AcDbSpline
 62
7
  6
CONTINUOUS
 70
0
 71
3
 72
9
 73
5
 74
0
 42
0.0000001
 43
0.0000001
 44
0.0000000001
 40
0.0
 40
0.0
 40
0.0
 40
0.0
 40
0.2134390701
 40
1.0
 40
1.0
 40
1.0
 40
1.0
 10
340.2327208326
 20
343.7616287142
 30
0.0
 10
340.6704880772
 20
343.9724865622
 30
0.0
 10
342.7053971164
 20
344.9931824611
 30
0.0
 10
344.6884398034
 20
346.1200480678
 30
0.0
 10
346.1989054078
 20
347.081751931
 30
0.0
  0
SPLINE
  5
32F
100
AcDbEntity
  8
0
100
AcDbSpline
 62
7
  6
CONTINUOUS
 70
0
 71
3
 72
11
 73
7
 74
0
 42
0.0000001
 43
0.0000001
 44
0.0000000001
 40
0.0
 40
0.0
 40
0.0
 40
0.0
 40
0.2499527071
 40
0.4999371589
 40
0.7499699111
 40
1.0
 40
1.0
 40
1.0
 40
1.0
 10
346.2010547419
 20
347.0783761567
 30
0.0
 10
350.60165566
 20
349.8536459499
 30
0.0
 10
358.7373897121
 20
356.549406257
 30
0.0
 10
368.0146024449
 20
369.304639365
 30
0.0
 10
373.8082515198
 20
383.9752638731
 30
0.0
 10
375.1132738199
 20
394.4311166597
 30
0.0
 10
375.1120428386
 20
399.63536217
 30
0.0
  0
ENDSEC
  0
SECTION
  2
OBJECTS
  0
DICTIONARY
  5
C
100
AcDbDictionary
280
0
281
1
  3
ACAD_GROUP
350
D
  3
ACAD_MLINESTYLE
350
17
  3
ACAD_LAYOUT
350
1A
  3
ACAD_PLOTSETTINGS
350
19
  3
ACAD_PLOTSTYLENAME
350
E
  0
DICTIONARY
  5
D
102
{ACAD_REACTORS
330
C
102
}
100
AcDbDictionary
280
0
281
1
  0
ACDBDICTIONARYWDFLT
  5
E
102
{ACAD_REACTORS
330
C
102
}
100
AcDbDictionary
281
1
  3
Normal
350
F
100
AcDbDictionaryWithDefault
340
F
  0
DICTIONARY
  5
17
102
{ACAD_REACTORS
330
C
102
}
100
AcDbDictionary
280
0
281
1
  3
Standard
350
18
  0
DICTIONARY
  5
19
102
{ACAD_REACTORS
330
C
102
}
100
AcDbDictionary
281
1
  0
DICTIONARY
  5
1A
102
{ACAD_REACTORS
330
C
102
}
100
AcDbDictionary
281
1
  3
Model
350
330
  3
Layout1
350
331
  0
ACDBPLACEHOLDER
  5
F
102
{ACAD_REACTORS
330
E
102
}
  0
MLINESTYLE
  5
18
102
{ACAD_REACTORS
330
17
102
}
100
AcDbMlineStyle
  2
STANDARD
 70
0
  3

 62
256
 51
90.0
 52
90.0
 71
2
 49
0.5
 62
256
  6
BYLAYER
 49
-0.5
 62
256
  6
BYLAYER
  0
LAYOUT
  5
330
102
{ACAD_REACTORS
330
1A
102
}
100
AcDbPlotSettings
  1

  2
none_device
  4

  6

 40
0.0
 41
0.0
 42
0.0
 43
0.0
 44
1000.0
 45
1000.0
 46
0.0
 47
0.0
 48
0.0
 49
0.0
140
0.0
141
0.0
142
1.0
143
1.0
 70
1024
 72
1
 73
0
 74
0
  7

 75
0
147
1.0
148
0.0
149
0.0
100
AcDbLayout
  1
Model
 70
0
 71
0
 10
0.0
 20
0.0
 11
1000.0
 21
1000.0
 12
0.0
 22
0.0
 32
0.0
 14
0.0
 24
0.0
 34
0.0
 15
0.0
 25
0.0
 35
0.0
146
0.0
 13
0.0
 23
0.0
 33
0.0
 16
1.0
 26
0.0
 36
0.0
 17
0.0
 27
1.0
 37
0.0
 76
0
330
217
345
0
346
0
  0
LAYOUT
  5
331
102
{ACAD_REACTORS
330
1A
102
}
100
AcDbPlotSettings
  1

  2
none_device
  4

  6

 40
0.0
 41
0.0
 42
0.0
 43
0.0
 44
1000.0
 45
1000.0
 46
0.0
 47
0.0
 48
0.0
 49
0.0
140
0.0
141
0.0
142
1.0
143
1.0
 70
0
 72
1
 73
0
 74
0
  7

 75
0
147
1.0
148
0.0
149
0.0
100
AcDbLayout
  1
Layout1
 70
0
 71
1
 10
0.0
 20
0.0
 11
1000.0
 21
1000.0
 12
0.0
 22
0.0
 32
0.0
 14
0.0
 24
0.0
 34
0.0
 15
0.0
 25
0.0
 35
0.0
146
0.0
 13
0.0
 23
0.0
 33
0.0
 16
1.0
 26
0.0
 36
0.0
 17
0.0
 27
1.0
 37
0.0
 76
0
330
218
345
0
346
0
  0
ENDSEC
  0
EOF
