999
DXF file: S:\Engenharia\Wildfire\Engenharia\Componentes\Pias_Cubas\Pias_de_Apoio\Standard\13434550\13434550.dxf
999
Pro/ENGINEER 2013150 by Parametric Technology Corporation
  0
SECTION
  2
HEADER
  9
$ACADVER
  1
AC1021
  9
$DWGCODEPAGE
  3
ANSI_1252
  9
$EXTMAX
 10
1400.0
 20
1000.0
 30
0.0
  9
$EXTMIN
 10
0.0
 20
0.0
 30
0.0
  9
$LIMMIN
 10
0.0
 20
0.0
  9
$LIMMAX
 10
1400.0
 20
1000.0
  9
$VIEWCTR
 10
700.0
 20
500.0
  9
$VIEWSIZE
 40
1000.0
  9
$CLAYER
  8
0
  9
$LTSCALE
 40
77.0
  9
$CELTYPE
  6
BYLAYER
  9
$DIMSCALE
 40
1.0
  9
$DIMASZ
 40
3.0
  9
$DIMEXO
 40
0.5
  9
$DIMDLI
 40
53.2
  9
$DIMEXE
 40
0.5
  9
$DIMCEN
 40
12.6
  9
$DIMLFAC
 40
1.0
  9
$DIMBLK
  1
_FILLED
  9
$DIMTXT
 40
1.8
  9
$DIMTOL
 70
1
  9
$DIMLIM
 70
0
  9
$DIMTFAC
 40
1.0
  9
$DIMTP
 40
0.001
  9
$DIMTM
 40
0.001
  9
$DIMGAP
 40
0.625
  9
$DIMDSEP
 70
46
  9
$PDMODE
 70
3
  9
$PDSIZE
 40
1.0
  9
$HANDSEED
  5
3C4
  9
$TILEMODE
 70
1
  9
$MEASUREMENT
 70
1
  9
$INSUNITS
 70
4
  0
ENDSEC
  0
SECTION
  2
CLASSES
  0
CLASS
  1
ACDBDICTIONARYWDFLT
  2
AcDbDictionaryWithDefault
  3
AutoCAD 2000
 90
0
 91
1
280
0
281
0
  0
CLASS
  1
ACDBPLACEHOLDER
  2
AcDbPlaceHolder
  3
AutoCAD 2000
 90
0
 91
1
280
0
281
0
  0
CLASS
  1
LAYOUT
  2
AcDbLayout
  3
AutoCAD 2000
 90
0
 91
0
280
0
281
0
  0
ENDSEC
  0
SECTION
  2
TABLES
  0
TABLE
  2
VPORT
  5
8
100
AcDbSymbolTable
 70
2
  0
VPORT
  5
1F4
100
AcDbSymbolTableRecord
100
AcDbViewportTableRecord
  2
*ACTIVE
 70
0
 10
0.0
 20
0.0
 11
1.0
 21
1.0
 12
700.0
 22
500.0
 13
0.0
 23
0.0
 14
1.0
 24
1.0
 15
0.0
 25
0.0
 16
0.0
 26
0.0
 36
1.0
 17
0.0
 27
0.0
 37
0.0
 40
1000.0
 41
1.4
 42
50.0
 43
0.0
 44
0.0
 50
0.0
 51
0.0
 71
0
 72
100
 73
1
 74
1
 75
0
 76
0
 77
0
 78
0
  0
ENDTAB
  0
TABLE
  2
LTYPE
  5
5
100
AcDbSymbolTable
 70
6
  0
LTYPE
  5
14
100
AcDbSymbolTableRecord
100
AcDbLinetypeTableRecord
  2
BYBLOCK
 70
0
  3

 72
65
 73
0
 40
0.0
  0
LTYPE
  5
15
100
AcDbSymbolTableRecord
100
AcDbLinetypeTableRecord
  2
BYLAYER
 70
0
  3

 72
65
 73
0
 40
0.0
  0
LTYPE
  5
16
100
AcDbSymbolTableRecord
100
AcDbLinetypeTableRecord
  2
CONTINUOUS
 70
64
  3
Solid line
 72
65
 73
0
 40
0.0
  0
LTYPE
  5
1F5
100
AcDbSymbolTableRecord
100
AcDbLinetypeTableRecord
  2
CENTER
 70
64
  3
____ _ ____ _ ____ _ ____ _ ____ _ ____ _ ____
 72
65
 73
4
 40
0.6
 49
0.375
 74
0
 49
-0.075
 74
0
 49
0.075
 74
0
 49
-0.075
 74
0
  0
LTYPE
  5
1F6
100
AcDbSymbolTableRecord
100
AcDbLinetypeTableRecord
  2
HIDDEN
 70
64
  3
- - - - - - - - - - - - - - - - - - - -
 72
65
 73
2
 40
0.2
 49
0.1
 74
0
 49
-0.1
 74
0
  0
LTYPE
  5
1F7
100
AcDbSymbolTableRecord
100
AcDbLinetypeTableRecord
  2
PHANTOM
 70
64
  3
_____ _ _ _____ _ _ _____ _ _ _____
 72
65
 73
6
 40
0.8
 49
0.45
 74
0
 49
-0.05
 74
0
 49
0.1
 74
0
 49
-0.05
 74
0
 49
0.1
 74
0
 49
-0.05
 74
0
  0
LTYPE
  5
1F8
100
AcDbSymbolTableRecord
100
AcDbLinetypeTableRecord
  2
DOT
 70
64
  3
. . . . . . . . . . . . . . . . . . . .
 72
65
 73
2
 40
0.2
 49
0.1
 74
0
 49
-0.1
 74
0
  0
LTYPE
  5
1F9
100
AcDbSymbolTableRecord
100
AcDbLinetypeTableRecord
  2
DASHED
 70
64
  3
- - - - - - - - - - - - - - - - - - - -
 72
65
 73
2
 40
0.2
 49
0.1
 74
0
 49
-0.1
 74
0
  0
ENDTAB
  0
TABLE
  2
LAYER
  5
2
100
AcDbSymbolTable
 70
36
  0
LAYER
  5
10
100
AcDbSymbolTableRecord
100
AcDbLayerTableRecord
  2
0
 70
0
 62
7
  6
CONTINUOUS
370
-3
390
F
  0
LAYER
  5
1FA
100
AcDbSymbolTableRecord
100
AcDbLayerTableRecord
  2
DEFAULT_1
 70
0
 62
7
  6
CENTER
370
-3
390
F
  0
LAYER
  5
1FB
100
AcDbSymbolTableRecord
100
AcDbLayerTableRecord
  2
DEFAULT_2
 70
0
 62
8
  6
HIDDEN
370
-3
390
F
  0
LAYER
  5
1FC
100
AcDbSymbolTableRecord
100
AcDbLayerTableRecord
  2
DEFAULT_3
 70
0
 62
7
  6
PHANTOM
370
-3
390
F
  0
LAYER
  5
1FD
100
AcDbSymbolTableRecord
100
AcDbLayerTableRecord
  2
01___PRT_ALL_DTM_PLN
 70
0
 62
7
  6
CONTINUOUS
370
-3
390
F
  0
LAYER
  5
1FE
100
AcDbSymbolTableRecord
100
AcDbLayerTableRecord
  2
01___PRT_DEF_DTM_PLN
 70
0
 62
7
  6
CONTINUOUS
370
-3
390
F
  0
LAYER
  5
1FF
100
AcDbSymbolTableRecord
100
AcDbLayerTableRecord
  2
02___PRT_ALL_AXES
 70
0
 62
7
  6
CONTINUOUS
370
-3
390
F
  0
LAYER
  5
200
100
AcDbSymbolTableRecord
100
AcDbLayerTableRecord
  2
03___PRT_ALL_CURVES
 70
0
 62
7
  6
CONTINUOUS
370
-3
390
F
  0
LAYER
  5
201
100
AcDbSymbolTableRecord
100
AcDbLayerTableRecord
  2
04___PRT_ALL_DTM_PNT
 70
0
 62
7
  6
CONTINUOUS
370
-3
390
F
  0
LAYER
  5
202
100
AcDbSymbolTableRecord
100
AcDbLayerTableRecord
  2
05___PRT_ALL_DTM_CSYS
 70
0
 62
7
  6
CONTINUOUS
370
-3
390
F
  0
LAYER
  5
203
100
AcDbSymbolTableRecord
100
AcDbLayerTableRecord
  2
05___PRT_DEF_DTM_CSYS
 70
0
 62
7
  6
CONTINUOUS
370
-3
390
F
  0
LAYER
  5
204
100
AcDbSymbolTableRecord
100
AcDbLayerTableRecord
  2
06___PRT_ALL_SURFS
 70
0
 62
7
  6
CONTINUOUS
370
-3
390
F
  0
ENDTAB
  0
TABLE
  2
STYLE
  5
3
100
AcDbSymbolTable
 70
1
  0
STYLE
  5
11
100
AcDbSymbolTableRecord
100
AcDbTextStyleTableRecord
  2
STANDARD
 70
0
 40
0.0
 41
0.8
 50
0.0
 71
0
 42
0.2
  3
txt
  4

  0
STYLE
  5
205
100
AcDbSymbolTableRecord
100
AcDbTextStyleTableRecord
  2
TEXTSTYLE_1
 70
0
 40
0.0
 41
0.8
 50
0.0
 71
0
 42
0.2
  3
gdt
  4

  0
ENDTAB
  0
TABLE
  2
VIEW
  5
6
100
AcDbSymbolTable
 70
0
  0
ENDTAB
  0
TABLE
  2
UCS
  5
7
100
AcDbSymbolTable
 70
0
  0
ENDTAB
  0
TABLE
  2
APPID
  5
9
100
AcDbSymbolTable
 70
1
  0
APPID
  5
206
100
AcDbSymbolTableRecord
100
AcDbRegAppTableRecord
  2
ACAD
 70
0
  0
ENDTAB
  0
TABLE
  2
BLOCK_RECORD
  5
1
100
AcDbSymbolTable
 70
0
  0
BLOCK_RECORD
  5
207
100
AcDbSymbolTableRecord
100
AcDbBlockTableRecord
  2
*Model_Space
  0
BLOCK_RECORD
  5
208
100
AcDbSymbolTableRecord
100
AcDbBlockTableRecord
  2
*Paper_Space
  0
BLOCK_RECORD
  5
209
100
AcDbSymbolTableRecord
100
AcDbBlockTableRecord
  2
_FILLED
  0
BLOCK_RECORD
  5
20A
100
AcDbSymbolTableRecord
100
AcDbBlockTableRecord
  2
*D0
  0
BLOCK_RECORD
  5
20B
100
AcDbSymbolTableRecord
100
AcDbBlockTableRecord
  2
*D1
  0
BLOCK_RECORD
  5
20C
100
AcDbSymbolTableRecord
100
AcDbBlockTableRecord
  2
*D2
  0
BLOCK_RECORD
  5
20D
100
AcDbSymbolTableRecord
100
AcDbBlockTableRecord
  2
*D3
  0
BLOCK_RECORD
  5
20E
100
AcDbSymbolTableRecord
100
AcDbBlockTableRecord
  2
*D4
  0
BLOCK_RECORD
  5
20F
100
AcDbSymbolTableRecord
100
AcDbBlockTableRecord
  2
*D5
  0
BLOCK_RECORD
  5
210
100
AcDbSymbolTableRecord
100
AcDbBlockTableRecord
  2
*D6
  0
ENDTAB
  0
TABLE
  2
DIMSTYLE
  5
A
100
AcDbSymbolTable
 70
1
100
AcDbDimStyleTable
 71
0
  0
DIMSTYLE
105
211
100
AcDbSymbolTableRecord
100
AcDbDimStyleTableRecord
  2
STANDARD
 70
0
  3

  4

 40
1.0
 41
3.0
 42
0.5
 43
0.38
 44
0.5
 45
0.0
 46
0.0
 47
0.001
 48
0.001
140
1.8
141
0.09
142
0.0
143
25.4
144
1.0
145
0.0
146
1.0
147
0.625
 71
1.0
 72
0.0
 73
0
 74
0
 75
0
 76
0
 77
1
 78
8
170
0
171
2
172
0
173
0
174
0
175
0
176
0
177
0
178
0
270
2
271
3
272
3
273
2
274
2
275
0
280
0
281
0
282
0
283
1
284
8
285
0
286
0
287
3
288
0
340
11
278
46
341
209
342
209
343
209
344
209
  0
DIMSTYLE
105
212
100
AcDbSymbolTableRecord
100
AcDbDimStyleTableRecord
  2
DIMSTYLE_1
 70
0
  3

  4

 40
1.0
 41
3.0
 42
0.5
 43
0.38
 44
0.5
 45
0.0
 46
0.0
 47
0.001
 48
0.001
140
1.8
141
0.09
142
0.0
143
25.4
144
1.0
145
0.0
146
1.0
147
0.45
 71
0.0
 72
0.0
 73
0
 74
0
 75
0
 76
0
 77
1
 78
8
170
0
171
2
172
0
173
0
174
0
175
0
176
0
177
0
178
0
270
2
271
1
272
1
273
2
274
2
275
0
280
0
281
0
282
0
283
1
284
8
285
0
286
0
287
3
288
0
340
11
278
46
341
209
342
209
343
209
344
209
  0
DIMSTYLE
105
213
100
AcDbSymbolTableRecord
100
AcDbDimStyleTableRecord
  2
DIMSTYLE_2
 70
0
  3

  4

 40
1.0
 41
3.0
 42
0.5
 43
0.38
 44
0.5
 45
0.0
 46
0.0
 47
0.001
 48
0.001
140
1.8
141
0.09
142
0.0
143
25.4
144
1.0
145
0.0
146
1.0
147
0.45
 71
0.0
 72
0.0
 73
0
 74
0
 75
0
 76
0
 77
1
 78
8
170
0
171
2
172
0
173
0
174
0
175
0
176
0
177
0
178
0
270
2
271
3
272
3
273
2
274
2
275
0
280
0
281
0
282
0
283
1
284
8
285
0
286
0
287
3
288
0
340
11
278
46
341
209
342
209
343
209
344
209
  0
ENDTAB
  0
ENDSEC
  0
SECTION
  2
BLOCKS
  0
BLOCK
  5
20
100
AcDbEntity
  8
0
100
AcDbBlockBegin
  2
*Model_Space
 70
0
 10
0.0
 20
0.0
 30
0.0
  3
*Model_Space
  1

  0
ENDBLK
  5
21
100
AcDbEntity
  8
0
100
AcDbBlockEnd
  0
BLOCK
  5
1C
100
AcDbEntity
  8
0
100
AcDbBlockBegin
  2
*Paper_Space
 70
0
 10
0.0
 20
0.0
 30
0.0
  3
*Paper_Space
  1

  0
ENDBLK
  5
1D
100
AcDbEntity
  8
0
100
AcDbBlockEnd
  0
BLOCK
  5
214
100
AcDbEntity
  8
0
100
AcDbBlockBegin
  2
_FILLED
 70
64
 10
0.0
 20
0.0
  3
_FILLED
  1

  0
SOLID
  5
215
100
AcDbEntity
  8
0
  6
BYBLOCK
 62
0
100
AcDbTrace
 10
0.0
 20
0.0
 11
-1.0
 21
0.1666666667
 12
-1.0
 22
-0.1666666667
 13
-1.0
 23
-0.1666666667
  0
ENDBLK
  5
216
100
AcDbEntity
  8
0
  6
BYBLOCK
 62
0
100
AcDbBlockEnd
  0
BLOCK
  5
217
100
AcDbEntity
  8
0
100
AcDbBlockBegin
 62
2
  6
CONTINUOUS
  2
*D0
 70
65
 10
0.0
 20
0.0
  3
*D0
  1

  0
MTEXT
  5
218
100
AcDbEntity
  8
0
100
AcDbMText
 62
2
  6
CONTINUOUS
  7
STANDARD
 71
2
 72
1
 10
691.7797791577
 20
135.2028820419
 30
0.0
 11
1.0
 21
0.0
 31
0.0
 44
0.9
  1
500
 40
1.8
 41
8.3314285714
  0
LINE
  5
219
100
AcDbEntity
  8
0
100
AcDbLine
 62
2
  6
CONTINUOUS
 10
491.7427791577
 20
414.1684534705
 11
491.7427791577
 21
132.1314534705
  0
LINE
  5
21A
100
AcDbEntity
  8
0
100
AcDbLine
 62
2
  6
CONTINUOUS
 10
891.8167791577
 20
414.1684534705
 11
891.8167791577
 21
132.1314534705
  0
LINE
  5
21B
100
AcDbEntity
  8
0
100
AcDbLine
 62
2
  6
CONTINUOUS
 10
491.7427791577
 20
132.6314534705
 11
691.7797791577
 21
132.6314534705
  0
LINE
  5
21C
100
AcDbEntity
  8
0
100
AcDbLine
 62
2
  6
CONTINUOUS
 10
891.8167791577
 20
132.6314534705
 11
691.7797791577
 21
132.6314534705
  0
INSERT
  5
21D
100
AcDbEntity
  8
0
100
AcDbBlockReference
 62
2
  6
CONTINUOUS
  2
_FILLED
 10
491.7427791577
 20
132.6314534705
 41
3.0
 42
3.0
 43
3.0
 50
180.0
  0
INSERT
  5
21E
100
AcDbEntity
  8
0
100
AcDbBlockReference
 62
2
  6
CONTINUOUS
  2
_FILLED
 10
891.8167791577
 20
132.6314534705
 41
3.0
 42
3.0
 43
3.0
  0
ENDBLK
  5
21F
100
AcDbEntity
  8
0
  6
BYBLOCK
 62
0
100
AcDbBlockEnd
  0
BLOCK
  5
220
100
AcDbEntity
  8
0
100
AcDbBlockBegin
 62
2
  6
CONTINUOUS
  2
*D1
 70
65
 10
0.0
 20
0.0
  3
*D1
  1

  0
MTEXT
  5
221
100
AcDbEntity
  8
0
100
AcDbMText
 62
2
  6
CONTINUOUS
  7
STANDARD
 71
2
 72
1
 10
82.2083505863
 20
414.6684534705
 30
0.0
 11
0.0
 21
1.0
 31
0.0
 44
0.9
  1
340
 40
1.8
 41
8.3314285714
  0
LINE
  5
222
100
AcDbEntity
  8
0
100
AcDbLine
 62
2
  6
CONTINUOUS
 10
691.2797791577
 20
584.7054534705
 11
84.2797791577
 21
584.7054534705
  0
LINE
  5
223
100
AcDbEntity
  8
0
100
AcDbLine
 62
2
  6
CONTINUOUS
 10
691.2797791577
 20
244.6314534705
 11
84.2797791577
 21
244.6314534705
  0
LINE
  5
224
100
AcDbEntity
  8
0
100
AcDbLine
 62
2
  6
CONTINUOUS
 10
84.7797791577
 20
584.7054534705
 11
84.7797791577
 21
414.6684534705
  0
LINE
  5
225
100
AcDbEntity
  8
0
100
AcDbLine
 62
2
  6
CONTINUOUS
 10
84.7797791577
 20
244.6314534705
 11
84.7797791577
 21
414.6684534705
  0
INSERT
  5
226
100
AcDbEntity
  8
0
100
AcDbBlockReference
 62
2
  6
CONTINUOUS
  2
_FILLED
 10
84.7797791577
 20
584.7054534705
 41
3.0
 42
3.0
 43
3.0
 50
90.0
  0
INSERT
  5
227
100
AcDbEntity
  8
0
100
AcDbBlockReference
 62
2
  6
CONTINUOUS
  2
_FILLED
 10
84.7797791577
 20
244.6314534705
 41
3.0
 42
3.0
 43
3.0
 50
270.0
  0
ENDBLK
  5
228
100
AcDbEntity
  8
0
  6
BYBLOCK
 62
0
100
AcDbBlockEnd
  0
BLOCK
  5
229
100
AcDbEntity
  8
0
100
AcDbBlockBegin
 62
2
  6
CONTINUOUS
  2
*D2
 70
65
 10
0.0
 20
0.0
  3
*D2
  1

  0
MTEXT
  5
22A
100
AcDbEntity
  8
0
100
AcDbMText
 62
2
  6
CONTINUOUS
  7
STANDARD
 71
2
 72
1
 10
691.7797791577
 20
656.8028820419
 30
0.0
 11
1.0
 21
0.0
 31
0.0
 44
0.9
  1
1200
 40
1.8
 41
11.1085714286
  0
LINE
  5
22B
100
AcDbEntity
  8
0
100
AcDbLine
 62
2
  6
CONTINUOUS
 10
1291.7797791577
 20
640.5114534705
 11
1291.7797791577
 21
654.7314534705
  0
LINE
  5
22C
100
AcDbEntity
  8
0
100
AcDbLine
 62
2
  6
CONTINUOUS
 10
91.7797791577
 20
640.3714534705
 11
91.7797791577
 21
654.7314534705
  0
LINE
  5
22D
100
AcDbEntity
  8
0
100
AcDbLine
 62
2
  6
CONTINUOUS
 10
1291.7797791577
 20
654.2314534705
 11
691.7797791577
 21
654.2314534705
  0
LINE
  5
22E
100
AcDbEntity
  8
0
100
AcDbLine
 62
2
  6
CONTINUOUS
 10
91.7797791577
 20
654.2314534705
 11
691.7797791577
 21
654.2314534705
  0
INSERT
  5
22F
100
AcDbEntity
  8
0
100
AcDbBlockReference
 62
2
  6
CONTINUOUS
  2
_FILLED
 10
1291.7797791577
 20
654.2314534705
 41
3.0
 42
3.0
 43
3.0
  0
INSERT
  5
230
100
AcDbEntity
  8
0
100
AcDbBlockReference
 62
2
  6
CONTINUOUS
  2
_FILLED
 10
91.7797791577
 20
654.2314534705
 41
3.0
 42
3.0
 43
3.0
 50
180.0
  0
ENDBLK
  5
231
100
AcDbEntity
  8
0
  6
BYBLOCK
 62
0
100
AcDbBlockEnd
  0
BLOCK
  5
232
100
AcDbEntity
  8
0
100
AcDbBlockBegin
 62
2
  6
CONTINUOUS
  2
*D3
 70
65
 10
0.0
 20
0.0
  3
*D3
  1

  0
MTEXT
  5
233
100
AcDbEntity
  8
0
100
AcDbMText
 62
2
  6
CONTINUOUS
  7
STANDARD
 71
2
 72
1
 10
391.7797791577
 20
649.8028820419
 30
0.0
 11
1.0
 21
0.0
 31
0.0
 44
0.9
  1
600
 40
1.8
 41
8.3314285714
  0
LINE
  5
234
100
AcDbEntity
  8
0
100
AcDbLine
 62
2
  6
CONTINUOUS
 10
691.7797791577
 20
463.6314534705
 11
691.7797791577
 21
647.7314534705
  0
LINE
  5
235
100
AcDbEntity
  8
0
100
AcDbLine
 62
2
  6
CONTINUOUS
 10
91.7797791577
 20
640.7314534705
 11
91.7797791577
 21
647.7314534705
  0
LINE
  5
236
100
AcDbEntity
  8
0
100
AcDbLine
 62
2
  6
CONTINUOUS
 10
691.7797791577
 20
647.2314534705
 11
391.7797791577
 21
647.2314534705
  0
LINE
  5
237
100
AcDbEntity
  8
0
100
AcDbLine
 62
2
  6
CONTINUOUS
 10
91.7797791577
 20
647.2314534705
 11
391.7797791577
 21
647.2314534705
  0
INSERT
  5
238
100
AcDbEntity
  8
0
100
AcDbBlockReference
 62
2
  6
CONTINUOUS
  2
_FILLED
 10
691.7797791577
 20
647.2314534705
 41
3.0
 42
3.0
 43
3.0
  0
INSERT
  5
239
100
AcDbEntity
  8
0
100
AcDbBlockReference
 62
2
  6
CONTINUOUS
  2
_FILLED
 10
91.7797791577
 20
647.2314534705
 41
3.0
 42
3.0
 43
3.0
 50
180.0
  0
ENDBLK
  5
23A
100
AcDbEntity
  8
0
  6
BYBLOCK
 62
0
100
AcDbBlockEnd
  0
BLOCK
  5
23B
100
AcDbEntity
  8
0
100
AcDbBlockBegin
 62
2
  6
CONTINUOUS
  2
*D4
 70
65
 10
0.0
 20
0.0
  3
*D4
  1

  0
MTEXT
  5
23C
100
AcDbEntity
  8
0
100
AcDbMText
 62
2
  6
CONTINUOUS
  7
STANDARD
 71
2
 72
1
 10
1296.2083505863
 20
551.6814534705
 30
0.0
 11
0.0
 21
1.0
 31
0.0
 44
0.9
  1
177
 40
1.8
 41
8.3314285714
  0
LINE
  5
23D
100
AcDbEntity
  8
0
100
AcDbLine
 62
2
  6
CONTINUOUS
 10
692.2797791577
 20
463.1314534705
 11
1299.2797791577
 21
463.1314534705
  0
LINE
  5
23E
100
AcDbEntity
  8
0
100
AcDbLine
 62
2
  6
CONTINUOUS
 10
1292.2797791577
 20
640.2314534705
 11
1299.2797791577
 21
640.2314534705
  0
LINE
  5
23F
100
AcDbEntity
  8
0
100
AcDbLine
 62
2
  6
CONTINUOUS
 10
1298.7797791577
 20
463.1314534705
 11
1298.7797791577
 21
551.6814534705
  0
LINE
  5
240
100
AcDbEntity
  8
0
100
AcDbLine
 62
2
  6
CONTINUOUS
 10
1298.7797791577
 20
640.2314534705
 11
1298.7797791577
 21
551.6814534705
  0
INSERT
  5
241
100
AcDbEntity
  8
0
100
AcDbBlockReference
 62
2
  6
CONTINUOUS
  2
_FILLED
 10
1298.7797791577
 20
463.1314534705
 41
3.0
 42
3.0
 43
3.0
 50
270.0
  0
INSERT
  5
242
100
AcDbEntity
  8
0
100
AcDbBlockReference
 62
2
  6
CONTINUOUS
  2
_FILLED
 10
1298.7797791577
 20
640.2314534705
 41
3.0
 42
3.0
 43
3.0
 50
90.0
  0
ENDBLK
  5
243
100
AcDbEntity
  8
0
  6
BYBLOCK
 62
0
100
AcDbBlockEnd
  0
BLOCK
  5
244
100
AcDbEntity
  8
0
100
AcDbBlockBegin
 62
2
  6
CONTINUOUS
  2
*D5
 70
65
 10
0.0
 20
0.0
  3
*D5
  1

  0
MTEXT
  5
245
100
AcDbEntity
  8
0
100
AcDbMText
 62
2
  6
CONTINUOUS
  7
STANDARD
 71
2
 72
1
 10
1303.2083505863
 20
389.9314534705
 30
0.0
 11
0.0
 21
1.0
 31
0.0
 44
0.9
  1
500
 40
1.8
 41
8.3314285714
  0
LINE
  5
246
100
AcDbEntity
  8
0
100
AcDbLine
 62
2
  6
CONTINUOUS
 10
1292.2797791577
 20
640.2314534705
 11
1306.2797791577
 21
640.2314534705
  0
LINE
  5
247
100
AcDbEntity
  8
0
100
AcDbLine
 62
2
  6
CONTINUOUS
 10
1292.2797791577
 20
139.6314534705
 11
1306.2797791577
 21
139.6314534705
  0
LINE
  5
248
100
AcDbEntity
  8
0
100
AcDbLine
 62
2
  6
CONTINUOUS
 10
1305.7797791577
 20
640.2314534705
 11
1305.7797791577
 21
389.9314534705
  0
LINE
  5
249
100
AcDbEntity
  8
0
100
AcDbLine
 62
2
  6
CONTINUOUS
 10
1305.7797791577
 20
139.6314534705
 11
1305.7797791577
 21
389.9314534705
  0
INSERT
  5
24A
100
AcDbEntity
  8
0
100
AcDbBlockReference
 62
2
  6
CONTINUOUS
  2
_FILLED
 10
1305.7797791577
 20
640.2314534705
 41
3.0
 42
3.0
 43
3.0
 50
90.0
  0
INSERT
  5
24B
100
AcDbEntity
  8
0
100
AcDbBlockReference
 62
2
  6
CONTINUOUS
  2
_FILLED
 10
1305.7797791577
 20
139.6314534705
 41
3.0
 42
3.0
 43
3.0
 50
270.0
  0
ENDBLK
  5
24C
100
AcDbEntity
  8
0
  6
BYBLOCK
 62
0
100
AcDbBlockEnd
  0
BLOCK
  5
24D
100
AcDbEntity
  8
0
100
AcDbBlockBegin
 62
2
  6
CONTINUOUS
  2
*D6
 70
65
 10
0.0
 20
0.0
  3
*D6
  1

  0
MTEXT
  5
24E
100
AcDbEntity
  8
0
100
AcDbMText
 62
2
  6
CONTINUOUS
  7
STANDARD
 71
2
 72
1
 10
82.2083505863
 20
806.6799489209
 30
0.0
 11
0.0
 21
1.0
 31
0.0
 44
0.9
  1
135
 40
1.8
 41
8.3314285714
  0
LINE
  5
24F
100
AcDbEntity
  8
0
100
AcDbLine
 62
2
  6
CONTINUOUS
 10
91.2797791577
 20
874.4763849729
 11
84.2797791577
 21
874.4763849729
  0
LINE
  5
250
100
AcDbEntity
  8
0
100
AcDbLine
 62
2
  6
CONTINUOUS
 10
642.2781898813
 20
738.883512869
 11
84.2797791577
 21
738.883512869
  0
LINE
  5
251
100
AcDbEntity
  8
0
100
AcDbLine
 62
2
  6
CONTINUOUS
 10
84.7797791577
 20
874.4763849729
 11
84.7797791577
 21
806.6799489209
  0
LINE
  5
252
100
AcDbEntity
  8
0
100
AcDbLine
 62
2
  6
CONTINUOUS
 10
84.7797791577
 20
738.883512869
 11
84.7797791577
 21
806.6799489209
  0
INSERT
  5
253
100
AcDbEntity
  8
0
100
AcDbBlockReference
 62
2
  6
CONTINUOUS
  2
_FILLED
 10
84.7797791577
 20
874.4763849729
 41
3.0
 42
3.0
 43
3.0
 50
90.0
  0
INSERT
  5
254
100
AcDbEntity
  8
0
100
AcDbBlockReference
 62
2
  6
CONTINUOUS
  2
_FILLED
 10
84.7797791577
 20
738.883512869
 41
3.0
 42
3.0
 43
3.0
 50
270.0
  0
ENDBLK
  5
255
100
AcDbEntity
  8
0
  6
BYBLOCK
 62
0
100
AcDbBlockEnd
  0
ENDSEC
  0
SECTION
  2
ENTITIES
  0
DIMENSION
  5
256
100
AcDbEntity
  8
0
100
AcDbDimension
 62
2
  6
CONTINUOUS
  2
*D0
 10
891.8167791577
 20
132.6314534705
 11
691.7797791577
 21
132.6314534705
 70
160
 71
2
 42
400.074
  3
DIMSTYLE_1
100
AcDbAlignedDimension
 13
491.7427791577
 23
414.6684534705
 14
891.8167791577
 24
414.6684534705
100
AcDbRotatedDimension
  0
DIMENSION
  5
257
100
AcDbEntity
  8
0
100
AcDbDimension
 62
2
  6
CONTINUOUS
  2
*D1
 10
84.7797791577
 20
244.6314534705
 11
84.7797791577
 21
414.6684534705
 70
160
 71
2
 42
340.074
  3
DIMSTYLE_1
100
AcDbAlignedDimension
 13
691.7797791577
 23
584.7054534705
 14
691.7797791577
 24
244.6314534705
 50
270.0
100
AcDbRotatedDimension
  0
DIMENSION
  5
258
100
AcDbEntity
  8
0
100
AcDbDimension
 62
2
  6
CONTINUOUS
  2
*D2
 10
91.7797791577
 20
654.2314534705
 11
691.7797791577
 21
654.2314534705
 70
160
 71
2
 42
1200.0
  3
DIMSTYLE_1
100
AcDbAlignedDimension
 13
1291.7797791577
 23
640.0114534705
 14
91.7797791577
 24
639.8714534705
 50
180.0
100
AcDbRotatedDimension
  0
DIMENSION
  5
259
100
AcDbEntity
  8
0
100
AcDbDimension
 62
2
  6
CONTINUOUS
  2
*D3
 10
91.7797791577
 20
647.2314534705
 11
391.7797791577
 21
647.2314534705
 70
160
 71
2
 42
600.0
  3
DIMSTYLE_1
100
AcDbAlignedDimension
 13
691.7797791577
 23
463.1314534705
 14
91.7797791577
 24
640.2314534705
 50
180.0
100
AcDbRotatedDimension
  0
DIMENSION
  5
25A
100
AcDbEntity
  8
0
100
AcDbDimension
 62
2
  6
CONTINUOUS
  2
*D4
 10
1298.7797791577
 20
640.2314534705
 11
1298.7797791577
 21
551.6814534705
 70
160
 71
2
 42
177.1
  3
DIMSTYLE_1
100
AcDbAlignedDimension
 13
691.7797791577
 23
463.1314534705
 14
1291.7797791577
 24
640.2314534705
 50
90.0
100
AcDbRotatedDimension
  0
DIMENSION
  5
25B
100
AcDbEntity
  8
0
100
AcDbDimension
 62
2
  6
CONTINUOUS
  2
*D5
 10
1305.7797791577
 20
139.6314534705
 11
1305.7797791577
 21
389.9314534705
 70
160
 71
2
 42
500.6
  3
DIMSTYLE_1
100
AcDbAlignedDimension
 13
1291.7797791577
 23
640.2314534705
 14
1291.7797791577
 24
139.6314534705
 50
270.0
100
AcDbRotatedDimension
  0
DIMENSION
  5
25C
100
AcDbEntity
  8
0
100
AcDbDimension
 62
2
  6
CONTINUOUS
  2
*D6
 10
84.7797791577
 20
738.883512869
 11
84.7797791577
 21
806.6799489209
 70
160
 71
2
 42
135.5928721039
  3
DIMSTYLE_2
100
AcDbAlignedDimension
 13
91.7797791577
 23
874.4763849729
 14
642.7781898813
 24
738.883512869
 50
270.0
100
AcDbRotatedDimension
  0
LINE
  5
25D
100
AcDbEntity
  8
0
100
AcDbLine
 62
7
  6
CONTINUOUS
 10
0.0
 20
0.0
 11
0.0
 21
1000.0
  0
LINE
  5
25E
100
AcDbEntity
  8
0
100
AcDbLine
 62
7
  6
CONTINUOUS
 10
0.0
 20
0.0
 11
1400.0
 21
0.0
  0
LINE
  5
25F
100
AcDbEntity
  8
0
100
AcDbLine
 62
7
  6
CONTINUOUS
 10
0.0
 20
1000.0
 11
1400.0
 21
1000.0
  0
LINE
  5
260
100
AcDbEntity
  8
0
100
AcDbLine
 62
7
  6
CONTINUOUS
 10
1400.0
 20
0.0
 11
1400.0
 21
1000.0
  0
LINE
  5
261
100
AcDbEntity
  8
0
100
AcDbLine
 62
7
  6
CONTINUOUS
 10
91.7797791577
 20
640.2314534705
 11
91.7797791577
 21
139.6314534705
  0
LINE
  5
262
100
AcDbEntity
  8
0
100
AcDbLine
 62
7
  6
CONTINUOUS
 10
115.7797791577
 20
189.612215584
 11
115.7797791577
 21
589.650691357
  0
LINE
  5
263
100
AcDbEntity
  8
0
100
AcDbLine
 62
7
  6
CONTINUOUS
 10
125.7797791577
 20
588.3109453948
 11
125.7797791577
 21
190.9519615462
  0
LINE
  5
264
100
AcDbEntity
  8
0
100
AcDbLine
 62
7
  6
CONTINUOUS
 10
127.4648149455
 20
586.625909607
 11
127.4648149455
 21
192.636997334
  0
LINE
  5
265
100
AcDbEntity
  8
06___PRT_ALL_SURFS
100
AcDbLine
 62
7
  6
CONTINUOUS
 10
1291.7797791577
 20
139.6314534705
 11
91.7797791577
 21
139.6314534705
  0
LINE
  5
266
100
AcDbEntity
  8
0
100
AcDbLine
 62
7
  6
CONTINUOUS
 10
1241.7990170442
 20
163.6314534705
 11
141.7605412712
 21
163.6314534705
  0
LINE
  5
267
100
AcDbEntity
  8
0
100
AcDbLine
 62
7
  6
CONTINUOUS
 10
143.1002872334
 20
173.6314534705
 11
1240.459271082
 21
173.6314534705
  0
LINE
  5
268
100
AcDbEntity
  8
0
100
AcDbLine
 62
7
  6
CONTINUOUS
 10
144.9934617893
 20
175.5246280264
 11
469.7237585378
 21
179.3805425495
  0
LINE
  5
269
100
AcDbEntity
  8
0
100
AcDbLine
 62
7
  6
CONTINUOUS
 10
473.83623457
 20
179.4049561624
 11
909.7233237454
 21
179.4049561624
  0
LINE
  5
26A
100
AcDbEntity
  8
0
100
AcDbLine
 62
7
  6
CONTINUOUS
 10
913.8357997776
 20
179.3805425495
 11
1238.5660965261
 21
175.5246280264
  0
LINE
  5
26B
100
AcDbEntity
  8
0
100
AcDbLine
 62
7
  6
CONTINUOUS
 10
204.2898407989
 20
241.7314534705
 11
395.0534169874
 21
241.7314534705
  0
LINE
  5
26C
100
AcDbEntity
  8
0
100
AcDbLine
 62
7
  6
CONTINUOUS
 10
988.506141328
 20
241.7314534705
 11
1179.2697175165
 21
241.7314534705
  0
LINE
  5
26D
100
AcDbEntity
  8
0
100
AcDbLine
 62
7
  6
CONTINUOUS
 10
204.2507722766
 20
243.6314534705
 11
395.0143484651
 21
243.6314534705
  0
LINE
  5
26E
100
AcDbEntity
  8
0
100
AcDbLine
 62
7
  6
CONTINUOUS
 10
988.5452098503
 20
243.6314534705
 11
1179.3087860388
 21
243.6314534705
  0
LINE
  5
26F
100
AcDbEntity
  8
0
100
AcDbLine
 62
7
  6
CONTINUOUS
 10
1200.3962593161
 20
257.6314534705
 11
967.4577366624
 21
257.6314534705
  0
LINE
  5
270
100
AcDbEntity
  8
0
100
AcDbLine
 62
7
  6
CONTINUOUS
 10
416.101821653
 20
257.6314534705
 11
183.1632989993
 21
257.6314534705
  0
LINE
  5
271
100
AcDbEntity
  8
0
100
AcDbLine
 62
7
  6
CONTINUOUS
 10
1200.3571907938
 20
259.5314534705
 11
967.4186681401
 21
259.5314534705
  0
LINE
  5
272
100
AcDbEntity
  8
0
100
AcDbLine
 62
7
  6
CONTINUOUS
 10
416.1408901753
 20
259.5314534705
 11
183.2023675216
 21
259.5314534705
  0
LINE
  5
273
100
AcDbEntity
  8
0
100
AcDbLine
 62
7
  6
CONTINUOUS
 10
173.5963205889
 20
297.3314534705
 11
425.7469373671
 21
297.3314534705
  0
LINE
  5
274
100
AcDbEntity
  8
0
100
AcDbLine
 62
7
  6
CONTINUOUS
 10
957.8126209483
 20
297.3314534705
 11
1209.9632377265
 21
297.3314534705
  0
LINE
  5
275
100
AcDbEntity
  8
0
100
AcDbLine
 62
7
  6
CONTINUOUS
 10
173.5572520666
 20
299.2314534705
 11
425.7078688448
 21
299.2314534705
  0
LINE
  5
276
100
AcDbEntity
  8
0
100
AcDbLine
 62
7
  6
CONTINUOUS
 10
957.8516894706
 20
299.2314534705
 11
1210.0023062488
 21
299.2314534705
  0
LINE
  5
277
100
AcDbEntity
  8
0
100
AcDbLine
 62
7
  6
CONTINUOUS
 10
1213.1398033819
 20
313.2314534705
 11
954.7141925956
 21
313.2314534705
  0
LINE
  5
278
100
AcDbEntity
  8
0
100
AcDbLine
 62
7
  6
CONTINUOUS
 10
428.8453657198
 20
313.2314534705
 11
170.4197549335
 21
313.2314534705
  0
LINE
  5
279
100
AcDbEntity
  8
0
100
AcDbLine
 62
7
  6
CONTINUOUS
 10
1213.1007348596
 20
315.1314534705
 11
954.6751240733
 21
315.1314534705
  0
LINE
  5
27A
100
AcDbEntity
  8
0
100
AcDbLine
 62
7
  6
CONTINUOUS
 10
428.8844342421
 20
315.1314534705
 11
170.4588234558
 21
315.1314534705
  0
LINE
  5
27B
100
AcDbEntity
  8
0
100
AcDbLine
 62
7
  6
CONTINUOUS
 10
168.0176382233
 20
352.9314534705
 11
431.325619516
 21
352.9314534705
  0
LINE
  5
27C
100
AcDbEntity
  8
0
100
AcDbLine
 62
7
  6
CONTINUOUS
 10
952.2339387995
 20
352.9314534705
 11
1215.5419200921
 21
352.9314534705
  0
LINE
  5
27D
100
AcDbEntity
  8
0
100
AcDbLine
 62
7
  6
CONTINUOUS
 10
167.978569701
 20
354.8314534705
 11
431.2865509937
 21
354.8314534705
  0
LINE
  5
27E
100
AcDbEntity
  8
0
100
AcDbLine
 62
7
  6
CONTINUOUS
 10
952.2730073218
 20
354.8314534705
 11
1215.5809886144
 21
354.8314534705
  0
LINE
  5
27F
100
AcDbEntity
  8
0
100
AcDbLine
 62
7
  6
CONTINUOUS
 10
1216.6199091277
 20
368.8314534705
 11
951.2340868134
 21
368.8314534705
  0
LINE
  5
280
100
AcDbEntity
  8
0
100
AcDbLine
 62
7
  6
CONTINUOUS
 10
432.325471502
 20
368.8314534705
 11
166.9396491877
 21
368.8314534705
  0
LINE
  5
281
100
AcDbEntity
  8
0
100
AcDbLine
 62
7
  6
CONTINUOUS
 10
1216.5808406054
 20
370.7314534705
 11
951.1950182911
 21
370.7314534705
  0
LINE
  5
282
100
AcDbEntity
  8
0
100
AcDbLine
 62
7
  6
CONTINUOUS
 10
432.3645400243
 20
370.7314534705
 11
166.97871771
 21
370.7314534705
  0
LINE
  5
283
100
AcDbEntity
  8
0
100
AcDbLine
 62
7
  6
CONTINUOUS
 10
166.97871771
 20
408.5314534705
 11
432.3645400243
 21
408.5314534705
  0
LINE
  5
284
100
AcDbEntity
  8
0
100
AcDbLine
 62
7
  6
CONTINUOUS
 10
951.1950182911
 20
408.5314534705
 11
1216.5808406054
 21
408.5314534705
  0
LINE
  5
285
100
AcDbEntity
  8
0
100
AcDbLine
 62
7
  6
CONTINUOUS
 10
166.9396491877
 20
410.4314534705
 11
432.325471502
 21
410.4314534705
  0
LINE
  5
286
100
AcDbEntity
  8
0
100
AcDbLine
 62
7
  6
CONTINUOUS
 10
951.2340868134
 20
410.4314534705
 11
1216.6199091277
 21
410.4314534705
  0
LINE
  5
287
100
AcDbEntity
  8
0
100
AcDbLine
 62
7
  6
CONTINUOUS
 10
1215.5809886144
 20
424.4314534705
 11
952.2730073218
 21
424.4314534705
  0
LINE
  5
288
100
AcDbEntity
  8
0
100
AcDbLine
 62
7
  6
CONTINUOUS
 10
431.2865509937
 20
424.4314534705
 11
167.978569701
 21
424.4314534705
  0
LINE
  5
289
100
AcDbEntity
  8
0
100
AcDbLine
 62
7
  6
CONTINUOUS
 10
1215.5419200921
 20
426.3314534705
 11
952.2339387995
 21
426.3314534705
  0
LINE
  5
28A
100
AcDbEntity
  8
0
100
AcDbLine
 62
7
  6
CONTINUOUS
 10
431.325619516
 20
426.3314534705
 11
168.0176382233
 21
426.3314534705
  0
LINE
  5
28B
100
AcDbEntity
  8
0
100
AcDbLine
 62
7
  6
CONTINUOUS
 10
170.4588234558
 20
464.1314534705
 11
428.8844342421
 21
464.1314534705
  0
LINE
  5
28C
100
AcDbEntity
  8
0
100
AcDbLine
 62
7
  6
CONTINUOUS
 10
954.6751240733
 20
464.1314534705
 11
1213.1007348596
 21
464.1314534705
  0
LINE
  5
28D
100
AcDbEntity
  8
0
100
AcDbLine
 62
7
  6
CONTINUOUS
 10
170.4197549335
 20
466.0314534705
 11
428.8453657198
 21
466.0314534705
  0
LINE
  5
28E
100
AcDbEntity
  8
0
100
AcDbLine
 62
7
  6
CONTINUOUS
 10
954.7141925956
 20
466.0314534705
 11
1213.1398033819
 21
466.0314534705
  0
LINE
  5
28F
100
AcDbEntity
  8
0
100
AcDbLine
 62
7
  6
CONTINUOUS
 10
1210.0023062488
 20
480.0314534705
 11
957.8516894706
 21
480.0314534705
  0
LINE
  5
290
100
AcDbEntity
  8
0
100
AcDbLine
 62
7
  6
CONTINUOUS
 10
425.7078688448
 20
480.0314534705
 11
173.5572520666
 21
480.0314534705
  0
LINE
  5
291
100
AcDbEntity
  8
0
100
AcDbLine
 62
7
  6
CONTINUOUS
 10
1209.9632377265
 20
481.9314534705
 11
957.8126209483
 21
481.9314534705
  0
LINE
  5
292
100
AcDbEntity
  8
0
100
AcDbLine
 62
7
  6
CONTINUOUS
 10
425.7469373671
 20
481.9314534705
 11
173.5963205889
 21
481.9314534705
  0
LINE
  5
293
100
AcDbEntity
  8
0
100
AcDbLine
 62
7
  6
CONTINUOUS
 10
183.2023675216
 20
519.7314534705
 11
416.1408901753
 21
519.7314534705
  0
LINE
  5
294
100
AcDbEntity
  8
0
100
AcDbLine
 62
7
  6
CONTINUOUS
 10
967.4186681401
 20
519.7314534705
 11
1200.3571907938
 21
519.7314534705
  0
LINE
  5
295
100
AcDbEntity
  8
0
100
AcDbLine
 62
7
  6
CONTINUOUS
 10
183.1632989993
 20
521.6314534705
 11
416.101821653
 21
521.6314534705
  0
LINE
  5
296
100
AcDbEntity
  8
0
100
AcDbLine
 62
7
  6
CONTINUOUS
 10
967.4577366624
 20
521.6314534705
 11
1200.3962593161
 21
521.6314534705
  0
LINE
  5
297
100
AcDbEntity
  8
0
100
AcDbLine
 62
7
  6
CONTINUOUS
 10
1179.3087860388
 20
535.6314534705
 11
988.5452098503
 21
535.6314534705
  0
LINE
  5
298
100
AcDbEntity
  8
0
100
AcDbLine
 62
7
  6
CONTINUOUS
 10
395.0143484651
 20
535.6314534705
 11
204.2507722766
 21
535.6314534705
  0
LINE
  5
299
100
AcDbEntity
  8
0
100
AcDbLine
 62
7
  6
CONTINUOUS
 10
1179.2697175165
 20
537.5314534705
 11
988.506141328
 21
537.5314534705
  0
LINE
  5
29A
100
AcDbEntity
  8
0
100
AcDbLine
 62
7
  6
CONTINUOUS
 10
395.0534169874
 20
537.5314534705
 11
204.2898407989
 21
537.5314534705
  0
LINE
  5
29B
100
AcDbEntity
  8
0
100
AcDbLine
 62
7
  6
CONTINUOUS
 10
1238.5660965261
 20
603.7382789146
 11
913.8357997776
 21
599.8823643915
  0
LINE
  5
29C
100
AcDbEntity
  8
0
100
AcDbLine
 62
7
  6
CONTINUOUS
 10
909.7233237454
 20
599.8579507786
 11
473.83623457
 21
599.8579507786
  0
LINE
  5
29D
100
AcDbEntity
  8
0
100
AcDbLine
 62
7
  6
CONTINUOUS
 10
143.1002872334
 20
605.6314534705
 11
1240.459271082
 21
605.6314534705
  0
LINE
  5
29E
100
AcDbEntity
  8
0
100
AcDbLine
 62
7
  6
CONTINUOUS
 10
469.7237585378
 20
599.8823643915
 11
144.9934617893
 21
603.7382789146
  0
LINE
  5
29F
100
AcDbEntity
  8
0
100
AcDbLine
 62
7
  6
CONTINUOUS
 10
1241.7990170442
 20
615.6314534705
 11
141.7605412712
 21
615.6314534705
  0
LINE
  5
2A0
100
AcDbEntity
  8
0
100
AcDbLine
 62
7
  6
CONTINUOUS
 10
91.7797791577
 20
639.0314534705
 11
1291.7797791577
 21
639.0314534705
  0
LINE
  5
2A1
100
AcDbEntity
  8
0
100
AcDbLine
 62
7
  6
CONTINUOUS
 10
91.7797791577
 20
640.2314534705
 11
1291.7797791577
 21
640.2314534705
  0
LINE
  5
2A2
100
AcDbEntity
  8
0
100
AcDbLine
 62
7
  6
CONTINUOUS
 10
1256.0947433699
 20
192.636997334
 11
1256.0947433699
 21
586.625909607
  0
LINE
  5
2A3
100
AcDbEntity
  8
0
100
AcDbLine
 62
7
  6
CONTINUOUS
 10
1257.7797791577
 20
190.9519615462
 11
1257.7797791577
 21
588.3109453948
  0
LINE
  5
2A4
100
AcDbEntity
  8
0
100
AcDbLine
 62
7
  6
CONTINUOUS
 10
1267.7797791577
 20
189.612215584
 11
1267.7797791577
 21
589.650691357
  0
LINE
  5
2A5
100
AcDbEntity
  8
0
100
AcDbLine
 62
7
  6
CONTINUOUS
 10
1291.7797791577
 20
640.2314534705
 11
1291.7797791577
 21
139.6314534705
  0
LINE
  5
2A6
100
AcDbEntity
  8
0
100
AcDbLine
 62
7
  6
CONTINUOUS
 10
91.7797791577
 20
904.4763372447
 11
91.7797791577
 21
843.8763849729
  0
LWPOLYLINE
  5
2A7
100
AcDbEntity
  8
0
100
AcDbPolyline
 62
7
  6
CONTINUOUS
 90
65
 70
0
 10
493.2567957586
 20
794.4679176399
 10
493.3730372873
 20
792.9874115843
 10
493.5939413484
 20
790.9836278271
 10
493.886499775
 20
788.9936924488
 10
494.2500621804
 20
787.0190209914
 10
494.6839631977
 20
785.0613775572
 10
495.1875548501
 20
783.1225147408
 10
495.7602101647
 20
781.2041628217
 10
496.4013079243
 20
779.3080815031
 10
497.1102487931
 20
777.4360041247
 10
497.8864177133
 20
775.58973656
 10
498.7292152734
 20
773.771063695
 10
499.6380203794
 20
771.9818322205
 10
500.6126911876
 20
770.2230644852
 10
501.6511643611
 20
768.4991149236
 10
502.7530226415
 20
766.8111837388
 10
503.9117316038
 20
765.1689947335
 10
505.1215131733
 20
763.5790467591
 10
506.3747549193
 20
762.0485197013
 10
507.663179711
 20
760.5835643948
 10
508.9783294401
 20
759.188917846
 10
510.3094329351
 20
757.8701886791
 10
511.6517976563
 20
756.6258638428
 10
512.9979406487
 20
755.456768579
 10
514.3455247268
 20
754.359047831
 10
515.6912546157
 20
753.3300067421
 10
517.0324347115
 20
752.3667051844
 10
518.3666778638
 20
751.4662209131
 10
519.6915839749
 20
750.6258519396
 10
521.0061755214
 20
749.8422343966
 10
522.3053724313
 20
749.1145508659
 10
523.5861234517
 20
748.4406694123
 10
524.842042284
 20
747.8200534842
 10
526.0672066872
 20
747.2515558542
 10
527.2574625084
 20
746.7329826519
 10
528.4072169671
 20
746.2626335715
 10
529.5155820738
 20
745.836855279
 10
530.5801307356
 20
745.452793538
 10
531.6011002616
 20
745.1068195423
 10
532.5776376708
 20
744.7959492106
 10
533.5118089581
 20
744.5165455599
 10
534.402868559
 20
744.266118698
 10
535.2595509644
 20
744.0399056477
 10
536.0886877894
 20
743.8343323008
 10
536.8967310701
 20
743.6464431257
 10
537.6940661912
 20
743.4729118691
 10
538.4770143066
 20
743.3138107627
 10
539.2476659802
 20
743.1679758682
 10
539.9995720603
 20
743.0358243203
 10
540.727110064
 20
742.917333355
 10
541.4297888145
 20
742.811502366
 10
542.1045084243
 20
742.7177084166
 10
542.7534903444
 20
742.6345955573
 10
543.3774454921
 20
742.5611296395
 10
543.9780115177
 20
742.4962606979
 10
544.5565795269
 20
742.4390704525
 10
545.1147488323
 20
742.3887137453
 10
545.6539815982
 20
742.3444465745
 10
546.176140472
 20
742.3055753885
 10
546.6830145761
 20
742.2714948787
 10
547.176350391
 20
742.2416757762
 10
547.6579891506
 20
742.2156499365
 10
548.1295138381
 20
742.1930234437
 10
548.5932315796
 20
742.1734249003
 10
642.7781898813
 20
738.883512869
  0
LINE
  5
2A8
100
AcDbEntity
  8
0
100
AcDbLine
 62
7
  6
CONTINUOUS
 10
737.2814048007
 20
736.1691213749
 11
726.8587706563
 21
733.3763849729
  0
LWPOLYLINE
  5
2A9
100
AcDbEntity
  8
0
100
AcDbPolyline
 62
7
  6
CONTINUOUS
 90
64
 70
0
 10
835.0001488131
 20
742.1747675564
 10
835.4898960045
 20
742.1957425864
 10
835.9846736248
 20
742.2199274314
 10
836.4873805319
 20
742.2477023441
 10
836.9999897041
 20
742.2794693407
 10
837.5247902192
 20
742.3157179169
 10
838.0638408912
 20
742.3569992416
 10
838.6195259058
 20
742.4039746682
 10
839.1938841914
 20
742.457373224
 10
839.7897729277
 20
742.5181104713
 10
840.409828467
 20
742.5872176843
 10
841.0564676695
 20
742.6658465809
 10
841.7332729776
 20
742.7554646121
 10
842.4390891936
 20
742.857056006
 10
843.1748756453
 20
742.9719637667
 10
843.9378008942
 20
743.1009859019
 10
844.726748347
 20
743.2451640972
 10
845.5374752791
 20
743.404903434
 10
846.3657801714
 20
743.5804258165
 10
847.2103661581
 20
743.7724251905
 10
848.0664279426
 20
743.9806716215
 10
848.9399977913
 20
744.2075612398
 10
849.8332510607
 20
744.4548377896
 10
850.7520120279
 20
744.7255674015
 10
851.7003701905
 20
745.0227712892
 10
852.6844398364
 20
745.3506042842
 10
853.7109502259
 20
745.7141160696
 10
854.780406766
 20
746.116767191
 10
855.8975274239
 20
746.5640992564
 10
857.0547268469
 20
747.0570849914
 10
858.2480220038
 20
747.5979628622
 10
859.4707013123
 20
748.1875526226
 10
860.7167976036
 20
748.8266499954
 10
861.9799920984
 20
749.5154759453
 10
863.252470556
 20
750.2528843994
 10
864.5330666664
 20
751.0411933534
 10
865.8180253286
 20
751.8811721673
 10
867.1066696307
 20
752.7755992452
 10
868.3972489496
 20
753.7267759879
 10
869.6878905713
 20
754.7371150287
 10
870.9764964734
 20
755.8090784673
 10
872.2604750749
 20
756.9449407712
 10
873.5377729243
 20
758.1477248336
 10
874.8030748277
 20
759.4175170005
 10
876.0525275575
 20
760.7556824888
 10
877.2791467537
 20
762.1599483459
 10
878.4769885534
 20
763.6284245102
 10
879.6401606279
 20
765.1585382066
 10
880.7630675521
 20
766.7472522553
 10
881.8405737893
 20
768.3912709638
 10
882.867649001
 20
770.086460428
 10
883.8405124599
 20
771.8297560262
 10
884.7553971368
 20
773.6172856911
 10
885.6091592015
 20
775.4454463366
 10
886.398906253
 20
777.3102482216
 10
887.1221040092
 20
779.2074950246
 10
887.7765804222
 20
781.1327785944
 10
888.3605643714
 20
783.0815797103
 10
888.8726693011
 20
785.0492239297
 10
889.3119175612
 20
787.0309663465
 10
889.6777336275
 20
789.0219814069
 10
889.9699516366
 20
791.0174136637
 10
890.1887155577
 20
793.0113346418
 10
890.3027625557
 20
794.4679176785
  0
LINE
  5
2AA
100
AcDbEntity
  8
0
100
AcDbLine
 62
7
  6
CONTINUOUS
 10
835.0001488131
 20
742.1747675564
 11
740.7813684341
 21
738.883512869
  0
LINE
  5
2AB
100
AcDbEntity
  8
0
100
AcDbLine
 62
7
  6
CONTINUOUS
 10
726.8587706563
 20
733.3763849729
 11
656.7007876592
 21
733.3763849729
  0
LINE
  5
2AC
100
AcDbEntity
  8
0
100
AcDbLine
 62
7
  6
CONTINUOUS
 10
737.2814048007
 20
736.1691213749
 11
646.2781535147
 21
736.1691213749
  0
LINE
  5
2AD
100
AcDbEntity
  8
0
100
AcDbLine
 62
7
  6
CONTINUOUS
 10
740.7813684341
 20
738.883512869
 11
642.7781898813
 21
738.883512869
  0
LINE
  5
2AE
100
AcDbEntity
  8
0
100
AcDbLine
 62
7
  6
CONTINUOUS
 10
656.7007876592
 20
733.3763849729
 11
646.2781535147
 21
736.1691213749
  0
LINE
  5
2AF
100
AcDbEntity
  8
0
100
AcDbLine
 62
7
  6
CONTINUOUS
 10
642.7781898813
 20
738.883512869
 11
646.2781535147
 21
736.1691213749
  0
LINE
  5
2B0
100
AcDbEntity
  8
0
100
AcDbLine
 62
7
  6
CONTINUOUS
 10
1291.7797791577
 20
843.8763849729
 11
91.7797791577
 21
843.8763849729
  0
LINE
  5
2B1
100
AcDbEntity
  8
06___PRT_ALL_SURFS
100
AcDbLine
 62
7
  6
CONTINUOUS
 10
1291.7797791577
 20
874.4763849729
 11
91.7797791577
 21
874.4763849729
  0
LINE
  5
2B2
100
AcDbEntity
  8
0
100
AcDbLine
 62
7
  6
CONTINUOUS
 10
91.7797791577
 20
904.4763849729
 11
1291.7797791577
 21
904.4763849729
  0
LINE
  5
2B3
100
AcDbEntity
  8
0
100
AcDbLine
 62
7
  6
CONTINUOUS
 10
740.7813684341
 20
738.883512869
 11
737.2814048007
 21
736.1691213749
  0
LINE
  5
2B4
100
AcDbEntity
  8
0
100
AcDbLine
 62
7
  6
CONTINUOUS
 10
1291.7797791577
 20
904.4763372447
 11
1291.7797791577
 21
843.8763849729
  0
ARC
  5
2B5
100
AcDbEntity
  8
0
100
AcDbCircle
 62
7
  6
CONTINUOUS
 10
-253.2207208423
 20
389.6314534705
 40
700.0
100
AcDbArc
 50
351.8034238285
 51
8.1965761715
  0
ARC
  5
2B6
100
AcDbEntity
  8
0
100
AcDbCircle
 62
7
  6
CONTINUOUS
 10
-253.2107429705
 20
389.6314543892
 40
699.5003033183
100
AcDbArc
 50
351.8034272961
 51
8.196572555
  0
ARC
  5
2B7
100
AcDbEntity
  8
0
100
AcDbCircle
 62
7
  6
CONTINUOUS
 10
-259.480750366
 20
388.7287128479
 40
695.9736422321
100
AcDbArc
 50
8.0656063327
 51
8.1964520271
  0
ARC
  5
2B8
100
AcDbEntity
  8
0
100
AcDbCircle
 62
7
  6
CONTINUOUS
 10
-253.2231286139
 20
389.631164064
 40
691.5126889617
100
AcDbArc
 50
0.000023979
 51
1.2534721652
  0
ARC
  5
2B9
100
AcDbEntity
  8
0
100
AcDbCircle
 62
7
  6
CONTINUOUS
 10
-253.202150613
 20
389.6319852807
 40
691.4916941632
100
AcDbArc
 50
3.3944401881
 51
5.9096997932
  0
ARC
  5
2BA
100
AcDbEntity
  8
0
100
AcDbCircle
 62
7
  6
CONTINUOUS
 10
-252.8210150952
 20
389.5999075102
 40
691.1093910324
100
AcDbArc
 50
354.089607551
 51
356.6062715309
  0
ARC
  5
2BB
100
AcDbEntity
  8
0
100
AcDbCircle
 62
7
  6
CONTINUOUS
 10
-252.6312839752
 20
389.7093342063
 40
690.9156603527
100
AcDbArc
 50
8.0652394468
 51
8.1974064803
  0
ARC
  5
2BC
100
AcDbEntity
  8
0
100
AcDbCircle
 62
7
  6
CONTINUOUS
 10
-252.2272838336
 20
389.6208490827
 40
690.5168442628
100
AcDbArc
 50
358.7456157305
 51
0.0008799013
  0
ARC
  5
2BD
100
AcDbEntity
  8
0
100
AcDbCircle
 62
7
  6
CONTINUOUS
 10
-253.2939714259
 20
389.6213344444
 40
689.7229845001
100
AcDbArc
 50
3.3946796458
 51
5.909460701
  0
ARC
  5
2BE
100
AcDbEntity
  8
0
100
AcDbCircle
 62
7
  6
CONTINUOUS
 10
-253.2099489582
 20
389.6308808595
 40
689.6385778285
100
AcDbArc
 50
0.0000464057
 51
1.2534486689
  0
ARC
  5
2BF
100
AcDbEntity
  8
0
100
AcDbCircle
 62
7
  6
CONTINUOUS
 10
-252.4607874162
 20
389.5737739498
 40
688.8872480949
100
AcDbArc
 50
354.0890157431
 51
356.6068567618
  0
ARC
  5
2C0
100
AcDbEntity
  8
0
100
AcDbCircle
 62
7
  6
CONTINUOUS
 10
-252.211116948
 20
389.6210995922
 40
688.6397458957
100
AcDbArc
 50
358.7456367584
 51
0.000860288
  0
ARC
  5
2C1
100
AcDbEntity
  8
0
100
AcDbCircle
 62
7
  6
CONTINUOUS
 10
204.2507722766
 20
237.8314534705
 40
5.8
100
AcDbArc
 50
90.0
 51
230.6368227571
  0
ARC
  5
2C2
100
AcDbEntity
  8
0
100
AcDbCircle
 62
7
  6
CONTINUOUS
 10
183.1632989993
 20
263.4314534705
 40
5.8
100
AcDbArc
 50
208.3217284464
 51
270.0
  0
ARC
  5
2C3
100
AcDbEntity
  8
0
100
AcDbCircle
 62
7
  6
CONTINUOUS
 10
173.5572520666
 20
293.4314534705
 40
5.8
100
AcDbArc
 50
90.0
 51
188.0652418885
  0
ARC
  5
2C4
100
AcDbEntity
  8
0
100
AcDbCircle
 62
7
  6
CONTINUOUS
 10
170.4197549335
 20
319.0314534705
 40
5.8
100
AcDbArc
 50
185.9091498733
 51
270.0
  0
ARC
  5
2C5
100
AcDbEntity
  8
0
100
AcDbCircle
 62
7
  6
CONTINUOUS
 10
167.978569701
 20
349.0314534705
 40
5.8
100
AcDbArc
 50
90.0
 51
183.3925877814
  0
ARC
  5
2C6
100
AcDbEntity
  8
0
100
AcDbCircle
 62
7
  6
CONTINUOUS
 10
166.9396491877
 20
404.6314534705
 40
5.8
100
AcDbArc
 50
90.0
 51
178.7465394642
  0
ARC
  5
2C7
100
AcDbEntity
  8
0
100
AcDbCircle
 62
7
  6
CONTINUOUS
 10
166.9396491877
 20
374.6314534705
 40
5.8
100
AcDbArc
 50
181.2544449056
 51
270.0
  0
ARC
  5
2C8
100
AcDbEntity
  8
0
100
AcDbCircle
 62
7
  6
CONTINUOUS
 10
168.0176437983
 20
349.0314482176
 40
3.9000052529
100
AcDbArc
 50
90.0000819036
 51
183.3925058984
  0
ARC
  5
2C9
100
AcDbEntity
  8
0
100
AcDbCircle
 62
7
  6
CONTINUOUS
 10
204.2898436712
 20
237.8314531913
 40
3.9000002792
100
AcDbArc
 50
90.0000421965
 51
231.4504963768
  0
ARC
  5
2CA
100
AcDbEntity
  8
0
100
AcDbCircle
 62
7
  6
CONTINUOUS
 10
166.9787177097
 20
374.6314534698
 40
3.8999999993
100
AcDbArc
 50
181.2544448948
 51
270.0000000045
  0
ARC
  5
2CB
100
AcDbEntity
  8
0
100
AcDbCircle
 62
7
  6
CONTINUOUS
 10
166.97871771
 20
404.6314534705
 40
3.9
100
AcDbArc
 50
90.0
 51
178.7465394642
  0
ARC
  5
2CC
100
AcDbEntity
  8
0
100
AcDbCircle
 62
7
  6
CONTINUOUS
 10
170.4588234558
 20
319.0314534704
 40
3.8999999998
100
AcDbArc
 50
185.9091498711
 51
270.0000000009
  0
ARC
  5
2CD
100
AcDbEntity
  8
0
100
AcDbCircle
 62
7
  6
CONTINUOUS
 10
173.5963205658
 20
293.4314535212
 40
3.8999999493
100
AcDbArc
 50
89.9999996605
 51
188.0667640851
  0
ARC
  5
2CE
100
AcDbEntity
  8
0
100
AcDbCircle
 62
7
  6
CONTINUOUS
 10
183.2023678851
 20
263.4314496941
 40
3.8999962235
100
AcDbArc
 50
209.2125107954
 51
269.9999946608
  0
ARC
  5
2CF
100
AcDbEntity
  8
0
100
AcDbCircle
 62
7
  6
CONTINUOUS
 10
691.7797791577
 20
-115.3315465295
 40
700.037
100
AcDbArc
 50
80.7825110163
 51
99.2174889837
  0
ARC
  5
2D0
100
AcDbEntity
  8
0
100
AcDbCircle
 62
7
  6
CONTINUOUS
 10
299.6222791577
 20
-23.1405465295
 40
600.0
100
AcDbArc
 50
85.2932625881
 51
94.7067374119
  0
ARC
  5
2D1
100
AcDbEntity
  8
0
100
AcDbCircle
 62
7
  6
CONTINUOUS
 10
299.6325574283
 20
-23.1411248839
 40
599.5005821022
100
AcDbArc
 50
85.2932668456
 51
94.7067325982
  0
ARC
  5
2D2
100
AcDbEntity
  8
0
100
AcDbCircle
 62
7
  6
CONTINUOUS
 10
299.6325574301
 20
-23.1422839982
 40
591.5017372801
100
AcDbArc
 50
85.292854576
 51
94.7071528661
  0
ARC
  5
2D3
100
AcDbEntity
  8
0
100
AcDbCircle
 62
7
  6
CONTINUOUS
 10
299.6716322731
 20
-23.1426709004
 40
589.6021301957
100
AcDbArc
 50
85.2928594309
 51
94.7071492448
  0
ARC
  5
2D4
100
AcDbEntity
  8
0
100
AcDbCircle
 62
7
  6
CONTINUOUS
 10
340.6501304952
 20
304.0895810822
 40
100.0
100
AcDbArc
 50
274.7067374119
 51
351.8034238285
  0
ARC
  5
2D5
100
AcDbEntity
  8
0
100
AcDbCircle
 62
7
  6
CONTINUOUS
 10
258.5944278202
 20
304.0895810822
 40
100.0
100
AcDbArc
 50
188.1965761715
 51
265.2932625881
  0
ARC
  5
2D6
100
AcDbEntity
  8
0
100
AcDbCircle
 62
7
  6
CONTINUOUS
 10
258.6047736056
 20
304.0896478473
 40
99.5000928893
100
AcDbArc
 50
188.1966089213
 51
265.2932286732
  0
ARC
  5
2D7
100
AcDbEntity
  8
0
100
AcDbCircle
 62
7
  6
CONTINUOUS
 10
340.6603489594
 20
304.089649603
 40
99.5000928869
100
AcDbArc
 50
274.7067701711
 51
351.8033899245
  0
ARC
  5
2D8
100
AcDbEntity
  8
0
100
AcDbCircle
 62
7
  6
CONTINUOUS
 10
250.1272816724
 20
303.6009689028
 40
83.0421954566
100
AcDbArc
 50
187.6002770288
 51
188.6572416515
  0
ARC
  5
2D9
100
AcDbEntity
  8
0
100
AcDbCircle
 62
7
  6
CONTINUOUS
 10
250.2466524387
 20
303.6127795912
 40
81.2233543175
100
AcDbArc
 50
187.5902397683
 51
188.6162397275
  0
ARC
  5
2DA
100
AcDbEntity
  8
0
100
AcDbCircle
 62
7
  6
CONTINUOUS
 10
352.0557075386
 20
303.15862164
 40
80.0914727823
100
AcDbArc
 50
351.3004252944
 51
352.4373094691
  0
ARC
  5
2DB
100
AcDbEntity
  8
0
100
AcDbCircle
 62
7
  6
CONTINUOUS
 10
352.1985015139
 20
303.1433819225
 40
78.0866437901
100
AcDbArc
 50
351.3458939227
 51
352.450527573
  0
ARC
  5
2DC
100
AcDbEntity
  8
0
100
AcDbCircle
 62
7
  6
CONTINUOUS
 10
346.8077893133
 20
288.9041123209
 40
76.0175556962
100
AcDbArc
 50
271.025835713
 51
313.0427140534
  0
ARC
  5
2DD
100
AcDbEntity
  8
0
100
AcDbCircle
 62
7
  6
CONTINUOUS
 10
252.456728653
 20
288.9024198091
 40
76.015889656
100
AcDbArc
 50
226.9567474089
 51
268.9745911715
  0
ARC
  5
2DE
100
AcDbEntity
  8
0
100
AcDbCircle
 62
7
  6
CONTINUOUS
 10
346.8483187581
 20
288.9010842303
 40
74.1142340098
100
AcDbArc
 50
270.9469787953
 51
313.0950398717
  0
ARC
  5
2DF
100
AcDbEntity
  8
0
100
AcDbCircle
 62
7
  6
CONTINUOUS
 10
252.4945332798
 20
288.8998818233
 40
74.1130824244
100
AcDbArc
 50
226.9045526913
 51
269.0532728764
  0
ARC
  5
2E0
100
AcDbEntity
  8
0
100
AcDbCircle
 62
7
  6
CONTINUOUS
 10
395.0143484651
 20
237.8314534705
 40
5.8
100
AcDbArc
 50
309.3631790908
 51
90.0
  0
ARC
  5
2E1
100
AcDbEntity
  8
0
100
AcDbCircle
 62
7
  6
CONTINUOUS
 10
416.101821653
 20
263.4314534705
 40
5.8
100
AcDbArc
 50
270.0
 51
331.6782711652
  0
ARC
  5
2E2
100
AcDbEntity
  8
0
100
AcDbCircle
 62
7
  6
CONTINUOUS
 10
395.0534141149
 20
237.8314531871
 40
3.9000002835
100
AcDbArc
 50
308.5494758362
 51
89.9999577999
  0
ARC
  5
2E3
100
AcDbEntity
  8
0
100
AcDbCircle
 62
7
  6
CONTINUOUS
 10
416.140889979
 20
263.4314495141
 40
3.8999960436
100
AcDbArc
 50
270.0000028835
 51
330.7236470506
  0
ARC
  5
2E4
100
AcDbEntity
  8
0
100
AcDbCircle
 62
7
  6
CONTINUOUS
 10
275.0672340636
 20
325.7306572159
 40
159.964384884
100
AcDbArc
 50
336.0049106733
 51
347.4766950376
  0
ARC
  5
2E5
100
AcDbEntity
  8
0
100
AcDbCircle
 62
7
  6
CONTINUOUS
 10
275.8242506393
 20
325.494081127
 40
157.3122463641
100
AcDbArc
 50
336.0059153847
 51
347.4807071868
  0
ARC
  5
2E6
100
AcDbEntity
  8
0
100
AcDbCircle
 62
7
  6
CONTINUOUS
 10
316.6714675692
 20
323.2147991338
 40
150.1315888478
100
AcDbArc
 50
192.2171868645
 51
204.2604104486
  0
ARC
  5
2E7
100
AcDbEntity
  8
0
100
AcDbCircle
 62
7
  6
CONTINUOUS
 10
425.7078688448
 20
293.4314534705
 40
5.8
100
AcDbArc
 50
351.9347597808
 51
90.0
  0
ARC
  5
2E8
100
AcDbEntity
  8
0
100
AcDbCircle
 62
7
  6
CONTINUOUS
 10
428.8453657198
 20
319.0314534705
 40
5.8
100
AcDbArc
 50
270.0
 51
354.0907970218
  0
ARC
  5
2E9
100
AcDbEntity
  8
0
100
AcDbCircle
 62
7
  6
CONTINUOUS
 10
428.8844342422
 20
319.0314534704
 40
3.8999999999
100
AcDbArc
 50
269.9999999993
 51
354.0907970235
  0
ARC
  5
2EA
100
AcDbEntity
  8
0
100
AcDbCircle
 62
7
  6
CONTINUOUS
 10
425.7469373896
 20
293.4314535198
 40
3.8999999507
100
AcDbArc
 50
351.9332002281
 51
90.0000003308
  0
ARC
  5
2EB
100
AcDbEntity
  8
0
100
AcDbCircle
 62
7
  6
CONTINUOUS
 10
531.0942791577
 20
389.6314534705
 40
700.0
100
AcDbArc
 50
351.8034238285
 51
8.1965761715
  0
ARC
  5
2EC
100
AcDbEntity
  8
0
100
AcDbCircle
 62
7
  6
CONTINUOUS
 10
531.0836946493
 20
389.6314525518
 40
699.5003033183
100
AcDbArc
 50
351.803427445
 51
8.1965727039
  0
ARC
  5
2ED
100
AcDbEntity
  8
0
100
AcDbCircle
 62
7
  6
CONTINUOUS
 10
523.9419098148
 20
388.6157128047
 40
696.7752864569
100
AcDbArc
 50
8.0656498458
 51
8.1963381413
  0
ARC
  5
2EE
100
AcDbEntity
  8
0
100
AcDbCircle
 62
7
  6
CONTINUOUS
 10
531.071147814
 20
389.6311625677
 40
691.5128501536
100
AcDbArc
 50
0.000024103
 51
1.2534719962
  0
ARC
  5
2EF
100
AcDbEntity
  8
0
100
AcDbCircle
 62
7
  6
CONTINUOUS
 10
531.0922126813
 20
389.6319801712
 40
691.4917686618
100
AcDbArc
 50
3.394440246
 51
5.9096995783
  0
ARC
  5
2F0
100
AcDbEntity
  8
0
100
AcDbCircle
 62
7
  6
CONTINUOUS
 10
531.4443594805
 20
389.6022715194
 40
691.138543053
100
AcDbArc
 50
354.0896611583
 51
356.6062180741
  0
ARC
  5
2F1
100
AcDbEntity
  8
0
100
AcDbCircle
 62
7
  6
CONTINUOUS
 10
532.0714882337
 20
389.6208014005
 40
690.512509816
100
AcDbArc
 50
358.7456117686
 51
0.0008838633
  0
ARC
  5
2F2
100
AcDbEntity
  8
0
100
AcDbCircle
 62
7
  6
CONTINUOUS
 10
530.9221776471
 20
389.621323055
 40
689.7231364119
100
AcDbArc
 50
3.3946798449
 51
5.9094603449
  0
ARC
  5
2F3
100
AcDbEntity
  8
0
100
AcDbCircle
 62
7
  6
CONTINUOUS
 10
531.0061902604
 20
389.6308793614
 40
689.6387391852
100
AcDbArc
 50
0.0000465262
 51
1.2534484996
  0
ARC
  5
2F4
100
AcDbEntity
  8
0
100
AcDbCircle
 62
7
  6
CONTINUOUS
 10
531.7264273493
 20
389.5761398095
 40
688.916422944
100
AcDbArc
 50
354.0890694438
 51
356.6068032138
  0
ARC
  5
2F5
100
AcDbEntity
  8
0
100
AcDbCircle
 62
7
  6
CONTINUOUS
 10
532.0095179285
 20
389.6210519114
 40
688.6354115952
100
AcDbArc
 50
358.7456328005
 51
0.0008642566
  0
ARC
  5
2F6
100
AcDbEntity
  8
0
100
AcDbCircle
 62
7
  6
CONTINUOUS
 10
595.670282724
 20
352.4160033318
 40
100.037
100
AcDbArc
 50
187.1521653049
 51
260.7825110163
  0
ARC
  5
2F7
100
AcDbEntity
  8
0
100
AcDbCircle
 62
7
  6
CONTINUOUS
 10
439.5174516015
 20
335.0701006122
 40
44.7996150706
100
AcDbArc
 50
258.735902489
 51
259.3339231325
  0
ARC
  5
2F8
100
AcDbEntity
  8
0
100
AcDbCircle
 62
7
  6
CONTINUOUS
 10
431.2865509937
 20
349.0314534705
 40
5.8
100
AcDbArc
 50
356.6074657099
 51
90.0
  0
ARC
  5
2F9
100
AcDbEntity
  8
0
100
AcDbCircle
 62
7
  6
CONTINUOUS
 10
432.325471502
 20
404.6314534705
 40
5.8
100
AcDbArc
 50
1.2534606308
 51
90.0
  0
ARC
  5
2FA
100
AcDbEntity
  8
0
100
AcDbCircle
 62
7
  6
CONTINUOUS
 10
432.325471502
 20
374.6314534705
 40
5.8
100
AcDbArc
 50
270.0
 51
358.7455603431
  0
ARC
  5
2FB
100
AcDbEntity
  8
0
100
AcDbCircle
 62
7
  6
CONTINUOUS
 10
431.3256139411
 20
349.0314482178
 40
3.9000052527
100
AcDbArc
 50
356.60754759
 51
89.999918098
  0
ARC
  5
2FC
100
AcDbEntity
  8
0
100
AcDbCircle
 62
7
  6
CONTINUOUS
 10
432.3645400246
 20
374.6314534698
 40
3.8999999993
100
AcDbArc
 50
269.9999999956
 51
358.7455603538
  0
ARC
  5
2FD
100
AcDbEntity
  8
0
100
AcDbCircle
 62
7
  6
CONTINUOUS
 10
432.3645400243
 20
404.6314534705
 40
3.9
100
AcDbArc
 50
1.2534606308
 51
90.0
  0
ARC
  5
2FE
100
AcDbEntity
  8
0
100
AcDbCircle
 62
7
  6
CONTINUOUS
 10
291.7797791577
 20
414.6684534705
 40
600.037
100
AcDbArc
 50
352.8478346951
 51
7.1521653049
  0
ARC
  5
2FF
100
AcDbEntity
  8
0
100
AcDbCircle
 62
7
  6
CONTINUOUS
 10
299.6325657189
 20
599.6693042563
 40
389.8046871812
100
AcDbArc
 50
262.8472985962
 51
277.1526989339
  0
ARC
  5
300
100
AcDbEntity
  8
0
100
AcDbCircle
 62
7
  6
CONTINUOUS
 10
299.6716327402
 20
599.7314796904
 40
387.9663538042
100
AcDbArc
 50
262.8332554123
 51
277.1667344886
  0
ARC
  5
301
100
AcDbEntity
  8
0
100
AcDbCircle
 62
7
  6
CONTINUOUS
 10
340.6501304952
 20
475.1733258588
 40
100.0
100
AcDbArc
 50
8.1965761715
 51
85.2932625881
  0
ARC
  5
302
100
AcDbEntity
  8
0
100
AcDbCircle
 62
7
  6
CONTINUOUS
 10
258.5944278202
 20
475.1733258588
 40
100.0
100
AcDbArc
 50
94.7067374119
 51
171.8034238285
  0
ARC
  5
303
100
AcDbEntity
  8
0
100
AcDbCircle
 62
7
  6
CONTINUOUS
 10
340.66034709
 20
475.1732590937
 40
99.5000928893
100
AcDbArc
 50
8.1966089213
 51
85.2932286732
  0
ARC
  5
304
100
AcDbEntity
  8
0
100
AcDbCircle
 62
7
  6
CONTINUOUS
 10
258.6047717362
 20
475.1732573381
 40
99.5000928869
100
AcDbArc
 50
94.7067701711
 51
171.8033899245
  0
ARC
  5
305
100
AcDbEntity
  8
0
100
AcDbCircle
 62
7
  6
CONTINUOUS
 10
258.6052637196
 20
475.1730734622
 40
91.5006062159
100
AcDbArc
 50
151.6781861458
 51
171.8005341312
  0
ARC
  5
306
100
AcDbEntity
  8
0
100
AcDbCircle
 62
7
  6
CONTINUOUS
 10
340.6599052095
 20
475.1730940574
 40
91.500553947
100
AcDbArc
 50
8.1995096832
 51
28.3218168681
  0
ARC
  5
307
100
AcDbEntity
  8
0
100
AcDbCircle
 62
7
  6
CONTINUOUS
 10
340.6602928176
 20
475.1731291601
 40
91.5002269878
100
AcDbArc
 50
50.6367593093
 51
85.290473472
  0
ARC
  5
308
100
AcDbEntity
  8
0
100
AcDbCircle
 62
7
  6
CONTINUOUS
 10
258.604818716
 20
475.1731448007
 40
91.5002090553
100
AcDbArc
 50
94.7095733657
 51
129.3632423273
  0
ARC
  5
309
100
AcDbEntity
  8
0
100
AcDbCircle
 62
7
  6
CONTINUOUS
 10
258.6440542236
 20
475.1731925506
 40
89.6003049788
100
AcDbArc
 50
151.6781670275
 51
171.8005403883
  0
ARC
  5
30A
100
AcDbEntity
  8
0
100
AcDbCircle
 62
7
  6
CONTINUOUS
 10
340.6992247121
 20
475.1732014275
 40
89.600282071
100
AcDbArc
 50
8.1995091816
 51
28.3218344358
  0
ARC
  5
30B
100
AcDbEntity
  8
0
100
AcDbCircle
 62
7
  6
CONTINUOUS
 10
340.6994053919
 20
475.1732029314
 40
89.6001420129
100
AcDbArc
 50
50.6367498627
 51
85.2904547968
  0
ARC
  5
30C
100
AcDbEntity
  8
0
100
AcDbCircle
 62
7
  6
CONTINUOUS
 10
258.6438491864
 20
475.1732083905
 40
89.6001357575
100
AcDbArc
 50
94.7095962265
 51
129.3632506848
  0
ARC
  5
30D
100
AcDbEntity
  8
0
100
AcDbCircle
 62
7
  6
CONTINUOUS
 10
395.0143484651
 20
541.4314534705
 40
5.8
100
AcDbArc
 50
270.0
 51
50.6368209092
  0
ARC
  5
30E
100
AcDbEntity
  8
0
100
AcDbCircle
 62
7
  6
CONTINUOUS
 10
204.2507722766
 20
541.4314534705
 40
5.8
100
AcDbArc
 50
129.3631772429
 51
270.0
  0
ARC
  5
30F
100
AcDbEntity
  8
0
100
AcDbCircle
 62
7
  6
CONTINUOUS
 10
183.1632989993
 20
515.8314534705
 40
5.8
100
AcDbArc
 50
90.0
 51
151.6782715536
  0
ARC
  5
310
100
AcDbEntity
  8
0
100
AcDbCircle
 62
7
  6
CONTINUOUS
 10
416.101821653
 20
515.8314534705
 40
5.8
100
AcDbArc
 50
28.3217288348
 51
90.0
  0
ARC
  5
311
100
AcDbEntity
  8
0
100
AcDbCircle
 62
7
  6
CONTINUOUS
 10
425.7078688448
 20
485.8314534705
 40
5.8
100
AcDbArc
 50
270.0
 51
8.0652402192
  0
ARC
  5
312
100
AcDbEntity
  8
0
100
AcDbCircle
 62
7
  6
CONTINUOUS
 10
173.5572520666
 20
485.8314534705
 40
5.8
100
AcDbArc
 50
171.9347581115
 51
270.0
  0
ARC
  5
313
100
AcDbEntity
  8
0
100
AcDbCircle
 62
7
  6
CONTINUOUS
 10
170.4197549335
 20
460.2314534705
 40
5.8
100
AcDbArc
 50
90.0
 51
174.0904234178
  0
ARC
  5
314
100
AcDbEntity
  8
0
100
AcDbCircle
 62
7
  6
CONTINUOUS
 10
428.8453657198
 20
460.2314534705
 40
5.8
100
AcDbArc
 50
5.9095767632
 51
90.0
  0
ARC
  5
315
100
AcDbEntity
  8
0
100
AcDbCircle
 62
7
  6
CONTINUOUS
 10
167.978569701
 20
430.2314534705
 40
5.8
100
AcDbArc
 50
176.6055694489
 51
270.0
  0
ARC
  5
316
100
AcDbEntity
  8
0
100
AcDbCircle
 62
7
  6
CONTINUOUS
 10
416.1408849694
 20
515.8314447511
 40
3.9000087194
100
AcDbArc
 50
28.3218053158
 51
89.999923519
  0
ARC
  5
317
100
AcDbEntity
  8
0
100
AcDbCircle
 62
7
  6
CONTINUOUS
 10
183.2023727248
 20
515.8314447557
 40
3.9000087148
100
AcDbArc
 50
90.0000764406
 51
151.6781951129
  0
ARC
  5
318
100
AcDbEntity
  8
0
100
AcDbCircle
 62
7
  6
CONTINUOUS
 10
168.0176437996
 20
430.2314587259
 40
3.9000052554
100
AcDbArc
 50
176.6056513716
 51
269.9999180773
  0
ARC
  5
319
100
AcDbEntity
  8
0
100
AcDbCircle
 62
7
  6
CONTINUOUS
 10
395.053412945
 20
541.4314549164
 40
3.9000014459
100
AcDbArc
 50
270.0000593871
 51
50.6367615221
  0
ARC
  5
31A
100
AcDbEntity
  8
0
100
AcDbCircle
 62
7
  6
CONTINUOUS
 10
204.2898448413
 20
541.4314549164
 40
3.9000014459
100
AcDbArc
 50
129.3632366297
 51
269.9999406131
  0
ARC
  5
31B
100
AcDbEntity
  8
0
100
AcDbCircle
 62
7
  6
CONTINUOUS
 10
425.7469373671
 20
485.8314534705
 40
3.9
100
AcDbArc
 50
270.0
 51
8.0652402192
  0
ARC
  5
31C
100
AcDbEntity
  8
0
100
AcDbCircle
 62
7
  6
CONTINUOUS
 10
173.5963205889
 20
485.8314534705
 40
3.9
100
AcDbArc
 50
171.9347581116
 51
270.0
  0
ARC
  5
31D
100
AcDbEntity
  8
0
100
AcDbCircle
 62
7
  6
CONTINUOUS
 10
170.4588234558
 20
460.2314534705
 40
3.9
100
AcDbArc
 50
90.0
 51
174.0904234178
  0
ARC
  5
31E
100
AcDbEntity
  8
0
100
AcDbCircle
 62
7
  6
CONTINUOUS
 10
428.8844342421
 20
460.2314534705
 40
3.9
100
AcDbArc
 50
5.9095767632
 51
90.0
  0
ARC
  5
31F
100
AcDbEntity
  8
0
100
AcDbCircle
 62
7
  6
CONTINUOUS
 10
299.6222791577
 20
802.4034534705
 40
600.0
100
AcDbArc
 50
265.2932625881
 51
274.7067374119
  0
ARC
  5
320
100
AcDbEntity
  8
0
100
AcDbCircle
 62
7
  6
CONTINUOUS
 10
299.6325632673
 20
802.4040318249
 40
599.5005821022
100
AcDbArc
 50
265.2932668456
 51
274.7067325982
  0
ARC
  5
321
100
AcDbEntity
  8
0
100
AcDbCircle
 62
7
  6
CONTINUOUS
 10
595.670282724
 20
476.9209036092
 40
100.037
100
AcDbArc
 50
99.2174889837
 51
172.8478346951
  0
CIRCLE
  5
322
100
AcDbEntity
  8
02___PRT_ALL_AXES
100
AcDbCircle
 62
7
  6
CONTINUOUS
 10
691.7797791577
 20
463.1314534705
 40
48.787
  0
CIRCLE
  5
323
100
AcDbEntity
  8
02___PRT_ALL_AXES
100
AcDbCircle
 62
7
  6
CONTINUOUS
 10
691.7797791577
 20
463.1314534705
 40
45.2295
  0
CIRCLE
  5
324
100
AcDbEntity
  8
0
100
AcDbCircle
 62
7
  6
CONTINUOUS
 10
691.7797791577
 20
463.1314534705
 40
35.0
  0
ARC
  5
325
100
AcDbEntity
  8
0
100
AcDbCircle
 62
7
  6
CONTINUOUS
 10
431.2865509937
 20
430.2314534705
 40
5.8
100
AcDbArc
 50
270.0
 51
3.3944305672
  0
ARC
  5
326
100
AcDbEntity
  8
0
100
AcDbCircle
 62
7
  6
CONTINUOUS
 10
431.3256139396
 20
430.2314587259
 40
3.9000052554
100
AcDbArc
 50
270.0000819233
 51
3.394348644
  0
ARC
  5
327
100
AcDbEntity
  8
0
100
AcDbCircle
 62
7
  6
CONTINUOUS
 10
691.7797791577
 20
944.6684534705
 40
700.037
100
AcDbArc
 50
260.7825110163
 51
279.2174889837
  0
ARC
  5
328
100
AcDbEntity
  8
0
100
AcDbCircle
 62
7
  6
CONTINUOUS
 10
1083.9372791577
 20
-23.1405465295
 40
600.0
100
AcDbArc
 50
85.2932625881
 51
94.7067374119
  0
ARC
  5
329
100
AcDbEntity
  8
0
100
AcDbCircle
 62
7
  6
CONTINUOUS
 10
1083.9270008871
 20
-23.1411248839
 40
599.5005821022
100
AcDbArc
 50
85.2932674018
 51
94.7067331544
  0
ARC
  5
32A
100
AcDbEntity
  8
0
100
AcDbCircle
 62
7
  6
CONTINUOUS
 10
1083.9270008853
 20
-23.1423141241
 40
591.5017673045
100
AcDbArc
 50
85.2928473733
 51
94.7071451846
  0
ARC
  5
32B
100
AcDbEntity
  8
0
100
AcDbCircle
 62
7
  6
CONTINUOUS
 10
1083.8879260423
 20
-23.1426681644
 40
589.6021274689
100
AcDbArc
 50
85.2928507334
 51
94.7071405909
  0
ARC
  5
32C
100
AcDbEntity
  8
0
100
AcDbCircle
 62
7
  6
CONTINUOUS
 10
988.5452098503
 20
237.8314534705
 40
5.8
100
AcDbArc
 50
90.0
 51
230.6368209092
  0
ARC
  5
32D
100
AcDbEntity
  8
0
100
AcDbCircle
 62
7
  6
CONTINUOUS
 10
967.4577366624
 20
263.4314534705
 40
5.8
100
AcDbArc
 50
208.3217288348
 51
270.0
  0
ARC
  5
32E
100
AcDbEntity
  8
0
100
AcDbCircle
 62
7
  6
CONTINUOUS
 10
957.8516894706
 20
293.4314534705
 40
5.8
100
AcDbArc
 50
90.0
 51
188.0652402192
  0
ARC
  5
32F
100
AcDbEntity
  8
0
100
AcDbCircle
 62
7
  6
CONTINUOUS
 10
954.7141925956
 20
319.0314534705
 40
5.8
100
AcDbArc
 50
185.9092029782
 51
270.0
  0
ARC
  5
330
100
AcDbEntity
  8
0
100
AcDbCircle
 62
7
  6
CONTINUOUS
 10
988.5061442061
 20
237.8314531862
 40
3.9000002844
100
AcDbArc
 50
90.0000422827
 51
231.4505232444
  0
ARC
  5
331
100
AcDbEntity
  8
0
100
AcDbCircle
 62
7
  6
CONTINUOUS
 10
954.6751240732
 20
319.0314534704
 40
3.8999999999
100
AcDbArc
 50
185.9092029765
 51
270.0000000007
  0
ARC
  5
332
100
AcDbEntity
  8
0
100
AcDbCircle
 62
7
  6
CONTINUOUS
 10
957.8126209231
 20
293.4314535259
 40
3.8999999446
100
AcDbArc
 50
89.9999996291
 51
188.0668995053
  0
ARC
  5
333
100
AcDbEntity
  8
0
100
AcDbCircle
 62
7
  6
CONTINUOUS
 10
967.4186684042
 20
263.4314496096
 40
3.8999961391
100
AcDbArc
 50
209.2763836708
 51
269.9999961204
  0
ARC
  5
334
100
AcDbEntity
  8
0
100
AcDbCircle
 62
7
  6
CONTINUOUS
 10
852.4652791577
 20
389.6314534705
 40
700.0
100
AcDbArc
 50
171.8034238285
 51
188.1965761715
  0
ARC
  5
335
100
AcDbEntity
  8
0
100
AcDbCircle
 62
7
  6
CONTINUOUS
 10
852.4758636661
 20
389.6314525518
 40
699.5003033183
100
AcDbArc
 50
171.8034272961
 51
188.196572555
  0
ARC
  5
336
100
AcDbEntity
  8
0
100
AcDbCircle
 62
7
  6
CONTINUOUS
 10
859.6176502455
 20
388.6157125554
 40
696.7752882195
100
AcDbArc
 50
171.8036618588
 51
171.934350154
  0
ARC
  5
337
100
AcDbEntity
  8
0
100
AcDbCircle
 62
7
  6
CONTINUOUS
 10
852.4884105017
 20
389.6311625677
 40
691.512850154
100
AcDbArc
 50
178.7465280038
 51
179.999975897
  0
ARC
  5
338
100
AcDbEntity
  8
0
100
AcDbCircle
 62
7
  6
CONTINUOUS
 10
852.4673456346
 20
389.6319801712
 40
691.4917686623
100
AcDbArc
 50
174.0903004217
 51
176.605559754
  0
ARC
  5
339
100
AcDbEntity
  8
0
100
AcDbCircle
 62
7
  6
CONTINUOUS
 10
852.1151988349
 20
389.6022715194
 40
691.138543053
100
AcDbArc
 50
183.3937819259
 51
185.9103388417
  0
ARC
  5
33A
100
AcDbEntity
  8
0
100
AcDbCircle
 62
7
  6
CONTINUOUS
 10
851.488070082
 20
389.6208014005
 40
690.5125098164
100
AcDbArc
 50
179.9991161367
 51
181.2543882314
  0
ARC
  5
33B
100
AcDbEntity
  8
0
100
AcDbCircle
 62
7
  6
CONTINUOUS
 10
852.6373880217
 20
389.6213224567
 40
689.7231437878
100
AcDbArc
 50
174.0905396685
 51
176.6053201416
  0
ARC
  5
33C
100
AcDbEntity
  8
0
100
AcDbCircle
 62
7
  6
CONTINUOUS
 10
852.553369306
 20
389.6308793477
 40
689.6387404361
100
AcDbArc
 50
178.7465515016
 51
179.9999534727
  0
ARC
  5
33D
100
AcDbEntity
  8
0
100
AcDbCircle
 62
7
  6
CONTINUOUS
 10
852.485631685
 20
389.6292355688
 40
689.5709225132
100
AcDbArc
 50
183.3943918196
 51
185.9097355229
  0
ARC
  5
33E
100
AcDbEntity
  8
0
100
AcDbCircle
 62
7
  6
CONTINUOUS
 10
851.5500433673
 20
389.621051944
 40
688.6354145755
100
AcDbArc
 50
179.9991357461
 51
181.2543671968
  0
ARC
  5
33F
100
AcDbEntity
  8
0
100
AcDbCircle
 62
7
  6
CONTINUOUS
 10
787.8892755914
 20
352.4160033318
 40
100.037
100
AcDbArc
 50
279.2174889837
 51
352.8478346951
  0
ARC
  5
340
100
AcDbEntity
  8
0
100
AcDbCircle
 62
7
  6
CONTINUOUS
 10
952.2730073218
 20
349.0314534705
 40
5.8
100
AcDbArc
 50
90.0
 51
183.3925342901
  0
ARC
  5
341
100
AcDbEntity
  8
0
100
AcDbCircle
 62
7
  6
CONTINUOUS
 10
951.2340868134
 20
404.6314534705
 40
5.8
100
AcDbArc
 50
90.0
 51
178.7465393692
  0
ARC
  5
342
100
AcDbEntity
  8
0
100
AcDbCircle
 62
7
  6
CONTINUOUS
 10
951.2340868134
 20
374.6314534705
 40
5.8
100
AcDbArc
 50
181.2544396569
 51
270.0
  0
ARC
  5
343
100
AcDbEntity
  8
0
100
AcDbCircle
 62
7
  6
CONTINUOUS
 10
952.2339443531
 20
349.0314482378
 40
3.9000052327
100
AcDbArc
 50
90.0000815903
 51
183.3924527217
  0
ARC
  5
344
100
AcDbEntity
  8
0
100
AcDbCircle
 62
7
  6
CONTINUOUS
 10
951.1950182911
 20
404.6314534705
 40
3.9
100
AcDbArc
 50
90.0
 51
178.7465393692
  0
ARC
  5
345
100
AcDbEntity
  8
0
100
AcDbCircle
 62
7
  6
CONTINUOUS
 10
951.1950182908
 20
374.6314534698
 40
3.8999999993
100
AcDbArc
 50
181.2544396462
 51
270.0000000044
  0
ARC
  5
346
100
AcDbEntity
  8
0
100
AcDbCircle
 62
7
  6
CONTINUOUS
 10
1042.9094278202
 20
304.0895810822
 40
100.0
100
AcDbArc
 50
188.1965761715
 51
265.2932625881
  0
ARC
  5
347
100
AcDbEntity
  8
0
100
AcDbCircle
 62
7
  6
CONTINUOUS
 10
1124.9651304952
 20
304.0895810822
 40
100.0
100
AcDbArc
 50
274.7067374119
 51
351.8034238285
  0
ARC
  5
348
100
AcDbEntity
  8
0
100
AcDbCircle
 62
7
  6
CONTINUOUS
 10
1124.9547847098
 20
304.0896478473
 40
99.5000928893
100
AcDbArc
 50
274.7067713268
 51
351.8033910787
  0
ARC
  5
349
100
AcDbEntity
  8
0
100
AcDbCircle
 62
7
  6
CONTINUOUS
 10
1042.8992093561
 20
304.089649603
 40
99.5000928869
100
AcDbArc
 50
188.1966100755
 51
265.2932298289
  0
ARC
  5
34A
100
AcDbEntity
  8
0
100
AcDbCircle
 62
7
  6
CONTINUOUS
 10
1133.432276643
 20
303.6009689028
 40
83.0421954567
100
AcDbArc
 50
351.3427583485
 51
352.3997229712
  0
ARC
  5
34B
100
AcDbEntity
  8
0
100
AcDbCircle
 62
7
  6
CONTINUOUS
 10
1133.4863416698
 20
303.5873151924
 40
81.04807417
100
AcDbArc
 50
351.3832413337
 51
352.4114127543
  0
ARC
  5
34C
100
AcDbEntity
  8
0
100
AcDbCircle
 62
7
  6
CONTINUOUS
 10
1031.5038507783
 20
303.1586216402
 40
80.0914727838
100
AcDbArc
 50
187.5626905309
 51
188.6995747056
  0
ARC
  5
34D
100
AcDbEntity
  8
0
100
AcDbCircle
 62
7
  6
CONTINUOUS
 10
1031.5543596885
 20
303.1718276356
 40
78.2820090602
100
AcDbArc
 50
187.5515286408
 51
188.6534876507
  0
ARC
  5
34E
100
AcDbEntity
  8
0
100
AcDbCircle
 62
7
  6
CONTINUOUS
 10
1036.7517653616
 20
288.9041137639
 40
76.0175556962
100
AcDbArc
 50
226.9572886943
 51
268.9741670499
  0
ARC
  5
34F
100
AcDbEntity
  8
0
100
AcDbCircle
 62
7
  6
CONTINUOUS
 10
1131.102826875
 20
288.9024186999
 40
76.015889656
100
AcDbArc
 50
271.0254109441
 51
313.0432546972
  0
ARC
  5
350
100
AcDbEntity
  8
0
100
AcDbCircle
 62
7
  6
CONTINUOUS
 10
1036.7112505416
 20
288.901122985
 40
74.1142735942
100
AcDbArc
 50
226.9049743972
 51
269.0530588922
  0
ARC
  5
351
100
AcDbEntity
  8
0
100
AcDbCircle
 62
7
  6
CONTINUOUS
 10
1131.0650605751
 20
288.8998352901
 40
74.1130308386
100
AcDbArc
 50
270.9466716222
 51
313.0954518232
  0
ARC
  5
352
100
AcDbEntity
  8
0
100
AcDbCircle
 62
7
  6
CONTINUOUS
 10
1205.9046305125
 20
238.3367364379
 40
53.6349170881
100
AcDbArc
 50
79.6634583857
 51
80.1845501851
  0
ARC
  5
353
100
AcDbEntity
  8
0
100
AcDbCircle
 62
7
  6
CONTINUOUS
 10
1179.3087860388
 20
237.8314534705
 40
5.8
100
AcDbArc
 50
309.3631772429
 51
90.0
  0
ARC
  5
354
100
AcDbEntity
  8
0
100
AcDbCircle
 62
7
  6
CONTINUOUS
 10
1200.3962593161
 20
263.4314534705
 40
5.8
100
AcDbArc
 50
270.0
 51
331.6782715536
  0
ARC
  5
355
100
AcDbEntity
  8
0
100
AcDbCircle
 62
7
  6
CONTINUOUS
 10
1210.0023062488
 20
293.4314534705
 40
5.8
100
AcDbArc
 50
351.9347581116
 51
90.0
  0
ARC
  5
356
100
AcDbEntity
  8
0
100
AcDbCircle
 62
7
  6
CONTINUOUS
 10
1213.1398033819
 20
319.0314534705
 40
5.8
100
AcDbArc
 50
270.0
 51
354.0908501267
  0
ARC
  5
357
100
AcDbEntity
  8
0
100
AcDbCircle
 62
7
  6
CONTINUOUS
 10
1179.2697146493
 20
237.831453192
 40
3.9000002785
100
AcDbArc
 50
308.5495049276
 51
89.9999578781
  0
ARC
  5
358
100
AcDbEntity
  8
0
100
AcDbCircle
 62
7
  6
CONTINUOUS
 10
1213.1007348596
 20
319.0314534704
 40
3.8999999998
100
AcDbArc
 50
269.9999999991
 51
354.0908501289
  0
ARC
  5
359
100
AcDbEntity
  8
0
100
AcDbCircle
 62
7
  6
CONTINUOUS
 10
1209.9632377474
 20
293.4314535164
 40
3.8999999541
100
AcDbArc
 50
351.9333096001
 51
90.0000003075
  0
ARC
  5
35A
100
AcDbEntity
  8
0
100
AcDbCircle
 62
7
  6
CONTINUOUS
 10
1200.3571905827
 20
263.4314494574
 40
3.8999959869
100
AcDbArc
 50
270.0000031016
 51
330.7874975572
  0
ARC
  5
35B
100
AcDbEntity
  8
0
100
AcDbCircle
 62
7
  6
CONTINUOUS
 10
1108.4923242518
 20
325.7306572159
 40
159.964384884
100
AcDbArc
 50
192.5233049624
 51
203.9950893267
  0
ARC
  5
35C
100
AcDbEntity
  8
0
100
AcDbCircle
 62
7
  6
CONTINUOUS
 10
1108.3894048448
 20
325.7098942894
 40
157.9975943371
100
AcDbArc
 50
192.5443197652
 51
203.9691288852
  0
ARC
  5
35D
100
AcDbEntity
  8
0
100
AcDbCircle
 62
7
  6
CONTINUOUS
 10
1066.8636464688
 20
323.2387942001
 40
152.099325816
100
AcDbArc
 50
335.7132596437
 51
347.801785421
  0
ARC
  5
35E
100
AcDbEntity
  8
0
100
AcDbCircle
 62
7
  6
CONTINUOUS
 10
1067.571143434
 20
322.9897092633
 40
149.4163915811
100
AcDbArc
 50
335.7106596068
 51
347.8117717407
  0
ARC
  5
35F
100
AcDbEntity
  8
0
100
AcDbCircle
 62
7
  6
CONTINUOUS
 10
1636.7802791577
 20
389.6314534705
 40
700.0
100
AcDbArc
 50
171.8034238285
 51
188.1965761715
  0
ARC
  5
360
100
AcDbEntity
  8
0
100
AcDbCircle
 62
7
  6
CONTINUOUS
 10
1636.770301286
 20
389.6314543892
 40
699.5003033183
100
AcDbArc
 50
171.803427445
 51
188.1965727039
  0
ARC
  5
361
100
AcDbEntity
  8
0
100
AcDbCircle
 62
7
  6
CONTINUOUS
 10
1643.0403107255
 20
388.7287125559
 40
695.9736442969
100
AcDbArc
 50
171.8035479731
 51
171.9343936671
  0
ARC
  5
362
100
AcDbEntity
  8
0
100
AcDbCircle
 62
7
  6
CONTINUOUS
 10
1636.7826869286
 20
389.631164064
 40
691.5126889611
100
AcDbArc
 50
178.7465278348
 51
179.999976021
  0
ARC
  5
363
100
AcDbEntity
  8
0
100
AcDbCircle
 62
7
  6
CONTINUOUS
 10
1636.7617089284
 20
389.6319852807
 40
691.4916941632
100
AcDbArc
 50
174.0903002068
 51
176.6055598119
  0
ARC
  5
364
100
AcDbEntity
  8
0
100
AcDbCircle
 62
7
  6
CONTINUOUS
 10
1636.380573411
 20
389.5999075102
 40
691.1093910327
100
AcDbArc
 50
183.3937284691
 51
185.910392449
  0
ARC
  5
365
100
AcDbEntity
  8
0
100
AcDbCircle
 62
7
  6
CONTINUOUS
 10
1636.1827774141
 20
389.7104865069
 40
690.9075135777
100
AcDbArc
 50
171.8025927405
 51
171.9347613324
  0
ARC
  5
366
100
AcDbEntity
  8
0
100
AcDbCircle
 62
7
  6
CONTINUOUS
 10
1635.7868421483
 20
389.6208490827
 40
690.5168442621
100
AcDbArc
 50
179.9991200987
 51
181.2543842695
  0
ARC
  5
367
100
AcDbEntity
  8
0
100
AcDbCircle
 62
7
  6
CONTINUOUS
 10
1636.8535371479
 20
389.6213338417
 40
689.7229919294
100
AcDbArc
 50
174.0905393126
 51
176.6053203406
  0
ARC
  5
368
100
AcDbEntity
  8
0
100
AcDbCircle
 62
7
  6
CONTINUOUS
 10
1636.7695085332
 20
389.6308808457
 40
689.6385790881
100
AcDbArc
 50
178.7465513322
 51
179.9999535931
  0
ARC
  5
369
100
AcDbEntity
  8
0
100
AcDbCircle
 62
7
  6
CONTINUOUS
 10
1636.6729379951
 20
389.6268771592
 40
689.5418394757
100
AcDbArc
 50
183.3943385405
 51
185.9097889546
  0
ARC
  5
36A
100
AcDbEntity
  8
0
100
AcDbCircle
 62
7
  6
CONTINUOUS
 10
1635.7706781634
 20
389.6210996239
 40
688.6397487957
100
AcDbArc
 50
179.9991397147
 51
181.2543632389
  0
ARC
  5
36B
100
AcDbEntity
  8
0
100
AcDbCircle
 62
7
  6
CONTINUOUS
 10
1215.5809886144
 20
349.0314534705
 40
5.8
100
AcDbArc
 50
356.6074122186
 51
90.0
  0
ARC
  5
36C
100
AcDbEntity
  8
0
100
AcDbCircle
 62
7
  6
CONTINUOUS
 10
1216.6199091277
 20
404.6314534705
 40
5.8
100
AcDbArc
 50
1.2534605358
 51
90.0
  0
ARC
  5
36D
100
AcDbEntity
  8
0
100
AcDbCircle
 62
7
  6
CONTINUOUS
 10
1216.6199091277
 20
374.6314534705
 40
5.8
100
AcDbArc
 50
270.0
 51
358.7455550944
  0
ARC
  5
36E
100
AcDbEntity
  8
0
100
AcDbCircle
 62
7
  6
CONTINUOUS
 10
1215.5419145383
 20
349.0314482376
 40
3.9000052329
100
AcDbArc
 50
356.6074937905
 51
89.9999184075
  0
ARC
  5
36F
100
AcDbEntity
  8
0
100
AcDbCircle
 62
7
  6
CONTINUOUS
 10
1216.5808406054
 20
404.6314534705
 40
3.9
100
AcDbArc
 50
1.2534605358
 51
90.0
  0
ARC
  5
370
100
AcDbEntity
  8
0
100
AcDbCircle
 62
7
  6
CONTINUOUS
 10
1216.5808406057
 20
374.6314534698
 40
3.8999999993
100
AcDbArc
 50
269.9999999955
 51
358.7455551053
  0
ARC
  5
371
100
AcDbEntity
  8
0
100
AcDbCircle
 62
7
  6
CONTINUOUS
 10
1091.7797791577
 20
414.6684534705
 40
600.037
100
AcDbArc
 50
172.8478346951
 51
187.1521653049
  0
ARC
  5
372
100
AcDbEntity
  8
0
100
AcDbCircle
 62
7
  6
CONTINUOUS
 10
1083.9372791577
 20
802.4034534705
 40
600.0
100
AcDbArc
 50
265.2932625881
 51
274.7067374119
  0
ARC
  5
373
100
AcDbEntity
  8
0
100
AcDbCircle
 62
7
  6
CONTINUOUS
 10
1083.9269950482
 20
802.4040318249
 40
599.5005821022
100
AcDbArc
 50
265.2932674018
 51
274.7067331544
  0
ARC
  5
374
100
AcDbEntity
  8
0
100
AcDbCircle
 62
7
  6
CONTINUOUS
 10
1083.9269925965
 20
599.6703410744
 40
389.8057159307
100
AcDbArc
 50
262.8473200417
 51
277.1526824282
  0
ARC
  5
375
100
AcDbEntity
  8
0
100
AcDbCircle
 62
7
  6
CONTINUOUS
 10
1083.8879714247
 20
599.7305048294
 40
387.9653873493
100
AcDbArc
 50
262.8332495513
 51
277.1667503344
  0
ARC
  5
376
100
AcDbEntity
  8
0
100
AcDbCircle
 62
7
  6
CONTINUOUS
 10
787.8892755914
 20
476.9209036092
 40
100.037
100
AcDbArc
 50
7.1521653049
 51
80.7825110163
  0
ARC
  5
377
100
AcDbEntity
  8
0
100
AcDbCircle
 62
7
  6
CONTINUOUS
 10
1042.9094278202
 20
475.1733258588
 40
100.0
100
AcDbArc
 50
94.7067374119
 51
171.8034238285
  0
ARC
  5
378
100
AcDbEntity
  8
0
100
AcDbCircle
 62
7
  6
CONTINUOUS
 10
1124.9651304952
 20
475.1733258588
 40
100.0
100
AcDbArc
 50
8.1965761715
 51
85.2932625881
  0
ARC
  5
379
100
AcDbEntity
  8
0
100
AcDbCircle
 62
7
  6
CONTINUOUS
 10
1042.8992112255
 20
475.1732590937
 40
99.5000928893
100
AcDbArc
 50
94.7067713268
 51
171.8033910787
  0
ARC
  5
37A
100
AcDbEntity
  8
0
100
AcDbCircle
 62
7
  6
CONTINUOUS
 10
1124.9547865792
 20
475.1732573381
 40
99.5000928869
100
AcDbArc
 50
8.1966100755
 51
85.2932298289
  0
ARC
  5
37B
100
AcDbEntity
  8
0
100
AcDbCircle
 62
7
  6
CONTINUOUS
 10
1124.9542945958
 20
475.1730734622
 40
91.5006062159
100
AcDbArc
 50
8.1994658687
 51
28.3218138542
  0
ARC
  5
37C
100
AcDbEntity
  8
0
100
AcDbCircle
 62
7
  6
CONTINUOUS
 10
1042.8996531059
 20
475.1730940574
 40
91.500553947
100
AcDbArc
 50
151.6781831319
 51
171.8004903168
  0
ARC
  5
37D
100
AcDbEntity
  8
0
100
AcDbCircle
 62
7
  6
CONTINUOUS
 10
1042.8992654978
 20
475.1731291601
 40
91.5002269878
100
AcDbArc
 50
94.709526528
 51
129.3632406907
  0
ARC
  5
37E
100
AcDbEntity
  8
0
100
AcDbCircle
 62
7
  6
CONTINUOUS
 10
1124.9547395994
 20
475.1731448007
 40
91.5002090553
100
AcDbArc
 50
50.6367576727
 51
85.2904266343
  0
ARC
  5
37F
100
AcDbEntity
  8
0
100
AcDbCircle
 62
7
  6
CONTINUOUS
 10
1124.9155040859
 20
475.1731925486
 40
89.600304985
100
AcDbArc
 50
8.1994596124
 51
28.3218329717
  0
ARC
  5
380
100
AcDbEntity
  8
0
100
AcDbCircle
 62
7
  6
CONTINUOUS
 10
1042.8603335913
 20
475.1732014314
 40
89.6002820586
100
AcDbArc
 50
151.6781655628
 51
171.8004908198
  0
ARC
  5
381
100
AcDbEntity
  8
0
100
AcDbCircle
 62
7
  6
CONTINUOUS
 10
1042.8601529433
 20
475.1732028825
 40
89.6001420633
100
AcDbArc
 50
94.7095452132
 51
129.3632501272
  0
ARC
  5
382
100
AcDbEntity
  8
0
100
AcDbCircle
 62
7
  6
CONTINUOUS
 10
1124.9157091507
 20
475.1732084441
 40
89.6001357024
100
AcDbArc
 50
50.6367493042
 51
85.2904037845
  0
ARC
  5
383
100
AcDbEntity
  8
0
100
AcDbCircle
 62
7
  6
CONTINUOUS
 10
988.5452098503
 20
541.4314534705
 40
5.8
100
AcDbArc
 50
129.3631790908
 51
270.0
  0
ARC
  5
384
100
AcDbEntity
  8
0
100
AcDbCircle
 62
7
  6
CONTINUOUS
 10
1179.3087860388
 20
541.4314534705
 40
5.8
100
AcDbArc
 50
270.0
 51
50.6368227571
  0
ARC
  5
385
100
AcDbEntity
  8
0
100
AcDbCircle
 62
7
  6
CONTINUOUS
 10
1200.3962593161
 20
515.8314534705
 40
5.8
100
AcDbArc
 50
28.3217284464
 51
90.0
  0
ARC
  5
386
100
AcDbEntity
  8
0
100
AcDbCircle
 62
7
  6
CONTINUOUS
 10
967.4577366624
 20
515.8314534705
 40
5.8
100
AcDbArc
 50
90.0
 51
151.6782711652
  0
ARC
  5
387
100
AcDbEntity
  8
0
100
AcDbCircle
 62
7
  6
CONTINUOUS
 10
957.8516894706
 20
485.8314534705
 40
5.8
100
AcDbArc
 50
171.9347597808
 51
270.0
  0
ARC
  5
388
100
AcDbEntity
  8
0
100
AcDbCircle
 62
7
  6
CONTINUOUS
 10
1210.0023062488
 20
485.8314534705
 40
5.8
100
AcDbArc
 50
270.0
 51
8.0652418885
  0
ARC
  5
389
100
AcDbEntity
  8
0
100
AcDbCircle
 62
7
  6
CONTINUOUS
 10
1213.1398033819
 20
460.2314534705
 40
5.8
100
AcDbArc
 50
5.9095765822
 51
90.0
  0
ARC
  5
38A
100
AcDbEntity
  8
0
100
AcDbCircle
 62
7
  6
CONTINUOUS
 10
954.7141925956
 20
460.2314534705
 40
5.8
100
AcDbArc
 50
90.0
 51
174.0904232368
  0
ARC
  5
38B
100
AcDbEntity
  8
0
100
AcDbCircle
 62
7
  6
CONTINUOUS
 10
952.2730073218
 20
430.2314534705
 40
5.8
100
AcDbArc
 50
176.6055694328
 51
270.0
  0
ARC
  5
38C
100
AcDbEntity
  8
0
100
AcDbCircle
 62
7
  6
CONTINUOUS
 10
1215.5809886144
 20
430.2314534705
 40
5.8
100
AcDbArc
 50
270.0
 51
3.3944305511
  0
ARC
  5
38D
100
AcDbEntity
  8
0
100
AcDbCircle
 62
7
  6
CONTINUOUS
 10
1200.3571856805
 20
515.8314449063
 40
3.9000085643
100
AcDbArc
 50
28.3218035663
 51
89.9999248801
  0
ARC
  5
38E
100
AcDbEntity
  8
0
100
AcDbCircle
 62
7
  6
CONTINUOUS
 10
967.4186732506
 20
515.831444911
 40
3.9000085595
100
AcDbArc
 50
90.0000750784
 51
151.6781960868
  0
ARC
  5
38F
100
AcDbEntity
  8
0
100
AcDbCircle
 62
7
  6
CONTINUOUS
 10
1215.541914537
 20
430.2314587059
 40
3.9000052354
100
AcDbArc
 50
270.0000816109
 51
3.3943489402
  0
ARC
  5
390
100
AcDbEntity
  8
0
100
AcDbCircle
 62
7
  6
CONTINUOUS
 10
952.2339443546
 20
430.231458706
 40
3.9000052354
100
AcDbArc
 50
176.6056510449
 51
269.9999183879
  0
ARC
  5
391
100
AcDbEntity
  8
0
100
AcDbCircle
 62
7
  6
CONTINUOUS
 10
1179.2697134731
 20
541.4314549168
 40
3.9000014463
100
AcDbArc
 50
270.0000594018
 51
50.6367633554
  0
ARC
  5
392
100
AcDbEntity
  8
0
100
AcDbCircle
 62
7
  6
CONTINUOUS
 10
988.5061453714
 20
541.4314549168
 40
3.9000014463
100
AcDbArc
 50
129.3632384924
 51
269.9999405985
  0
ARC
  5
393
100
AcDbEntity
  8
0
100
AcDbCircle
 62
7
  6
CONTINUOUS
 10
1209.9632377265
 20
485.8314534705
 40
3.9
100
AcDbArc
 50
270.0
 51
8.0652418884
  0
ARC
  5
394
100
AcDbEntity
  8
0
100
AcDbCircle
 62
7
  6
CONTINUOUS
 10
957.8126209483
 20
485.8314534705
 40
3.9
100
AcDbArc
 50
171.9347597808
 51
270.0
  0
ARC
  5
395
100
AcDbEntity
  8
0
100
AcDbCircle
 62
7
  6
CONTINUOUS
 10
954.6751240733
 20
460.2314534705
 40
3.9
100
AcDbArc
 50
90.0
 51
174.0904232368
  0
ARC
  5
396
100
AcDbEntity
  8
0
100
AcDbCircle
 62
7
  6
CONTINUOUS
 10
1213.1007348596
 20
460.2314534705
 40
3.9
100
AcDbArc
 50
5.9095765822
 51
90.0
  0
ARC
  5
397
100
AcDbEntity
  8
0
100
AcDbCircle
 62
7
  6
CONTINUOUS
 10
-108.1832208423
 20
859.4763849729
 40
1000.6
100
AcDbArc
 50
356.2749437991
 51
359.1066725961
  0
ARC
  5
398
100
AcDbEntity
  8
0
100
AcDbCircle
 62
7
  6
CONTINUOUS
 10
1491.7427791577
 20
859.4763849729
 40
1000.6
100
AcDbArc
 50
180.8933274039
 51
183.7250562015
  0
LINE
  5
399
100
AcDbEntity
  8
0
100
AcDbLine
 62
7
  6
CONTINUOUS
 10
1215.5283303102
 20
488.1617059771
 11
1215.5646645464
 21
487.9089918696
  0
SPLINE
  5
39A
100
AcDbEntity
  8
0
100
AcDbSpline
 62
7
  6
CONTINUOUS
 70
0
 71
3
 72
10
 73
6
 74
0
 42
0.0000001
 43
0.0000001
 44
0.0000000001
 40
0.0
 40
0.0
 40
0.0
 40
0.0
 40
0.1999974824
 40
0.599996218
 40
1.0
 40
1.0
 40
1.0
 40
1.0
 10
1215.5646645464
 20
487.9089918696
 30
0.0
 10
1215.5767604694
 20
487.8247510678
 30
0.0
 10
1215.6130017703
 20
487.5720203674
 30
0.0
 10
1215.6731708245
 20
487.1507664483
 30
0.0
 10
1215.72105714
 20
486.8137267602
 30
0.0
 10
1215.7449381724
 20
486.6451970354
 30
0.0
  0
LINE
  5
39B
100
AcDbEntity
  8
0
100
AcDbLine
 62
7
  6
CONTINUOUS
 10
1215.5195414005
 20
488.2228630799
 11
1215.5283303102
 21
488.1617059771
  0
SPLINE
  5
39C
100
AcDbEntity
  8
0
100
AcDbSpline
 62
7
  6
CONTINUOUS
 70
0
 71
3
 72
10
 73
6
 74
0
 42
0.0000001
 43
0.0000001
 44
0.0000000001
 40
0.0
 40
0.0
 40
0.0
 40
0.0
 40
0.1846779628
 40
0.9491065586
 40
1.0
 40
1.0
 40
1.0
 40
1.0
 10
178.0575734974
 20
260.679805401
 30
0.0
 10
177.2444852571
 20
262.4823536453
 30
0.0
 10
173.2455920517
 20
271.826541358
 30
0.0
 10
170.0240959437
 20
282.0679301122
 30
0.0
 10
168.1455601643
 20
290.5699353464
 30
0.0
 10
168.0312280052
 20
291.101200964
 30
0.0
  0
SPLINE
  5
39D
100
AcDbEntity
  8
0
100
AcDbSpline
 62
7
  6
CONTINUOUS
 70
0
 71
3
 72
10
 73
6
 74
0
 42
0.0000001
 43
0.0000001
 44
0.0000000001
 40
0.0
 40
0.0
 40
0.0
 40
0.0
 40
0.4000037877
 40
0.8000025223
 40
1.0
 40
1.0
 40
1.0
 40
1.0
 10
167.814620143
 20
486.6451970354
 30
0.0
 10
167.8385011759
 20
486.8137267636
 30
0.0
 10
167.8863874919
 20
487.1507664558
 30
0.0
 10
167.9465565465
 20
487.5720203775
 30
0.0
 10
167.9827978473
 20
487.824751077
 30
0.0
 10
167.9948937701
 20
487.9089918773
 30
0.0
  0
LINE
  5
39E
100
AcDbEntity
  8
0
100
AcDbLine
 62
7
  6
CONTINUOUS
 10
167.9948937701
 20
487.9089918773
 11
168.0312280052
 21
488.1617059769
  0
LINE
  5
39F
100
AcDbEntity
  8
0
100
AcDbLine
 62
7
  6
CONTINUOUS
 10
168.0312280052
 20
488.1617059769
 11
168.0400169149
 21
488.2228630799
  0
SPLINE
  5
3A0
100
AcDbEntity
  8
0
100
AcDbSpline
 62
7
  6
CONTINUOUS
 70
0
 71
3
 72
9
 73
5
 74
0
 42
0.0000001
 43
0.0000001
 44
0.0000000001
 40
0.0
 40
0.0
 40
0.0
 40
0.0
 40
0.499978218
 40
1.0
 40
1.0
 40
1.0
 40
1.0
 10
168.031228015
 20
291.1012008994
 30
0.0
 10
168.3491317318
 20
291.1595337231
 30
0.0
 10
168.9868089861
 20
291.2659570756
 30
0.0
 10
169.6220503406
 20
291.3859331389
 30
0.0
 10
169.9399872788
 20
291.4442409434
 30
0.0
  0
SPLINE
  5
3A1
100
AcDbEntity
  8
0
100
AcDbSpline
 62
7
  6
CONTINUOUS
 70
0
 71
3
 72
10
 73
6
 74
0
 42
0.0000001
 43
0.0000001
 44
0.0000000001
 40
0.0
 40
0.0
 40
0.0
 40
0.0
 40
0.2499576063
 40
0.4999662795
 40
1.0
 40
1.0
 40
1.0
 40
1.0
 10
178.0575736715
 20
260.6798054813
 30
0.0
 10
178.2023326637
 20
260.7511180742
 30
0.0
 10
178.502578626
 20
260.8710810948
 30
0.0
 10
179.0749066269
 20
261.1706603646
 30
0.0
 10
179.5100739551
 20
261.3828429334
 30
0.0
 10
179.7983916233
 20
261.5280494062
 30
0.0
  0
SPLINE
  5
3A2
100
AcDbEntity
  8
0
100
AcDbSpline
 62
7
  6
CONTINUOUS
 70
0
 71
3
 72
9
 73
5
 74
0
 42
0.0000001
 43
0.0000001
 44
0.0000000001
 40
0.0
 40
0.0
 40
0.0
 40
0.0
 40
0.4999343661
 40
1.0
 40
1.0
 40
1.0
 40
1.0
 10
421.2075471528
 20
260.6798053969
 30
0.0
 10
420.9285849207
 20
260.8174840997
 30
0.0
 10
420.3811946248
 20
261.1138848725
 30
0.0
 10
419.8209349392
 20
261.3848480216
 30
0.0
 10
419.5427453447
 20
261.5242636913
 30
0.0
  0
LINE
  5
3A3
100
AcDbEntity
  8
0
100
AcDbLine
 62
7
  6
CONTINUOUS
 10
430.7666694819
 20
291.1334493656
 11
430.6364606936
 21
291.1592349493
  0
SPLINE
  5
3A4
100
AcDbEntity
  8
0
100
AcDbSpline
 62
7
  6
CONTINUOUS
 70
0
 71
3
 72
8
 73
4
 74
0
 42
0.0000001
 43
0.0000001
 44
0.0000000001
 40
0.0
 40
0.0
 40
0.0
 40
0.0
 40
1.0
 40
1.0
 40
1.0
 40
1.0
 10
430.6364606936
 20
291.1592349493
 30
0.0
 10
430.2236943906
 20
291.2409675507
 30
0.0
 10
429.809708617
 20
291.3164242608
 30
0.0
 10
429.3960787501
 20
291.3936678514
 30
0.0
  0
SPLINE
  5
3A5
100
AcDbEntity
  8
0
100
AcDbSpline
 62
7
  6
CONTINUOUS
 70
0
 71
3
 72
10
 73
6
 74
0
 42
0.0000001
 43
0.0000001
 44
0.0000000001
 40
0.0
 40
0.0
 40
0.0
 40
0.0
 40
0.2507434207
 40
0.6254126394
 40
1.0
 40
1.0
 40
1.0
 40
1.0
 10
251.096353096
 20
212.8981502285
 30
0.0
 10
251.1235124879
 20
213.055196063
 30
0.0
 10
251.1823711806
 20
213.4487533284
 30
0.0
 10
251.217595807
 20
214.0838833862
 30
0.0
 10
251.2532193969
 20
214.5586904657
 30
0.0
 10
251.2700060119
 20
214.7961923816
 30
0.0
  0
SPLINE
  5
3A6
100
AcDbEntity
  8
0
100
AcDbSpline
 62
7
  6
CONTINUOUS
 70
0
 71
3
 72
9
 73
5
 74
0
 42
0.0000001
 43
0.0000001
 44
0.0000000001
 40
0.0
 40
0.0
 40
0.0
 40
0.0
 40
0.5002162084
 40
1.0
 40
1.0
 40
1.0
 40
1.0
 10
200.5722164279
 20
233.3472337092
 30
0.0
 10
200.8028856452
 20
233.5710070958
 30
0.0
 10
201.2328963434
 20
234.0496296579
 30
0.0
 10
201.6496805416
 20
234.5382289649
 30
0.0
 10
201.8593997514
 20
234.781379492
 30
0.0
  0
SPLINE
  5
3A7
100
AcDbEntity
  8
0
100
AcDbSpline
 62
7
  6
CONTINUOUS
 70
0
 71
3
 72
10
 73
6
 74
0
 42
0.0000001
 43
0.0000001
 44
0.0000000001
 40
0.0
 40
0.0
 40
0.0
 40
0.0
 40
0.3753276108
 40
0.7501099868
 40
1.0
 40
1.0
 40
1.0
 40
1.0
 10
398.6929014208
 20
233.3472369444
 30
0.0
 10
398.5519915539
 20
233.5349596496
 30
0.0
 10
398.2580448825
 20
233.9010538575
 30
0.0
 10
397.8397548193
 20
234.3660632482
 30
0.0
 10
397.5860266188
 20
234.6631298295
 30
0.0
 10
397.4838539127
 20
234.7813810548
 30
0.0
  0
SPLINE
  5
3A8
100
AcDbEntity
  8
0
100
AcDbSpline
 62
7
  6
CONTINUOUS
 70
0
 71
3
 72
10
 73
6
 74
0
 42
0.0000001
 43
0.0000001
 44
0.0000000001
 40
0.0
 40
0.0
 40
0.0
 40
0.0
 40
0.2507474559
 40
0.6254150557
 40
1.0
 40
1.0
 40
1.0
 40
1.0
 10
348.16876111
 20
212.8981458566
 30
0.0
 10
348.1733570975
 20
213.0569956914
 30
0.0
 10
348.1760629862
 20
213.4537602377
 30
0.0
 10
348.121469496
 20
214.0856653403
 30
0.0
 10
348.0899465133
 20
214.5593728734
 30
0.0
 10
348.0731952696
 20
214.7961819832
 30
0.0
  0
SPLINE
  5
3A9
100
AcDbEntity
  8
0
100
AcDbSpline
 62
7
  6
CONTINUOUS
 70
0
 71
3
 72
10
 73
6
 74
0
 42
0.0000001
 43
0.0000001
 44
0.0000000001
 40
0.0
 40
0.0
 40
0.0
 40
0.0
 40
0.3749918032
 40
0.7500035006
 40
1.0
 40
1.0
 40
1.0
 40
1.0
 10
1182.9873418987
 20
233.3472336521
 30
0.0
 10
1182.8150724117
 20
233.515691539
 30
0.0
 10
1182.4826958943
 20
233.865326884
 30
0.0
 10
1182.0699694714
 20
234.3578958876
 30
0.0
 10
1181.8052145904
 20
234.6598643255
 30
0.0
 10
1181.700158838
 20
234.7813791129
 30
0.0
  0
SPLINE
  5
3AA
100
AcDbEntity
  8
0
100
AcDbSpline
 62
7
  6
CONTINUOUS
 70
0
 71
3
 72
9
 73
5
 74
0
 42
0.0000001
 43
0.0000001
 44
0.0000000001
 40
0.0
 40
0.0
 40
0.0
 40
0.0
 40
0.4999476112
 40
1.0
 40
1.0
 40
1.0
 40
1.0
 10
984.8666538869
 20
233.3472338033
 30
0.0
 10
985.0526636207
 20
233.5985123785
 30
0.0
 10
985.4580284234
 20
234.0757476139
 30
0.0
 10
985.8718605724
 20
234.5442490462
 30
0.0
 10
986.0757017188
 20
234.7813783424
 30
0.0
  0
SPLINE
  5
3AB
100
AcDbEntity
  8
0
100
AcDbSpline
 62
7
  6
CONTINUOUS
 70
0
 71
3
 72
10
 73
6
 74
0
 42
0.0000001
 43
0.0000001
 44
0.0000000001
 40
0.0
 40
0.0
 40
0.0
 40
0.0
 40
0.3749364289
 40
0.7499925474
 40
1.0
 40
1.0
 40
1.0
 40
1.0
 10
1035.3907968297
 20
212.8981466012
 30
0.0
 10
1035.3837358172
 20
213.135653749
 30
0.0
 10
1035.3910613086
 20
213.6116711583
 30
0.0
 10
1035.4506054788
 20
214.2427560697
 30
0.0
 10
1035.4752192233
 20
214.638135696
 30
0.0
 10
1035.4863626617
 20
214.7961829762
 30
0.0
  0
SPLINE
  5
3AC
100
AcDbEntity
  8
0
100
AcDbSpline
 62
7
  6
CONTINUOUS
 70
0
 71
3
 72
10
 73
6
 74
0
 42
0.0000001
 43
0.0000001
 44
0.0000000001
 40
0.0
 40
0.0
 40
0.0
 40
0.0
 40
0.3749357003
 40
0.749993547
 40
1.0
 40
1.0
 40
1.0
 40
1.0
 10
1132.4632051525
 20
212.8981447218
 30
0.0
 10
1132.4226100184
 20
213.1329657813
 30
0.0
 10
1132.3622304077
 20
213.6065935168
 30
0.0
 10
1132.3322092764
 20
214.2416295853
 30
0.0
 10
1132.3007844233
 20
214.6376836236
 30
0.0
 10
1132.2895522328
 20
214.7961869605
 30
0.0
  0
SPLINE
  5
3AD
100
AcDbEntity
  8
0
100
AcDbSpline
 62
7
  6
CONTINUOUS
 70
0
 71
3
 72
9
 73
5
 74
0
 42
0.0000001
 43
0.0000001
 44
0.0000000001
 40
0.0
 40
0.0
 40
0.0
 40
0.0
 40
0.50003705
 40
1.0
 40
1.0
 40
1.0
 40
1.0
 10
952.3338296508
 20
291.0445072542
 30
0.0
 10
952.6390084675
 20
291.1015802064
 30
0.0
 10
953.2473529707
 20
291.2260266404
 30
0.0
 10
953.8583298967
 20
291.336682066
 30
0.0
 10
954.1634783011
 20
291.3936673015
 30
0.0
  0
LINE
  5
3AE
100
AcDbEntity
  8
0
100
AcDbLine
 62
7
  6
CONTINUOUS
 10
1215.048054178
 20
291.186543767
 11
1214.9372626543
 21
291.2058110581
  0
SPLINE
  5
3AF
100
AcDbEntity
  8
0
100
AcDbSpline
 62
7
  6
CONTINUOUS
 70
0
 71
3
 72
8
 73
4
 74
0
 42
0.0000001
 43
0.0000001
 44
0.0000000001
 40
0.0
 40
0.0
 40
0.0
 40
0.0
 40
1.0
 40
1.0
 40
1.0
 40
1.0
 10
1214.9372626543
 20
291.2058110581
 30
0.0
 10
1214.4974932212
 20
291.282251996
 30
0.0
 10
1214.0586110824
 20
291.3637232547
 30
0.0
 10
1213.6195698564
 20
291.4442414087
 30
0.0
  0
SPLINE
  5
3B0
100
AcDbEntity
  8
0
100
AcDbSpline
 62
7
  6
CONTINUOUS
 70
0
 71
3
 72
10
 73
6
 74
0
 42
0.0000001
 43
0.0000001
 44
0.0000000001
 40
0.0
 40
0.0
 40
0.0
 40
0.0
 40
0.2501978539
 40
0.5001231508
 40
1.0
 40
1.0
 40
1.0
 40
1.0
 10
1205.5019848948
 20
260.6798055435
 30
0.0
 10
1205.3570865331
 20
260.7511865431
 30
0.0
 10
1205.0567328521
 20
260.8711595377
 30
0.0
 10
1204.4844418712
 20
261.1708145851
 30
0.0
 10
1204.0493935319
 20
261.3828892581
 30
0.0
 10
1203.7611658435
 20
261.5280499059
 30
0.0
  0
SPLINE
  5
3B1
100
AcDbEntity
  8
0
100
AcDbSpline
 62
7
  6
CONTINUOUS
 70
0
 71
3
 72
9
 73
5
 74
0
 42
0.0000001
 43
0.0000001
 44
0.0000000001
 40
0.0
 40
0.0
 40
0.0
 40
0.0
 40
0.5000983487
 40
1.0
 40
1.0
 40
1.0
 40
1.0
 10
962.3520125358
 20
260.679805957
 30
0.0
 10
962.631066115
 20
260.8175297901
 30
0.0
 10
963.1784490924
 20
261.1139442714
 30
0.0
 10
963.7387152325
 20
261.3848938586
 30
0.0
 10
964.016813444
 20
261.5242637883
 30
0.0
  0
ELLIPSE
  5
3B2
100
AcDbEntity
  8
0
100
AcDbEllipse
 62
7
  6
CONTINUOUS
 10
1234.6857683901
 20
582.5374427029
 30
0.0
 11
18.2574185835
 21
18.2574185835
 31
0.0
 40
0.7745966692
 41
-0.6590580358
 42
0.6590580358
  0
ELLIPSE
  5
3B3
100
AcDbEntity
  8
0
100
AcDbEllipse
 62
7
  6
CONTINUOUS
 10
148.8737899253
 20
582.5374427029
 30
0.0
 11
18.2574185835
 21
-18.2574185835
 31
0.0
 40
0.7745966692
 41
2.4825346178
 42
3.8006506894
  0
ELLIPSE
  5
3B4
100
AcDbEntity
  8
0
100
AcDbEllipse
 62
7
  6
CONTINUOUS
 10
148.8737899253
 20
196.7254642381
 30
0.0
 11
18.2574185835
 21
18.2574185835
 31
0.0
 40
0.7745966692
 41
-3.8006506894
 42
-2.4825346178
  0
ELLIPSE
  5
3B5
100
AcDbEntity
  8
0
100
AcDbEllipse
 62
7
  6
CONTINUOUS
 10
1234.6857683901
 20
196.7254642381
 30
0.0
 11
18.2574185835
 21
-18.2574185835
 31
0.0
 40
0.7745966692
 41
-0.6590580358
 42
0.6590580358
  0
ELLIPSE
  5
3B6
100
AcDbEntity
  8
0
100
AcDbEllipse
 62
7
  6
CONTINUOUS
 10
1233.1387630063
 20
580.9904373191
 30
0.0
 11
27.3861278753
 21
27.3861278753
 31
0.0
 40
0.7745966692
 41
-0.6590580358
 42
0.6590580358
  0
ELLIPSE
  5
3B7
100
AcDbEntity
  8
0
100
AcDbEllipse
 62
7
  6
CONTINUOUS
 10
150.4207953091
 20
580.9904373191
 30
0.0
 11
27.3861278753
 21
-27.3861278753
 31
0.0
 40
0.7745966692
 41
2.4825346178
 42
3.8006506894
  0
ELLIPSE
  5
3B8
100
AcDbEntity
  8
0
100
AcDbEllipse
 62
7
  6
CONTINUOUS
 10
150.4207953091
 20
198.2724696219
 30
0.0
 11
27.3861278753
 21
27.3861278753
 31
0.0
 40
0.7745966692
 41
2.4825346178
 42
3.8006506894
  0
ELLIPSE
  5
3B9
100
AcDbEntity
  8
0
100
AcDbEllipse
 62
7
  6
CONTINUOUS
 10
1233.1387630063
 20
198.2724696219
 30
0.0
 11
27.3861278753
 21
-27.3861278753
 31
0.0
 40
0.7745966692
 41
-0.6590580358
 42
0.6590580358
  0
ELLIPSE
  5
3BA
100
AcDbEntity
  8
0
100
AcDbEllipse
 62
7
  6
CONTINUOUS
 10
150.8363440706
 20
198.6880183834
 30
0.0
 11
18.7899352584
 21
18.1621371791
 31
0.0
 40
0.7652426837
 41
2.5047324546
 42
3.8228485263
  0
ELLIPSE
  5
3BB
100
AcDbEntity
  8
0
100
AcDbEllipse
 62
7
  6
CONTINUOUS
 10
150.8363440706
 20
580.5748885577
 30
0.0
 11
18.7899352584
 21
-18.1621371791
 31
0.0
 40
0.7652426837
 41
2.4603367809
 42
3.7784528525
  0
ELLIPSE
  5
3BC
100
AcDbEntity
  8
0
100
AcDbEllipse
 62
7
  6
CONTINUOUS
 10
1232.7232142448
 20
580.5748885577
 30
0.0
 11
18.7899352584
 21
18.1621371791
 31
0.0
 40
0.7652426837
 41
-0.6368601989
 42
0.6812558727
  0
ELLIPSE
  5
3BD
100
AcDbEntity
  8
0
100
AcDbEllipse
 62
7
  6
CONTINUOUS
 10
1232.7232142448
 20
198.6880183834
 30
0.0
 11
18.7899352584
 21
-18.1621371791
 31
0.0
 40
0.7652426837
 41
-0.6812558727
 42
0.6368601989
  0
ELLIPSE
  5
3BE
100
AcDbEntity
  8
0
100
AcDbEllipse
 62
7
  6
CONTINUOUS
 10
473.83623457
 20
715.3280046165
 30
0.0
 11
200.0
 21
-0.0
 31
0.0
 40
0.5773502692
 41
-1.5913601562
 42
-1.5707963268
  0
ELLIPSE
  5
3BF
100
AcDbEntity
  8
0
100
AcDbEllipse
 62
7
  6
CONTINUOUS
 10
909.7233237454
 20
715.3280046165
 30
0.0
 11
200.0
 21
-0.0
 31
0.0
 40
0.5773502692
 41
-1.5707963268
 42
-1.5502324974
  0
ELLIPSE
  5
3C0
100
AcDbEntity
  8
0
100
AcDbEllipse
 62
7
  6
CONTINUOUS
 10
473.83623457
 20
63.9349023245
 30
0.0
 11
200.0
 21
0.0
 31
0.0
 40
0.5773502692
 41
1.5707963268
 42
1.5913601562
  0
ELLIPSE
  5
3C1
100
AcDbEntity
  8
0
100
AcDbEllipse
 62
7
  6
CONTINUOUS
 10
909.7233237454
 20
63.9349023245
 30
0.0
 11
200.0
 21
-0.0
 31
0.0
 40
0.5773502692
 41
1.5502324974
 42
1.5707963268
  0
ENDSEC
  0
SECTION
  2
OBJECTS
  0
DICTIONARY
  5
C
100
AcDbDictionary
280
0
281
1
  3
ACAD_GROUP
350
D
  3
ACAD_MLINESTYLE
350
17
  3
ACAD_LAYOUT
350
1A
  3
ACAD_PLOTSETTINGS
350
19
  3
ACAD_PLOTSTYLENAME
350
E
  0
DICTIONARY
  5
D
102
{ACAD_REACTORS
330
C
102
}
100
AcDbDictionary
280
0
281
1
  0
ACDBDICTIONARYWDFLT
  5
E
102
{ACAD_REACTORS
330
C
102
}
100
AcDbDictionary
281
1
  3
Normal
350
F
100
AcDbDictionaryWithDefault
340
F
  0
DICTIONARY
  5
17
102
{ACAD_REACTORS
330
C
102
}
100
AcDbDictionary
280
0
281
1
  3
Standard
350
18
  0
DICTIONARY
  5
19
102
{ACAD_REACTORS
330
C
102
}
100
AcDbDictionary
281
1
  0
DICTIONARY
  5
1A
102
{ACAD_REACTORS
330
C
102
}
100
AcDbDictionary
281
1
  3
Model
350
3C2
  3
Layout1
350
3C3
  0
ACDBPLACEHOLDER
  5
F
102
{ACAD_REACTORS
330
E
102
}
  0
MLINESTYLE
  5
18
102
{ACAD_REACTORS
330
17
102
}
100
AcDbMlineStyle
  2
STANDARD
 70
0
  3

 62
256
 51
90.0
 52
90.0
 71
2
 49
0.5
 62
256
  6
BYLAYER
 49
-0.5
 62
256
  6
BYLAYER
  0
LAYOUT
  5
3C2
102
{ACAD_REACTORS
330
1A
102
}
100
AcDbPlotSettings
  1

  2
none_device
  4

  6

 40
0.0
 41
0.0
 42
0.0
 43
0.0
 44
1400.0
 45
1000.0
 46
0.0
 47
0.0
 48
0.0
 49
0.0
140
0.0
141
0.0
142
1.0
143
1.0
 70
1024
 72
1
 73
0
 74
0
  7

 75
0
147
1.0
148
0.0
149
0.0
100
AcDbLayout
  1
Model
 70
0
 71
0
 10
0.0
 20
0.0
 11
1400.0
 21
1000.0
 12
0.0
 22
0.0
 32
0.0
 14
0.0
 24
0.0
 34
0.0
 15
0.0
 25
0.0
 35
0.0
146
0.0
 13
0.0
 23
0.0
 33
0.0
 16
1.0
 26
0.0
 36
0.0
 17
0.0
 27
1.0
 37
0.0
 76
0
330
207
345
0
346
0
  0
LAYOUT
  5
3C3
102
{ACAD_REACTORS
330
1A
102
}
100
AcDbPlotSettings
  1

  2
none_device
  4

  6

 40
0.0
 41
0.0
 42
0.0
 43
0.0
 44
1400.0
 45
1000.0
 46
0.0
 47
0.0
 48
0.0
 49
0.0
140
0.0
141
0.0
142
1.0
143
1.0
 70
0
 72
1
 73
0
 74
0
  7

 75
0
147
1.0
148
0.0
149
0.0
100
AcDbLayout
  1
Layout1
 70
0
 71
1
 10
0.0
 20
0.0
 11
1400.0
 21
1000.0
 12
0.0
 22
0.0
 32
0.0
 14
0.0
 24
0.0
 34
0.0
 15
0.0
 25
0.0
 35
0.0
146
0.0
 13
0.0
 23
0.0
 33
0.0
 16
1.0
 26
0.0
 36
0.0
 17
0.0
 27
1.0
 37
0.0
 76
0
330
208
345
0
346
0
  0
ENDSEC
  0
EOF
