999
DXF file: S:\Engenharia\Wildfire\Engenharia\Produtos\Pias_Apoio\Aco_430\Serie_525\vistas_96042_527.dxf
999
Pro/ENGINEER 2013150 by Parametric Technology Corporation
  0
SECTION
  2
HEADER
  9
$ACADVER
  1
AC1021
  9
$DWGCODEPAGE
  3
ANSI_1252
  9
$EXTMAX
 10
2200.0
 20
1000.0
 30
0.0
  9
$EXTMIN
 10
0.0
 20
-0.0
 30
0.0
  9
$LIMMIN
 10
0.0
 20
-0.0
  9
$LIMMAX
 10
2200.0
 20
1000.0
  9
$VIEWCTR
 10
1100.0
 20
500.0
  9
$VIEWSIZE
 40
1000.0
  9
$CLAYER
  8
0
  9
$LTSCALE
 40
121.0
  9
$CELTYPE
  6
BYLAYER
  9
$DIMSCALE
 40
1.0
  9
$DIMASZ
 40
3.0
  9
$DIMEXO
 40
0.5
  9
$DIMDLI
 40
83.6
  9
$DIMEXE
 40
0.5
  9
$DIMCEN
 40
19.8
  9
$DIMLFAC
 40
1.0
  9
$DIMBLK
  1
_FILLED
  9
$DIMTXT
 40
1.8
  9
$DIMTOL
 70
1
  9
$DIMLIM
 70
0
  9
$DIMTFAC
 40
1.0
  9
$DIMTP
 40
0.001
  9
$DIMTM
 40
0.001
  9
$DIMGAP
 40
0.625
  9
$DIMDSEP
 70
46
  9
$PDMODE
 70
3
  9
$PDSIZE
 40
1.0
  9
$HANDSEED
  5
630
  9
$TILEMODE
 70
1
  9
$MEASUREMENT
 70
1
  9
$INSUNITS
 70
4
  0
ENDSEC
  0
SECTION
  2
CLASSES
  0
CLASS
  1
ACDBDICTIONARYWDFLT
  2
AcDbDictionaryWithDefault
  3
AutoCAD 2000
 90
0
 91
1
280
0
281
0
  0
CLASS
  1
ACDBPLACEHOLDER
  2
AcDbPlaceHolder
  3
AutoCAD 2000
 90
0
 91
1
280
0
281
0
  0
CLASS
  1
LAYOUT
  2
AcDbLayout
  3
AutoCAD 2000
 90
0
 91
0
280
0
281
0
  0
ENDSEC
  0
SECTION
  2
TABLES
  0
TABLE
  2
VPORT
  5
8
100
AcDbSymbolTable
 70
2
  0
VPORT
  5
1F4
100
AcDbSymbolTableRecord
100
AcDbViewportTableRecord
  2
*ACTIVE
 70
0
 10
0.0
 20
0.0
 11
1.0
 21
1.0
 12
1100.0
 22
500.0
 13
0.0
 23
0.0
 14
1.0
 24
1.0
 15
0.0
 25
0.0
 16
0.0
 26
0.0
 36
1.0
 17
0.0
 27
0.0
 37
0.0
 40
1000.0
 41
2.2
 42
50.0
 43
0.0
 44
0.0
 50
0.0
 51
0.0
 71
0
 72
100
 73
1
 74
1
 75
0
 76
0
 77
0
 78
0
  0
ENDTAB
  0
TABLE
  2
LTYPE
  5
5
100
AcDbSymbolTable
 70
6
  0
LTYPE
  5
14
100
AcDbSymbolTableRecord
100
AcDbLinetypeTableRecord
  2
BYBLOCK
 70
0
  3

 72
65
 73
0
 40
0.0
  0
LTYPE
  5
15
100
AcDbSymbolTableRecord
100
AcDbLinetypeTableRecord
  2
BYLAYER
 70
0
  3

 72
65
 73
0
 40
0.0
  0
LTYPE
  5
16
100
AcDbSymbolTableRecord
100
AcDbLinetypeTableRecord
  2
CONTINUOUS
 70
64
  3
Solid line
 72
65
 73
0
 40
0.0
  0
LTYPE
  5
1F5
100
AcDbSymbolTableRecord
100
AcDbLinetypeTableRecord
  2
CENTER
 70
64
  3
____ _ ____ _ ____ _ ____ _ ____ _ ____ _ ____
 72
65
 73
4
 40
0.6
 49
0.375
 74
0
 49
-0.075
 74
0
 49
0.075
 74
0
 49
-0.075
 74
0
  0
LTYPE
  5
1F6
100
AcDbSymbolTableRecord
100
AcDbLinetypeTableRecord
  2
HIDDEN
 70
64
  3
- - - - - - - - - - - - - - - - - - - -
 72
65
 73
2
 40
0.2
 49
0.1
 74
0
 49
-0.1
 74
0
  0
LTYPE
  5
1F7
100
AcDbSymbolTableRecord
100
AcDbLinetypeTableRecord
  2
PHANTOM
 70
64
  3
_____ _ _ _____ _ _ _____ _ _ _____
 72
65
 73
6
 40
0.8
 49
0.45
 74
0
 49
-0.05
 74
0
 49
0.1
 74
0
 49
-0.05
 74
0
 49
0.1
 74
0
 49
-0.05
 74
0
  0
LTYPE
  5
1F8
100
AcDbSymbolTableRecord
100
AcDbLinetypeTableRecord
  2
DOT
 70
64
  3
. . . . . . . . . . . . . . . . . . . .
 72
65
 73
2
 40
0.2
 49
0.1
 74
0
 49
-0.1
 74
0
  0
LTYPE
  5
1F9
100
AcDbSymbolTableRecord
100
AcDbLinetypeTableRecord
  2
DASHED
 70
64
  3
- - - - - - - - - - - - - - - - - - - -
 72
65
 73
2
 40
0.2
 49
0.1
 74
0
 49
-0.1
 74
0
  0
ENDTAB
  0
TABLE
  2
LAYER
  5
2
100
AcDbSymbolTable
 70
36
  0
LAYER
  5
10
100
AcDbSymbolTableRecord
100
AcDbLayerTableRecord
  2
0
 70
0
 62
7
  6
CONTINUOUS
370
-3
390
F
  0
LAYER
  5
1FA
100
AcDbSymbolTableRecord
100
AcDbLayerTableRecord
  2
DEFAULT_1
 70
0
 62
7
  6
CENTER
370
-3
390
F
  0
LAYER
  5
1FB
100
AcDbSymbolTableRecord
100
AcDbLayerTableRecord
  2
DEFAULT_2
 70
0
 62
8
  6
HIDDEN
370
-3
390
F
  0
LAYER
  5
1FC
100
AcDbSymbolTableRecord
100
AcDbLayerTableRecord
  2
DEFAULT_3
 70
0
 62
7
  6
PHANTOM
370
-3
390
F
  0
LAYER
  5
1FD
100
AcDbSymbolTableRecord
100
AcDbLayerTableRecord
  2
01___PRT_ALL_DTM_PLN
 70
0
 62
7
  6
CONTINUOUS
370
-3
390
F
  0
LAYER
  5
1FE
100
AcDbSymbolTableRecord
100
AcDbLayerTableRecord
  2
01___PRT_DEF_DTM_PLN
 70
0
 62
7
  6
CONTINUOUS
370
-3
390
F
  0
LAYER
  5
1FF
100
AcDbSymbolTableRecord
100
AcDbLayerTableRecord
  2
02___PRT_ALL_AXES
 70
0
 62
7
  6
CONTINUOUS
370
-3
390
F
  0
LAYER
  5
200
100
AcDbSymbolTableRecord
100
AcDbLayerTableRecord
  2
03___PRT_ALL_CURVES
 70
0
 62
7
  6
CONTINUOUS
370
-3
390
F
  0
LAYER
  5
201
100
AcDbSymbolTableRecord
100
AcDbLayerTableRecord
  2
04___PRT_ALL_DTM_PNT
 70
0
 62
7
  6
CONTINUOUS
370
-3
390
F
  0
LAYER
  5
202
100
AcDbSymbolTableRecord
100
AcDbLayerTableRecord
  2
05___PRT_ALL_DTM_CSYS
 70
0
 62
7
  6
CONTINUOUS
370
-3
390
F
  0
LAYER
  5
203
100
AcDbSymbolTableRecord
100
AcDbLayerTableRecord
  2
05___PRT_DEF_DTM_CSYS
 70
0
 62
7
  6
CONTINUOUS
370
-3
390
F
  0
LAYER
  5
204
100
AcDbSymbolTableRecord
100
AcDbLayerTableRecord
  2
06___PRT_ALL_SURFS
 70
0
 62
7
  6
CONTINUOUS
370
-3
390
F
  0
ENDTAB
  0
TABLE
  2
STYLE
  5
3
100
AcDbSymbolTable
 70
1
  0
STYLE
  5
11
100
AcDbSymbolTableRecord
100
AcDbTextStyleTableRecord
  2
STANDARD
 70
0
 40
0.0
 41
0.8
 50
0.0
 71
0
 42
0.2
  3
txt
  4

  0
STYLE
  5
205
100
AcDbSymbolTableRecord
100
AcDbTextStyleTableRecord
  2
TEXTSTYLE_1
 70
0
 40
0.0
 41
0.8
 50
0.0
 71
0
 42
0.2
  3
gdt
  4

  0
ENDTAB
  0
TABLE
  2
VIEW
  5
6
100
AcDbSymbolTable
 70
0
  0
ENDTAB
  0
TABLE
  2
UCS
  5
7
100
AcDbSymbolTable
 70
0
  0
ENDTAB
  0
TABLE
  2
APPID
  5
9
100
AcDbSymbolTable
 70
1
  0
APPID
  5
206
100
AcDbSymbolTableRecord
100
AcDbRegAppTableRecord
  2
ACAD
 70
0
  0
ENDTAB
  0
TABLE
  2
BLOCK_RECORD
  5
1
100
AcDbSymbolTable
 70
0
  0
BLOCK_RECORD
  5
207
100
AcDbSymbolTableRecord
100
AcDbBlockTableRecord
  2
*Model_Space
  0
BLOCK_RECORD
  5
208
100
AcDbSymbolTableRecord
100
AcDbBlockTableRecord
  2
*Paper_Space
  0
BLOCK_RECORD
  5
209
100
AcDbSymbolTableRecord
100
AcDbBlockTableRecord
  2
_FILLED
  0
BLOCK_RECORD
  5
20A
100
AcDbSymbolTableRecord
100
AcDbBlockTableRecord
  2
*D0
  0
BLOCK_RECORD
  5
20B
100
AcDbSymbolTableRecord
100
AcDbBlockTableRecord
  2
*D1
  0
BLOCK_RECORD
  5
20C
100
AcDbSymbolTableRecord
100
AcDbBlockTableRecord
  2
*D2
  0
BLOCK_RECORD
  5
20D
100
AcDbSymbolTableRecord
100
AcDbBlockTableRecord
  2
*D3
  0
ENDTAB
  0
TABLE
  2
DIMSTYLE
  5
A
100
AcDbSymbolTable
 70
1
100
AcDbDimStyleTable
 71
0
  0
DIMSTYLE
105
20E
100
AcDbSymbolTableRecord
100
AcDbDimStyleTableRecord
  2
STANDARD
 70
0
  3

  4

 40
1.0
 41
3.0
 42
0.5
 43
0.38
 44
0.5
 45
0.0
 46
0.0
 47
0.001
 48
0.001
140
1.8
141
0.09
142
0.0
143
25.4
144
1.0
145
0.0
146
1.0
147
0.625
 71
1.0
 72
0.0
 73
0
 74
0
 75
0
 76
0
 77
1
 78
8
170
0
171
2
172
0
173
0
174
0
175
0
176
0
177
0
178
0
270
2
271
3
272
3
273
2
274
2
275
0
280
0
281
0
282
0
283
1
284
8
285
0
286
0
287
3
288
0
340
11
278
46
341
209
342
209
343
209
344
209
  0
DIMSTYLE
105
20F
100
AcDbSymbolTableRecord
100
AcDbDimStyleTableRecord
  2
DIMSTYLE_1
 70
0
  3

  4

 40
1.0
 41
3.0
 42
0.5
 43
0.38
 44
0.5
 45
0.0
 46
0.0
 47
0.001
 48
0.001
140
10.0
141
0.09
142
0.0
143
25.4
144
1.0
145
0.0
146
1.0
147
2.5
 71
0.0
 72
0.0
 73
0
 74
0
 75
0
 76
0
 77
1
 78
8
170
0
171
2
172
0
173
0
174
0
175
0
176
0
177
0
178
0
270
2
271
3
272
3
273
2
274
2
275
0
280
0
281
0
282
0
283
1
284
8
285
0
286
0
287
3
288
0
340
11
278
46
341
209
342
209
343
209
344
209
  0
ENDTAB
  0
ENDSEC
  0
SECTION
  2
BLOCKS
  0
BLOCK
  5
20
100
AcDbEntity
  8
0
100
AcDbBlockBegin
  2
*Model_Space
 70
0
 10
0.0
 20
0.0
 30
0.0
  3
*Model_Space
  1

  0
ENDBLK
  5
21
100
AcDbEntity
  8
0
100
AcDbBlockEnd
  0
BLOCK
  5
1C
100
AcDbEntity
  8
0
100
AcDbBlockBegin
  2
*Paper_Space
 70
0
 10
0.0
 20
0.0
 30
0.0
  3
*Paper_Space
  1

  0
ENDBLK
  5
1D
100
AcDbEntity
  8
0
100
AcDbBlockEnd
  0
BLOCK
  5
210
100
AcDbEntity
  8
0
100
AcDbBlockBegin
  2
_FILLED
 70
64
 10
0.0
 20
0.0
  3
_FILLED
  1

  0
SOLID
  5
211
100
AcDbEntity
  8
0
  6
BYBLOCK
 62
0
100
AcDbTrace
 10
0.0
 20
0.0
 11
-1.0
 21
0.1666666667
 12
-1.0
 22
-0.1666666667
 13
-1.0
 23
-0.1666666667
  0
ENDBLK
  5
212
100
AcDbEntity
  8
0
  6
BYBLOCK
 62
0
100
AcDbBlockEnd
  0
BLOCK
  5
213
100
AcDbEntity
  8
0
100
AcDbBlockBegin
 62
2
  6
CONTINUOUS
  2
*D0
 70
65
 10
0.0
 20
0.0
  3
*D0
  1

  0
MTEXT
  5
214
100
AcDbEntity
  8
0
100
AcDbMText
 62
2
  6
CONTINUOUS
  7
STANDARD
 71
2
 72
1
 10
931.3661864023
 20
850.4398644033
 30
0.0
 11
1.0
 21
0.0
 31
0.0
 44
0.9
  1
1500
 40
10.0
 41
61.7142857143
  0
LINE
  5
215
100
AcDbEntity
  8
0
100
AcDbLine
 62
2
  6
CONTINUOUS
 10
180.7661864023
 20
760.7437378314
 11
180.7661864023
 21
836.6541501176
  0
LINE
  5
216
100
AcDbEntity
  8
0
100
AcDbLine
 62
2
  6
CONTINUOUS
 10
1681.9661864023
 20
760.7437378314
 11
1681.9661864023
 21
836.6541501176
  0
LINE
  5
217
100
AcDbEntity
  8
0
100
AcDbLine
 62
2
  6
CONTINUOUS
 10
180.7661864023
 20
836.1541501176
 11
931.3661864023
 21
836.1541501176
  0
LINE
  5
218
100
AcDbEntity
  8
0
100
AcDbLine
 62
2
  6
CONTINUOUS
 10
1681.9661864023
 20
836.1541501176
 11
931.3661864023
 21
836.1541501176
  0
INSERT
  5
219
100
AcDbEntity
  8
0
100
AcDbBlockReference
 62
2
  6
CONTINUOUS
  2
_FILLED
 10
180.7661864023
 20
836.1541501176
 41
3.0
 42
3.0
 43
3.0
 50
180.0
  0
INSERT
  5
21A
100
AcDbEntity
  8
0
100
AcDbBlockReference
 62
2
  6
CONTINUOUS
  2
_FILLED
 10
1681.9661864023
 20
836.1541501176
 41
3.0
 42
3.0
 43
3.0
  0
ENDBLK
  5
21B
100
AcDbEntity
  8
0
  6
BYBLOCK
 62
0
100
AcDbBlockEnd
  0
BLOCK
  5
21C
100
AcDbEntity
  8
0
100
AcDbBlockBegin
 62
2
  6
CONTINUOUS
  2
*D1
 70
65
 10
0.0
 20
0.0
  3
*D1
  1

  0
MTEXT
  5
21D
100
AcDbEntity
  8
0
100
AcDbMText
 62
2
  6
CONTINUOUS
  7
STANDARD
 71
2
 72
1
 10
100.4384574714
 20
498.8570093503
 30
0.0
 11
0.0
 21
1.0
 31
0.0
 44
0.9
  1
525
 40
10.0
 41
46.2857142857
  0
LINE
  5
21E
100
AcDbEntity
  8
0
100
AcDbLine
 62
2
  6
CONTINUOUS
 10
181.1798109501
 20
235.3572834782
 11
114.2241717572
 21
235.3572834782
  0
LINE
  5
21F
100
AcDbEntity
  8
0
100
AcDbLine
 62
2
  6
CONTINUOUS
 10
182.8386702703
 20
762.3567352225
 11
114.2241717572
 21
762.3567352225
  0
LINE
  5
220
100
AcDbEntity
  8
0
100
AcDbLine
 62
2
  6
CONTINUOUS
 10
114.7241717572
 20
235.3572834782
 11
114.7241717572
 21
498.8570093503
  0
LINE
  5
221
100
AcDbEntity
  8
0
100
AcDbLine
 62
2
  6
CONTINUOUS
 10
114.7241717572
 20
762.3567352225
 11
114.7241717572
 21
498.8570093503
  0
INSERT
  5
222
100
AcDbEntity
  8
0
100
AcDbBlockReference
 62
2
  6
CONTINUOUS
  2
_FILLED
 10
114.7241717572
 20
235.3572834782
 41
3.0
 42
3.0
 43
3.0
 50
270.0
  0
INSERT
  5
223
100
AcDbEntity
  8
0
100
AcDbBlockReference
 62
2
  6
CONTINUOUS
  2
_FILLED
 10
114.7241717572
 20
762.3567352225
 41
3.0
 42
3.0
 43
3.0
 50
90.0
  0
ENDBLK
  5
224
100
AcDbEntity
  8
0
  6
BYBLOCK
 62
0
100
AcDbBlockEnd
  0
BLOCK
  5
225
100
AcDbEntity
  8
0
100
AcDbBlockBegin
 62
2
  6
CONTINUOUS
  2
*D2
 70
65
 10
0.0
 20
0.0
  3
*D2
  1

  0
MTEXT
  5
226
100
AcDbEntity
  8
0
100
AcDbMText
 62
2
  6
CONTINUOUS
  7
STANDARD
 71
1
 72
1
 10
2052.3045853503
 20
850.4398644033
 30
0.0
 11
1.0
 21
0.0
 31
0.0
 44
0.9
  1
28
 40
10.0
 41
30.8571428571
  0
LINE
  5
227
100
AcDbEntity
  8
0
100
AcDbLine
 62
2
  6
CONTINUOUS
 10
2011.4621484622
 20
760.1830194095
 11
2011.4621484622
 21
836.6541501176
  0
LINE
  5
228
100
AcDbEntity
  8
0
100
AcDbLine
 62
2
  6
CONTINUOUS
 10
2040.0189547445
 20
761.9568701049
 11
2040.0189547445
 21
836.6541501176
  0
LINE
  5
229
100
AcDbEntity
  8
0
100
AcDbLine
 62
2
  6
CONTINUOUS
 10
2011.4621484622
 20
836.1541501176
 11
2025.7405516034
 21
836.1541501176
  0
LINE
  5
22A
100
AcDbEntity
  8
0
100
AcDbLine
 62
2
  6
CONTINUOUS
 10
2040.0189547445
 20
836.1541501176
 11
2025.7405516034
 21
836.1541501176
  0
LINE
  5
22B
100
AcDbEntity
  8
0
100
AcDbLine
 62
2
  6
CONTINUOUS
 10
2025.7405516034
 20
836.1541501176
 11
2072.8760139217
 21
836.1541501176
  0
INSERT
  5
22C
100
AcDbEntity
  8
0
100
AcDbBlockReference
 62
2
  6
CONTINUOUS
  2
_FILLED
 10
2011.4621484622
 20
836.1541501176
 41
3.0
 42
3.0
 43
3.0
 50
180.0
  0
INSERT
  5
22D
100
AcDbEntity
  8
0
100
AcDbBlockReference
 62
2
  6
CONTINUOUS
  2
_FILLED
 10
2040.0189547445
 20
836.1541501176
 41
3.0
 42
3.0
 43
3.0
  0
ENDBLK
  5
22E
100
AcDbEntity
  8
0
  6
BYBLOCK
 62
0
100
AcDbBlockEnd
  0
BLOCK
  5
22F
100
AcDbEntity
  8
0
100
AcDbBlockBegin
 62
2
  6
CONTINUOUS
  2
*D3
 70
65
 10
0.0
 20
0.0
  3
*D3
  1

  0
MTEXT
  5
230
100
AcDbEntity
  8
0
100
AcDbMText
 62
2
  6
CONTINUOUS
  7
STANDARD
 71
2
 72
1
 10
1945.9621484622
 20
850.4398644033
 30
0.0
 11
1.0
 21
0.0
 31
0.0
 44
0.9
  1
130
 40
10.0
 41
46.2857142857
  0
LINE
  5
231
100
AcDbEntity
  8
0
100
AcDbLine
 62
2
  6
CONTINUOUS
 10
2011.4621484622
 20
760.1830194095
 11
2011.4621484622
 21
836.6541501176
  0
LINE
  5
232
100
AcDbEntity
  8
0
100
AcDbLine
 62
2
  6
CONTINUOUS
 10
1880.4621484622
 20
604.7572834782
 11
1880.4621484622
 21
836.6541501176
  0
LINE
  5
233
100
AcDbEntity
  8
0
100
AcDbLine
 62
2
  6
CONTINUOUS
 10
2011.4621484622
 20
836.1541501176
 11
1945.9621484622
 21
836.1541501176
  0
LINE
  5
234
100
AcDbEntity
  8
0
100
AcDbLine
 62
2
  6
CONTINUOUS
 10
1880.4621484622
 20
836.1541501176
 11
1945.9621484622
 21
836.1541501176
  0
INSERT
  5
235
100
AcDbEntity
  8
0
100
AcDbBlockReference
 62
2
  6
CONTINUOUS
  2
_FILLED
 10
2011.4621484622
 20
836.1541501176
 41
3.0
 42
3.0
 43
3.0
  0
INSERT
  5
236
100
AcDbEntity
  8
0
100
AcDbBlockReference
 62
2
  6
CONTINUOUS
  2
_FILLED
 10
1880.4621484622
 20
836.1541501176
 41
3.0
 42
3.0
 43
3.0
 50
180.0
  0
ENDBLK
  5
237
100
AcDbEntity
  8
0
  6
BYBLOCK
 62
0
100
AcDbBlockEnd
  0
ENDSEC
  0
SECTION
  2
ENTITIES
  0
DIMENSION
  5
238
100
AcDbEntity
  8
0
100
AcDbDimension
 62
2
  6
CONTINUOUS
  2
*D0
 10
1681.9661864023
 20
836.1541501176
 11
931.3661864023
 21
836.1541501176
 70
160
 71
2
 42
1501.2
  3
DIMSTYLE_1
100
AcDbAlignedDimension
 13
180.7661864023
 23
760.2437378314
 14
1681.9661864023
 24
760.2437378314
100
AcDbRotatedDimension
  0
DIMENSION
  5
239
100
AcDbEntity
  8
0
100
AcDbDimension
 62
2
  6
CONTINUOUS
  2
*D1
 10
114.7241717572
 20
762.3567352225
 11
114.7241717572
 21
498.8570093503
 70
160
 71
2
 42
526.9994517443
  3
DIMSTYLE_1
100
AcDbAlignedDimension
 13
181.6798109501
 23
235.3572834782
 14
183.3386702703
 24
762.3567352225
 50
90.0
100
AcDbRotatedDimension
  0
DIMENSION
  5
23A
100
AcDbEntity
  8
0
100
AcDbDimension
 62
2
  6
CONTINUOUS
  2
*D2
 10
2040.0189547445
 20
836.1541501176
 11
2062.590299636
 21
836.1541501176
 70
160
 71
1
 42
28.5568062823
  3
DIMSTYLE_1
100
AcDbAlignedDimension
 13
2011.4621484622
 23
759.6830194095
 14
2040.0189547445
 24
761.4568701049
100
AcDbRotatedDimension
  0
DIMENSION
  5
23B
100
AcDbEntity
  8
0
100
AcDbDimension
 62
2
  6
CONTINUOUS
  2
*D3
 10
1880.4621484622
 20
836.1541501176
 11
1945.9621484622
 21
836.1541501176
 70
160
 71
2
 42
131.0
  3
DIMSTYLE_1
100
AcDbAlignedDimension
 13
2011.4621484622
 23
759.6830194095
 14
1880.4621484622
 24
604.2572834782
 50
180.0
100
AcDbRotatedDimension
  0
LINE
  5
23C
100
AcDbEntity
  8
0
100
AcDbLine
 62
7
  6
CONTINUOUS
 10
0.0
 20
-0.0
 11
0.0
 21
1000.0
  0
LINE
  5
23D
100
AcDbEntity
  8
0
100
AcDbLine
 62
7
  6
CONTINUOUS
 10
0.0
 20
-0.0
 11
2200.0
 21
-0.0
  0
LINE
  5
23E
100
AcDbEntity
  8
0
100
AcDbLine
 62
7
  6
CONTINUOUS
 10
0.0
 20
1000.0
 11
2200.0
 21
1000.0
  0
LINE
  5
23F
100
AcDbEntity
  8
0
100
AcDbLine
 62
7
  6
CONTINUOUS
 10
2200.0
 20
-0.0
 11
2200.0
 21
1000.0
  0
LINE
  5
240
100
AcDbEntity
  8
0
100
AcDbLine
 62
7
  6
CONTINUOUS
 10
180.7661864023
 20
760.2572834782
 11
180.7661864023
 21
236.270908026
  0
LINE
  5
241
100
AcDbEntity
  8
0
100
AcDbLine
 62
3
  6
CONTINUOUS
 10
181.3661864023
 20
760.2568398852
 11
181.3661864023
 21
759.9572834782
  0
LINE
  5
242
100
AcDbEntity
  8
0
100
AcDbLine
 62
3
  6
CONTINUOUS
 10
181.3661864023
 20
236.5572834782
 11
181.3661864023
 21
236.270908026
  0
LINE
  5
243
100
AcDbEntity
  8
02___PRT_ALL_AXES
100
AcDbLine
 62
7
  6
CONTINUOUS
 10
181.6661864023
 20
235.9572834782
 11
181.6661864023
 21
235.3572834782
  0
LINE
  5
244
100
AcDbEntity
  8
0
100
AcDbLine
 62
7
  6
CONTINUOUS
 10
181.6661864023
 20
235.3572834782
 11
181.6661864023
 21
235.9572834782
  0
LINE
  5
245
100
AcDbEntity
  8
0
100
AcDbLine
 62
7
  6
CONTINUOUS
 10
181.6661864023
 20
760.5572834782
 11
181.6661864023
 21
761.1572834782
  0
LINE
  5
246
100
AcDbEntity
  8
0
100
AcDbLine
 62
7
  6
CONTINUOUS
 10
181.9661864023
 20
759.6830194095
 11
181.9661864023
 21
236.8315475469
  0
LINE
  5
247
100
AcDbEntity
  8
0
100
AcDbLine
 62
7
  6
CONTINUOUS
 10
182.1025500386
 20
235.9572834782
 11
182.1025500386
 21
235.8517766848
  0
LINE
  5
248
100
AcDbEntity
  8
02___PRT_ALL_AXES
100
AcDbLine
 62
7
  6
CONTINUOUS
 10
203.9990502986
 20
683.2572834782
 11
203.9990502986
 21
313.2572834782
  0
LINE
  5
249
100
AcDbEntity
  8
02___PRT_ALL_AXES
100
AcDbLine
 62
7
  6
CONTINUOUS
 10
207.5497544541
 20
683.2572834782
 11
207.5497544541
 21
313.2572834782
  0
LINE
  5
24A
100
AcDbEntity
  8
02___PRT_ALL_AXES
100
AcDbLine
 62
7
  6
CONTINUOUS
 10
208.1242378809
 20
683.2572834782
 11
208.1242378809
 21
313.2572834782
  0
LINE
  5
24B
100
AcDbEntity
  8
02___PRT_ALL_AXES
100
AcDbLine
 62
7
  6
CONTINUOUS
 10
214.9742465436
 20
683.2572834782
 11
214.9742465436
 21
313.2572834782
  0
LINE
  5
24C
100
AcDbEntity
  8
02___PRT_ALL_AXES
100
AcDbLine
 62
7
  6
CONTINUOUS
 10
236.3661864023
 20
280.8901473745
 11
236.3661864023
 21
285.1356185755
  0
LINE
  5
24D
100
AcDbEntity
  8
02___PRT_ALL_AXES
100
AcDbLine
 62
7
  6
CONTINUOUS
 10
236.3661864023
 20
393.2572835717
 11
236.3661710927
 21
603.2572835598
  0
LINE
  5
24E
100
AcDbEntity
  8
02___PRT_ALL_AXES
100
AcDbLine
 62
7
  6
CONTINUOUS
 10
236.3661864023
 20
711.3789483808
 11
236.3661864023
 21
715.6244195818
  0
LINE
  5
24F
100
AcDbEntity
  8
02___PRT_ALL_AXES
100
AcDbLine
 62
7
  6
CONTINUOUS
 10
237.8591295665
 20
393.2572834782
 11
237.8591295665
 21
603.2572834782
  0
LINE
  5
250
100
AcDbEntity
  8
02___PRT_ALL_AXES
100
AcDbLine
 62
7
  6
CONTINUOUS
 10
243.2682230917
 20
559.1202921621
 11
243.2682176012
 21
532.9553088221
  0
LINE
  5
251
100
AcDbEntity
  8
02___PRT_ALL_AXES
100
AcDbLine
 62
7
  6
CONTINUOUS
 10
243.2682262368
 20
511.3519275469
 11
243.2682158298
 21
485.1627099705
  0
LINE
  5
252
100
AcDbEntity
  8
02___PRT_ALL_AXES
100
AcDbLine
 62
7
  6
CONTINUOUS
 10
243.2682293016
 20
463.5593140908
 11
243.2682144671
 21
437.394361023
  0
LINE
  5
253
100
AcDbEntity
  8
02___PRT_ALL_AXES
100
AcDbLine
 62
7
  6
CONTINUOUS
 10
243.2682322141
 20
415.7629181406
 11
243.2682136248
 21
389.6038159734
  0
LINE
  5
254
100
AcDbEntity
  8
02___PRT_ALL_AXES
100
AcDbLine
 62
7
  6
CONTINUOUS
 10
243.2682104847
 20
606.910693234
 11
243.2682644993
 21
580.7517788374
  0
LINE
  5
255
100
AcDbEntity
  8
02___PRT_ALL_AXES
100
AcDbLine
 62
7
  6
CONTINUOUS
 10
244.5745373556
 20
606.9107723538
 11
244.5745459318
 21
580.7517373289
  0
LINE
  5
256
100
AcDbEntity
  8
02___PRT_ALL_AXES
100
AcDbLine
 62
7
  6
CONTINUOUS
 10
244.5745393747
 20
559.1202056109
 11
244.5745384883
 21
532.9553434912
  0
LINE
  5
257
100
AcDbEntity
  8
02___PRT_ALL_AXES
100
AcDbLine
 62
7
  6
CONTINUOUS
 10
244.574539872
 20
511.3518380256
 11
244.5745382065
 21
485.1627293876
  0
LINE
  5
258
100
AcDbEntity
  8
02___PRT_ALL_AXES
100
AcDbLine
 62
7
  6
CONTINUOUS
 10
244.5745403561
 20
463.5592239114
 11
244.574537989
 21
437.3943618101
  0
LINE
  5
259
100
AcDbEntity
  8
02___PRT_ALL_AXES
100
AcDbLine
 62
7
  6
CONTINUOUS
 10
244.5745408158
 20
415.7628293814
 11
244.5745378534
 21
389.6037945997
  0
LINE
  5
25A
100
AcDbEntity
  8
02___PRT_ALL_AXES
100
AcDbLine
 62
7
  6
CONTINUOUS
 10
245.8808478837
 20
606.9107723575
 11
245.8808478837
 21
580.7517380097
  0
LINE
  5
25B
100
AcDbEntity
  8
02___PRT_ALL_AXES
100
AcDbLine
 62
7
  6
CONTINUOUS
 10
245.8808478837
 20
389.6037945988
 11
245.8808478837
 21
415.7628289466
  0
LINE
  5
25C
100
AcDbEntity
  8
02___PRT_ALL_AXES
100
AcDbLine
 62
7
  6
CONTINUOUS
 10
245.8808478837
 20
437.3943618101
 11
245.8808478837
 21
463.5592234639
  0
LINE
  5
25D
100
AcDbEntity
  8
02___PRT_ALL_AXES
100
AcDbLine
 62
7
  6
CONTINUOUS
 10
245.8808478837
 20
485.1627293883
 11
245.8808478837
 21
511.351837568
  0
LINE
  5
25E
100
AcDbEntity
  8
02___PRT_ALL_AXES
100
AcDbLine
 62
7
  6
CONTINUOUS
 10
245.8808478837
 20
532.9553434924
 11
245.8808478837
 21
559.1202051462
  0
LINE
  5
25F
100
AcDbEntity
  8
02___PRT_ALL_AXES
100
AcDbLine
 62
7
  6
CONTINUOUS
 10
686.8808478837
 20
535.7472321732
 11
686.8808478837
 21
525.1643525014
  0
LINE
  5
260
100
AcDbEntity
  8
02___PRT_ALL_AXES
100
AcDbLine
 62
7
  6
CONTINUOUS
 10
686.8808478837
 20
503.5608465771
 11
686.8808478837
 21
492.9537203793
  0
LINE
  5
261
100
AcDbEntity
  8
02___PRT_ALL_AXES
100
AcDbLine
 62
7
  6
CONTINUOUS
 10
686.8808478837
 20
471.3502144549
 11
686.8808478837
 21
460.7673347831
  0
LINE
  5
262
100
AcDbEntity
  8
02___PRT_ALL_AXES
100
AcDbLine
 62
7
  6
CONTINUOUS
 10
686.8808478837
 20
439.1358019196
 11
686.8808478837
 21
428.5587495538
  0
LINE
  5
263
100
AcDbEntity
  8
02___PRT_ALL_AXES
100
AcDbLine
 62
7
  6
CONTINUOUS
 10
686.8808478837
 20
406.8712714702
 11
686.8808478837
 21
396.3486900126
  0
LINE
  5
264
100
AcDbEntity
  8
02___PRT_ALL_AXES
100
AcDbLine
 62
7
  6
CONTINUOUS
 10
686.8808478837
 20
557.3787650367
 11
686.8808478837
 21
567.9558174025
  0
LINE
  5
265
100
AcDbEntity
  8
02___PRT_ALL_AXES
100
AcDbLine
 62
7
  6
CONTINUOUS
 10
686.8808478837
 20
589.6432954861
 11
686.8808478837
 21
600.1659468633
  0
LINE
  5
266
100
AcDbEntity
  8
02___PRT_ALL_AXES
100
AcDbLine
 62
7
  6
CONTINUOUS
 10
688.172493461
 20
460.7673343641
 11
688.1724959833
 21
471.3502144556
  0
LINE
  5
267
100
AcDbEntity
  8
02___PRT_ALL_AXES
100
AcDbLine
 62
7
  6
CONTINUOUS
 10
688.1724939054
 20
492.953719948
 11
688.172495711
 21
503.5608465782
  0
LINE
  5
268
100
AcDbEntity
  8
02___PRT_ALL_AXES
100
AcDbLine
 62
7
  6
CONTINUOUS
 10
688.1724943734
 20
525.1643520604
 11
688.1724953932
 21
535.7472321745
  0
LINE
  5
269
100
AcDbEntity
  8
02___PRT_ALL_AXES
100
AcDbLine
 62
7
  6
CONTINUOUS
 10
688.1724932013
 20
428.5587495536
 11
688.1724961936
 21
439.1358019196
  0
LINE
  5
26A
100
AcDbEntity
  8
02___PRT_ALL_AXES
100
AcDbLine
 62
7
  6
CONTINUOUS
 10
688.1724932041
 20
396.3486900121
 11
688.1724963247
 21
406.8712714693
  0
LINE
  5
26B
100
AcDbEntity
  8
02___PRT_ALL_AXES
100
AcDbLine
 62
7
  6
CONTINUOUS
 10
688.1724968709
 20
557.378765039
 11
688.1724891058
 21
567.9558179922
  0
LINE
  5
26C
100
AcDbEntity
  8
02___PRT_ALL_AXES
100
AcDbLine
 62
7
  6
CONTINUOUS
 10
688.172496806
 20
589.6432954898
 11
688.1724896616
 21
600.1659473907
  0
LINE
  5
26D
100
AcDbEntity
  8
02___PRT_ALL_AXES
100
AcDbLine
 62
7
  6
CONTINUOUS
 10
689.4641465677
 20
525.1642625407
 11
689.4641531322
 21
535.7472789082
  0
LINE
  5
26E
100
AcDbEntity
  8
02___PRT_ALL_AXES
100
AcDbLine
 62
7
  6
CONTINUOUS
 10
689.464143503
 20
492.9536297702
 11
689.4641552034
 21
503.5608812474
  0
LINE
  5
26F
100
AcDbEntity
  8
02___PRT_ALL_AXES
100
AcDbLine
 62
7
  6
CONTINUOUS
 10
689.4641405905
 20
460.7672456065
 11
689.4641569747
 21
471.3502338727
  0
LINE
  5
270
100
AcDbEntity
  8
02___PRT_ALL_AXES
100
AcDbLine
 62
7
  6
CONTINUOUS
 10
689.4641385531
 20
428.5587524162
 11
689.4641583375
 21
439.1358027067
  0
LINE
  5
271
100
AcDbEntity
  8
02___PRT_ALL_AXES
100
AcDbLine
 62
7
  6
CONTINUOUS
 10
689.4641385711
 20
396.3486888201
 11
689.4641591798
 21
406.8712500957
  0
LINE
  5
272
100
AcDbEntity
  8
02___PRT_ALL_AXES
100
AcDbLine
 62
7
  6
CONTINUOUS
 10
689.464162767
 20
557.3788124549
 11
689.4641121233
 21
567.9557662069
  0
LINE
  5
273
100
AcDbEntity
  8
02___PRT_ALL_AXES
100
AcDbLine
 62
7
  6
CONTINUOUS
 10
689.4641623198
 20
589.6433746095
 11
689.4641157195
 21
600.1658881317
  0
LINE
  5
274
100
AcDbEntity
  8
02___PRT_ALL_AXES
100
AcDbLine
 62
7
  6
CONTINUOUS
 10
694.8927918799
 20
603.2572834782
 11
694.8927918799
 21
393.2572834782
  0
LINE
  5
275
100
AcDbEntity
  8
02___PRT_ALL_AXES
100
AcDbLine
 62
7
  6
CONTINUOUS
 10
696.3661864023
 20
603.2572835556
 11
696.3662017044
 21
393.2572835689
  0
LINE
  5
276
100
AcDbEntity
  8
0
100
AcDbLine
 62
7
  6
CONTINUOUS
 10
1680.8740503358
 20
235.3572834782
 11
181.6798109501
 21
235.3572834782
  0
LINE
  5
277
100
AcDbEntity
  8
0
100
AcDbLine
 62
7
  6
CONTINUOUS
 10
1681.0525618544
 20
235.3572834782
 11
1681.0661864023
 21
235.3572834782
  0
LINE
  5
278
100
AcDbEntity
  8
0
100
AcDbLine
 62
3
  6
CONTINUOUS
 10
1681.0525618545
 20
235.9572834782
 11
1680.8740503358
 21
235.9572834782
  0
LINE
  5
279
100
AcDbEntity
  8
0
100
AcDbLine
 62
3
  6
CONTINUOUS
 10
181.9661864023
 20
235.9572834782
 11
181.6798109501
 21
235.9572834782
  0
LINE
  5
27A
100
AcDbEntity
  8
0
100
AcDbLine
 62
7
  6
CONTINUOUS
 10
1681.9661864023
 20
236.2572834782
 11
1681.3661864023
 21
236.2572834782
  0
LINE
  5
27B
100
AcDbEntity
  8
02___PRT_ALL_AXES
100
AcDbLine
 62
7
  6
CONTINUOUS
 10
181.3661864023
 20
236.2572834782
 11
180.7661864023
 21
236.2572834782
  0
LINE
  5
27C
100
AcDbEntity
  8
02___PRT_ALL_AXES
100
AcDbLine
 62
7
  6
CONTINUOUS
 10
1681.3661864023
 20
236.2572834782
 11
1681.9661864023
 21
236.2572834782
  0
LINE
  5
27D
100
AcDbEntity
  8
0
100
AcDbLine
 62
7
  6
CONTINUOUS
 10
180.7661864023
 20
236.270908026
 11
181.3661864023
 21
236.270908026
  0
LINE
  5
27E
100
AcDbEntity
  8
0
100
AcDbLine
 62
7
  6
CONTINUOUS
 10
1680.4919223336
 20
236.5572834782
 11
182.240450471
 21
236.5572834782
  0
LINE
  5
27F
100
AcDbEntity
  8
0
100
AcDbLine
 62
7
  6
CONTINUOUS
 10
181.3661864023
 20
236.6936471145
 11
181.2606796089
 21
236.6936471145
  0
LINE
  5
280
100
AcDbEntity
  8
0
100
AcDbLine
 62
7
  6
CONTINUOUS
 10
1681.3661864023
 20
236.6936471145
 11
1681.4716931957
 21
236.6936471145
  0
LINE
  5
281
100
AcDbEntity
  8
02___PRT_ALL_AXES
100
AcDbLine
 62
7
  6
CONTINUOUS
 10
236.3661864023
 20
280.8901473745
 11
1626.3661864023
 21
280.8901473745
  0
LINE
  5
282
100
AcDbEntity
  8
02___PRT_ALL_AXES
100
AcDbLine
 62
7
  6
CONTINUOUS
 10
719.4826668416
 20
294.7907195563
 11
719.4826668416
 21
701.7238474
  0
LINE
  5
283
100
AcDbEntity
  8
02___PRT_ALL_AXES
100
AcDbLine
 62
7
  6
CONTINUOUS
 10
724.3698250023
 20
287.8760856317
 11
724.3698250023
 21
465.8194551455
  0
LINE
  5
284
100
AcDbEntity
  8
02___PRT_ALL_AXES
100
AcDbLine
 62
7
  6
CONTINUOUS
 10
724.3698250023
 20
530.6951118108
 11
724.3698250023
 21
708.6384813246
  0
LINE
  5
285
100
AcDbEntity
  8
02___PRT_ALL_AXES
100
AcDbLine
 62
7
  6
CONTINUOUS
 10
236.3661864023
 20
285.1356185755
 11
719.5608591019
 21
287.862516313
  0
LINE
  5
286
100
AcDbEntity
  8
02___PRT_ALL_AXES
100
AcDbLine
 62
7
  6
CONTINUOUS
 10
236.2879918348
 20
292.0638218058
 11
724.3698250023
 21
294.804288862
  0
LINE
  5
287
100
AcDbEntity
  8
02___PRT_ALL_AXES
100
AcDbLine
 62
7
  6
CONTINUOUS
 10
236.3661864023
 20
284.44085153
 11
1626.3661864023
 21
284.44085153
  0
LINE
  5
288
100
AcDbEntity
  8
02___PRT_ALL_AXES
100
AcDbLine
 62
7
  6
CONTINUOUS
 10
724.3698250023
 20
287.8760856317
 11
1138.3625478022
 21
287.8760856317
  0
LINE
  5
289
100
AcDbEntity
  8
02___PRT_ALL_AXES
100
AcDbLine
 62
7
  6
CONTINUOUS
 10
203.9990502986
 20
313.2572834782
 11
214.9742465436
 21
313.2572834782
  0
LINE
  5
28A
100
AcDbEntity
  8
02___PRT_ALL_AXES
100
AcDbLine
 62
7
  6
CONTINUOUS
 10
1647.7581262609
 20
313.2572834782
 11
1658.733322506
 21
313.2572834782
  0
LINE
  5
28B
100
AcDbEntity
  8
02___PRT_ALL_AXES
100
AcDbLine
 62
7
  6
CONTINUOUS
 10
1231.3661841802
 20
328.2572677977
 11
1561.3661886077
 21
328.2572834782
  0
LINE
  5
28C
100
AcDbEntity
  8
02___PRT_ALL_AXES
100
AcDbLine
 62
7
  6
CONTINUOUS
 10
631.3661841856
 20
328.2572834782
 11
301.3661886367
 21
328.2572682848
  0
LINE
  5
28D
100
AcDbEntity
  8
02___PRT_ALL_AXES
100
AcDbLine
 62
7
  6
CONTINUOUS
 10
631.3759607232
 20
329.7405231756
 11
301.3759607232
 21
329.7405231756
  0
LINE
  5
28E
100
AcDbEntity
  8
02___PRT_ALL_AXES
100
AcDbLine
 62
7
  6
CONTINUOUS
 10
1231.3564120813
 20
329.7405231756
 11
1561.3564120813
 21
329.7405231756
  0
LINE
  5
28F
100
AcDbEntity
  8
02___PRT_ALL_AXES
100
AcDbLine
 62
7
  6
CONTINUOUS
 10
433.9872738981
 20
335.1592132819
 11
631.3661866519
 21
335.15920771
  0
LINE
  5
290
100
AcDbEntity
  8
02___PRT_ALL_AXES
100
AcDbLine
 62
7
  6
CONTINUOUS
 10
1231.3661862737
 20
335.1592077734
 11
1428.7450988764
 21
335.1592132819
  0
LINE
  5
291
100
AcDbEntity
  8
02___PRT_ALL_AXES
100
AcDbLine
 62
7
  6
CONTINUOUS
 10
433.9943451929
 20
336.4582463006
 11
631.3735171441
 21
336.4582454392
  0
LINE
  5
292
100
AcDbEntity
  8
02___PRT_ALL_AXES
100
AcDbLine
 62
7
  6
CONTINUOUS
 10
1231.3588556603
 20
336.4582454488
 11
1428.7380275845
 21
336.4582463006
  0
LINE
  5
293
100
AcDbEntity
  8
02___PRT_ALL_AXES
100
AcDbLine
 62
7
  6
CONTINUOUS
 10
434.0016759209
 20
337.7572834782
 11
631.3808478837
 21
337.7572834782
  0
LINE
  5
294
100
AcDbEntity
  8
02___PRT_ALL_AXES
100
AcDbLine
 62
7
  6
CONTINUOUS
 10
1231.3515249209
 20
337.7572834782
 11
1428.7306968837
 21
337.7572834782
  0
LINE
  5
295
100
AcDbEntity
  8
02___PRT_ALL_AXES
100
AcDbLine
 62
7
  6
CONTINUOUS
 10
724.3698250023
 20
294.804288862
 11
1143.2497082702
 21
294.7907195433
  0
LINE
  5
296
100
AcDbEntity
  8
02___PRT_ALL_AXES
100
AcDbLine
 62
7
  6
CONTINUOUS
 10
1143.1715137027
 20
287.862516313
 11
1626.3661864023
 21
285.1356185755
  0
LINE
  5
297
100
AcDbEntity
  8
02___PRT_ALL_AXES
100
AcDbLine
 62
7
  6
CONTINUOUS
 10
1143.2497082702
 20
294.7907195433
 11
1626.4443809698
 21
292.0638218058
  0
LINE
  5
298
100
AcDbEntity
  8
02___PRT_ALL_AXES
100
AcDbLine
 62
7
  6
CONTINUOUS
 10
243.2682136248
 20
389.6038159732
 11
245.8808478837
 21
389.6037945988
  0
LINE
  5
299
100
AcDbEntity
  8
02___PRT_ALL_AXES
100
AcDbLine
 62
7
  6
CONTINUOUS
 10
1619.4641591835
 20
389.6038157534
 11
1616.8515249209
 21
389.6037945988
  0
LINE
  5
29A
100
AcDbEntity
  8
02___PRT_ALL_AXES
100
AcDbLine
 62
7
  6
CONTINUOUS
 10
236.3661864023
 20
393.2572835717
 11
237.8591295665
 21
393.2572834782
  0
LINE
  5
29B
100
AcDbEntity
  8
02___PRT_ALL_AXES
100
AcDbLine
 62
7
  6
CONTINUOUS
 10
1167.8395809247
 20
393.2572834782
 11
1166.3661864023
 21
393.257283399
  0
LINE
  5
29C
100
AcDbEntity
  8
02___PRT_ALL_AXES
100
AcDbLine
 62
7
  6
CONTINUOUS
 10
696.3661885021
 20
393.2572835689
 11
694.8927918799
 21
393.2572834782
  0
LINE
  5
29D
100
AcDbEntity
  8
02___PRT_ALL_AXES
100
AcDbLine
 62
7
  6
CONTINUOUS
 10
1624.873243238
 20
393.2572834782
 11
1626.3661886466
 21
393.2572833966
  0
LINE
  5
29E
100
AcDbEntity
  8
02___PRT_ALL_AXES
100
AcDbLine
 62
7
  6
CONTINUOUS
 10
817.9790087927
 20
329.5351358714
 11
819.6103232748
 21
339.577943761
  0
LINE
  5
29F
100
AcDbEntity
  8
02___PRT_ALL_AXES
100
AcDbLine
 62
7
  6
CONTINUOUS
 10
819.6103232748
 20
339.577943761
 11
819.7014215625
 21
340.1231330793
  0
LINE
  5
2A0
100
AcDbEntity
  8
02___PRT_ALL_AXES
100
AcDbLine
 62
7
  6
CONTINUOUS
 10
737.489364428
 20
423.7366057258
 11
738.882955496
 21
423.9156348896
  0
LINE
  5
2A1
100
AcDbEntity
  8
02___PRT_ALL_AXES
100
AcDbLine
 62
7
  6
CONTINUOUS
 10
728.2334879864
 20
422.5754259346
 11
737.489364428
 21
423.7366057258
  0
LINE
  5
2A2
100
AcDbEntity
  8
02___PRT_ALL_AXES
100
AcDbLine
 62
7
  6
CONTINUOUS
 10
678.3503889158
 20
378.3993349854
 11
433.3557684008
 21
348.3177780819
  0
LINE
  5
2A3
100
AcDbEntity
  8
02___PRT_ALL_AXES
100
AcDbLine
 62
7
  6
CONTINUOUS
 10
678.1847597788
 20
379.6886946251
 11
433.1901395894
 21
349.6071306464
  0
LINE
  5
2A4
100
AcDbEntity
  8
02___PRT_ALL_AXES
100
AcDbLine
 62
7
  6
CONTINUOUS
 10
678.0190180665
 20
380.9780561227
 11
433.0244296144
 21
350.8964576976
  0
LINE
  5
2A5
100
AcDbEntity
  8
02___PRT_ALL_AXES
100
AcDbLine
 62
7
  6
CONTINUOUS
 10
283.5360447376
 20
340.4041814983
 11
683.4068469888
 21
389.5020389518
  0
LINE
  5
2A6
100
AcDbEntity
  8
02___PRT_ALL_AXES
100
AcDbLine
 62
7
  6
CONTINUOUS
 10
283.3849937517
 20
341.6934341151
 11
683.2558531224
 21
390.7913863699
  0
LINE
  5
2A7
100
AcDbEntity
  8
02___PRT_ALL_AXES
100
AcDbLine
 62
7
  6
CONTINUOUS
 10
683.1048860603
 20
392.0807415605
 11
283.2340282535
 21
342.9827738669
  0
LINE
  5
2A8
100
AcDbEntity
  8
02___PRT_ALL_AXES
100
AcDbLine
 62
7
  6
CONTINUOUS
 10
256.1830647272
 20
372.7744713899
 11
682.1950230526
 21
411.1539270949
  0
LINE
  5
2A9
100
AcDbEntity
  8
02___PRT_ALL_AXES
100
AcDbLine
 62
7
  6
CONTINUOUS
 10
682.071145228
 20
412.4477281536
 11
256.0591863385
 21
374.0682733094
  0
LINE
  5
2AA
100
AcDbEntity
  8
02___PRT_ALL_AXES
100
AcDbLine
 62
7
  6
CONTINUOUS
 10
681.9473465564
 20
413.7415464264
 11
255.935313108
 21
375.3620896681
  0
LINE
  5
2AB
100
AcDbEntity
  8
02___PRT_ALL_AXES
100
AcDbLine
 62
7
  6
CONTINUOUS
 10
250.7850262499
 20
382.7335196428
 11
683.185136286
 21
421.6885059022
  0
LINE
  5
2AC
100
AcDbEntity
  8
02___PRT_ALL_AXES
100
AcDbLine
 62
7
  6
CONTINUOUS
 10
250.6758889854
 20
384.0273379156
 11
683.0758892136
 21
422.98229616
  0
LINE
  5
2AD
100
AcDbEntity
  8
02___PRT_ALL_AXES
100
AcDbLine
 62
7
  6
CONTINUOUS
 10
682.9666727147
 20
424.2760939291
 11
250.5666727147
 21
385.3211389741
  0
LINE
  5
2AE
100
AcDbEntity
  8
02___PRT_ALL_AXES
100
AcDbLine
 62
7
  6
CONTINUOUS
 10
1175.8515249209
 20
396.3486900126
 11
1173.2682170788
 21
396.3486377224
  0
LINE
  5
2AF
100
AcDbEntity
  8
02___PRT_ALL_AXES
100
AcDbLine
 62
7
  6
CONTINUOUS
 10
689.4641385711
 20
396.3486888201
 11
686.8808478837
 21
396.3486900126
  0
LINE
  5
2B0
100
AcDbEntity
  8
02___PRT_ALL_AXES
100
AcDbLine
 62
7
  6
CONTINUOUS
 10
689.4641591798
 20
406.8712500959
 11
686.8808478837
 21
406.8712714702
  0
LINE
  5
2B1
100
AcDbEntity
  8
02___PRT_ALL_AXES
100
AcDbLine
 62
7
  6
CONTINUOUS
 10
1173.2682764734
 20
406.8712876149
 11
1175.8515249209
 21
406.8712714702
  0
LINE
  5
2B2
100
AcDbEntity
  8
02___PRT_ALL_AXES
100
AcDbLine
 62
7
  6
CONTINUOUS
 10
243.2682322141
 20
415.7629181406
 11
245.8808478837
 21
415.7628289466
  0
LINE
  5
2B3
100
AcDbEntity
  8
02___PRT_ALL_AXES
100
AcDbLine
 62
7
  6
CONTINUOUS
 10
1619.4641405824
 20
415.762917665
 11
1616.8515249209
 21
415.7628289466
  0
LINE
  5
2B4
100
AcDbEntity
  8
02___PRT_ALL_AXES
100
AcDbLine
 62
7
  6
CONTINUOUS
 10
1173.2682445425
 20
428.5587443652
 11
1175.8515249209
 21
428.5587495538
  0
LINE
  5
2B5
100
AcDbEntity
  8
02___PRT_ALL_AXES
100
AcDbLine
 62
7
  6
CONTINUOUS
 10
689.4641385531
 20
428.5587524162
 11
686.8808478837
 21
428.5587495538
  0
LINE
  5
2B6
100
AcDbEntity
  8
02___PRT_ALL_AXES
100
AcDbLine
 62
7
  6
CONTINUOUS
 10
1616.8515249209
 20
437.3943618101
 11
1619.4640986708
 21
437.3943620827
  0
LINE
  5
2B7
100
AcDbEntity
  8
02___PRT_ALL_AXES
100
AcDbLine
 62
7
  6
CONTINUOUS
 10
243.2682144671
 20
437.3943610229
 11
245.8808478837
 21
437.3943618101
  0
LINE
  5
2B8
100
AcDbEntity
  8
02___PRT_ALL_AXES
100
AcDbLine
 62
7
  6
CONTINUOUS
 10
689.4641583375
 20
439.1358027069
 11
686.8808478837
 21
439.1358019196
  0
LINE
  5
2B9
100
AcDbEntity
  8
02___PRT_ALL_AXES
100
AcDbLine
 62
7
  6
CONTINUOUS
 10
1173.2682144623
 20
439.1358029466
 11
1175.8515249209
 21
439.1358019196
  0
LINE
  5
2BA
100
AcDbEntity
  8
02___PRT_ALL_AXES
100
AcDbLine
 62
7
  6
CONTINUOUS
 10
1606.5493080774
 20
372.7744713899
 11
1180.5373497519
 21
411.1539270949
  0
LINE
  5
2BB
100
AcDbEntity
  8
02___PRT_ALL_AXES
100
AcDbLine
 62
7
  6
CONTINUOUS
 10
1606.6731854666
 20
374.0682639708
 11
1180.6612279487
 21
412.4477296154
  0
LINE
  5
2BC
100
AcDbEntity
  8
02___PRT_ALL_AXES
100
AcDbLine
 62
7
  6
CONTINUOUS
 10
1606.7970567006
 20
375.3620297182
 11
1180.7851869254
 21
413.7415413947
  0
LINE
  5
2BD
100
AcDbEntity
  8
02___PRT_ALL_AXES
100
AcDbLine
 62
7
  6
CONTINUOUS
 10
1179.5472799425
 20
421.6884969156
 11
1611.9473460702
 21
382.7335196976
  0
LINE
  5
2BE
100
AcDbEntity
  8
02___PRT_ALL_AXES
100
AcDbLine
 62
7
  6
CONTINUOUS
 10
1179.6564835357
 20
422.9822953763
 11
1612.0564833556
 21
384.0273379591
  0
LINE
  5
2BF
100
AcDbEntity
  8
02___PRT_ALL_AXES
100
AcDbLine
 62
7
  6
CONTINUOUS
 10
1612.1657000898
 20
385.3211389741
 11
1179.7657000898
 21
424.2760939291
  0
LINE
  5
2C0
100
AcDbEntity
  8
02___PRT_ALL_AXES
100
AcDbLine
 62
7
  6
CONTINUOUS
 10
1429.3766044037
 20
348.3177780819
 11
1184.3819838888
 21
378.3993349854
  0
LINE
  5
2C1
100
AcDbEntity
  8
02___PRT_ALL_AXES
100
AcDbLine
 62
7
  6
CONTINUOUS
 10
1429.542232554
 20
349.6071307276
 11
1184.5476127965
 21
379.688694654
  0
LINE
  5
2C2
100
AcDbEntity
  8
02___PRT_ALL_AXES
100
AcDbLine
 62
7
  6
CONTINUOUS
 10
1429.7079424714
 20
350.8964577859
 11
1184.7133546362
 21
380.9780561401
  0
LINE
  5
2C3
100
AcDbEntity
  8
02___PRT_ALL_AXES
100
AcDbLine
 62
7
  6
CONTINUOUS
 10
1179.3256138583
 20
389.5020444841
 11
1579.1964077686
 21
340.4040619701
  0
LINE
  5
2C4
100
AcDbEntity
  8
02___PRT_ALL_AXES
100
AcDbLine
 62
7
  6
CONTINUOUS
 10
1179.4765199489
 20
390.7913889215
 11
1579.3473773863
 21
341.6934177061
  0
LINE
  5
2C5
100
AcDbEntity
  8
02___PRT_ALL_AXES
100
AcDbLine
 62
7
  6
CONTINUOUS
 10
1179.6274867442
 20
392.0807415605
 11
1579.4983445511
 21
342.9827738669
  0
LINE
  5
2C6
100
AcDbEntity
  8
02___PRT_ALL_AXES
100
AcDbLine
 62
7
  6
CONTINUOUS
 10
1134.4988848182
 20
422.5754259345
 11
1124.39936209
 21
423.844328242
  0
LINE
  5
2C7
100
AcDbEntity
  8
02___PRT_ALL_AXES
100
AcDbLine
 62
7
  6
CONTINUOUS
 10
1124.39936209
 20
423.844328242
 11
1123.8494605034
 21
423.9159955626
  0
LINE
  5
2C8
100
AcDbEntity
  8
02___PRT_ALL_AXES
100
AcDbLine
 62
7
  6
CONTINUOUS
 10
817.9790087927
 20
666.9794310849
 11
819.7202034685
 21
656.2726676079
  0
LINE
  5
2C9
100
AcDbEntity
  8
02___PRT_ALL_AXES
100
AcDbLine
 62
7
  6
CONTINUOUS
 10
249.9487542742
 20
420.0565607217
 11
682.3487542742
 21
443.4295336947
  0
LINE
  5
2CA
100
AcDbEntity
  8
02___PRT_ALL_AXES
100
AcDbLine
 62
7
  6
CONTINUOUS
 10
682.2713146498
 20
444.7266800626
 11
249.8713141451
 21
421.3537076059
  0
LINE
  5
2CB
100
AcDbEntity
  8
02___PRT_ALL_AXES
100
AcDbLine
 62
7
  6
CONTINUOUS
 10
682.1939603498
 20
446.0238389351
 11
249.7938271023
 21
422.6508621457
  0
LINE
  5
2CC
100
AcDbEntity
  8
02___PRT_ALL_AXES
100
AcDbLine
 62
7
  6
CONTINUOUS
 10
250.5384124557
 20
430.5063247947
 11
682.9385457023
 21
453.8793015841
  0
LINE
  5
2CD
100
AcDbEntity
  8
02___PRT_ALL_AXES
100
AcDbLine
 62
7
  6
CONTINUOUS
 10
250.4757195795
 20
431.8034836672
 11
682.8757200649
 21
455.1764561239
  0
LINE
  5
2CE
100
AcDbEntity
  8
02___PRT_ALL_AXES
100
AcDbLine
 62
7
  6
CONTINUOUS
 10
682.8129414931
 20
456.473603008
 11
250.4129414931
 21
433.100630035
  0
LINE
  5
2CF
100
AcDbEntity
  8
02___PRT_ALL_AXES
100
AcDbLine
 62
7
  6
CONTINUOUS
 10
733.0571055735
 20
466.2837026011
 11
724.3698250024
 21
465.8194551455
  0
LINE
  5
2D0
100
AcDbEntity
  8
02___PRT_ALL_AXES
100
AcDbLine
 62
7
  6
CONTINUOUS
 10
250.1033829796
 20
467.8585256385
 11
682.5033829796
 21
475.6495166295
  0
LINE
  5
2D1
100
AcDbEntity
  8
02___PRT_ALL_AXES
100
AcDbLine
 62
7
  6
CONTINUOUS
 10
682.4726525966
 20
476.9483451619
 11
250.07265209
 21
469.1573555162
  0
LINE
  5
2D2
100
AcDbEntity
  8
02___PRT_ALL_AXES
100
AcDbLine
 62
7
  6
CONTINUOUS
 10
682.4420109531
 20
478.247181011
 11
250.0418866515
 21
470.4561963752
  0
LINE
  5
2D3
100
AcDbEntity
  8
02___PRT_ALL_AXES
100
AcDbLine
 62
7
  6
CONTINUOUS
 10
250.2903618518
 20
478.2657628322
 11
682.6904861531
 21
486.056747468
  0
LINE
  5
2D4
100
AcDbEntity
  8
02___PRT_ALL_AXES
100
AcDbLine
 62
7
  6
CONTINUOUS
 10
250.2743816486
 20
479.5645986813
 11
682.6743821091
 21
487.355588327
  0
LINE
  5
2D5
100
AcDbEntity
  8
02___PRT_ALL_AXES
100
AcDbLine
 62
7
  6
CONTINUOUS
 10
682.6583127877
 20
488.6544182047
 11
250.2583127877
 21
480.8634272137
  0
LINE
  5
2D6
100
AcDbEntity
  8
02___PRT_ALL_AXES
100
AcDbLine
 62
7
  6
CONTINUOUS
 10
1180.0740600168
 20
507.8601487517
 11
1612.4740600168
 21
515.6511397427
  0
LINE
  5
2D7
100
AcDbEntity
  8
02___PRT_ALL_AXES
100
AcDbLine
 62
7
  6
CONTINUOUS
 10
1612.4579909841
 20
516.9499699028
 11
1180.0579906977
 21
509.1589767985
  0
LINE
  5
2D8
100
AcDbEntity
  8
02___PRT_ALL_AXES
100
AcDbLine
 62
7
  6
CONTINUOUS
 10
689.4641405905
 20
460.7672456065
 11
686.8808478837
 21
460.7673347831
  0
LINE
  5
2D9
100
AcDbEntity
  8
02___PRT_ALL_AXES
100
AcDbLine
 62
7
  6
CONTINUOUS
 10
1175.8515249209
 20
460.7673347831
 11
1173.2682129939
 21
460.7673107075
  0
LINE
  5
2DA
100
AcDbEntity
  8
02___PRT_ALL_AXES
100
AcDbLine
 62
7
  6
CONTINUOUS
 10
243.2682293016
 20
463.5593140908
 11
245.8808478837
 21
463.5592234639
  0
LINE
  5
2DB
100
AcDbEntity
  8
02___PRT_ALL_AXES
100
AcDbLine
 62
7
  6
CONTINUOUS
 10
1616.8515249209
 20
463.5592234639
 11
1619.4641613878
 21
463.5592276443
  0
LINE
  5
2DC
100
AcDbEntity
  8
02___PRT_ALL_AXES
100
AcDbLine
 62
7
  6
CONTINUOUS
 10
1175.8515249209
 20
471.3502144549
 11
1173.2682713116
 21
471.3501989015
  0
LINE
  5
2DD
100
AcDbEntity
  8
02___PRT_ALL_AXES
100
AcDbLine
 62
7
  6
CONTINUOUS
 10
689.4641569747
 20
471.3502338728
 11
686.8808478837
 21
471.3502144549
  0
LINE
  5
2DE
100
AcDbEntity
  8
02___PRT_ALL_AXES
100
AcDbLine
 62
7
  6
CONTINUOUS
 10
1619.4641569801
 20
485.1627096951
 11
1616.8515249209
 21
485.1627293883
  0
LINE
  5
2DF
100
AcDbEntity
  8
02___PRT_ALL_AXES
100
AcDbLine
 62
7
  6
CONTINUOUS
 10
243.2682158298
 20
485.1627099704
 11
245.8808478837
 21
485.1627293883
  0
LINE
  5
2E0
100
AcDbEntity
  8
02___PRT_ALL_AXES
100
AcDbLine
 62
7
  6
CONTINUOUS
 10
689.464143503
 20
492.9536297702
 11
686.8808478837
 21
492.9537203793
  0
LINE
  5
2E1
100
AcDbEntity
  8
02___PRT_ALL_AXES
100
AcDbLine
 62
7
  6
CONTINUOUS
 10
1173.2682293105
 20
492.9536302375
 11
1175.8515249209
 21
492.9537203793
  0
LINE
  5
2E2
100
AcDbEntity
  8
02___PRT_ALL_AXES
100
AcDbLine
 62
7
  6
CONTINUOUS
 10
689.4641552034
 20
503.5608812474
 11
686.8808478837
 21
503.5608465771
  0
LINE
  5
2E3
100
AcDbEntity
  8
02___PRT_ALL_AXES
100
AcDbLine
 62
7
  6
CONTINUOUS
 10
1173.2682175954
 20
503.5608815299
 11
1175.8515249209
 21
503.5608465771
  0
LINE
  5
2E4
100
AcDbEntity
  8
02___PRT_ALL_AXES
100
AcDbLine
 62
7
  6
CONTINUOUS
 10
1612.6289898249
 20
467.8585256385
 11
1180.2289898249
 21
475.6495166295
  0
LINE
  5
2E5
100
AcDbEntity
  8
02___PRT_ALL_AXES
100
AcDbLine
 62
7
  6
CONTINUOUS
 10
1612.6597204406
 20
469.1573476551
 11
1180.2597204393
 21
476.9483476337
  0
LINE
  5
2E6
100
AcDbEntity
  8
02___PRT_ALL_AXES
100
AcDbLine
 62
7
  6
CONTINUOUS
 10
1612.6904215686
 20
470.4561471816
 11
1180.2904716589
 21
478.2471948342
  0
LINE
  5
2E7
100
AcDbEntity
  8
02___PRT_ALL_AXES
100
AcDbLine
 62
7
  6
CONTINUOUS
 10
1180.0418863553
 20
486.0567474676
 11
1612.4420104623
 21
478.2657628508
  0
LINE
  5
2E8
100
AcDbEntity
  8
02___PRT_ALL_AXES
100
AcDbLine
 62
7
  6
CONTINUOUS
 10
1180.0579903985
 20
487.3555883315
 11
1612.4579906996
 21
479.564598691
  0
LINE
  5
2E9
100
AcDbEntity
  8
02___PRT_ALL_AXES
100
AcDbLine
 62
7
  6
CONTINUOUS
 10
1612.4740600168
 20
480.8634272137
 11
1180.0740600168
 21
488.6544182047
  0
LINE
  5
2EA
100
AcDbEntity
  8
02___PRT_ALL_AXES
100
AcDbLine
 62
7
  6
CONTINUOUS
 10
250.2583127877
 20
515.6511397427
 11
682.6583127877
 21
507.8601487517
  0
LINE
  5
2EB
100
AcDbEntity
  8
02___PRT_ALL_AXES
100
AcDbLine
 62
7
  6
CONTINUOUS
 10
682.6743825537
 20
509.1589767918
 11
250.2743821075
 21
516.9499698968
  0
LINE
  5
2EC
100
AcDbEntity
  8
02___PRT_ALL_AXES
100
AcDbLine
 62
7
  6
CONTINUOUS
 10
1129.675267231
 20
466.283702601
 11
1138.3625478022
 21
465.8194551454
  0
LINE
  5
2ED
100
AcDbEntity
  8
02___PRT_ALL_AXES
100
AcDbLine
 62
7
  6
CONTINUOUS
 10
1180.3836185303
 20
443.4295336947
 11
1612.7836185303
 21
420.0565607217
  0
LINE
  5
2EE
100
AcDbEntity
  8
02___PRT_ALL_AXES
100
AcDbLine
 62
7
  6
CONTINUOUS
 10
1612.8610589625
 20
421.3537075904
 11
1180.4610586176
 21
444.726680036
  0
LINE
  5
2EF
100
AcDbEntity
  8
02___PRT_ALL_AXES
100
AcDbLine
 62
7
  6
CONTINUOUS
 10
1612.9385460124
 20
422.6508621347
 11
1180.538412946
 21
446.023838898
  0
LINE
  5
2F0
100
AcDbEntity
  8
02___PRT_ALL_AXES
100
AcDbLine
 62
7
  6
CONTINUOUS
 10
1179.7939173204
 20
453.8793414969
 11
1612.1938256135
 21
430.5063190549
  0
LINE
  5
2F1
100
AcDbEntity
  8
02___PRT_ALL_AXES
100
AcDbLine
 62
7
  6
CONTINUOUS
 10
1179.8566529971
 20
455.1764630932
 11
1612.2566529711
 21
431.8034816365
  0
LINE
  5
2F2
100
AcDbEntity
  8
02___PRT_ALL_AXES
100
AcDbLine
 62
7
  6
CONTINUOUS
 10
1179.9194313114
 20
456.473603008
 11
1612.3194313114
 21
433.100630035
  0
LINE
  5
2F3
100
AcDbEntity
  8
02___PRT_ALL_AXES
100
AcDbLine
 62
7
  6
CONTINUOUS
 10
1125.2224156663
 20
572.7753702202
 11
1123.7767440529
 21
572.589735507
  0
LINE
  5
2F4
100
AcDbEntity
  8
02___PRT_ALL_AXES
100
AcDbLine
 62
7
  6
CONTINUOUS
 10
1134.4988848181
 20
573.9391410217
 11
1125.2224156663
 21
572.7753702202
  0
LINE
  5
2F5
100
AcDbEntity
  8
02___PRT_ALL_AXES
100
AcDbLine
 62
7
  6
CONTINUOUS
 10
1070.7467799683
 20
565.962102135
 11
1123.7762478671
 21
572.5936509093
  0
LINE
  5
2F6
100
AcDbEntity
  8
02___PRT_ALL_AXES
100
AcDbLine
 62
7
  6
CONTINUOUS
 10
1179.7657000898
 20
572.2384730272
 11
1612.1657000898
 21
611.1934279822
  0
LINE
  5
2F7
100
AcDbEntity
  8
02___PRT_ALL_AXES
100
AcDbLine
 62
7
  6
CONTINUOUS
 10
1612.0564835336
 20
612.4872300165
 11
1179.6564836287
 21
573.5322702753
  0
LINE
  5
2F8
100
AcDbEntity
  8
02___PRT_ALL_AXES
100
AcDbLine
 62
7
  6
CONTINUOUS
 10
1611.9472437545
 20
613.7810443528
 11
1179.5472626965
 21
574.8260600409
  0
LINE
  5
2F9
100
AcDbEntity
  8
02___PRT_ALL_AXES
100
AcDbLine
 62
7
  6
CONTINUOUS
 10
1180.7851290491
 20
582.7730234907
 11
1606.7971504674
 21
621.1524934624
  0
LINE
  5
2FA
100
AcDbEntity
  8
02___PRT_ALL_AXES
100
AcDbLine
 62
7
  6
CONTINUOUS
 10
1179.9194313114
 20
540.0409639483
 11
1612.3194313114
 21
563.4139369213
  0
LINE
  5
2FB
100
AcDbEntity
  8
02___PRT_ALL_AXES
100
AcDbLine
 62
7
  6
CONTINUOUS
 10
1612.2566529837
 20
564.7110846323
 11
1179.8566528132
 21
541.338108875
  0
LINE
  5
2FC
100
AcDbEntity
  8
02___PRT_ALL_AXES
100
AcDbLine
 62
7
  6
CONTINUOUS
 10
1612.1938740508
 20
566.0082460907
 11
1179.7937858333
 21
542.6352506128
  0
LINE
  5
2FD
100
AcDbEntity
  8
02___PRT_ALL_AXES
100
AcDbLine
 62
7
  6
CONTINUOUS
 10
1180.5384987532
 20
550.4907240922
 11
1612.9385869712
 21
573.8637195701
  0
LINE
  5
2FE
100
AcDbEntity
  8
02___PRT_ALL_AXES
100
AcDbLine
 62
7
  6
CONTINUOUS
 10
1180.4610584424
 20
551.7878855505
 11
1612.8610585195
 21
575.1608613079
  0
LINE
  5
2FF
100
AcDbEntity
  8
02___PRT_ALL_AXES
100
AcDbLine
 62
7
  6
CONTINUOUS
 10
1612.7836185303
 20
576.4580062346
 11
1180.3836185303
 21
553.0850332616
  0
LINE
  5
300
100
AcDbEntity
  8
02___PRT_ALL_AXES
100
AcDbLine
 62
7
  6
CONTINUOUS
 10
1129.6752672311
 20
530.2308643553
 11
1138.3625478022
 21
530.6951118109
  0
LINE
  5
301
100
AcDbEntity
  8
02___PRT_ALL_AXES
100
AcDbLine
 62
7
  6
CONTINUOUS
 10
1612.4419404954
 20
518.2488132232
 11
1180.0418313885
 21
510.457806824
  0
LINE
  5
302
100
AcDbEntity
  8
02___PRT_ALL_AXES
100
AcDbLine
 62
7
  6
CONTINUOUS
 10
1180.290432309
 20
518.2673768462
 11
1612.6905414161
 21
526.0583832455
  0
LINE
  5
303
100
AcDbEntity
  8
02___PRT_ALL_AXES
100
AcDbLine
 62
7
  6
CONTINUOUS
 10
1180.2597204352
 20
519.5662201667
 11
1612.6597206503
 21
527.357213271
  0
LINE
  5
304
100
AcDbEntity
  8
02___PRT_ALL_AXES
100
AcDbLine
 62
7
  6
CONTINUOUS
 10
1612.6289898249
 20
528.6560413178
 11
1180.2289898249
 21
520.8650503268
  0
LINE
  5
305
100
AcDbEntity
  8
02___PRT_ALL_AXES
100
AcDbLine
 62
7
  6
CONTINUOUS
 10
243.2682262368
 20
511.3519275469
 11
245.8808478837
 21
511.351837568
  0
LINE
  5
306
100
AcDbEntity
  8
02___PRT_ALL_AXES
100
AcDbLine
 62
7
  6
CONTINUOUS
 10
1619.464146558
 20
511.3519270563
 11
1616.8515249209
 21
511.351837568
  0
LINE
  5
307
100
AcDbEntity
  8
02___PRT_ALL_AXES
100
AcDbLine
 62
7
  6
CONTINUOUS
 10
689.4641465677
 20
525.1642625407
 11
686.8808478837
 21
525.1643525014
  0
LINE
  5
308
100
AcDbEntity
  8
02___PRT_ALL_AXES
100
AcDbLine
 62
7
  6
CONTINUOUS
 10
1173.2682262465
 20
525.1642630132
 11
1175.8515249209
 21
525.1643525014
  0
LINE
  5
309
100
AcDbEntity
  8
02___PRT_ALL_AXES
100
AcDbLine
 62
7
  6
CONTINUOUS
 10
1619.4641552091
 20
532.9553085278
 11
1616.8515249209
 21
532.9553434924
  0
LINE
  5
30A
100
AcDbEntity
  8
02___PRT_ALL_AXES
100
AcDbLine
 62
7
  6
CONTINUOUS
 10
243.2682176012
 20
532.9553088221
 11
245.8808478837
 21
532.9553434924
  0
LINE
  5
30B
100
AcDbEntity
  8
02___PRT_ALL_AXES
100
AcDbLine
 62
7
  6
CONTINUOUS
 10
689.4641531322
 20
535.7472789082
 11
686.8808478837
 21
535.7472321732
  0
LINE
  5
30C
100
AcDbEntity
  8
02___PRT_ALL_AXES
100
AcDbLine
 62
7
  6
CONTINUOUS
 10
1173.2682196665
 20
535.7472792042
 11
1175.8515249209
 21
535.7472321732
  0
LINE
  5
30D
100
AcDbEntity
  8
02___PRT_ALL_AXES
100
AcDbLine
 62
7
  6
CONTINUOUS
 10
1173.2682231021
 20
557.3786785128
 11
1175.8515249209
 21
557.3787650367
  0
LINE
  5
30E
100
AcDbEntity
  8
02___PRT_ALL_AXES
100
AcDbLine
 62
7
  6
CONTINUOUS
 10
689.464162767
 20
557.3788124548
 11
686.8808478837
 21
557.3787650367
  0
LINE
  5
30F
100
AcDbEntity
  8
02___PRT_ALL_AXES
100
AcDbLine
 62
7
  6
CONTINUOUS
 10
243.2682230917
 20
559.1202921621
 11
245.8808478837
 21
559.1202051462
  0
LINE
  5
310
100
AcDbEntity
  8
02___PRT_ALL_AXES
100
AcDbLine
 62
7
  6
CONTINUOUS
 10
1619.4641497024
 20
559.1202916702
 11
1616.8515249209
 21
559.1202051462
  0
LINE
  5
311
100
AcDbEntity
  8
02___PRT_ALL_AXES
100
AcDbLine
 62
7
  6
CONTINUOUS
 10
682.6905419014
 20
510.4578068242
 11
250.2904325861
 21
518.2488132128
  0
LINE
  5
312
100
AcDbEntity
  8
02___PRT_ALL_AXES
100
AcDbLine
 62
7
  6
CONTINUOUS
 10
250.0418309028
 20
526.0583832453
 11
682.4419402185
 21
518.2673768566
  0
LINE
  5
313
100
AcDbEntity
  8
02___PRT_ALL_AXES
100
AcDbLine
 62
7
  6
CONTINUOUS
 10
250.072651707
 20
527.3572132777
 11
682.4726520822
 21
519.5662201727
  0
LINE
  5
314
100
AcDbEntity
  8
02___PRT_ALL_AXES
100
AcDbLine
 62
7
  6
CONTINUOUS
 10
682.5033829796
 20
520.8650503268
 11
250.1033829796
 21
528.6560413178
  0
LINE
  5
315
100
AcDbEntity
  8
02___PRT_ALL_AXES
100
AcDbLine
 62
7
  6
CONTINUOUS
 10
733.0571055735
 20
530.2308643552
 11
724.3698250023
 21
530.6951118108
  0
LINE
  5
316
100
AcDbEntity
  8
02___PRT_ALL_AXES
100
AcDbLine
 62
7
  6
CONTINUOUS
 10
250.4129414931
 20
563.4139369213
 11
682.8129414931
 21
540.0409639483
  0
LINE
  5
317
100
AcDbEntity
  8
02___PRT_ALL_AXES
100
AcDbLine
 62
7
  6
CONTINUOUS
 10
682.8757204253
 20
541.3381088528
 11
250.4757200936
 21
564.7110846168
  0
LINE
  5
318
100
AcDbEntity
  8
02___PRT_ALL_AXES
100
AcDbLine
 62
7
  6
CONTINUOUS
 10
682.9385874466
 20
542.6352505953
 11
250.5384990052
 21
566.0082460723
  0
LINE
  5
319
100
AcDbEntity
  8
02___PRT_ALL_AXES
100
AcDbLine
 62
7
  6
CONTINUOUS
 10
249.7938497338
 20
573.8636969085
 11
682.1938773317
 21
550.4907835017
  0
LINE
  5
31A
100
AcDbEntity
  8
02___PRT_ALL_AXES
100
AcDbLine
 62
7
  6
CONTINUOUS
 10
249.8713140721
 20
575.1608583179
 11
682.271315622
 21
551.7878948076
  0
LINE
  5
31B
100
AcDbEntity
  8
02___PRT_ALL_AXES
100
AcDbLine
 62
7
  6
CONTINUOUS
 10
249.9487542742
 20
576.4580062346
 11
682.3487542742
 21
553.0850332616
  0
LINE
  5
31C
100
AcDbEntity
  8
02___PRT_ALL_AXES
100
AcDbLine
 62
7
  6
CONTINUOUS
 10
682.9666727147
 20
572.2384730272
 11
250.5666727147
 21
611.1934279822
  0
LINE
  5
31D
100
AcDbEntity
  8
02___PRT_ALL_AXES
100
AcDbLine
 62
7
  6
CONTINUOUS
 10
683.0758895093
 20
573.5322748154
 11
250.6758878703
 21
612.4872203144
  0
LINE
  5
31E
100
AcDbEntity
  8
02___PRT_ALL_AXES
100
AcDbLine
 62
7
  6
CONTINUOUS
 10
683.1851472352
 20
574.8260863879
 11
250.7850848462
 21
613.7809854237
  0
LINE
  5
31F
100
AcDbEntity
  8
02___PRT_ALL_AXES
100
AcDbLine
 62
7
  6
CONTINUOUS
 10
255.9353450459
 20
621.1524703618
 11
681.9472879618
 21
582.7730824196
  0
LINE
  5
320
100
AcDbEntity
  8
02___PRT_ALL_AXES
100
AcDbLine
 62
7
  6
CONTINUOUS
 10
791.9855927561
 20
565.9621021463
 11
738.9562873282
 21
572.59363052
  0
LINE
  5
321
100
AcDbEntity
  8
02___PRT_ALL_AXES
100
AcDbLine
 62
7
  6
CONTINUOUS
 10
728.2334879864
 20
573.9391410218
 11
738.3848303129
 21
572.6637055483
  0
LINE
  5
322
100
AcDbEntity
  8
02___PRT_ALL_AXES
100
AcDbLine
 62
7
  6
CONTINUOUS
 10
738.3848303129
 20
572.6637055483
 11
738.9555850909
 21
572.5893902001
  0
LINE
  5
323
100
AcDbEntity
  8
02___PRT_ALL_AXES
100
AcDbLine
 62
7
  6
CONTINUOUS
 10
1044.7533640119
 20
666.9794310849
 11
1043.1083786053
 21
656.851991683
  0
LINE
  5
324
100
AcDbEntity
  8
02___PRT_ALL_AXES
100
AcDbLine
 62
7
  6
CONTINUOUS
 10
1043.1083786053
 20
656.851991683
 11
1043.0118361417
 21
656.2727185941
  0
LINE
  5
325
100
AcDbEntity
  8
02___PRT_ALL_AXES
100
AcDbLine
 62
7
  6
CONTINUOUS
 10
1179.6274290232
 20
604.4338882277
 11
1579.4899028817
 21
653.5363159084
  0
LINE
  5
326
100
AcDbEntity
  8
02___PRT_ALL_AXES
100
AcDbLine
 62
7
  6
CONTINUOUS
 10
1579.3389201489
 20
654.8256515232
 11
1179.476444579
 21
605.7232407644
  0
LINE
  5
327
100
AcDbEntity
  8
02___PRT_ALL_AXES
100
AcDbLine
 62
7
  6
CONTINUOUS
 10
1579.1878804364
 20
656.1148941852
 11
1179.3254610625
 21
607.0125866314
  0
LINE
  5
328
100
AcDbEntity
  8
02___PRT_ALL_AXES
100
AcDbLine
 62
7
  6
CONTINUOUS
 10
1184.7132846311
 20
615.5366846303
 11
1429.6792413326
 21
645.6180637071
  0
LINE
  5
329
100
AcDbEntity
  8
02___PRT_ALL_AXES
100
AcDbLine
 62
7
  6
CONTINUOUS
 10
1184.5477537784
 20
616.8260505415
 11
1429.5136547991
 21
646.9074407576
  0
LINE
  5
32A
100
AcDbEntity
  8
02___PRT_ALL_AXES
100
AcDbLine
 62
7
  6
CONTINUOUS
 10
1429.3480083237
 20
648.1967976104
 11
1184.3821080995
 21
618.1154041655
  0
LINE
  5
32B
100
AcDbEntity
  8
02___PRT_ALL_AXES
100
AcDbLine
 62
7
  6
CONTINUOUS
 10
1180.6612278967
 20
584.066837827
 11
1606.6731863339
 21
622.4462949024
  0
LINE
  5
32C
100
AcDbEntity
  8
02___PRT_ALL_AXES
100
AcDbLine
 62
7
  6
CONTINUOUS
 10
1606.5493080774
 20
623.7400955664
 11
1180.5373497519
 21
585.3606398614
  0
LINE
  5
32D
100
AcDbEntity
  8
02___PRT_ALL_AXES
100
AcDbLine
 62
7
  6
CONTINUOUS
 10
1173.2682361223
 20
567.9558044966
 11
1175.8515249209
 21
567.9558174025
  0
LINE
  5
32E
100
AcDbEntity
  8
02___PRT_ALL_AXES
100
AcDbLine
 62
7
  6
CONTINUOUS
 10
686.8808478837
 20
567.9558174025
 11
689.4641121233
 21
567.9557662069
  0
LINE
  5
32F
100
AcDbEntity
  8
02___PRT_ALL_AXES
100
AcDbLine
 62
7
  6
CONTINUOUS
 10
245.8808478837
 20
580.7517380097
 11
243.2682644993
 21
580.7517788374
  0
LINE
  5
330
100
AcDbEntity
  8
02___PRT_ALL_AXES
100
AcDbLine
 62
7
  6
CONTINUOUS
 10
1619.464153138
 20
580.7516909667
 11
1616.8515249209
 21
580.7517380097
  0
LINE
  5
331
100
AcDbEntity
  8
02___PRT_ALL_AXES
100
AcDbLine
 62
7
  6
CONTINUOUS
 10
1173.2682199577
 20
589.6432144446
 11
1175.8515249209
 21
589.6432954861
  0
LINE
  5
332
100
AcDbEntity
  8
02___PRT_ALL_AXES
100
AcDbLine
 62
7
  6
CONTINUOUS
 10
689.4641623198
 20
589.6433746095
 11
686.8808478837
 21
589.6432954861
  0
LINE
  5
333
100
AcDbEntity
  8
02___PRT_ALL_AXES
100
AcDbLine
 62
7
  6
CONTINUOUS
 10
1173.2682356214
 20
600.1659338421
 11
1175.8515249209
 21
600.1659468633
  0
LINE
  5
334
100
AcDbEntity
  8
02___PRT_ALL_AXES
100
AcDbLine
 62
7
  6
CONTINUOUS
 10
686.8808478837
 20
600.1659468633
 11
689.4641157195
 21
600.1658881317
  0
LINE
  5
335
100
AcDbEntity
  8
02___PRT_ALL_AXES
100
AcDbLine
 62
7
  6
CONTINUOUS
 10
236.3661841974
 20
603.2572835598
 11
237.8591295665
 21
603.2572834782
  0
LINE
  5
336
100
AcDbEntity
  8
02___PRT_ALL_AXES
100
AcDbLine
 62
7
  6
CONTINUOUS
 10
1167.8395809247
 20
603.2572834782
 11
1166.3661842648
 21
603.2572833873
  0
LINE
  5
337
100
AcDbEntity
  8
02___PRT_ALL_AXES
100
AcDbLine
 62
7
  6
CONTINUOUS
 10
696.3661864023
 20
603.2572835556
 11
694.8927918799
 21
603.2572834782
  0
LINE
  5
338
100
AcDbEntity
  8
02___PRT_ALL_AXES
100
AcDbLine
 62
7
  6
CONTINUOUS
 10
1624.873243238
 20
603.2572834782
 11
1626.3661864023
 21
603.2572833863
  0
LINE
  5
339
100
AcDbEntity
  8
02___PRT_ALL_AXES
100
AcDbLine
 62
7
  6
CONTINUOUS
 10
1619.4641528469
 20
606.910853399
 11
1616.8515249209
 21
606.9107723575
  0
LINE
  5
33A
100
AcDbEntity
  8
02___PRT_ALL_AXES
100
AcDbLine
 62
7
  6
CONTINUOUS
 10
243.2682104847
 20
606.9106932341
 11
245.8808478837
 21
606.9107723575
  0
LINE
  5
33B
100
AcDbEntity
  8
02___PRT_ALL_AXES
100
AcDbLine
 62
7
  6
CONTINUOUS
 10
256.0591862734
 20
622.4462930237
 11
682.0711466427
 21
584.0668475289
  0
LINE
  5
33C
100
AcDbEntity
  8
02___PRT_ALL_AXES
100
AcDbLine
 62
7
  6
CONTINUOUS
 10
256.1830647272
 20
623.7400955664
 11
682.1950230526
 21
585.3606398614
  0
LINE
  5
33D
100
AcDbEntity
  8
02___PRT_ALL_AXES
100
AcDbLine
 62
7
  6
CONTINUOUS
 10
683.1049437814
 20
604.4338882277
 11
283.2424699229
 21
653.5363159084
  0
LINE
  5
33E
100
AcDbEntity
  8
02___PRT_ALL_AXES
100
AcDbLine
 62
7
  6
CONTINUOUS
 10
683.255928664
 20
605.7232448946
 11
283.393454488
 21
654.8256695858
  0
LINE
  5
33F
100
AcDbEntity
  8
02___PRT_ALL_AXES
100
AcDbLine
 62
7
  6
CONTINUOUS
 10
683.4069663985
 20
607.0126071483
 11
283.5444378909
 21
656.1150216903
  0
LINE
  5
340
100
AcDbEntity
  8
02___PRT_ALL_AXES
100
AcDbLine
 62
7
  6
CONTINUOUS
 10
433.0533304643
 20
645.6180638617
 11
678.0190118356
 21
615.5367360945
  0
LINE
  5
341
100
AcDbEntity
  8
02___PRT_ALL_AXES
100
AcDbLine
 62
7
  6
CONTINUOUS
 10
433.2187185212
 20
646.9074444833
 11
678.1846206228
 21
616.8260569596
  0
LINE
  5
342
100
AcDbEntity
  8
02___PRT_ALL_AXES
100
AcDbLine
 62
7
  6
CONTINUOUS
 10
433.3843644809
 20
648.1967976104
 11
678.350264705
 21
618.1154041655
  0
LINE
  5
343
100
AcDbEntity
  8
02___PRT_ALL_AXES
100
AcDbLine
 62
7
  6
CONTINUOUS
 10
1043.2596411974
 20
338.7413891391
 11
1043.0312942157
 21
340.1231872698
  0
LINE
  5
344
100
AcDbEntity
  8
02___PRT_ALL_AXES
100
AcDbLine
 62
7
  6
CONTINUOUS
 10
1044.7533640118
 20
329.5351358714
 11
1043.2596411974
 21
338.7413891391
  0
LINE
  5
345
100
AcDbEntity
  8
02___PRT_ALL_AXES
100
AcDbLine
 62
7
  6
CONTINUOUS
 10
631.3808478837
 20
658.7572834782
 11
434.0303431455
 21
658.7572834782
  0
LINE
  5
346
100
AcDbEntity
  8
02___PRT_ALL_AXES
100
AcDbLine
 62
7
  6
CONTINUOUS
 10
1231.3515249209
 20
658.7572834782
 11
1428.7020296591
 21
658.7572834782
  0
LINE
  5
347
100
AcDbEntity
  8
02___PRT_ALL_AXES
100
AcDbLine
 62
7
  6
CONTINUOUS
 10
1428.7093603613
 20
660.0563206715
 11
1231.3588556615
 21
660.056321578
  0
LINE
  5
348
100
AcDbEntity
  8
02___PRT_ALL_AXES
100
AcDbLine
 62
7
  6
CONTINUOUS
 10
631.3735171432
 20
660.0563215699
 11
434.0230118078
 21
660.0563180163
  0
LINE
  5
349
100
AcDbEntity
  8
02___PRT_ALL_AXES
100
AcDbLine
 62
7
  6
CONTINUOUS
 10
1428.716455374
 20
661.3553537754
 11
1231.3661859111
 21
661.3553596509
  0
LINE
  5
34A
100
AcDbEntity
  8
02___PRT_ALL_AXES
100
AcDbLine
 62
7
  6
CONTINUOUS
 10
631.3661870132
 20
661.3553595969
 11
434.0155967906
 21
661.3553371125
  0
LINE
  5
34B
100
AcDbEntity
  8
02___PRT_ALL_AXES
100
AcDbLine
 62
7
  6
CONTINUOUS
 10
1561.3564120813
 20
666.7740437807
 11
1231.3564120813
 21
666.7740437807
  0
LINE
  5
34C
100
AcDbEntity
  8
02___PRT_ALL_AXES
100
AcDbLine
 62
7
  6
CONTINUOUS
 10
301.3759607232
 20
666.7740437807
 11
631.3759607232
 21
666.7740437807
  0
LINE
  5
34D
100
AcDbEntity
  8
02___PRT_ALL_AXES
100
AcDbLine
 62
7
  6
CONTINUOUS
 10
1561.3661841666
 20
668.2572989432
 11
1231.3661886162
 21
668.2572834782
  0
LINE
  5
34E
100
AcDbEntity
  8
02___PRT_ALL_AXES
100
AcDbLine
 62
7
  6
CONTINUOUS
 10
301.3661841975
 20
668.2572834782
 11
631.3661886233
 21
668.2572988827
  0
LINE
  5
34F
100
AcDbEntity
  8
02___PRT_ALL_AXES
100
AcDbLine
 62
7
  6
CONTINUOUS
 10
1138.3625478022
 20
287.8760856317
 11
1138.3625478022
 21
465.8194551454
  0
LINE
  5
350
100
AcDbEntity
  8
02___PRT_ALL_AXES
100
AcDbLine
 62
7
  6
CONTINUOUS
 10
1138.3625478022
 20
530.6951118109
 11
1138.3625478022
 21
708.6384813246
  0
LINE
  5
351
100
AcDbEntity
  8
02___PRT_ALL_AXES
100
AcDbLine
 62
7
  6
CONTINUOUS
 10
1143.2497082702
 20
294.7907195433
 11
1143.2497082702
 21
701.7238474131
  0
LINE
  5
352
100
AcDbEntity
  8
02___PRT_ALL_AXES
100
AcDbLine
 62
7
  6
CONTINUOUS
 10
1626.3661864023
 20
711.3789483808
 11
1143.1715137027
 21
708.6520506433
  0
LINE
  5
353
100
AcDbEntity
  8
02___PRT_ALL_AXES
100
AcDbLine
 62
7
  6
CONTINUOUS
 10
1626.4443809698
 20
704.4507451505
 11
1138.3625501104
 21
701.7102780976
  0
LINE
  5
354
100
AcDbEntity
  8
02___PRT_ALL_AXES
100
AcDbLine
 62
7
  6
CONTINUOUS
 10
203.9990502986
 20
683.2572834782
 11
214.9742465436
 21
683.2572834782
  0
LINE
  5
355
100
AcDbEntity
  8
02___PRT_ALL_AXES
100
AcDbLine
 62
7
  6
CONTINUOUS
 10
1647.7581262609
 20
683.2572834782
 11
1658.733322506
 21
683.2572834782
  0
LINE
  5
356
100
AcDbEntity
  8
02___PRT_ALL_AXES
100
AcDbLine
 62
7
  6
CONTINUOUS
 10
1138.3625478022
 20
708.6384813246
 11
724.3698250023
 21
708.6384813246
  0
LINE
  5
357
100
AcDbEntity
  8
02___PRT_ALL_AXES
100
AcDbLine
 62
7
  6
CONTINUOUS
 10
1626.3661864023
 20
712.0737154263
 11
236.3661864023
 21
712.0737154263
  0
LINE
  5
358
100
AcDbEntity
  8
02___PRT_ALL_AXES
100
AcDbLine
 62
7
  6
CONTINUOUS
 10
1626.3661864023
 20
715.6244195818
 11
236.3661864023
 21
715.6244195818
  0
LINE
  5
359
100
AcDbEntity
  8
02___PRT_ALL_AXES
100
AcDbLine
 62
7
  6
CONTINUOUS
 10
1138.3625501104
 20
701.7102780944
 11
719.4826668416
 21
701.7238474035
  0
LINE
  5
35A
100
AcDbEntity
  8
02___PRT_ALL_AXES
100
AcDbLine
 62
7
  6
CONTINUOUS
 10
719.4826668416
 20
701.7238474
 11
236.2879918348
 21
704.4507451505
  0
LINE
  5
35B
100
AcDbEntity
  8
02___PRT_ALL_AXES
100
AcDbLine
 62
7
  6
CONTINUOUS
 10
719.5608591019
 20
708.6520506433
 11
236.3661864023
 21
711.3789483808
  0
LINE
  5
35C
100
AcDbEntity
  8
02___PRT_ALL_AXES
100
AcDbLine
 62
7
  6
CONTINUOUS
 10
1166.3661708262
 20
603.2572833873
 11
1166.3661864023
 21
393.257283399
  0
LINE
  5
35D
100
AcDbEntity
  8
02___PRT_ALL_AXES
100
AcDbLine
 62
7
  6
CONTINUOUS
 10
1167.8395809247
 20
603.2572834782
 11
1167.8395809247
 21
393.2572834782
  0
LINE
  5
35E
100
AcDbEntity
  8
02___PRT_ALL_AXES
100
AcDbLine
 62
7
  6
CONTINUOUS
 10
1173.2682144623
 20
439.1358029466
 11
1173.2682445425
 21
428.5587443652
  0
LINE
  5
35F
100
AcDbEntity
  8
02___PRT_ALL_AXES
100
AcDbLine
 62
7
  6
CONTINUOUS
 10
1173.2682356214
 20
600.1659338421
 11
1173.2682199577
 21
589.6432144446
  0
LINE
  5
360
100
AcDbEntity
  8
02___PRT_ALL_AXES
100
AcDbLine
 62
7
  6
CONTINUOUS
 10
1173.2682361223
 20
567.9558044966
 11
1173.2682231021
 21
557.3786785128
  0
LINE
  5
361
100
AcDbEntity
  8
02___PRT_ALL_AXES
100
AcDbLine
 62
7
  6
CONTINUOUS
 10
1173.2682175954
 20
503.5608815299
 11
1173.2682293105
 21
492.9536302375
  0
LINE
  5
362
100
AcDbEntity
  8
02___PRT_ALL_AXES
100
AcDbLine
 62
7
  6
CONTINUOUS
 10
1173.2682196665
 20
535.7472792042
 11
1173.2682262465
 21
525.1642630132
  0
LINE
  5
363
100
AcDbEntity
  8
02___PRT_ALL_AXES
100
AcDbLine
 62
7
  6
CONTINUOUS
 10
1173.2682713116
 20
471.3501989015
 11
1173.2682129939
 21
460.7673107075
  0
LINE
  5
364
100
AcDbEntity
  8
02___PRT_ALL_AXES
100
AcDbLine
 62
7
  6
CONTINUOUS
 10
1173.2682764734
 20
406.8712876149
 11
1173.2682170788
 21
396.3486377224
  0
LINE
  5
365
100
AcDbEntity
  8
02___PRT_ALL_AXES
100
AcDbLine
 62
7
  6
CONTINUOUS
 10
1174.5598766102
 20
439.1358021816
 11
1174.5598811784
 21
428.5587495539
  0
LINE
  5
366
100
AcDbEntity
  8
02___PRT_ALL_AXES
100
AcDbLine
 62
7
  6
CONTINUOUS
 10
1174.5598798128
 20
600.1659468615
 11
1174.5598774712
 21
589.6432954839
  0
LINE
  5
367
100
AcDbEntity
  8
02___PRT_ALL_AXES
100
AcDbLine
 62
7
  6
CONTINUOUS
 10
1174.5598798895
 20
567.9558174002
 11
1174.5598779521
 21
557.3787650349
  0
LINE
  5
368
100
AcDbEntity
  8
02___PRT_ALL_AXES
100
AcDbLine
 62
7
  6
CONTINUOUS
 10
1174.5598774104
 20
535.7472324645
 11
1174.5598784327
 21
525.1643525001
  0
LINE
  5
369
100
AcDbEntity
  8
02___PRT_ALL_AXES
100
AcDbLine
 62
7
  6
CONTINUOUS
 10
1174.5598770927
 20
503.5608468624
 11
1174.5598789005
 21
492.9537203785
  0
LINE
  5
36A
100
AcDbEntity
  8
02___PRT_ALL_AXES
100
AcDbLine
 62
7
  6
CONTINUOUS
 10
1174.5598853448
 20
471.3502144559
 11
1174.5598763934
 21
460.7673344475
  0
LINE
  5
36B
100
AcDbEntity
  8
02___PRT_ALL_AXES
100
AcDbLine
 62
7
  6
CONTINUOUS
 10
1174.5598861482
 20
406.8712714688
 11
1174.5598770208
 21
396.348689659
  0
LINE
  5
36C
100
AcDbEntity
  8
02___PRT_ALL_AXES
100
AcDbLine
 62
7
  6
CONTINUOUS
 10
1175.8515249209
 20
471.3502144549
 11
1175.8515249209
 21
460.7673347831
  0
LINE
  5
36D
100
AcDbEntity
  8
02___PRT_ALL_AXES
100
AcDbLine
 62
7
  6
CONTINUOUS
 10
1175.8515249209
 20
406.8712714702
 11
1175.8515249209
 21
396.3486900126
  0
LINE
  5
36E
100
AcDbEntity
  8
02___PRT_ALL_AXES
100
AcDbLine
 62
7
  6
CONTINUOUS
 10
1175.8515249209
 20
428.5587495538
 11
1175.8515249209
 21
439.1358019196
  0
LINE
  5
36F
100
AcDbEntity
  8
02___PRT_ALL_AXES
100
AcDbLine
 62
7
  6
CONTINUOUS
 10
1175.8515249209
 20
492.9537203793
 11
1175.8515249209
 21
503.5608465771
  0
LINE
  5
370
100
AcDbEntity
  8
02___PRT_ALL_AXES
100
AcDbLine
 62
7
  6
CONTINUOUS
 10
1175.8515249209
 20
525.1643525014
 11
1175.8515249209
 21
535.7472321732
  0
LINE
  5
371
100
AcDbEntity
  8
02___PRT_ALL_AXES
100
AcDbLine
 62
7
  6
CONTINUOUS
 10
1175.8515249209
 20
557.3787650367
 11
1175.8515249209
 21
567.9558174025
  0
LINE
  5
372
100
AcDbEntity
  8
02___PRT_ALL_AXES
100
AcDbLine
 62
7
  6
CONTINUOUS
 10
1175.8515249209
 20
589.6432954861
 11
1175.8515249209
 21
600.1659468633
  0
LINE
  5
373
100
AcDbEntity
  8
0
100
AcDbLine
 62
7
  6
CONTINUOUS
 10
181.3661864023
 20
759.8209444456
 11
181.2606547022
 21
759.8209444456
  0
LINE
  5
374
100
AcDbEntity
  8
0
100
AcDbLine
 62
7
  6
CONTINUOUS
 10
1681.3661864023
 20
759.8209444456
 11
1681.4717181023
 21
759.8209444456
  0
LINE
  5
375
100
AcDbEntity
  8
0
100
AcDbLine
 62
7
  6
CONTINUOUS
 10
1680.4919223336
 20
759.9572834782
 11
182.240450471
 21
759.9572834782
  0
LINE
  5
376
100
AcDbEntity
  8
0
100
AcDbLine
 62
7
  6
CONTINUOUS
 10
1681.9661864023
 20
760.2437378314
 11
1681.3661864023
 21
760.2437378314
  0
LINE
  5
377
100
AcDbEntity
  8
0
100
AcDbLine
 62
7
  6
CONTINUOUS
 10
180.7661864023
 20
760.2437378314
 11
181.3661864023
 21
760.2437378314
  0
LINE
  5
378
100
AcDbEntity
  8
0
100
AcDbLine
 62
7
  6
CONTINUOUS
 10
1681.0661864023
 20
760.5572834782
 11
181.6661864023
 21
760.5572834782
  0
LINE
  5
379
100
AcDbEntity
  8
0
100
AcDbLine
 62
3
  6
CONTINUOUS
 10
1681.0661864023
 20
761.1572834782
 11
1680.238941453
 21
761.1572834782
  0
LINE
  5
37A
100
AcDbEntity
  8
0
100
AcDbLine
 62
3
  6
CONTINUOUS
 10
182.4934529208
 20
761.1572834782
 11
181.6661864023
 21
761.1572834782
  0
LINE
  5
37B
100
AcDbEntity
  8
0
100
AcDbLine
 62
7
  6
CONTINUOUS
 10
1679.4120709626
 20
762.3572834782
 11
183.320301842
 21
762.3572834782
  0
LINE
  5
37C
100
AcDbEntity
  8
02___PRT_ALL_AXES
100
AcDbLine
 62
7
  6
CONTINUOUS
 10
1616.8515249209
 20
606.9107723575
 11
1616.8515249209
 21
580.7517380097
  0
LINE
  5
37D
100
AcDbEntity
  8
02___PRT_ALL_AXES
100
AcDbLine
 62
7
  6
CONTINUOUS
 10
1616.8515249209
 20
559.1202051462
 11
1616.8515249209
 21
532.9553434924
  0
LINE
  5
37E
100
AcDbEntity
  8
02___PRT_ALL_AXES
100
AcDbLine
 62
7
  6
CONTINUOUS
 10
1616.8515249209
 20
511.351837568
 11
1616.8515249209
 21
485.1627293883
  0
LINE
  5
37F
100
AcDbEntity
  8
02___PRT_ALL_AXES
100
AcDbLine
 62
7
  6
CONTINUOUS
 10
1616.8515249209
 20
415.7628289466
 11
1616.8515249209
 21
389.6037945988
  0
LINE
  5
380
100
AcDbEntity
  8
02___PRT_ALL_AXES
100
AcDbLine
 62
7
  6
CONTINUOUS
 10
1616.8515249209
 20
437.3943618101
 11
1616.8515249209
 21
463.5592234639
  0
LINE
  5
381
100
AcDbEntity
  8
02___PRT_ALL_AXES
100
AcDbLine
 62
7
  6
CONTINUOUS
 10
1618.1578349517
 20
389.6037943452
 11
1618.1578319875
 21
415.7628289471
  0
LINE
  5
382
100
AcDbEntity
  8
02___PRT_ALL_AXES
100
AcDbLine
 62
7
  6
CONTINUOUS
 10
1618.1578345989
 20
485.1627291022
 11
1618.1578329311
 21
511.3518375696
  0
LINE
  5
383
100
AcDbEntity
  8
02___PRT_ALL_AXES
100
AcDbLine
 62
7
  6
CONTINUOUS
 10
1618.1578343172
 20
532.9553431961
 11
1618.1578334282
 21
559.1202051482
  0
LINE
  5
384
100
AcDbEntity
  8
02___PRT_ALL_AXES
100
AcDbLine
 62
7
  6
CONTINUOUS
 10
1618.1578339885
 20
580.7517377072
 11
1618.1578339257
 21
606.9107723599
  0
LINE
  5
385
100
AcDbEntity
  8
02___PRT_ALL_AXES
100
AcDbLine
 62
7
  6
CONTINUOUS
 10
1618.1578253271
 20
437.39436181
 11
1618.1578352922
 21
463.5592237962
  0
LINE
  5
386
100
AcDbEntity
  8
02___PRT_ALL_AXES
100
AcDbLine
 62
7
  6
CONTINUOUS
 10
1619.4641591835
 20
389.6038157534
 11
1619.4641405824
 21
415.762917665
  0
LINE
  5
387
100
AcDbEntity
  8
02___PRT_ALL_AXES
100
AcDbLine
 62
7
  6
CONTINUOUS
 10
1619.4641569801
 20
485.1627096951
 11
1619.464146558
 21
511.3519270563
  0
LINE
  5
388
100
AcDbEntity
  8
02___PRT_ALL_AXES
100
AcDbLine
 62
7
  6
CONTINUOUS
 10
1619.464153138
 20
580.7516909667
 11
1619.4641528469
 21
606.910853399
  0
LINE
  5
389
100
AcDbEntity
  8
02___PRT_ALL_AXES
100
AcDbLine
 62
7
  6
CONTINUOUS
 10
1619.4641552091
 20
532.9553085278
 11
1619.4641497024
 21
559.1202916702
  0
LINE
  5
38A
100
AcDbEntity
  8
02___PRT_ALL_AXES
100
AcDbLine
 62
7
  6
CONTINUOUS
 10
1619.4640986708
 20
437.3943620827
 11
1619.4641613878
 21
463.5592276444
  0
LINE
  5
38B
100
AcDbEntity
  8
02___PRT_ALL_AXES
100
AcDbLine
 62
7
  6
CONTINUOUS
 10
1624.873243238
 20
393.2572834782
 11
1624.873243238
 21
603.2572834782
  0
LINE
  5
38C
100
AcDbEntity
  8
02___PRT_ALL_AXES
100
AcDbLine
 62
7
  6
CONTINUOUS
 10
1626.3661864023
 20
280.8901473745
 11
1626.3661864023
 21
285.1356185755
  0
LINE
  5
38D
100
AcDbEntity
  8
02___PRT_ALL_AXES
100
AcDbLine
 62
7
  6
CONTINUOUS
 10
1626.3662019858
 20
393.2572833966
 11
1626.3661864023
 21
603.2572833863
  0
LINE
  5
38E
100
AcDbEntity
  8
02___PRT_ALL_AXES
100
AcDbLine
 62
7
  6
CONTINUOUS
 10
1626.3661864023
 20
711.3789483808
 11
1626.3661864023
 21
715.6244195818
  0
LINE
  5
38F
100
AcDbEntity
  8
02___PRT_ALL_AXES
100
AcDbLine
 62
7
  6
CONTINUOUS
 10
1647.7581262609
 20
313.2572834782
 11
1647.7581262609
 21
683.2572834782
  0
LINE
  5
390
100
AcDbEntity
  8
02___PRT_ALL_AXES
100
AcDbLine
 62
7
  6
CONTINUOUS
 10
1654.6081349237
 20
313.2572834782
 11
1654.6081349237
 21
683.2572834782
  0
LINE
  5
391
100
AcDbEntity
  8
02___PRT_ALL_AXES
100
AcDbLine
 62
7
  6
CONTINUOUS
 10
1655.1826183504
 20
313.2572834782
 11
1655.1826183504
 21
683.2572834782
  0
LINE
  5
392
100
AcDbEntity
  8
02___PRT_ALL_AXES
100
AcDbLine
 62
7
  6
CONTINUOUS
 10
1658.733322506
 20
313.2572834782
 11
1658.733322506
 21
683.2572834782
  0
LINE
  5
393
100
AcDbEntity
  8
0
100
AcDbLine
 62
7
  6
CONTINUOUS
 10
1680.6298227659
 20
235.9572834782
 11
1680.6298227659
 21
235.8517766848
  0
LINE
  5
394
100
AcDbEntity
  8
0
100
AcDbLine
 62
7
  6
CONTINUOUS
 10
1680.7661864023
 20
759.6830194095
 11
1680.7661864023
 21
236.8315475469
  0
LINE
  5
395
100
AcDbEntity
  8
0
100
AcDbLine
 62
7
  6
CONTINUOUS
 10
1681.0525618544
 20
235.3572834782
 11
1681.0525618544
 21
235.9572834782
  0
LINE
  5
396
100
AcDbEntity
  8
02___PRT_ALL_AXES
100
AcDbLine
 62
7
  6
CONTINUOUS
 10
1681.0661864023
 20
235.9572834782
 11
1681.0661864023
 21
235.3572834782
  0
LINE
  5
397
100
AcDbEntity
  8
0
100
AcDbLine
 62
7
  6
CONTINUOUS
 10
1681.0661864023
 20
760.5572834782
 11
1681.0661864023
 21
761.1572834782
  0
LINE
  5
398
100
AcDbEntity
  8
0
100
AcDbLine
 62
3
  6
CONTINUOUS
 10
1681.3661864023
 20
760.2437378314
 11
1681.3661864023
 21
760.0651474419
  0
LINE
  5
399
100
AcDbEntity
  8
0
100
AcDbLine
 62
3
  6
CONTINUOUS
 10
1681.3661864023
 20
236.4494182034
 11
1681.3661864023
 21
236.270908026
  0
LINE
  5
39A
100
AcDbEntity
  8
0
100
AcDbLine
 62
7
  6
CONTINUOUS
 10
1681.9661864023
 20
760.0651474419
 11
1681.9661864023
 21
236.4494182034
  0
LINE
  5
39B
100
AcDbEntity
  8
0
100
AcDbLine
 62
7
  6
CONTINUOUS
 10
1681.9661864023
 20
236.2581789999
 11
1681.9661864023
 21
236.270908026
  0
LINE
  5
39C
100
AcDbEntity
  8
0
100
AcDbLine
 62
7
  6
CONTINUOUS
 10
1681.9661864023
 20
760.2568398852
 11
1681.9661864023
 21
760.2572834782
  0
LINE
  5
39D
100
AcDbEntity
  8
0
100
AcDbLine
 62
7
  6
CONTINUOUS
 10
1983.2046262583
 20
235.3572834782
 11
2010.2621484622
 21
235.3572834782
  0
LINE
  5
39E
100
AcDbEntity
  8
0
100
AcDbLine
 62
3
  6
CONTINUOUS
 10
1983.2046262583
 20
235.9572834782
 11
2010.2621484622
 21
235.9572834782
  0
LINE
  5
39F
100
AcDbEntity
  8
0
100
AcDbLine
 62
7
  6
CONTINUOUS
 10
1983.2046262583
 20
236.2572834782
 11
2010.0818340522
 21
236.2572834782
  0
LINE
  5
3A0
100
AcDbEntity
  8
0
100
AcDbLine
 62
7
  6
CONTINUOUS
 10
2011.4621484622
 20
236.5572834782
 11
2011.2328493247
 21
236.5572834782
  0
LINE
  5
3A1
100
AcDbEntity
  8
0
100
AcDbLine
 62
7
  6
CONTINUOUS
 10
1982.0046262583
 20
236.5572834782
 11
1982.6046262583
 21
236.5572834782
  0
LINE
  5
3A2
100
AcDbEntity
  8
0
100
AcDbLine
 62
7
  6
CONTINUOUS
 10
2010.7474988935
 20
236.2045300815
 11
2011.2328493247
 21
235.8517766848
  0
LINE
  5
3A3
100
AcDbEntity
  8
02___PRT_ALL_AXES
100
AcDbLine
 62
3
  6
CONTINUOUS
 10
1876.5767167062
 20
591.1890821612
 11
1873.9154992697
 21
581.2572834782
  0
LINE
  5
3A4
100
AcDbEntity
  8
02___PRT_ALL_AXES
100
AcDbLine
 62
3
  6
CONTINUOUS
 10
1873.9154992697
 20
511.2572834782
 11
1873.9154992697
 21
581.2572834782
  0
LINE
  5
3A5
100
AcDbEntity
  8
02___PRT_ALL_AXES
100
AcDbLine
 62
3
  6
CONTINUOUS
 10
1876.5767167062
 20
591.1890821612
 11
1876.5767167062
 21
501.3254847951
  0
LINE
  5
3A6
100
AcDbEntity
  8
02___PRT_ALL_AXES
100
AcDbLine
 62
3
  6
CONTINUOUS
 10
1878.6366385927
 20
593.0766528017
 11
1878.6366385927
 21
499.4379141546
  0
LINE
  5
3A7
100
AcDbEntity
  8
02___PRT_ALL_AXES
100
AcDbLine
 62
3
  6
CONTINUOUS
 10
1880.0582784169
 20
611.7550386992
 11
1879.8621484622
 21
604.2651379084
  0
LINE
  5
3A8
100
AcDbEntity
  8
02___PRT_ALL_AXES
100
AcDbLine
 62
3
  6
CONTINUOUS
 10
1879.8621484622
 20
488.2494290479
 11
1882.5765021875
 21
384.5924422936
  0
LINE
  5
3A9
100
AcDbEntity
  8
02___PRT_ALL_AXES
100
AcDbLine
 62
3
  6
CONTINUOUS
 10
1879.8621484622
 20
604.2651379084
 11
1879.8621484622
 21
488.2494290479
  0
LINE
  5
3AA
100
AcDbEntity
  8
02___PRT_ALL_AXES
100
AcDbLine
 62
3
  6
CONTINUOUS
 10
1879.4489725511
 20
499.2946777604
 11
1879.4489725511
 21
593.219889196
  0
LINE
  5
3AB
100
AcDbEntity
  8
02___PRT_ALL_AXES
100
AcDbLine
 62
3
  6
CONTINUOUS
 10
1876.5767167062
 20
501.3254847951
 11
1873.9154992697
 21
511.2572834782
  0
LINE
  5
3AC
100
AcDbEntity
  8
02___PRT_ALL_AXES
100
AcDbLine
 62
3
  6
CONTINUOUS
 10
1879.4489725511
 20
499.2946777604
 11
1878.6366385927
 21
499.4379141546
  0
LINE
  5
3AD
100
AcDbEntity
  8
0
100
AcDbLine
 62
7
  6
CONTINUOUS
 10
1982.0046262583
 20
236.5572834782
 11
1982.0046262583
 21
758.9248891667
  0
LINE
  5
3AE
100
AcDbEntity
  8
0
100
AcDbLine
 62
7
  6
CONTINUOUS
 10
1983.2046262583
 20
760.2572834782
 11
1983.2046262583
 21
236.2572834782
  0
LINE
  5
3AF
100
AcDbEntity
  8
0
100
AcDbLine
 62
7
  6
CONTINUOUS
 10
1983.2046262583
 20
235.3572834782
 11
1983.2046262583
 21
235.9572834782
  0
LINE
  5
3B0
100
AcDbEntity
  8
02___PRT_ALL_AXES
100
AcDbLine
 62
7
  6
CONTINUOUS
 10
2010.0818340522
 20
235.9572834782
 11
2010.0818340522
 21
235.3572834782
  0
LINE
  5
3B1
100
AcDbEntity
  8
0
100
AcDbLine
 62
7
  6
CONTINUOUS
 10
2010.2621484622
 20
760.2437378314
 11
2010.2621484622
 21
236.270908026
  0
LINE
  5
3B2
100
AcDbEntity
  8
0
100
AcDbLine
 62
7
  6
CONTINUOUS
 10
2010.2621484622
 20
235.3572834782
 11
2010.2621484622
 21
235.9572834782
  0
LINE
  5
3B3
100
AcDbEntity
  8
0
100
AcDbLine
 62
7
  6
CONTINUOUS
 10
2011.4621484622
 20
759.9572834782
 11
2011.4621484622
 21
236.5572834782
  0
LINE
  5
3B4
100
AcDbEntity
  8
0
100
AcDbLine
 62
7
  6
CONTINUOUS
 10
2012.0621484622
 20
760.5572834782
 11
2012.0621484622
 21
761.1572834782
  0
LINE
  5
3B5
100
AcDbEntity
  8
02___PRT_ALL_AXES
100
AcDbLine
 62
7
  6
CONTINUOUS
 10
2012.2424628723
 20
761.1572834782
 11
2012.2424628723
 21
760.5572834782
  0
LINE
  5
3B6
100
AcDbEntity
  8
02___PRT_ALL_AXES
100
AcDbLine
 62
7
  6
CONTINUOUS
 10
2030.3741416609
 20
761.452065739
 11
2030.3532019629
 21
762.0517002352
  0
LINE
  5
3B7
100
AcDbEntity
  8
0
100
AcDbLine
 62
7
  6
CONTINUOUS
 10
2039.1196706661
 20
760.5572834782
 11
2039.1196706661
 21
761.1572834782
  0
LINE
  5
3B8
100
AcDbEntity
  8
0
100
AcDbLine
 62
7
  6
CONTINUOUS
 10
2039.0882611191
 20
762.3567352225
 11
2039.1092008171
 21
761.7571007263
  0
LINE
  5
3B9
100
AcDbEntity
  8
02___PRT_ALL_AXES
100
AcDbLine
 62
3
  6
CONTINUOUS
 10
1879.4489725511
 20
593.219889196
 11
1878.6366385927
 21
593.0766528017
  0
LINE
  5
3BA
100
AcDbEntity
  8
0
100
AcDbLine
 62
3
  6
CONTINUOUS
 10
2030.3741416609
 20
761.452065739
 11
2039.1092008171
 21
761.7571007263
  0
LINE
  5
3BB
100
AcDbEntity
  8
0
100
AcDbLine
 62
7
  6
CONTINUOUS
 10
2030.3532019629
 20
762.0517002352
 11
2039.0882611191
 21
762.3567352225
  0
LINE
  5
3BC
100
AcDbEntity
  8
0
100
AcDbLine
 62
7
  6
CONTINUOUS
 10
2011.4621484622
 20
759.9572834782
 11
2011.2328312221
 21
759.9572834782
  0
LINE
  5
3BD
100
AcDbEntity
  8
0
100
AcDbLine
 62
7
  6
CONTINUOUS
 10
2010.0670455156
 20
760.2572834782
 11
1983.2046262583
 21
760.2572834782
  0
LINE
  5
3BE
100
AcDbEntity
  8
0
100
AcDbLine
 62
7
  6
CONTINUOUS
 10
2012.0621484622
 20
760.5572834782
 11
2039.1196706661
 21
760.5572834782
  0
LINE
  5
3BF
100
AcDbEntity
  8
0
100
AcDbLine
 62
3
  6
CONTINUOUS
 10
2012.0621484622
 20
761.1572834782
 11
2039.1196706661
 21
761.1572834782
  0
LINE
  5
3C0
100
AcDbEntity
  8
0
100
AcDbLine
 62
7
  6
CONTINUOUS
 10
2011.0914475997
 20
760.6627902716
 11
2011.576798031
 21
760.3100368749
  0
ARC
  5
3C1
100
AcDbEntity
  8
02___PRT_ALL_AXES
100
AcDbCircle
 62
7
  6
CONTINUOUS
 10
528.379236582
 20
497.9042842306
 40
600.0634207317
100
AcDbArc
 50
3.0741921699
 51
7.1497224668
  0
ARC
  5
3C2
100
AcDbEntity
  8
02___PRT_ALL_AXES
100
AcDbCircle
 62
7
  6
CONTINUOUS
 10
528.7331056845
 20
497.945700459
 40
599.7078401776
100
AcDbArc
 50
356.98572977
 51
3.0720540947
  0
ARC
  5
3C3
100
AcDbEntity
  8
02___PRT_ALL_AXES
100
AcDbCircle
 62
7
  6
CONTINUOUS
 10
529.711897473
 20
497.9251872144
 40
598.7293246975
100
AcDbArc
 50
352.899482823
 51
356.9827646807
  0
ARC
  5
3C4
100
AcDbEntity
  8
02___PRT_ALL_AXES
100
AcDbCircle
 62
7
  6
CONTINUOUS
 10
514.8615925642
 20
329.6143491952
 40
116.5142124227
100
AcDbArc
 50
359.5681075086
 51
359.9075064544
  0
ARC
  5
3C5
100
AcDbEntity
  8
02___PRT_ALL_AXES
100
AcDbCircle
 62
7
  6
CONTINUOUS
 10
184.9029188382
 20
329.6138457384
 40
116.4728863894
100
AcDbArc
 50
359.5679918888
 51
359.9077203606
  0
ARC
  5
3C6
100
AcDbEntity
  8
02___PRT_ALL_AXES
100
AcDbCircle
 62
7
  6
CONTINUOUS
 10
301.3663876815
 20
393.257469564
 40
65.0002012795
100
AcDbArc
 50
180.0001639468
 51
269.9998245478
  0
ARC
  5
3C7
100
AcDbEntity
  8
02___PRT_ALL_AXES
100
AcDbCircle
 62
7
  6
CONTINUOUS
 10
301.376096701
 20
393.2574903102
 40
63.5169671348
100
AcDbArc
 50
180.0001865738
 51
269.9998773406
  0
ARC
  5
3C8
100
AcDbEntity
  8
02___PRT_ALL_AXES
100
AcDbCircle
 62
7
  6
CONTINUOUS
 10
301.3535190025
 20
393.2447985706
 40
58.0807323294
100
AcDbArc
 50
208.922762287
 51
241.1393563404
  0
ARC
  5
3C9
100
AcDbEntity
  8
02___PRT_ALL_AXES
100
AcDbCircle
 62
7
  6
CONTINUOUS
 10
301.3596699846
 20
393.2434678745
 40
56.7799482536
100
AcDbArc
 50
208.9219797204
 51
241.1399972002
  0
ARC
  5
3CA
100
AcDbEntity
  8
02___PRT_ALL_AXES
100
AcDbCircle
 62
7
  6
CONTINUOUS
 10
301.3734872778
 20
393.2499149277
 40
55.4899936541
100
AcDbArc
 50
208.9243875555
 51
241.1374205104
  0
ARC
  5
3CB
100
AcDbEntity
  8
02___PRT_ALL_AXES
100
AcDbCircle
 62
7
  6
CONTINUOUS
 10
236.3661864023
 20
313.2572834782
 40
32.3671361037
100
AcDbArc
 50
180.0
 51
270.0
  0
ARC
  5
3CC
100
AcDbEntity
  8
02___PRT_ALL_AXES
100
AcDbCircle
 62
7
  6
CONTINUOUS
 10
236.3661864023
 20
313.2572834782
 40
28.8164319482
100
AcDbArc
 50
180.0
 51
270.0
  0
ARC
  5
3CD
100
AcDbEntity
  8
02___PRT_ALL_AXES
100
AcDbCircle
 62
7
  6
CONTINUOUS
 10
236.2466529171
 20
313.2577795782
 40
28.1224150406
100
AcDbArc
 50
180.0010107396
 51
270.2435347329
  0
ARC
  5
3CE
100
AcDbEntity
  8
02___PRT_ALL_AXES
100
AcDbCircle
 62
7
  6
CONTINUOUS
 10
236.1686217903
 20
313.2578609022
 40
21.1943752545
100
AcDbArc
 50
180.0015609784
 51
270.3227005197
  0
ARC
  5
3CF
100
AcDbEntity
  8
02___PRT_ALL_AXES
100
AcDbCircle
 62
7
  6
CONTINUOUS
 10
433.987576137
 20
343.0571767053
 40
7.8980807964
100
AcDbArc
 50
97.0043478195
 51
269.9978074078
  0
ARC
  5
3D0
100
AcDbEntity
  8
02___PRT_ALL_AXES
100
AcDbCircle
 62
7
  6
CONTINUOUS
 10
250.1673038543
 20
485.1637533647
 40
6.8990881033
100
AcDbArc
 50
180.0086652153
 51
271.022030406
  0
ARC
  5
3D1
100
AcDbEntity
  8
02___PRT_ALL_AXES
100
AcDbCircle
 62
7
  6
CONTINUOUS
 10
250.1668225962
 20
389.604373323
 40
6.8986089939
100
AcDbArc
 50
180.0046290172
 51
275.1413320375
  0
ARC
  5
3D2
100
AcDbEntity
  8
02___PRT_ALL_AXES
100
AcDbCircle
 62
7
  6
CONTINUOUS
 10
250.166818445
 20
437.3949135501
 40
6.8986040001
100
AcDbArc
 50
180.0045889673
 51
273.0877374107
  0
ARC
  5
3D3
100
AcDbEntity
  8
02___PRT_ALL_AXES
100
AcDbCircle
 62
7
  6
CONTINUOUS
 10
256.5551320501
 20
368.4914962689
 40
6.8984947037
100
AcDbArc
 50
95.1548876396
 51
208.9224852047
  0
ARC
  5
3D4
100
AcDbEntity
  8
02___PRT_ALL_AXES
100
AcDbCircle
 62
7
  6
CONTINUOUS
 10
250.1665095986
 20
415.7626592815
 40
6.8982773893
100
AcDbArc
 50
93.0969376847
 51
179.9978499659
  0
ARC
  5
3D5
100
AcDbEntity
  8
02___PRT_ALL_AXES
100
AcDbCircle
 62
7
  6
CONTINUOUS
 10
250.1664720723
 20
463.5590787271
 40
6.8982427748
100
AcDbArc
 50
91.034844257
 51
179.9980451039
  0
ARC
  5
3D6
100
AcDbEntity
  8
02___PRT_ALL_AXES
100
AcDbCircle
 62
7
  6
CONTINUOUS
 10
433.9946012548
 20
343.057267877
 40
6.599016597
100
AcDbArc
 50
97.0020659016
 51
269.9977764967
  0
ARC
  5
3D7
100
AcDbEntity
  8
02___PRT_ALL_AXES
100
AcDbCircle
 62
7
  6
CONTINUOUS
 10
250.1741174658
 20
485.1632983208
 40
5.5996111407
100
AcDbArc
 50
180.0058213862
 51
271.0259709098
  0
ARC
  5
3D8
100
AcDbEntity
  8
02___PRT_ALL_AXES
100
AcDbCircle
 62
7
  6
CONTINUOUS
 10
250.174079199
 20
437.3949094973
 40
5.599575476
100
AcDbArc
 50
180.0056040261
 51
273.0879399833
  0
ARC
  5
3D9
100
AcDbEntity
  8
02___PRT_ALL_AXES
100
AcDbCircle
 62
7
  6
CONTINUOUS
 10
250.1740705879
 20
389.6043504054
 40
5.5995684866
100
AcDbArc
 50
180.0056870968
 51
275.1416164786
  0
ARC
  5
3DA
100
AcDbEntity
  8
02___PRT_ALL_AXES
100
AcDbCircle
 62
7
  6
CONTINUOUS
 10
250.1740020609
 20
463.5588317249
 40
5.599469987
100
AcDbArc
 50
91.0371103135
 51
179.9959870017
  0
ARC
  5
3DB
100
AcDbEntity
  8
02___PRT_ALL_AXES
100
AcDbCircle
 62
7
  6
CONTINUOUS
 10
250.1740060203
 20
415.7624518329
 40
5.5994684255
100
AcDbArc
 50
93.098776113
 51
179.9961367855
  0
ARC
  5
3DC
100
AcDbEntity
  8
02___PRT_ALL_AXES
100
AcDbCircle
 62
7
  6
CONTINUOUS
 10
256.5620930631
 20
368.4915938945
 40
5.5993444744
100
AcDbArc
 50
95.1530118871
 51
208.9232728545
  0
ARC
  5
3DD
100
AcDbEntity
  8
02___PRT_ALL_AXES
100
AcDbCircle
 62
7
  6
CONTINUOUS
 10
434.0018408717
 20
343.0572582328
 40
5.3000094941
100
AcDbArc
 50
97.0017366382
 51
269.9982167868
  0
ARC
  5
3DE
100
AcDbEntity
  8
02___PRT_ALL_AXES
100
AcDbCircle
 62
7
  6
CONTINUOUS
 10
256.5701357544
 20
368.4911542004
 40
4.3007708758
100
AcDbArc
 50
95.1636291401
 51
208.9116261245
  0
ARC
  5
3DF
100
AcDbEntity
  8
02___PRT_ALL_AXES
100
AcDbCircle
 62
7
  6
CONTINUOUS
 10
250.1811462162
 20
389.6041210164
 40
4.3002983449
100
AcDbArc
 50
180.0043490815
 51
275.1435357426
  0
ARC
  5
3E0
100
AcDbEntity
  8
02___PRT_ALL_AXES
100
AcDbCircle
 62
7
  6
CONTINUOUS
 10
250.1811456615
 20
437.3946761187
 40
4.3002977893
100
AcDbArc
 50
180.0041877464
 51
273.0898703125
  0
ARC
  5
3E1
100
AcDbEntity
  8
02___PRT_ALL_AXES
100
AcDbCircle
 62
7
  6
CONTINUOUS
 10
250.18114495
 20
485.1630318554
 40
4.300297077
100
AcDbArc
 50
180.0040299748
 51
271.0282147168
  0
ARC
  5
3E2
100
AcDbEntity
  8
02___PRT_ALL_AXES
100
AcDbCircle
 62
7
  6
CONTINUOUS
 10
250.1811441095
 20
463.5589325275
 40
4.3002962356
100
AcDbArc
 50
91.0361210364
 51
179.9961236552
  0
ARC
  5
3E3
100
AcDbEntity
  8
02___PRT_ALL_AXES
100
AcDbCircle
 62
7
  6
CONTINUOUS
 10
250.1811431294
 20
415.7625492291
 40
4.3002952548
100
AcDbArc
 50
93.0977849273
 51
179.9962731317
  0
ARC
  5
3E4
100
AcDbEntity
  8
0
100
AcDbCircle
 62
7
  6
CONTINUOUS
 10
181.8161864023
 20
236.4072834782
 40
0.45
100
AcDbArc
 50
19.4712206345
 51
70.5287793659
  0
ARC
  5
3E5
100
AcDbEntity
  8
02___PRT_ALL_AXES
100
AcDbCircle
 62
7
  6
CONTINUOUS
 10
724.369787485
 20
-564.2660462278
 40
852.1421318595
100
AcDbArc
 50
89.9999974774
 51
90.3233413213
  0
ARC
  5
3E6
100
AcDbEntity
  8
02___PRT_ALL_AXES
100
AcDbCircle
 62
7
  6
CONTINUOUS
 10
931.3095737891
 20
-38.7310112673
 40
703.9050344772
100
AcDbArc
 50
89.9953919014
 51
99.1215251477
  0
ARC
  5
3E7
100
AcDbEntity
  8
02___PRT_ALL_AXES
100
AcDbCircle
 62
7
  6
CONTINUOUS
 10
931.4228809292
 20
-38.7299931604
 40
703.9040163769
100
AcDbArc
 50
80.8784957333
 51
90.0046147728
  0
ARC
  5
3E8
100
AcDbEntity
  8
02___PRT_ALL_AXES
100
AcDbCircle
 62
7
  6
CONTINUOUS
 10
931.3661864023
 20
-31.7427165218
 40
707.8624807139
100
AcDbArc
 50
80.7825110163
 51
99.2174889837
  0
ARC
  5
3E9
100
AcDbEntity
  8
02___PRT_ALL_AXES
100
AcDbCircle
 62
7
  6
CONTINUOUS
 10
931.3661864023
 20
-31.7427165218
 40
699.1628043164
100
AcDbArc
 50
80.7825110163
 51
99.2174889837
  0
ARC
  5
3EA
100
AcDbEntity
  8
02___PRT_ALL_AXES
100
AcDbCircle
 62
7
  6
CONTINUOUS
 10
835.2566899685
 20
436.0048333395
 40
107.8624807139
100
AcDbArc
 50
187.1521653049
 51
260.7825110163
  0
ARC
  5
3EB
100
AcDbEntity
  8
02___PRT_ALL_AXES
100
AcDbCircle
 62
7
  6
CONTINUOUS
 10
835.2566899685
 20
436.0048333395
 40
99.1628043164
100
AcDbArc
 50
187.1521653049
 51
260.7825110163
  0
ARC
  5
3EC
100
AcDbEntity
  8
02___PRT_ALL_AXES
100
AcDbCircle
 62
7
  6
CONTINUOUS
 10
835.2181885412
 20
435.9604086211
 40
97.0853758683
100
AcDbArc
 50
187.1266967927
 51
260.8031951421
  0
ARC
  5
3ED
100
AcDbEntity
  8
02___PRT_ALL_AXES
100
AcDbCircle
 62
7
  6
CONTINUOUS
 10
631.3660004269
 20
393.2574847557
 40
65.0002012778
100
AcDbArc
 50
270.0001619779
 51
359.9998226597
  0
ARC
  5
3EE
100
AcDbEntity
  8
02___PRT_ALL_AXES
100
AcDbCircle
 62
7
  6
CONTINUOUS
 10
631.3758248905
 20
393.2574901651
 40
63.5169669897
100
AcDbArc
 50
270.0001225285
 51
359.9998135571
  0
ARC
  5
3EF
100
AcDbEntity
  8
02___PRT_ALL_AXES
100
AcDbCircle
 62
7
  6
CONTINUOUS
 10
631.3661479648
 20
393.2570991277
 40
58.0978914177
100
AcDbArc
 50
270.0000381529
 51
338.065243877
  0
ARC
  5
3F0
100
AcDbEntity
  8
02___PRT_ALL_AXES
100
AcDbCircle
 62
7
  6
CONTINUOUS
 10
631.373468778
 20
393.2572598436
 40
56.7990136489
100
AcDbArc
 50
270.0000487869
 51
338.0651105716
  0
ARC
  5
3F1
100
AcDbEntity
  8
02___PRT_ALL_AXES
100
AcDbCircle
 62
7
  6
CONTINUOUS
 10
631.3808100834
 20
393.2573394508
 40
55.5000559726
100
AcDbArc
 50
270.0000390233
 51
338.0650734645
  0
ARC
  5
3F2
100
AcDbEntity
  8
02___PRT_ALL_AXES
100
AcDbCircle
 62
7
  6
CONTINUOUS
 10
834.6326210151
 20
435.2853305837
 40
42.7449127377
100
AcDbArc
 50
187.3440533012
 51
260.6417767654
  0
ARC
  5
3F3
100
AcDbEntity
  8
02___PRT_ALL_AXES
100
AcDbCircle
 62
7
  6
CONTINUOUS
 10
682.5651010458
 20
471.3492231566
 40
6.899056003
100
AcDbArc
 50
0.0083938679
 51
91.0223017506
  0
ARC
  5
3F4
100
AcDbEntity
  8
02___PRT_ALL_AXES
100
AcDbCircle
 62
7
  6
CONTINUOUS
 10
682.5655502958
 20
406.8706928417
 40
6.8986089065
100
AcDbArc
 50
0.0046282231
 51
95.1413328176
  0
ARC
  5
3F5
100
AcDbEntity
  8
02___PRT_ALL_AXES
100
AcDbCircle
 62
7
  6
CONTINUOUS
 10
682.5655541245
 20
439.1352499316
 40
6.8986042352
100
AcDbArc
 50
0.0045910279
 51
93.0877353418
  0
ARC
  5
3F6
100
AcDbEntity
  8
02___PRT_ALL_AXES
100
AcDbCircle
 62
7
  6
CONTINUOUS
 10
678.8590701952
 20
374.1309784116
 40
6.8983675496
100
AcDbArc
 50
338.0699813941
 51
96.9945319196
  0
ARC
  5
3F7
100
AcDbEntity
  8
02___PRT_ALL_AXES
100
AcDbCircle
 62
7
  6
CONTINUOUS
 10
682.5658627855
 20
460.7675048466
 40
6.8982778098
100
AcDbArc
 50
273.0969409932
 51
359.9978468013
  0
ARC
  5
3F8
100
AcDbEntity
  8
02___PRT_ALL_AXES
100
AcDbCircle
 62
7
  6
CONTINUOUS
 10
682.5659003185
 20
492.9538655225
 40
6.8982431885
100
AcDbArc
 50
271.0348476318
 51
359.9980418769
  0
ARC
  5
3F9
100
AcDbEntity
  8
02___PRT_ALL_AXES
100
AcDbCircle
 62
7
  6
CONTINUOUS
 10
682.56589919
 20
428.5588953927
 40
6.8982393646
100
AcDbArc
 50
275.1502266274
 51
359.9988124584
  0
ARC
  5
3FA
100
AcDbEntity
  8
02___PRT_ALL_AXES
100
AcDbCircle
 62
7
  6
CONTINUOUS
 10
682.5661258679
 20
396.3486269528
 40
6.8980127035
100
AcDbArc
 50
277.0005426305
 51
0.0005138782
  0
ARC
  5
3FB
100
AcDbEntity
  8
02___PRT_ALL_AXES
100
AcDbCircle
 62
7
  6
CONTINUOUS
 10
682.5729262077
 20
471.3496550063
 40
5.5996018256
100
AcDbArc
 50
0.0057243546
 51
91.026068233
  0
ARC
  5
3FC
100
AcDbEntity
  8
02___PRT_ALL_AXES
100
AcDbCircle
 62
7
  6
CONTINUOUS
 10
682.572956937
 20
439.1352561047
 40
5.5995737032
100
AcDbArc
 50
0.0055848702
 51
93.087959349
  0
ARC
  5
3FD
100
AcDbEntity
  8
02___PRT_ALL_AXES
100
AcDbCircle
 62
7
  6
CONTINUOUS
 10
682.5729651122
 20
406.8707171252
 40
5.5995671519
100
AcDbArc
 50
0.0056721436
 51
95.1416315483
  0
ARC
  5
3FE
100
AcDbEntity
  8
02___PRT_ALL_AXES
100
AcDbCircle
 62
7
  6
CONTINUOUS
 10
682.5730318788
 20
492.9541124905
 40
5.5994703667
100
AcDbArc
 50
271.0371144813
 51
359.9959833589
  0
ARC
  5
3FF
100
AcDbEntity
  8
02___PRT_ALL_AXES
100
AcDbCircle
 62
7
  6
CONTINUOUS
 10
682.5730279894
 20
460.7677121785
 40
5.5994687249
100
AcDbArc
 50
273.0987794048
 51
359.9961340653
  0
ARC
  5
400
100
AcDbEntity
  8
02___PRT_ALL_AXES
100
AcDbCircle
 62
7
  6
CONTINUOUS
 10
678.866937309
 20
374.1313968002
 40
5.5990502
100
AcDbArc
 50
338.0651936452
 51
96.9982434662
  0
ARC
  5
401
100
AcDbEntity
  8
02___PRT_ALL_AXES
100
AcDbCircle
 62
7
  6
CONTINUOUS
 10
682.5737065694
 20
396.3484733169
 40
5.598786756
100
AcDbArc
 50
276.998192447
 51
0.0022175728
  0
ARC
  5
402
100
AcDbEntity
  8
02___PRT_ALL_AXES
100
AcDbCircle
 62
7
  6
CONTINUOUS
 10
682.5737576129
 20
428.5584811854
 40
5.5987356807
100
AcDbArc
 50
275.1455666557
 51
0.0027463997
  0
ARC
  5
403
100
AcDbEntity
  8
02___PRT_ALL_AXES
100
AcDbCircle
 62
7
  6
CONTINUOUS
 10
678.873273821
 20
374.1305005554
 40
4.3007390079
100
AcDbArc
 50
338.0818006619
 51
96.983311826
  0
ARC
  5
404
100
AcDbEntity
  8
02___PRT_ALL_AXES
100
AcDbCircle
 62
7
  6
CONTINUOUS
 10
682.5805495512
 20
406.8709450527
 40
4.3002983449
100
AcDbArc
 50
0.0043490815
 51
95.1435357426
  0
ARC
  5
405
100
AcDbEntity
  8
02___PRT_ALL_AXES
100
AcDbCircle
 62
7
  6
CONTINUOUS
 10
682.5805501059
 20
439.135487611
 40
4.3002977893
100
AcDbArc
 50
0.0041877464
 51
93.0898703125
  0
ARC
  5
406
100
AcDbEntity
  8
02___PRT_ALL_AXES
100
AcDbCircle
 62
7
  6
CONTINUOUS
 10
682.5805508173
 20
471.3499119878
 40
4.300297077
100
AcDbArc
 50
0.0040299748
 51
91.0282147168
  0
ARC
  5
407
100
AcDbEntity
  8
02___PRT_ALL_AXES
100
AcDbCircle
 62
7
  6
CONTINUOUS
 10
682.5805516579
 20
492.9540113157
 40
4.3002962356
100
AcDbArc
 50
271.0361210364
 51
359.9961236552
  0
ARC
  5
408
100
AcDbEntity
  8
02___PRT_ALL_AXES
100
AcDbCircle
 62
7
  6
CONTINUOUS
 10
682.5805526379
 20
460.7676145007
 40
4.3002952548
100
AcDbArc
 50
273.0977849273
 51
359.9962731317
  0
ARC
  5
409
100
AcDbEntity
  8
02___PRT_ALL_AXES
100
AcDbCircle
 62
7
  6
CONTINUOUS
 10
682.5806244144
 20
428.5589537957
 40
4.3002234741
100
AcDbArc
 50
275.1506061246
 51
359.9972786995
  0
ARC
  5
40A
100
AcDbEntity
  8
02___PRT_ALL_AXES
100
AcDbCircle
 62
7
  6
CONTINUOUS
 10
682.5806303951
 20
396.3488824302
 40
4.3002174929
100
AcDbArc
 50
277.0025637586
 51
359.9974362414
  0
ARC
  5
40B
100
AcDbEntity
  8
02___PRT_ALL_AXES
100
AcDbCircle
 62
7
  6
CONTINUOUS
 10
301.366372572
 20
603.2570819989
 40
65.0002014796
100
AcDbArc
 50
90.0001660467
 51
179.9998223299
  0
ARC
  5
40C
100
AcDbEntity
  8
02___PRT_ALL_AXES
100
AcDbCircle
 62
7
  6
CONTINUOUS
 10
301.3760967035
 20
603.2570766436
 40
63.5169671373
100
AcDbArc
 50
90.0001226616
 51
179.9998134239
  0
ARC
  5
40D
100
AcDbEntity
  8
02___PRT_ALL_AXES
100
AcDbCircle
 62
7
  6
CONTINUOUS
 10
301.3578066055
 20
603.2658654897
 40
58.086375383
100
AcDbArc
 50
118.8492400504
 51
151.0758823429
  0
ARC
  5
40E
100
AcDbEntity
  8
02___PRT_ALL_AXES
100
AcDbCircle
 62
7
  6
CONTINUOUS
 10
301.3655779026
 20
603.2651883243
 40
56.7880630018
100
AcDbArc
 50
118.849242951
 51
151.0756834487
  0
ARC
  5
40F
100
AcDbEntity
  8
02___PRT_ALL_AXES
100
AcDbCircle
 62
7
  6
CONTINUOUS
 10
301.3779516535
 20
603.2601834973
 40
55.496062393
100
AcDbArc
 50
118.8512887175
 51
151.0738037273
  0
ARC
  5
410
100
AcDbEntity
  8
02___PRT_ALL_AXES
100
AcDbCircle
 62
7
  6
CONTINUOUS
 10
250.1684871074
 20
606.9083127002
 40
6.9002770332
100
AcDbArc
 50
84.8733024058
 51
179.9802334685
  0
ARC
  5
411
100
AcDbEntity
  8
02___PRT_ALL_AXES
100
AcDbCircle
 62
7
  6
CONTINUOUS
 10
250.1673159181
 20
511.3508220605
 40
6.8990897698
100
AcDbArc
 50
88.9774825151
 51
179.9908191207
  0
ARC
  5
412
100
AcDbEntity
  8
02___PRT_ALL_AXES
100
AcDbCircle
 62
7
  6
CONTINUOUS
 10
250.1668269395
 20
559.1196616516
 40
6.8986038765
100
AcDbArc
 50
86.9116133116
 51
179.994763348
  0
ARC
  5
413
100
AcDbEntity
  8
02___PRT_ALL_AXES
100
AcDbCircle
 62
7
  6
CONTINUOUS
 10
250.166548118
 20
580.7519051526
 40
6.8982836199
100
AcDbArc
 50
180.0010491493
 51
266.9029329603
  0
ARC
  5
414
100
AcDbEntity
  8
02___PRT_ALL_AXES
100
AcDbCircle
 62
7
  6
CONTINUOUS
 10
256.5547405937
 20
628.0228619589
 40
6.8982556884
100
AcDbArc
 50
151.0741625418
 51
264.8484641828
  0
ARC
  5
415
100
AcDbEntity
  8
02___PRT_ALL_AXES
100
AcDbCircle
 62
7
  6
CONTINUOUS
 10
250.1664608987
 20
532.9555006137
 40
6.8982433002
100
AcDbArc
 50
180.0015929922
 51
268.9647855274
  0
ARC
  5
416
100
AcDbEntity
  8
02___PRT_ALL_AXES
100
AcDbCircle
 62
7
  6
CONTINUOUS
 10
250.1741379695
 20
511.3512875375
 40
5.5996117213
100
AcDbArc
 50
88.9742305343
 51
179.994367342
  0
ARC
  5
417
100
AcDbEntity
  8
02___PRT_ALL_AXES
100
AcDbCircle
 62
7
  6
CONTINUOUS
 10
250.174097406
 20
559.1196713268
 40
5.5995771232
100
AcDbArc
 50
86.9122334994
 51
179.9945331056
  0
ARC
  5
418
100
AcDbEntity
  8
02___PRT_ALL_AXES
100
AcDbCircle
 62
7
  6
CONTINUOUS
 10
250.1740875322
 20
580.7521182252
 40
5.5994885695
100
AcDbArc
 50
180.0038974616
 51
266.9003928985
  0
ARC
  5
419
100
AcDbEntity
  8
02___PRT_ALL_AXES
100
AcDbCircle
 62
7
  6
CONTINUOUS
 10
250.1739799771
 20
532.955758202
 40
5.599470263
100
AcDbArc
 50
180.0042434636
 51
268.9631150928
  0
ARC
  5
41A
100
AcDbEntity
  8
02___PRT_ALL_AXES
100
AcDbCircle
 62
7
  6
CONTINUOUS
 10
250.1738350782
 20
606.9103603467
 40
5.599338941
100
AcDbArc
 50
84.8558573728
 51
179.9957841251
  0
ARC
  5
41B
100
AcDbEntity
  8
02___PRT_ALL_AXES
100
AcDbCircle
 62
7
  6
CONTINUOUS
 10
256.5617363008
 20
628.0227227613
 40
5.5990708002
100
AcDbArc
 50
151.0727246843
 51
264.8503941963
  0
ARC
  5
41C
100
AcDbEntity
  8
02___PRT_ALL_AXES
100
AcDbCircle
 62
7
  6
CONTINUOUS
 10
256.5700640403
 20
628.0233746852
 40
4.3007265059
100
AcDbArc
 50
151.0874680003
 51
264.8372767352
  0
ARC
  5
41D
100
AcDbEntity
  8
02___PRT_ALL_AXES
100
AcDbCircle
 62
7
  6
CONTINUOUS
 10
250.1811456746
 20
559.1198908237
 40
4.3002978024
100
AcDbArc
 50
86.9101298723
 51
179.9958120688
  0
ARC
  5
41E
100
AcDbEntity
  8
02___PRT_ALL_AXES
100
AcDbCircle
 62
7
  6
CONTINUOUS
 10
250.1811449632
 20
511.3515350875
 40
4.3002970902
100
AcDbArc
 50
88.971785462
 51
179.9959698465
  0
ARC
  5
41F
100
AcDbEntity
  8
02___PRT_ALL_AXES
100
AcDbCircle
 62
7
  6
CONTINUOUS
 10
250.1811440962
 20
532.9556344159
 40
4.3002962224
100
AcDbArc
 50
180.0038761719
 51
268.9638791366
  0
ARC
  5
420
100
AcDbEntity
  8
02___PRT_ALL_AXES
100
AcDbCircle
 62
7
  6
CONTINUOUS
 10
250.181090276
 20
606.9105071464
 40
4.3002424005
100
AcDbArc
 50
84.8556488082
 51
179.9964663676
  0
ARC
  5
421
100
AcDbEntity
  8
02___PRT_ALL_AXES
100
AcDbCircle
 62
7
  6
CONTINUOUS
 10
250.1810747947
 20
580.7519529865
 40
4.3002269164
100
AcDbArc
 50
180.0028643289
 51
266.9030776122
  0
ARC
  5
422
100
AcDbEntity
  8
02___PRT_ALL_AXES
100
AcDbCircle
 62
7
  6
CONTINUOUS
 10
184.8998479964
 20
666.900368772
 40
116.4759567994
100
AcDbArc
 50
0.0924496396
 51
0.4321777981
  0
ARC
  5
423
100
AcDbEntity
  8
02___PRT_ALL_AXES
100
AcDbCircle
 62
7
  6
CONTINUOUS
 10
236.3661864023
 20
683.2572834782
 40
32.3671361037
100
AcDbArc
 50
90.0
 51
180.0
  0
ARC
  5
424
100
AcDbEntity
  8
02___PRT_ALL_AXES
100
AcDbCircle
 62
7
  6
CONTINUOUS
 10
236.3661864023
 20
683.2572834782
 40
28.8164319482
100
AcDbArc
 50
90.0
 51
180.0
  0
ARC
  5
425
100
AcDbEntity
  8
02___PRT_ALL_AXES
100
AcDbCircle
 62
7
  6
CONTINUOUS
 10
236.2466524178
 20
683.2567878795
 40
28.1224145413
100
AcDbArc
 50
89.7564642456
 51
179.9989902819
  0
ARC
  5
426
100
AcDbEntity
  8
02___PRT_ALL_AXES
100
AcDbCircle
 62
7
  6
CONTINUOUS
 10
236.1686217175
 20
683.2567061273
 40
21.1943751817
100
AcDbArc
 50
89.6772992824
 51
179.9984392194
  0
ARC
  5
427
100
AcDbEntity
  8
0
100
AcDbCircle
 62
7
  6
CONTINUOUS
 10
181.8161864023
 20
760.1072834782
 40
0.45
100
AcDbArc
 50
289.4712206346
 51
340.5287793655
  0
ARC
  5
428
100
AcDbEntity
  8
02___PRT_ALL_AXES
100
AcDbCircle
 62
7
  6
CONTINUOUS
 10
520.4812918278
 20
498.2572834782
 40
618.7321384827
100
AcDbArc
 50
356.994817345
 51
3.005182655
  0
ARC
  5
429
100
AcDbEntity
  8
02___PRT_ALL_AXES
100
AcDbCircle
 62
7
  6
CONTINUOUS
 10
531.3661864023
 20
498.2572834782
 40
607.8624807139
100
AcDbArc
 50
352.8478346951
 51
356.9410286904
  0
ARC
  5
42A
100
AcDbEntity
  8
02___PRT_ALL_AXES
100
AcDbCircle
 62
7
  6
CONTINUOUS
 10
531.3661864023
 20
498.2572834782
 40
607.8624807139
100
AcDbArc
 50
3.0589713096
 51
7.1521653049
  0
ARC
  5
42B
100
AcDbEntity
  8
02___PRT_ALL_AXES
100
AcDbCircle
 62
7
  6
CONTINUOUS
 10
531.3661864023
 20
498.2572834782
 40
599.1628043164
100
AcDbArc
 50
352.8478346951
 51
7.1521653049
  0
ARC
  5
42C
100
AcDbEntity
  8
02___PRT_ALL_AXES
100
AcDbCircle
 62
7
  6
CONTINUOUS
 10
535.6246448899
 20
498.8850730843
 40
539.3097694261
100
AcDbArc
 50
352.642531024
 51
7.1447045741
  0
ARC
  5
42D
100
AcDbEntity
  8
02___PRT_ALL_AXES
100
AcDbCircle
 62
7
  6
CONTINUOUS
 10
514.8646459481
 20
666.9005697845
 40
116.5111594699
100
AcDbArc
 50
0.0923238095
 51
0.4317228855
  0
ARC
  5
42E
100
AcDbEntity
  8
02___PRT_ALL_AXES
100
AcDbCircle
 62
7
  6
CONTINUOUS
 10
434.0162287407
 20
653.45711467
 40
7.8980810415
100
AcDbArc
 50
90.0045843317
 51
262.9972360101
  0
ARC
  5
42F
100
AcDbEntity
  8
02___PRT_ALL_AXES
100
AcDbCircle
 62
7
  6
CONTINUOUS
 10
434.0232634663
 20
653.4572402041
 40
6.5990165324
100
AcDbArc
 50
90.0021857514
 51
262.9971459506
  0
ARC
  5
430
100
AcDbEntity
  8
02___PRT_ALL_AXES
100
AcDbCircle
 62
7
  6
CONTINUOUS
 10
434.030503783
 20
653.4572383181
 40
5.3000094951
100
AcDbArc
 50
90.0017365604
 51
262.9974419733
  0
ARC
  5
431
100
AcDbEntity
  8
02___PRT_ALL_AXES
100
AcDbCircle
 62
7
  6
CONTINUOUS
 10
631.3659849472
 20
603.2570974276
 40
65.0002014554
100
AcDbArc
 50
0.0001640664
 51
89.9998204654
  0
ARC
  5
432
100
AcDbEntity
  8
02___PRT_ALL_AXES
100
AcDbCircle
 62
7
  6
CONTINUOUS
 10
631.3758248884
 20
603.2570767891
 40
63.5169669918
100
AcDbArc
 50
0.0001864449
 51
89.9998774696
  0
ARC
  5
433
100
AcDbEntity
  8
02___PRT_ALL_AXES
100
AcDbCircle
 62
7
  6
CONTINUOUS
 10
631.3660890347
 20
603.2572743161
 40
58.0980852809
100
AcDbArc
 50
21.9352554507
 51
89.9999033745
  0
ARC
  5
434
100
AcDbEntity
  8
02___PRT_ALL_AXES
100
AcDbCircle
 62
7
  6
CONTINUOUS
 10
631.3734598978
 20
603.2572793744
 40
56.7990420376
100
AcDbArc
 50
21.9351123744
 51
89.9999422544
  0
ARC
  5
435
100
AcDbEntity
  8
02___PRT_ALL_AXES
100
AcDbCircle
 62
7
  6
CONTINUOUS
 10
631.3808108481
 20
603.2572286377
 40
55.5000548405
100
AcDbArc
 50
21.9351249294
 51
89.9999617661
  0
ARC
  5
436
100
AcDbEntity
  8
02___PRT_ALL_AXES
100
AcDbCircle
 62
7
  6
CONTINUOUS
 10
682.5639014068
 20
589.6457379553
 40
6.9002613177
100
AcDbArc
 50
264.8731597595
 51
359.9803761431
  0
ARC
  5
437
100
AcDbEntity
  8
02___PRT_ALL_AXES
100
AcDbCircle
 62
7
  6
CONTINUOUS
 10
682.5640211991
 20
557.3809904593
 40
6.9001419116
100
AcDbArc
 50
266.9250102453
 51
359.9819147978
  0
ARC
  5
438
100
AcDbEntity
  8
02___PRT_ALL_AXES
100
AcDbCircle
 62
7
  6
CONTINUOUS
 10
682.5650891754
 20
525.1653351334
 40
6.8990574757
100
AcDbArc
 50
268.9772095304
 51
359.9910922564
  0
ARC
  5
439
100
AcDbEntity
  8
02___PRT_ALL_AXES
100
AcDbCircle
 62
7
  6
CONTINUOUS
 10
682.5654222913
 20
567.9552885725
 40
6.8986898485
100
AcDbArc
 50
0.0039669031
 51
84.846042427
  0
ARC
  5
43A
100
AcDbEntity
  8
02___PRT_ALL_AXES
100
AcDbCircle
 62
7
  6
CONTINUOUS
 10
682.5654653668
 20
600.1654725012
 40
6.8986503652
100
AcDbArc
 50
0.0034519607
 51
82.9935815595
  0
ARC
  5
43B
100
AcDbEntity
  8
02___PRT_ALL_AXES
100
AcDbCircle
 62
7
  6
CONTINUOUS
 10
678.8589333834
 20
622.3838618595
 40
6.8984600863
100
AcDbArc
 50
263.0065931639
 51
21.9303857194
  0
ARC
  5
43C
100
AcDbEntity
  8
02___PRT_ALL_AXES
100
AcDbCircle
 62
7
  6
CONTINUOUS
 10
682.5658743391
 20
535.7470479777
 40
6.898278797
100
AcDbArc
 50
0.0019180645
 51
86.9028083246
  0
ARC
  5
43D
100
AcDbEntity
  8
02___PRT_ALL_AXES
100
AcDbCircle
 62
7
  6
CONTINUOUS
 10
682.565911491
 20
503.5606890485
 40
6.898243715
100
AcDbArc
 50
0.0015963755
 51
88.9647821467
  0
ARC
  5
43E
100
AcDbEntity
  8
02___PRT_ALL_AXES
100
AcDbCircle
 62
7
  6
CONTINUOUS
 10
682.5729058148
 20
525.1648929063
 40
5.5996022659
100
AcDbArc
 50
268.9741323496
 51
359.9944659919
  0
ARC
  5
43F
100
AcDbEntity
  8
02___PRT_ALL_AXES
100
AcDbCircle
 62
7
  6
CONTINUOUS
 10
682.5729113566
 20
567.9554129201
 40
5.5995312054
100
AcDbArc
 50
0.0041447956
 51
84.8464260411
  0
ARC
  5
440
100
AcDbEntity
  8
02___PRT_ALL_AXES
100
AcDbCircle
 62
7
  6
CONTINUOUS
 10
682.5729283011
 20
600.1655642379
 40
5.5995211508
100
AcDbArc
 50
0.0039205566
 51
82.9938752681
  0
ARC
  5
441
100
AcDbEntity
  8
02___PRT_ALL_AXES
100
AcDbCircle
 62
7
  6
CONTINUOUS
 10
682.5730539396
 20
503.5604314375
 40
5.5994707002
100
AcDbArc
 50
0.0042478665
 51
88.9631110552
  0
ARC
  5
442
100
AcDbEntity
  8
02___PRT_ALL_AXES
100
AcDbCircle
 62
7
  6
CONTINUOUS
 10
682.573051619
 20
535.7468292362
 40
5.5994690724
100
AcDbArc
 50
0.0041230116
 51
86.9014718878
  0
ARC
  5
443
100
AcDbEntity
  8
02___PRT_ALL_AXES
100
AcDbCircle
 62
7
  6
CONTINUOUS
 10
682.5731967795
 20
589.6437102337
 40
5.5993414595
100
AcDbArc
 50
264.8558834885
 51
359.9957561175
  0
ARC
  5
444
100
AcDbEntity
  8
02___PRT_ALL_AXES
100
AcDbCircle
 62
7
  6
CONTINUOUS
 10
682.5732266687
 20
557.3791317175
 40
5.5993123826
100
AcDbArc
 50
266.9091893003
 51
359.9962479247
  0
ARC
  5
445
100
AcDbEntity
  8
02___PRT_ALL_AXES
100
AcDbCircle
 62
7
  6
CONTINUOUS
 10
678.8669489601
 20
622.3834629187
 40
5.5990584261
100
AcDbArc
 50
263.0003568331
 51
21.9341031721
  0
ARC
  5
446
100
AcDbEntity
  8
02___PRT_ALL_AXES
100
AcDbCircle
 62
7
  6
CONTINUOUS
 10
678.8732073496
 20
622.3842315029
 40
4.3007389884
100
AcDbArc
 50
263.0159131708
 51
21.9183986383
  0
ARC
  5
447
100
AcDbEntity
  8
02___PRT_ALL_AXES
100
AcDbCircle
 62
7
  6
CONTINUOUS
 10
682.5805508042
 20
525.164654982
 40
4.3002970902
100
AcDbArc
 50
268.971785462
 51
359.9959698465
  0
ARC
  5
448
100
AcDbEntity
  8
02___PRT_ALL_AXES
100
AcDbCircle
 62
7
  6
CONTINUOUS
 10
682.5805516711
 20
503.5605556536
 40
4.3002962224
100
AcDbArc
 50
0.0038761718
 51
88.9638791366
  0
ARC
  5
449
100
AcDbEntity
  8
02___PRT_ALL_AXES
100
AcDbCircle
 62
7
  6
CONTINUOUS
 10
682.5805526512
 20
535.7469524682
 40
4.3002952416
100
AcDbArc
 50
0.0037267008
 51
86.9022152402
  0
ARC
  5
44A
100
AcDbEntity
  8
02___PRT_ALL_AXES
100
AcDbCircle
 62
7
  6
CONTINUOUS
 10
682.5806054914
 20
589.6435606972
 40
4.3002424005
100
AcDbArc
 50
264.8556488082
 51
359.9964663676
  0
ARC
  5
44B
100
AcDbEntity
  8
02___PRT_ALL_AXES
100
AcDbCircle
 62
7
  6
CONTINUOUS
 10
682.5806090063
 20
557.3790171751
 40
4.3002388847
100
AcDbArc
 50
266.9093013974
 51
359.9966405437
  0
ARC
  5
44C
100
AcDbEntity
  8
02___PRT_ALL_AXES
100
AcDbCircle
 62
7
  6
CONTINUOUS
 10
682.5806254133
 20
567.9556140735
 40
4.3002224752
100
AcDbArc
 50
0.0027091378
 51
84.8494060381
  0
ARC
  5
44D
100
AcDbEntity
  8
02___PRT_ALL_AXES
100
AcDbCircle
 62
7
  6
CONTINUOUS
 10
682.5806296031
 20
600.1657537476
 40
4.3002182849
100
AcDbArc
 50
0.0025730591
 51
82.9966520544
  0
ARC
  5
44E
100
AcDbEntity
  8
02___PRT_ALL_AXES
100
AcDbCircle
 62
7
  6
CONTINUOUS
 10
835.2566899685
 20
560.5097336168
 40
107.8624807139
100
AcDbArc
 50
99.2174889837
 51
172.8478346951
  0
ARC
  5
44F
100
AcDbEntity
  8
02___PRT_ALL_AXES
100
AcDbCircle
 62
7
  6
CONTINUOUS
 10
835.2566899685
 20
560.5097336168
 40
99.1628043164
100
AcDbArc
 50
99.2174889837
 51
172.8478346951
  0
ARC
  5
450
100
AcDbEntity
  8
02___PRT_ALL_AXES
100
AcDbCircle
 62
7
  6
CONTINUOUS
 10
835.1972071823
 20
560.5202821766
 40
96.9953665535
100
AcDbArc
 50
99.1816328483
 51
172.8521795465
  0
CIRCLE
  5
451
100
AcDbEntity
  8
02___PRT_ALL_AXES
100
AcDbCircle
 62
7
  6
CONTINUOUS
 10
931.3661864023
 20
546.2572834782
 40
58.0
  0
CIRCLE
  5
452
100
AcDbEntity
  8
02___PRT_ALL_AXES
100
AcDbCircle
 62
7
  6
CONTINUOUS
 10
931.3661864023
 20
546.2572834782
 40
47.4550095943
  0
CIRCLE
  5
453
100
AcDbEntity
  8
02___PRT_ALL_AXES
100
AcDbCircle
 62
7
  6
CONTINUOUS
 10
931.3661864023
 20
546.2572834782
 40
46.371721066
  0
CIRCLE
  5
454
100
AcDbEntity
  8
02___PRT_ALL_AXES
100
AcDbCircle
 62
7
  6
CONTINUOUS
 10
931.3661864023
 20
546.2572834782
 40
46.2284846718
  0
CIRCLE
  5
455
100
AcDbEntity
  8
02___PRT_ALL_AXES
100
AcDbCircle
 62
7
  6
CONTINUOUS
 10
931.3661864023
 20
546.2572834782
 40
44.776507256
  0
CIRCLE
  5
456
100
AcDbEntity
  8
02___PRT_ALL_AXES
100
AcDbCircle
 62
7
  6
CONTINUOUS
 10
931.3661864023
 20
546.2572834782
 40
34.8447085729
  0
ARC
  5
457
100
AcDbEntity
  8
02___PRT_ALL_AXES
100
AcDbCircle
 62
7
  6
CONTINUOUS
 10
931.3661864023
 20
1028.2572834782
 40
707.8624807139
100
AcDbArc
 50
260.7825110163
 51
279.2174889837
  0
ARC
  5
458
100
AcDbEntity
  8
02___PRT_ALL_AXES
100
AcDbCircle
 62
7
  6
CONTINUOUS
 10
931.3661864023
 20
1028.2572834782
 40
699.1628043164
100
AcDbArc
 50
260.7825110163
 51
279.2174889837
  0
ARC
  5
459
100
AcDbEntity
  8
02___PRT_ALL_AXES
100
AcDbCircle
 62
7
  6
CONTINUOUS
 10
931.1280235701
 20
1024.0539150548
 40
639.4458109443
100
AcDbArc
 50
270.0213399247
 51
279.3531599572
  0
ARC
  5
45A
100
AcDbEntity
  8
02___PRT_ALL_AXES
100
AcDbCircle
 62
7
  6
CONTINUOUS
 10
931.6042969788
 20
1024.0532777202
 40
639.4451735903
100
AcDbArc
 50
260.6468353819
 51
269.9786647363
  0
ARC
  5
45B
100
AcDbEntity
  8
02___PRT_ALL_AXES
100
AcDbCircle
 62
7
  6
CONTINUOUS
 10
724.3697874851
 20
1560.7806132314
 40
852.1421319067
100
AcDbArc
 50
269.6766586787
 51
270.0000025226
  0
ARC
  5
45C
100
AcDbEntity
  8
02___PRT_ALL_AXES
100
AcDbCircle
 62
7
  6
CONTINUOUS
 10
931.2946284409
 20
1032.3979015631
 40
701.2341697346
100
AcDbArc
 50
270.0058467904
 51
279.168756151
  0
ARC
  5
45D
100
AcDbEntity
  8
02___PRT_ALL_AXES
100
AcDbCircle
 62
7
  6
CONTINUOUS
 10
931.4376256097
 20
1032.3964275735
 40
701.2326957329
100
AcDbArc
 50
260.8312626081
 51
269.9941629004
  0
ARC
  5
45E
100
AcDbEntity
  8
02___PRT_ALL_AXES
100
AcDbCircle
 62
7
  6
CONTINUOUS
 10
1138.36258532
 20
-564.2660460885
 40
852.1421317202
100
AcDbArc
 50
89.6766586787
 51
90.0000025226
  0
ARC
  5
45F
100
AcDbEntity
  8
02___PRT_ALL_AXES
100
AcDbCircle
 62
7
  6
CONTINUOUS
 10
1334.3450584955
 20
497.9049770158
 40
600.0553196278
100
AcDbArc
 50
172.8502804054
 51
176.9259411035
  0
ARC
  5
460
100
AcDbEntity
  8
02___PRT_ALL_AXES
100
AcDbCircle
 62
7
  6
CONTINUOUS
 10
1333.9865840914
 20
497.945983872
 40
599.6951895421
100
AcDbArc
 50
177.0280006919
 51
183.0144372536
  0
ARC
  5
461
100
AcDbEntity
  8
02___PRT_ALL_AXES
100
AcDbCircle
 62
7
  6
CONTINUOUS
 10
1333.0224167254
 20
497.9253590733
 40
598.731272428
100
AcDbArc
 50
183.0173183501
 51
187.1005452928
  0
ARC
  5
462
100
AcDbEntity
  8
02___PRT_ALL_AXES
100
AcDbCircle
 62
7
  6
CONTINUOUS
 10
1027.475682836
 20
436.0048333395
 40
107.8624807139
100
AcDbArc
 50
279.2174889837
 51
352.8478346951
  0
ARC
  5
463
100
AcDbEntity
  8
02___PRT_ALL_AXES
100
AcDbCircle
 62
7
  6
CONTINUOUS
 10
1027.475682836
 20
436.0048333395
 40
99.1628043164
100
AcDbArc
 50
279.2174889837
 51
352.8478346951
  0
ARC
  5
464
100
AcDbEntity
  8
02___PRT_ALL_AXES
100
AcDbCircle
 62
7
  6
CONTINUOUS
 10
1027.5141890312
 20
435.9604130343
 40
97.0853755161
100
AcDbArc
 50
279.1970065805
 51
352.8735146434
  0
ARC
  5
465
100
AcDbEntity
  8
02___PRT_ALL_AXES
100
AcDbCircle
 62
7
  6
CONTINUOUS
 10
1231.3663883262
 20
393.2574697215
 40
65.0002019241
100
AcDbArc
 50
180.0001642379
 51
269.9998200513
  0
ARC
  5
466
100
AcDbEntity
  8
02___PRT_ALL_AXES
100
AcDbCircle
 62
7
  6
CONTINUOUS
 10
1231.3565479137
 20
393.2574901648
 40
63.5169669894
100
AcDbArc
 50
180.0001864427
 51
269.9998774718
  0
ARC
  5
467
100
AcDbEntity
  8
02___PRT_ALL_AXES
100
AcDbCircle
 62
7
  6
CONTINUOUS
 10
1231.3662381754
 20
393.2571189722
 40
58.0979111988
100
AcDbArc
 50
201.9347703411
 51
269.9999488149
  0
ARC
  5
468
100
AcDbEntity
  8
02___PRT_ALL_AXES
100
AcDbCircle
 62
7
  6
CONTINUOUS
 10
1231.358911555
 20
393.2572713292
 40
56.7990250168
100
AcDbArc
 50
201.9348984223
 51
269.999943619
  0
ARC
  5
469
100
AcDbEntity
  8
02___PRT_ALL_AXES
100
AcDbCircle
 62
7
  6
CONTINUOUS
 10
1231.3515980368
 20
393.2573917443
 40
55.5001082661
100
AcDbArc
 50
201.9349629937
 51
269.9999245184
  0
ARC
  5
46A
100
AcDbEntity
  8
02___PRT_ALL_AXES
100
AcDbCircle
 62
7
  6
CONTINUOUS
 10
1280.2857139527
 20
329.0975446744
 40
48.9271737218
100
AcDbArc
 50
180.423276065
 51
180.8118839697
  0
ARC
  5
46B
100
AcDbEntity
  8
02___PRT_ALL_AXES
100
AcDbCircle
 62
7
  6
CONTINUOUS
 10
1028.0997519246
 20
435.2853304533
 40
42.7449125871
100
AcDbArc
 50
279.3582230843
 51
352.655946849
  0
ARC
  5
46C
100
AcDbEntity
  8
02___PRT_ALL_AXES
100
AcDbCircle
 62
7
  6
CONTINUOUS
 10
1247.6834468652
 20
328.6340889803
 40
16.3216127831
100
AcDbArc
 50
180.8067976359
 51
181.322872308
  0
ARC
  5
46D
100
AcDbEntity
  8
02___PRT_ALL_AXES
100
AcDbCircle
 62
7
  6
CONTINUOUS
 10
1180.1678518586
 20
396.3500805038
 40
6.8996349307
100
AcDbArc
 50
180.0119811099
 51
262.9884203866
  0
ARC
  5
46E
100
AcDbEntity
  8
02___PRT_ALL_AXES
100
AcDbCircle
 62
7
  6
CONTINUOUS
 10
1180.1672958938
 20
406.8702474322
 40
6.8990194988
100
AcDbArc
 50
84.8615814874
 51
179.9913613697
  0
ARC
  5
46F
100
AcDbEntity
  8
02___PRT_ALL_AXES
100
AcDbCircle
 62
7
  6
CONTINUOUS
 10
1180.1670862074
 20
439.1349675459
 40
6.8988717956
100
AcDbArc
 50
86.9146055078
 51
179.9930619187
  0
ARC
  5
470
100
AcDbEntity
  8
02___PRT_ALL_AXES
100
AcDbCircle
 62
7
  6
CONTINUOUS
 10
1180.1670307602
 20
471.349539819
 40
6.8987594801
100
AcDbArc
 50
88.9747403147
 51
179.9945261688
  0
ARC
  5
471
100
AcDbEntity
  8
02___PRT_ALL_AXES
100
AcDbCircle
 62
7
  6
CONTINUOUS
 10
1180.1669223355
 20
460.7679595194
 40
6.8987093721
100
AcDbArc
 50
180.0053885704
 51
266.9005738954
  0
ARC
  5
472
100
AcDbEntity
  8
02___PRT_ALL_AXES
100
AcDbCircle
 62
7
  6
CONTINUOUS
 10
1180.1667796205
 20
492.9541671547
 40
6.8985503309
100
AcDbArc
 50
180.0044593556
 51
268.9626446714
  0
ARC
  5
473
100
AcDbEntity
  8
02___PRT_ALL_AXES
100
AcDbCircle
 62
7
  6
CONTINUOUS
 10
1183.8730720527
 20
374.1311055946
 40
6.8982593998
100
AcDbArc
 50
83.0034396041
 51
201.9317219497
  0
ARC
  5
474
100
AcDbEntity
  8
02___PRT_ALL_AXES
100
AcDbCircle
 62
7
  6
CONTINUOUS
 10
1180.1664783264
 20
428.5588842932
 40
6.8982337853
100
AcDbArc
 50
180.0011622227
 51
264.8500920376
  0
ARC
  5
475
100
AcDbEntity
  8
02___PRT_ALL_AXES
100
AcDbCircle
 62
7
  6
CONTINUOUS
 10
1180.1601803678
 20
396.3498768664
 40
5.6003332449
100
AcDbArc
 50
180.01214607
 51
262.9881818842
  0
ARC
  5
476
100
AcDbEntity
  8
02___PRT_ALL_AXES
100
AcDbCircle
 62
7
  6
CONTINUOUS
 10
1180.159987744
 20
471.3492400966
 40
5.6000371723
100
AcDbArc
 50
88.9795422578
 51
179.9900310088
  0
ARC
  5
477
100
AcDbEntity
  8
02___PRT_ALL_AXES
100
AcDbCircle
 62
7
  6
CONTINUOUS
 10
1180.159762644
 20
439.1348900511
 40
5.5999205364
100
AcDbArc
 50
86.9157805526
 51
179.9906675052
  0
ARC
  5
478
100
AcDbEntity
  8
02___PRT_ALL_AXES
100
AcDbCircle
 62
7
  6
CONTINUOUS
 10
1180.1593994718
 20
492.954169962
 40
5.5995288999
100
AcDbArc
 50
180.0046002576
 51
268.9622941534
  0
ARC
  5
479
100
AcDbEntity
  8
02___PRT_ALL_AXES
100
AcDbCircle
 62
7
  6
CONTINUOUS
 10
1183.8657942148
 20
374.1311213104
 40
5.599279954
100
AcDbArc
 50
83.0057456847
 51
201.9308312048
  0
ARC
  5
47A
100
AcDbEntity
  8
02___PRT_ALL_AXES
100
AcDbCircle
 62
7
  6
CONTINUOUS
 10
1180.1591513689
 20
406.8711362541
 40
5.5991907734
100
AcDbArc
 50
84.8553695863
 51
179.998616375
  0
ARC
  5
47B
100
AcDbEntity
  8
02___PRT_ALL_AXES
100
AcDbCircle
 62
7
  6
CONTINUOUS
 10
1180.1590020301
 20
460.7675094309
 40
5.5991625754
100
AcDbArc
 50
180.0017905994
 51
266.904611638
  0
ARC
  5
47C
100
AcDbEntity
  8
02___PRT_ALL_AXES
100
AcDbCircle
 62
7
  6
CONTINUOUS
 10
1180.1586396357
 20
428.5584742193
 40
5.5987405421
100
AcDbArc
 50
179.9971823097
 51
264.8541777332
  0
ARC
  5
47D
100
AcDbEntity
  8
02___PRT_ALL_AXES
100
AcDbCircle
 62
7
  6
CONTINUOUS
 10
1183.8590989286
 20
374.1305005977
 40
4.3007389727
100
AcDbArc
 50
83.0166873784
 51
201.9182001338
  0
ARC
  5
47E
100
AcDbEntity
  8
02___PRT_ALL_AXES
100
AcDbCircle
 62
7
  6
CONTINUOUS
 10
1180.151822692
 20
439.1354876181
 40
4.3002977826
100
AcDbArc
 50
86.9101295932
 51
179.9958123479
  0
ARC
  5
47F
100
AcDbEntity
  8
02___PRT_ALL_AXES
100
AcDbCircle
 62
7
  6
CONTINUOUS
 10
1180.15182114
 20
492.9540113092
 40
4.300296229
100
AcDbArc
 50
180.0038762576
 51
268.9638790508
  0
ARC
  5
480
100
AcDbEntity
  8
02___PRT_ALL_AXES
100
AcDbCircle
 62
7
  6
CONTINUOUS
 10
1180.1517673336
 20
406.8710062368
 40
4.3002424209
100
AcDbArc
 50
84.8556491065
 51
179.9964660694
  0
ARC
  5
481
100
AcDbEntity
  8
02___PRT_ALL_AXES
100
AcDbCircle
 62
7
  6
CONTINUOUS
 10
1180.1517600473
 20
471.3499750538
 40
4.3002351331
100
AcDbArc
 50
88.9709450584
 51
179.9968102501
  0
ARC
  5
482
100
AcDbEntity
  8
02___PRT_ALL_AXES
100
AcDbCircle
 62
7
  6
CONTINUOUS
 10
1180.1517517274
 20
460.767549661
 40
4.3002268119
100
AcDbArc
 50
180.0028630103
 51
266.9030789308
  0
ARC
  5
483
100
AcDbEntity
  8
02___PRT_ALL_AXES
100
AcDbCircle
 62
7
  6
CONTINUOUS
 10
1180.1517442732
 20
428.558950033
 40
4.300219357
100
AcDbArc
 50
180.0026711693
 51
264.8494440066
  0
ARC
  5
484
100
AcDbEntity
  8
02___PRT_ALL_AXES
100
AcDbCircle
 62
7
  6
CONTINUOUS
 10
1180.1517431038
 20
396.3488830446
 40
4.3002181873
100
AcDbArc
 50
180.0025719435
 51
262.9974280565
  0
ARC
  5
485
100
AcDbEntity
  8
02___PRT_ALL_AXES
100
AcDbCircle
 62
7
  6
CONTINUOUS
 10
1358.7673709553
 20
329.6776167145
 40
127.4109744033
100
AcDbArc
 50
179.9717114253
 51
180.4233990371
  0
ARC
  5
486
100
AcDbEntity
  8
02___PRT_ALL_AXES
100
AcDbCircle
 62
7
  6
CONTINUOUS
 10
1688.6990038931
 20
329.6776697567
 40
127.3426073233
100
AcDbArc
 50
179.9717201033
 51
180.4238563577
  0
ARC
  5
487
100
AcDbEntity
  8
02___PRT_ALL_AXES
100
AcDbCircle
 62
7
  6
CONTINUOUS
 10
1561.3660000415
 20
393.2574854226
 40
65.0002019447
100
AcDbArc
 50
270.0001662156
 51
359.99982192
  0
ARC
  5
488
100
AcDbEntity
  8
02___PRT_ALL_AXES
100
AcDbCircle
 62
7
  6
CONTINUOUS
 10
1561.3562761039
 20
393.2574903099
 40
63.5169671345
100
AcDbArc
 50
270.0001226591
 51
359.9998134265
  0
ARC
  5
489
100
AcDbEntity
  8
02___PRT_ALL_AXES
100
AcDbCircle
 62
7
  6
CONTINUOUS
 10
1561.3739556863
 20
393.2493264864
 40
58.0872454811
100
AcDbArc
 50
298.862581444
 51
331.0756154548
  0
ARC
  5
48A
100
AcDbEntity
  8
02___PRT_ALL_AXES
100
AcDbCircle
 62
7
  6
CONTINUOUS
 10
1561.3665821239
 20
393.2493298636
 40
56.7881790859
100
AcDbArc
 50
298.8625566054
 51
331.0758298402
  0
ARC
  5
48B
100
AcDbEntity
  8
02___PRT_ALL_AXES
100
AcDbCircle
 62
7
  6
CONTINUOUS
 10
1561.3544186163
 20
393.2543866594
 40
55.4960661595
100
AcDbArc
 50
298.864389833
 51
331.0738021011
  0
ARC
  5
48C
100
AcDbEntity
  8
02___PRT_ALL_AXES
100
AcDbCircle
 62
7
  6
CONTINUOUS
 10
1610.2419910873
 20
329.0972406261
 40
48.8834475241
100
AcDbArc
 50
180.423835305
 51
180.8122512516
  0
ARC
  5
48D
100
AcDbEntity
  8
02___PRT_ALL_AXES
100
AcDbCircle
 62
7
  6
CONTINUOUS
 10
1626.3661864023
 20
313.2572834782
 40
32.3671361037
100
AcDbArc
 50
270.0
 51
360.0
  0
ARC
  5
48E
100
AcDbEntity
  8
02___PRT_ALL_AXES
100
AcDbCircle
 62
7
  6
CONTINUOUS
 10
1626.3661864023
 20
313.2572834782
 40
28.8164319482
100
AcDbArc
 50
270.0
 51
360.0
  0
ARC
  5
48F
100
AcDbEntity
  8
02___PRT_ALL_AXES
100
AcDbCircle
 62
7
  6
CONTINUOUS
 10
1626.4857203867
 20
313.2577790768
 40
28.1224145413
100
AcDbArc
 50
269.7564642456
 51
359.9989902819
  0
ARC
  5
490
100
AcDbEntity
  8
02___PRT_ALL_AXES
100
AcDbCircle
 62
7
  6
CONTINUOUS
 10
1626.563751087
 20
313.2578608291
 40
21.1943751817
100
AcDbArc
 50
269.6772992824
 51
359.9984392194
  0
ARC
  5
491
100
AcDbEntity
  8
02___PRT_ALL_AXES
100
AcDbCircle
 62
7
  6
CONTINUOUS
 10
1577.6776503143
 20
328.6340933073
 40
16.3158134536
100
AcDbArc
 50
180.8070918657
 51
181.3233500501
  0
ARC
  5
492
100
AcDbEntity
  8
02___PRT_ALL_AXES
100
AcDbCircle
 62
7
  6
CONTINUOUS
 10
1428.7446776643
 20
343.0573491787
 40
7.8981432862
100
AcDbArc
 50
270.0030556163
 51
82.9946480027
  0
ARC
  5
493
100
AcDbEntity
  8
02___PRT_ALL_AXES
100
AcDbCircle
 62
7
  6
CONTINUOUS
 10
1612.5652756079
 20
485.163542971
 40
6.8988814225
100
AcDbArc
 50
268.9762183157
 51
359.9930795754
  0
ARC
  5
494
100
AcDbEntity
  8
02___PRT_ALL_AXES
100
AcDbCircle
 62
7
  6
CONTINUOUS
 10
1612.5653503529
 20
437.3950561092
 40
6.8987483527
100
AcDbArc
 50
266.9129034123
 51
359.9942359416
  0
ARC
  5
495
100
AcDbEntity
  8
02___PRT_ALL_AXES
100
AcDbCircle
 62
7
  6
CONTINUOUS
 10
1612.5654488134
 20
463.5585666326
 40
6.898712606
100
AcDbArc
 50
0.0054898919
 51
88.9620087796
  0
ARC
  5
496
100
AcDbEntity
  8
02___PRT_ALL_AXES
100
AcDbCircle
 62
7
  6
CONTINUOUS
 10
1606.1770010691
 20
368.4913040943
 40
6.8986476634
100
AcDbArc
 50
331.0794560865
 51
84.8432531887
  0
ARC
  5
497
100
AcDbEntity
  8
02___PRT_ALL_AXES
100
AcDbCircle
 62
7
  6
CONTINUOUS
 10
1612.5655132639
 20
389.604413759
 40
6.8986459455
100
AcDbArc
 50
264.8589996122
 51
359.9950333443
  0
ARC
  5
498
100
AcDbEntity
  8
02___PRT_ALL_AXES
100
AcDbCircle
 62
7
  6
CONTINUOUS
 10
1612.5655889048
 20
415.7623994243
 40
6.8985516971
100
AcDbArc
 50
0.0043042377
 51
86.9009014619
  0
ARC
  5
499
100
AcDbEntity
  8
02___PRT_ALL_AXES
100
AcDbCircle
 62
7
  6
CONTINUOUS
 10
1428.737550402
 20
343.0572960926
 40
6.5990517461
100
AcDbArc
 50
270.0041433607
 51
82.9960042178
  0
ARC
  5
49A
100
AcDbEntity
  8
02___PRT_ALL_AXES
100
AcDbCircle
 62
7
  6
CONTINUOUS
 10
1612.5576475938
 20
437.3954525391
 40
5.6001078594
100
AcDbArc
 50
266.9189571051
 51
359.9888405412
  0
ARC
  5
49B
100
AcDbEntity
  8
02___PRT_ALL_AXES
100
AcDbCircle
 62
7
  6
CONTINUOUS
 10
1612.5579367138
 20
485.1636227656
 40
5.5999298184
100
AcDbArc
 50
268.9773433415
 51
359.9908564627
  0
ARC
  5
49C
100
AcDbEntity
  8
02___PRT_ALL_AXES
100
AcDbCircle
 62
7
  6
CONTINUOUS
 10
1612.5583138864
 20
415.7624017446
 40
5.5995213116
100
AcDbArc
 50
0.0043712505
 51
86.9007080057
  0
ARC
  5
49D
100
AcDbEntity
  8
02___PRT_ALL_AXES
100
AcDbCircle
 62
7
  6
CONTINUOUS
 10
1612.5583909188
 20
389.6042533814
 40
5.5994797826
100
AcDbArc
 50
264.8573857959
 51
359.9953029954
  0
ARC
  5
49E
100
AcDbEntity
  8
02___PRT_ALL_AXES
100
AcDbCircle
 62
7
  6
CONTINUOUS
 10
1606.1702132582
 20
368.4914577101
 40
5.5993717183
100
AcDbArc
 50
331.078273428
 51
84.8464346422
  0
ARC
  5
49F
100
AcDbEntity
  8
02___PRT_ALL_AXES
100
AcDbCircle
 62
7
  6
CONTINUOUS
 10
1612.5587060416
 20
463.559031
 40
5.5991687553
100
AcDbArc
 50
0.0019728627
 51
88.966282352
  0
ARC
  5
4A0
100
AcDbEntity
  8
02___PRT_ALL_AXES
100
AcDbCircle
 62
7
  6
CONTINUOUS
 10
1428.7305320642
 20
343.0572582263
 40
5.3000094941
100
AcDbArc
 50
270.0017817936
 51
82.9982647794
  0
ARC
  5
4A1
100
AcDbEntity
  8
02___PRT_ALL_AXES
100
AcDbCircle
 62
7
  6
CONTINUOUS
 10
1606.1623088532
 20
368.4911923183
 40
4.3007264508
100
AcDbArc
 50
331.0874668761
 51
84.8372778594
  0
ARC
  5
4A2
100
AcDbEntity
  8
02___PRT_ALL_AXES
100
AcDbCircle
 62
7
  6
CONTINUOUS
 10
1612.5512265953
 20
389.6041210088
 40
4.300298338
100
AcDbArc
 50
264.8564641566
 51
359.9956510193
  0
ARC
  5
4A3
100
AcDbEntity
  8
02___PRT_ALL_AXES
100
AcDbCircle
 62
7
  6
CONTINUOUS
 10
1612.551227861
 20
485.1630318488
 40
4.3002970705
100
AcDbArc
 50
268.9717851952
 51
359.9959701132
  0
ARC
  5
4A4
100
AcDbEntity
  8
02___PRT_ALL_AXES
100
AcDbCircle
 62
7
  6
CONTINUOUS
 10
1612.5512296815
 20
415.7625492352
 40
4.3002952484
100
AcDbArc
 50
0.0037267874
 51
86.9022151536
  0
ARC
  5
4A5
100
AcDbEntity
  8
02___PRT_ALL_AXES
100
AcDbCircle
 62
7
  6
CONTINUOUS
 10
1612.5512860212
 20
437.394613972
 40
4.300238907
100
AcDbArc
 50
266.9093017105
 51
359.9966402306
  0
ARC
  5
4A6
100
AcDbEntity
  8
02___PRT_ALL_AXES
100
AcDbCircle
 62
7
  6
CONTINUOUS
 10
1612.5512938754
 20
463.5589965439
 40
4.3002310514
100
AcDbArc
 50
0.0030234555
 51
88.9647318529
  0
ARC
  5
4A7
100
AcDbEntity
  8
0
100
AcDbCircle
 62
7
  6
CONTINUOUS
 10
1680.9161864023
 20
236.4072834782
 40
0.45
100
AcDbArc
 50
109.4712206341
 51
160.5287793655
  0
ARC
  5
4A8
100
AcDbEntity
  8
02___PRT_ALL_AXES
100
AcDbCircle
 62
7
  6
CONTINUOUS
 10
1027.475682836
 20
560.5097336168
 40
107.8624807139
100
AcDbArc
 50
7.1521653049
 51
80.7825110163
  0
ARC
  5
4A9
100
AcDbEntity
  8
02___PRT_ALL_AXES
100
AcDbCircle
 62
7
  6
CONTINUOUS
 10
1027.475682836
 20
560.5097336168
 40
99.1628043164
100
AcDbArc
 50
7.1521653049
 51
80.7825110163
  0
ARC
  5
4AA
100
AcDbEntity
  8
02___PRT_ALL_AXES
100
AcDbCircle
 62
7
  6
CONTINUOUS
 10
1027.535166109
 20
560.5202841497
 40
96.9953650459
100
AcDbArc
 50
7.1480249319
 51
80.8185663496
  0
ARC
  5
4AB
100
AcDbEntity
  8
02___PRT_ALL_AXES
100
AcDbCircle
 62
7
  6
CONTINUOUS
 10
1180.1671037273
 20
525.1651519474
 40
6.8988775381
100
AcDbArc
 50
180.0073826758
 51
271.0243091864
  0
ARC
  5
4AC
100
AcDbEntity
  8
02___PRT_ALL_AXES
100
AcDbCircle
 62
7
  6
CONTINUOUS
 10
1180.167091598
 20
557.3795878647
 40
6.8988685558
100
AcDbArc
 50
180.0075522566
 51
273.0860647797
  0
ARC
  5
4AD
100
AcDbEntity
  8
02___PRT_ALL_AXES
100
AcDbCircle
 62
7
  6
CONTINUOUS
 10
1180.1668831953
 20
589.6439278735
 40
6.8986632745
100
AcDbArc
 50
180.0059252735
 51
275.1416433779
  0
ARC
  5
4AE
100
AcDbEntity
  8
02___PRT_ALL_AXES
100
AcDbCircle
 62
7
  6
CONTINUOUS
 10
1180.1667551842
 20
503.5604004172
 40
6.8985376055
100
AcDbArc
 50
91.0376108554
 51
179.9960041205
  0
ARC
  5
4AF
100
AcDbEntity
  8
02___PRT_ALL_AXES
100
AcDbCircle
 62
7
  6
CONTINUOUS
 10
1180.1667323959
 20
535.7468263413
 40
6.8985127442
100
AcDbArc
 50
93.099028344
 51
179.9962387355
  0
ARC
  5
4B0
100
AcDbEntity
  8
02___PRT_ALL_AXES
100
AcDbCircle
 62
7
  6
CONTINUOUS
 10
1183.8732844593
 20
622.3838162906
 40
6.8984242955
100
AcDbArc
 50
158.0711527512
 51
276.9940490345
  0
ARC
  5
4B1
100
AcDbEntity
  8
02___PRT_ALL_AXES
100
AcDbCircle
 62
7
  6
CONTINUOUS
 10
1180.1664782624
 20
567.9556658218
 40
6.8982421415
100
AcDbArc
 50
95.1500449972
 51
179.9988481872
  0
ARC
  5
4B2
100
AcDbEntity
  8
02___PRT_ALL_AXES
100
AcDbCircle
 62
7
  6
CONTINUOUS
 10
1180.1662416894
 20
600.1660126226
 40
6.8980060684
100
AcDbArc
 50
97.0010473752
 51
180.0006543619
  0
ARC
  5
4B3
100
AcDbEntity
  8
02___PRT_ALL_AXES
100
AcDbCircle
 62
7
  6
CONTINUOUS
 10
1180.1597864035
 20
525.1652180927
 40
5.5999217014
100
AcDbArc
 50
180.0088563556
 51
271.0225375746
  0
ARC
  5
4B4
100
AcDbEntity
  8
02___PRT_ALL_AXES
100
AcDbCircle
 62
7
  6
CONTINUOUS
 10
1180.1597743435
 20
557.3796560865
 40
5.5999156222
100
AcDbArc
 50
180.0091168537
 51
273.0841085075
  0
ARC
  5
4B5
100
AcDbEntity
  8
02___PRT_ALL_AXES
100
AcDbCircle
 62
7
  6
CONTINUOUS
 10
1180.1593768637
 20
503.5603744462
 40
5.5995287145
100
AcDbArc
 50
91.0374671794
 51
179.99516611
  0
ARC
  5
4B6
100
AcDbEntity
  8
02___PRT_ALL_AXES
100
AcDbCircle
 62
7
  6
CONTINUOUS
 10
1180.1593741139
 20
535.7467790648
 40
5.5995220159
100
AcDbArc
 50
93.099036702
 51
179.9953606846
  0
ARC
  5
4B7
100
AcDbEntity
  8
02___PRT_ALL_AXES
100
AcDbCircle
 62
7
  6
CONTINUOUS
 10
1180.1593301903
 20
589.6437405674
 40
5.5994773968
100
AcDbArc
 50
180.0045542705
 51
275.1425237329
  0
ARC
  5
4B8
100
AcDbEntity
  8
02___PRT_ALL_AXES
100
AcDbCircle
 62
7
  6
CONTINUOUS
 10
1183.8656463298
 20
622.3835078849
 40
5.5991557949
100
AcDbArc
 50
158.0671737336
 51
276.9973338345
  0
ARC
  5
4B9
100
AcDbEntity
  8
02___PRT_ALL_AXES
100
AcDbCircle
 62
7
  6
CONTINUOUS
 10
1180.1586787901
 20
600.1661487522
 40
5.5987966702
100
AcDbArc
 50
96.9990763589
 51
180.0020660652
  0
ARC
  5
4BA
100
AcDbEntity
  8
02___PRT_ALL_AXES
100
AcDbCircle
 62
7
  6
CONTINUOUS
 10
1180.1586349194
 20
567.9560649001
 40
5.5987518486
100
AcDbArc
 50
95.1457485207
 51
180.0025328322
  0
ARC
  5
4BB
100
AcDbEntity
  8
02___PRT_ALL_AXES
100
AcDbCircle
 62
7
  6
CONTINUOUS
 10
1183.8592787603
 20
622.3843185484
 40
4.3008116126
100
AcDbArc
 50
158.0832406286
 51
276.9824475623
  0
ARC
  5
4BC
100
AcDbEntity
  8
02___PRT_ALL_AXES
100
AcDbCircle
 62
7
  6
CONTINUOUS
 10
1180.1518232591
 20
589.6436219099
 40
4.3002983506
100
AcDbArc
 50
180.0043491643
 51
275.1435356599
  0
ARC
  5
4BD
100
AcDbEntity
  8
02___PRT_ALL_AXES
100
AcDbCircle
 62
7
  6
CONTINUOUS
 10
1180.1518227046
 20
557.3790793516
 40
4.3002977953
100
AcDbArc
 50
180.0041878303
 51
273.0898702286
  0
ARC
  5
4BE
100
AcDbEntity
  8
02___PRT_ALL_AXES
100
AcDbCircle
 62
7
  6
CONTINUOUS
 10
1180.1518219935
 20
525.1646549749
 40
4.3002970832
100
AcDbArc
 50
180.0040300597
 51
271.0282146319
  0
ARC
  5
4BF
100
AcDbEntity
  8
02___PRT_ALL_AXES
100
AcDbCircle
 62
7
  6
CONTINUOUS
 10
1180.1518211272
 20
503.5605556597
 40
4.3002962161
100
AcDbArc
 50
91.0361207813
 51
179.9961239103
  0
ARC
  5
4C0
100
AcDbEntity
  8
02___PRT_ALL_AXES
100
AcDbCircle
 62
7
  6
CONTINUOUS
 10
1180.1518201473
 20
535.746952474
 40
4.3002952355
100
AcDbArc
 50
93.0977846833
 51
179.9962733757
  0
ARC
  5
4C1
100
AcDbEntity
  8
02___PRT_ALL_AXES
100
AcDbCircle
 62
7
  6
CONTINUOUS
 10
1180.1517443015
 20
567.9556168974
 40
4.3002193853
100
AcDbArc
 50
95.1505563383
 51
179.9973284858
  0
ARC
  5
4C2
100
AcDbEntity
  8
02___PRT_ALL_AXES
100
AcDbCircle
 62
7
  6
CONTINUOUS
 10
1180.1517378044
 20
600.1657585224
 40
4.3002128876
100
AcDbArc
 50
97.0032843285
 51
179.9974905579
  0
ARC
  5
4C3
100
AcDbEntity
  8
02___PRT_ALL_AXES
100
AcDbCircle
 62
7
  6
CONTINUOUS
 10
1342.2997005138
 20
498.2572834782
 40
618.7806911633
100
AcDbArc
 50
176.9950533634
 51
183.0049466366
  0
ARC
  5
4C4
100
AcDbEntity
  8
02___PRT_ALL_AXES
100
AcDbCircle
 62
7
  6
CONTINUOUS
 10
1331.3661864023
 20
498.2572834782
 40
607.8624807139
100
AcDbArc
 50
183.0589713096
 51
187.1521653049
  0
ARC
  5
4C5
100
AcDbEntity
  8
02___PRT_ALL_AXES
100
AcDbCircle
 62
7
  6
CONTINUOUS
 10
1331.3661864023
 20
498.2572834782
 40
607.8624807139
100
AcDbArc
 50
172.8478346951
 51
176.9410286904
  0
ARC
  5
4C6
100
AcDbEntity
  8
02___PRT_ALL_AXES
100
AcDbCircle
 62
7
  6
CONTINUOUS
 10
1331.3661864023
 20
498.2572834782
 40
599.1628043164
100
AcDbArc
 50
172.8478346951
 51
187.1521653049
  0
ARC
  5
4C7
100
AcDbEntity
  8
02___PRT_ALL_AXES
100
AcDbCircle
 62
7
  6
CONTINUOUS
 10
1327.1076450246
 20
498.8850729304
 40
539.3096871989
100
AcDbArc
 50
172.8552943144
 51
187.3574700875
  0
ARC
  5
4C8
100
AcDbEntity
  8
02___PRT_ALL_AXES
100
AcDbCircle
 62
7
  6
CONTINUOUS
 10
1231.3663725736
 20
603.2570817307
 40
65.0002017478
100
AcDbArc
 50
90.0001621531
 51
179.9998222456
  0
ARC
  5
4C9
100
AcDbEntity
  8
02___PRT_ALL_AXES
100
AcDbCircle
 62
7
  6
CONTINUOUS
 10
1231.3565479164
 20
603.2570767888
 40
63.5169669921
100
AcDbArc
 50
90.0001225307
 51
179.9998135549
  0
ARC
  5
4CA
100
AcDbEntity
  8
02___PRT_ALL_AXES
100
AcDbCircle
 62
7
  6
CONTINUOUS
 10
1231.3662180364
 20
603.2574482808
 40
58.0979113701
100
AcDbArc
 50
90.0000316818
 51
158.0651609081
  0
ARC
  5
4CB
100
AcDbEntity
  8
02___PRT_ALL_AXES
100
AcDbCircle
 62
7
  6
CONTINUOUS
 10
1231.3588718918
 20
603.2573510253
 40
56.7989704869
100
AcDbArc
 50
90.0000163721
 51
158.0649392607
  0
ARC
  5
4CC
100
AcDbEntity
  8
02___PRT_ALL_AXES
100
AcDbCircle
 62
7
  6
CONTINUOUS
 10
1231.3515408938
 20
603.2572598263
 40
55.5000236519
100
AcDbArc
 50
90.0000164897
 51
158.0648968148
  0
ARC
  5
4CD
100
AcDbEntity
  8
02___PRT_ALL_AXES
100
AcDbCircle
 62
7
  6
CONTINUOUS
 10
1252.9203250978
 20
805.9882406864
 40
196.1120713443
100
AcDbArc
 50
247.7528223579
 51
248.1303452734
  0
ARC
  5
4CE
100
AcDbEntity
  8
02___PRT_ALL_AXES
100
AcDbCircle
 62
7
  6
CONTINUOUS
 10
1280.2691706159
 20
667.4170009445
 40
48.9106289187
100
AcDbArc
 50
179.1878189597
 51
179.5765376373
  0
ARC
  5
4CF
100
AcDbEntity
  8
02___PRT_ALL_AXES
100
AcDbCircle
 62
7
  6
CONTINUOUS
 10
1247.6777387684
 20
667.8804727959
 40
16.3159018954
100
AcDbArc
 50
178.6766541278
 51
179.1929094873
  0
ARC
  5
4D0
100
AcDbEntity
  8
02___PRT_ALL_AXES
100
AcDbCircle
 62
7
  6
CONTINUOUS
 10
1138.3625853198
 20
1560.780613108
 40
852.1421317834
100
AcDbArc
 50
269.9999974774
 51
270.3233413213
  0
ARC
  5
4D1
100
AcDbEntity
  8
02___PRT_ALL_AXES
100
AcDbCircle
 62
7
  6
CONTINUOUS
 10
1358.7356723138
 20
666.8367963267
 40
127.3792756898
100
AcDbArc
 50
179.576419406
 51
180.0282263827
  0
ARC
  5
4D2
100
AcDbEntity
  8
02___PRT_ALL_AXES
100
AcDbCircle
 62
7
  6
CONTINUOUS
 10
1688.7307153717
 20
666.8370503565
 40
127.3743188736
100
AcDbArc
 50
179.5763249609
 51
180.0283417494
  0
ARC
  5
4D3
100
AcDbEntity
  8
02___PRT_ALL_AXES
100
AcDbCircle
 62
7
  6
CONTINUOUS
 10
1561.3659846565
 20
603.2570971975
 40
65.000201746
100
AcDbArc
 50
0.00016412
 51
89.9998241377
  0
ARC
  5
4D4
100
AcDbEntity
  8
02___PRT_ALL_AXES
100
AcDbCircle
 62
7
  6
CONTINUOUS
 10
1561.3562761008
 20
603.2570766433
 40
63.5169671376
100
AcDbArc
 50
0.0001865763
 51
89.9998773381
  0
ARC
  5
4D5
100
AcDbEntity
  8
02___PRT_ALL_AXES
100
AcDbCircle
 62
7
  6
CONTINUOUS
 10
1561.3786712457
 20
603.2696851801
 40
58.0809253298
100
AcDbArc
 50
28.9228320701
 51
61.1523163258
  0
ARC
  5
4D6
100
AcDbEntity
  8
02___PRT_ALL_AXES
100
AcDbCircle
 62
7
  6
CONTINUOUS
 10
1561.3726013508
 20
603.2711656916
 40
56.7799741362
100
AcDbArc
 50
28.9218715348
 51
61.1529788933
  0
ARC
  5
4D7
100
AcDbEntity
  8
02___PRT_ALL_AXES
100
AcDbCircle
 62
7
  6
CONTINUOUS
 10
1561.3588889763
 20
603.2646571675
 40
55.4899881494
100
AcDbArc
 50
28.9243846339
 51
61.1505229212
  0
ARC
  5
4D8
100
AcDbEntity
  8
02___PRT_ALL_AXES
100
AcDbCircle
 62
7
  6
CONTINUOUS
 10
1610.2587573848
 20
667.4173456748
 40
48.900215292
100
AcDbArc
 50
179.1880474109
 51
179.5763506609
  0
ARC
  5
4D9
100
AcDbEntity
  8
02___PRT_ALL_AXES
100
AcDbCircle
 62
7
  6
CONTINUOUS
 10
1626.3661864023
 20
683.2572834782
 40
32.3671361037
100
AcDbArc
 50
0.0
 51
90.0
  0
ARC
  5
4DA
100
AcDbEntity
  8
02___PRT_ALL_AXES
100
AcDbCircle
 62
7
  6
CONTINUOUS
 10
1626.3661864023
 20
683.2572834782
 40
28.8164319482
100
AcDbArc
 50
0.0
 51
90.0
  0
ARC
  5
4DB
100
AcDbEntity
  8
02___PRT_ALL_AXES
100
AcDbCircle
 62
7
  6
CONTINUOUS
 10
1626.4857198875
 20
683.2567873781
 40
28.1224150406
100
AcDbArc
 50
0.0010107396
 51
90.2435347329
  0
ARC
  5
4DC
100
AcDbEntity
  8
02___PRT_ALL_AXES
100
AcDbCircle
 62
7
  6
CONTINUOUS
 10
1626.5637510143
 20
683.2567060541
 40
21.1943752545
100
AcDbArc
 50
0.0015609784
 51
90.3227005197
  0
ARC
  5
4DD
100
AcDbEntity
  8
02___PRT_ALL_AXES
100
AcDbCircle
 62
7
  6
CONTINUOUS
 10
1577.6834299455
 20
667.880478241
 40
16.3215958754
100
AcDbArc
 50
178.6771273579
 51
179.1932025914
  0
ARC
  5
4DE
100
AcDbEntity
  8
02___PRT_ALL_AXES
100
AcDbCircle
 62
7
  6
CONTINUOUS
 10
1428.7162097305
 20
653.457328502
 40
7.8981121727
100
AcDbArc
 50
277.0035347038
 51
89.9982179934
  0
ARC
  5
4DF
100
AcDbEntity
  8
02___PRT_ALL_AXES
100
AcDbCircle
 62
7
  6
CONTINUOUS
 10
1612.5652650455
 20
511.3510340171
 40
6.8988815703
100
AcDbArc
 50
0.0074167637
 51
91.0242751004
  0
ARC
  5
4E0
100
AcDbEntity
  8
02___PRT_ALL_AXES
100
AcDbCircle
 62
7
  6
CONTINUOUS
 10
1612.5652760129
 20
559.1193768364
 40
6.8988737501
100
AcDbArc
 50
0.0075977784
 51
93.0860192631
  0
ARC
  5
4E1
100
AcDbEntity
  8
02___PRT_ALL_AXES
100
AcDbCircle
 62
7
  6
CONTINUOUS
 10
1612.5654962099
 20
606.910147192
 40
6.8986566731
100
AcDbArc
 50
0.0058652987
 51
95.1417033608
  0
ARC
  5
4E2
100
AcDbEntity
  8
02___PRT_ALL_AXES
100
AcDbCircle
 62
7
  6
CONTINUOUS
 10
1612.5656212569
 20
532.9557860807
 40
6.8985339687
100
AcDbArc
 50
271.0375811942
 51
359.9960336841
  0
ARC
  5
4E3
100
AcDbEntity
  8
02___PRT_ALL_AXES
100
AcDbCircle
 62
7
  6
CONTINUOUS
 10
1612.5656437459
 20
580.7521406799
 40
6.8985094068
100
AcDbArc
 50
273.0990020865
 51
359.9962648934
  0
ARC
  5
4E4
100
AcDbEntity
  8
02___PRT_ALL_AXES
100
AcDbCircle
 62
7
  6
CONTINUOUS
 10
1606.1773453144
 20
628.0230158098
 40
6.8984227004
100
AcDbArc
 50
275.1548265981
 51
28.924020105
  0
ARC
  5
4E5
100
AcDbEntity
  8
02___PRT_ALL_AXES
100
AcDbCircle
 62
7
  6
CONTINUOUS
 10
1428.7090523193
 20
653.4572797311
 40
6.5990657477
100
AcDbArc
 50
277.0033030681
 51
89.9973251939
  0
ARC
  5
4E6
100
AcDbEntity
  8
02___PRT_ALL_AXES
100
AcDbCircle
 62
7
  6
CONTINUOUS
 10
1612.5579168628
 20
511.3509638188
 40
5.5999297156
100
AcDbArc
 50
0.0089397944
 51
91.0224544175
  0
ARC
  5
4E7
100
AcDbEntity
  8
02___PRT_ALL_AXES
100
AcDbCircle
 62
7
  6
CONTINUOUS
 10
1612.557928656
 20
559.1193053697
 40
5.5999238926
100
AcDbArc
 50
0.0092061087
 51
93.0840194602
  0
ARC
  5
4E8
100
AcDbEntity
  8
02___PRT_ALL_AXES
100
AcDbCircle
 62
7
  6
CONTINUOUS
 10
1612.5583347438
 20
532.9558152767
 40
5.5995283623
100
AcDbArc
 50
271.0374639922
 51
359.995169547
  0
ARC
  5
4E9
100
AcDbEntity
  8
02___PRT_ALL_AXES
100
AcDbCircle
 62
7
  6
CONTINUOUS
 10
1612.5583377768
 20
580.7521905204
 40
5.5995213871
100
AcDbArc
 50
273.0990309959
 51
359.9953666891
  0
ARC
  5
4EA
100
AcDbEntity
  8
02___PRT_ALL_AXES
100
AcDbCircle
 62
7
  6
CONTINUOUS
 10
1606.1700386167
 20
628.0231231861
 40
5.5995003342
100
AcDbArc
 50
275.1553313578
 51
28.9207376497
  0
ARC
  5
4EB
100
AcDbEntity
  8
02___PRT_ALL_AXES
100
AcDbCircle
 62
7
  6
CONTINUOUS
 10
1612.5583794796
 20
606.9103255401
 40
5.5994789849
100
AcDbArc
 50
0.0045720158
 51
95.1425061121
  0
ARC
  5
4EC
100
AcDbEntity
  8
02___PRT_ALL_AXES
100
AcDbCircle
 62
7
  6
CONTINUOUS
 10
1428.7018388208
 20
653.4572718047
 40
5.3000116769
100
AcDbArc
 50
277.002837944
 51
89.9979369424
  0
ARC
  5
4ED
100
AcDbEntity
  8
02___PRT_ALL_AXES
100
AcDbCircle
 62
7
  6
CONTINUOUS
 10
1606.1622348436
 20
628.0234139273
 40
4.300772241
100
AcDbArc
 50
275.1636570128
 51
28.9115982518
  0
ARC
  5
4EE
100
AcDbEntity
  8
02___PRT_ALL_AXES
100
AcDbCircle
 62
7
  6
CONTINUOUS
 10
1612.5512265827
 20
606.9104459337
 40
4.3002983506
100
AcDbArc
 50
0.0043491643
 51
95.1435356599
  0
ARC
  5
4EF
100
AcDbEntity
  8
02___PRT_ALL_AXES
100
AcDbCircle
 62
7
  6
CONTINUOUS
 10
1612.5512271371
 20
559.1198908313
 40
4.3002977953
100
AcDbArc
 50
0.0041878303
 51
93.0898702286
  0
ARC
  5
4F0
100
AcDbEntity
  8
02___PRT_ALL_AXES
100
AcDbCircle
 62
7
  6
CONTINUOUS
 10
1612.5512278483
 20
511.3515350946
 40
4.3002970832
100
AcDbArc
 50
0.0040300597
 51
91.0282146319
  0
ARC
  5
4F1
100
AcDbEntity
  8
02___PRT_ALL_AXES
100
AcDbCircle
 62
7
  6
CONTINUOUS
 10
1612.5512287146
 20
532.9556344097
 40
4.3002962161
100
AcDbArc
 50
271.0361207813
 51
359.9961239102
  0
ARC
  5
4F2
100
AcDbEntity
  8
02___PRT_ALL_AXES
100
AcDbCircle
 62
7
  6
CONTINUOUS
 10
1612.5512296945
 20
580.7520177089
 40
4.3002952355
100
AcDbArc
 50
273.0977846833
 51
359.9962733757
  0
ARC
  5
4F3
100
AcDbEntity
  8
0
100
AcDbCircle
 62
7
  6
CONTINUOUS
 10
1680.9161864023
 20
760.1072834782
 40
0.45
100
AcDbArc
 50
199.4712206345
 51
250.5287793654
  0
ARC
  5
4F4
100
AcDbEntity
  8
02___PRT_ALL_AXES
100
AcDbCircle
 62
3
  6
CONTINUOUS
 10
2000.1765968444
 20
-7458.0279177459
 40
8030.9647392491
100
AcDbArc
 50
90.1296458191
 51
90.4723360058
  0
ARC
  5
4F5
100
AcDbEntity
  8
02___PRT_ALL_AXES
100
AcDbCircle
 62
3
  6
CONTINUOUS
 10
1999.4527318936
 20
-354.7017247536
 40
1013.7226278844
100
AcDbArc
 50
90.9862219723
 51
93.7385888748
  0
ARC
  5
4F6
100
AcDbEntity
  8
02___PRT_ALL_AXES
100
AcDbCircle
 62
3
  6
CONTINUOUS
 10
1999.4621484622
 20
-332.5427165218
 40
1000.6
100
AcDbArc
 50
91.0000891982
 51
93.8725606226
  0
ARC
  5
4F7
100
AcDbEntity
  8
02___PRT_ALL_AXES
100
AcDbCircle
 62
3
  6
CONTINUOUS
 10
1938.157451365
 20
386.0478827671
 40
55.599999942
100
AcDbArc
 50
181.5000021843
 51
266.2804543492
  0
ARC
  5
4F8
100
AcDbEntity
  8
0
100
AcDbCircle
 62
7
  6
CONTINUOUS
 10
2010.0239659407
 20
238.6524911962
 40
2.3934638728
100
AcDbArc
 50
275.7111696802
 51
280.4073467891
  0
ARC
  5
4F9
100
AcDbEntity
  8
0
100
AcDbCircle
 62
7
  6
CONTINUOUS
 10
2010.2621484622
 20
236.5572834782
 40
1.2
100
AcDbArc
 50
270.0
 51
360.0
  0
ARC
  5
4FA
100
AcDbEntity
  8
0
100
AcDbCircle
 62
7
  6
CONTINUOUS
 10
1983.2046262583
 20
236.5572834782
 40
1.2
100
AcDbArc
 50
180.0
 51
270.0
  0
ARC
  5
4FB
100
AcDbEntity
  8
0
100
AcDbCircle
 62
7
  6
CONTINUOUS
 10
2010.0818340522
 20
237.4572834782
 40
1.2
100
AcDbArc
 50
270.0
 51
278.6421106276
  0
ARC
  5
4FC
100
AcDbEntity
  8
0
100
AcDbCircle
 62
3
  6
CONTINUOUS
 10
2010.2621484622
 20
236.5572834782
 40
0.6
100
AcDbArc
 50
270.0
 51
323.9902915104
  0
ARC
  5
4FD
100
AcDbEntity
  8
0
100
AcDbCircle
 62
3
  6
CONTINUOUS
 10
1983.2046262583
 20
236.5572834782
 40
0.6
100
AcDbArc
 50
180.0
 51
270.0
  0
ARC
  5
4FE
100
AcDbEntity
  8
02___PRT_ALL_AXES
100
AcDbCircle
 62
3
  6
CONTINUOUS
 10
1685.6910671634
 20
578.3122436928
 40
197.2801228908
100
AcDbArc
 50
7.1289667026
 51
7.7830605933
  0
ARC
  5
4FF
100
AcDbEntity
  8
02___PRT_ALL_AXES
100
AcDbCircle
 62
3
  6
CONTINUOUS
 10
1722.3375238914
 20
583.3092903204
 40
160.2945433241
100
AcDbArc
 50
7.7872594374
 51
8.3598612232
  0
ARC
  5
500
100
AcDbEntity
  8
02___PRT_ALL_AXES
100
AcDbCircle
 62
3
  6
CONTINUOUS
 10
1879.0881238546
 20
501.9984143124
 40
2.6
100
AcDbArc
 50
194.9999999995
 51
259.9999999995
  0
ARC
  5
501
100
AcDbEntity
  8
02___PRT_ALL_AXES
100
AcDbCircle
 62
3
  6
CONTINUOUS
 10
1879.3621484622
 20
498.8022738839
 40
0.5
100
AcDbArc
 50
0.0000004763
 51
79.9999952256
  0
ARC
  5
502
100
AcDbEntity
  8
02___PRT_ALL_AXES
100
AcDbCircle
 62
3
  6
CONTINUOUS
 10
1879.0881238546
 20
590.5161526439
 40
2.6
100
AcDbArc
 50
100.0000000005
 51
165.0000000005
  0
ARC
  5
503
100
AcDbEntity
  8
02___PRT_ALL_AXES
100
AcDbCircle
 62
3
  6
CONTINUOUS
 10
1879.3621484622
 20
593.7122930725
 40
0.5
100
AcDbArc
 50
280.0000036789
 51
359.9999996203
  0
ARC
  5
504
100
AcDbEntity
  8
02___PRT_ALL_AXES
100
AcDbCircle
 62
3
  6
CONTINUOUS
 10
1935.6392271434
 20
610.2996005207
 40
55.599999903
100
AcDbArc
 50
93.8725621482
 51
178.5000001932
  0
ARC
  5
505
100
AcDbEntity
  8
0
100
AcDbCircle
 62
7
  6
CONTINUOUS
 10
2010.0817596348
 20
759.0573736921
 40
1.2
100
AcDbArc
 50
81.3542953843
 51
90.7025650481
  0
ARC
  5
506
100
AcDbEntity
  8
0
100
AcDbCircle
 62
3
  6
CONTINUOUS
 10
2012.0621484622
 20
759.9572834782
 40
1.2
100
AcDbArc
 50
90.0
 51
180.0
  0
ARC
  5
507
100
AcDbEntity
  8
0
100
AcDbCircle
 62
7
  6
CONTINUOUS
 10
2039.1196706661
 20
761.4572834782
 40
0.9
100
AcDbArc
 50
270.0
 51
92.0
  0
ARC
  5
508
100
AcDbEntity
  8
0
100
AcDbCircle
 62
7
  6
CONTINUOUS
 10
2012.0621484622
 20
759.9572834782
 40
0.6
100
AcDbArc
 50
90.0
 51
180.0
  0
ARC
  5
509
100
AcDbEntity
  8
0
100
AcDbCircle
 62
3
  6
CONTINUOUS
 10
2039.1196706661
 20
761.4572834782
 40
0.3
100
AcDbArc
 50
270.0
 51
92.0
  0
ARC
  5
50A
100
AcDbEntity
  8
02___PRT_ALL_AXES
100
AcDbCircle
 62
3
  6
CONTINUOUS
 10
1999.4500669678
 20
1351.2038425982
 40
1013.7101369854
100
AcDbArc
 50
266.3658909864
 51
269.0139178596
  0
ARC
  5
50B
100
AcDbEntity
  8
02___PRT_ALL_AXES
100
AcDbCircle
 62
3
  6
CONTINUOUS
 10
1999.4621484622
 20
1329.0572834782
 40
1000.6
100
AcDbArc
 50
266.2804561885
 51
268.9999425938
  0
ARC
  5
50C
100
AcDbEntity
  8
02___PRT_ALL_AXES
100
AcDbCircle
 62
3
  6
CONTINUOUS
 10
2000.1163492368
 20
8452.9630957635
 40
8029.3852284795
100
AcDbArc
 50
269.5360447194
 51
269.8707586944
  0
ARC
  5
50D
100
AcDbEntity
  8
02___PRT_ALL_AXES
100
AcDbCircle
 62
3
  6
CONTINUOUS
 10
13133.6208421604
 20
583.0736541329
 40
11199.654148677
100
AcDbArc
 50
180.0532546284
 51
180.8146377663
  0
ARC
  5
50E
100
AcDbEntity
  8
02___PRT_ALL_AXES
100
AcDbCircle
 62
3
  6
CONTINUOUS
 10
11754.6670431057
 20
575.0788145722
 40
9872.6415771939
100
AcDbArc
 50
180.052896
 51
180.8430891079
  0
SPLINE
  5
50F
100
AcDbEntity
  8
0
100
AcDbSpline
 62
7
  6
CONTINUOUS
 70
0
 71
3
 72
8
 73
4
 74
0
 42
0.0000001
 43
0.0000001
 44
0.0000000001
 40
0.0
 40
0.0
 40
0.0
 40
0.0
 40
1.0
 40
1.0
 40
1.0
 40
1.0
 10
1680.2389364234
 20
761.4576155022
 30
0.0
 10
1680.1301346745
 20
761.6435234005
 30
0.0
 10
1680.0225646481
 20
761.8311521324
 30
0.0
 10
1679.894805783
 20
762.0045800413
 30
0.0
  0
SPLINE
  5
510
100
AcDbEntity
  8
0
100
AcDbSpline
 62
7
  6
CONTINUOUS
 70
0
 71
3
 72
8
 73
4
 74
0
 42
0.0000001
 43
0.0000001
 44
0.0000000001
 40
0.0
 40
0.0
 40
0.0
 40
0.0
 40
1.0
 40
1.0
 40
1.0
 40
1.0
 10
1679.894805783
 20
762.0045800413
 30
0.0
 10
1679.8014527441
 20
762.1313033203
 30
0.0
 10
1679.6930092
 20
762.2624957458
 30
0.0
 10
1679.5490771763
 20
762.3261915215
 30
0.0
  0
SPLINE
  5
511
100
AcDbEntity
  8
0
100
AcDbSpline
 62
7
  6
CONTINUOUS
 70
0
 71
3
 72
9
 73
5
 74
0
 42
0.0000001
 43
0.0000001
 44
0.0000000001
 40
0.0
 40
0.0
 40
0.0
 40
0.0
 40
0.5131307423
 40
1.0
 40
1.0
 40
1.0
 40
1.0
 10
1679.5490771763
 20
762.3261915215
 30
0.0
 10
1679.5270009339
 20
762.3359611568
 30
0.0
 10
1679.4822325388
 20
762.3514271317
 30
0.0
 10
1679.4350827427
 20
762.3571728765
 30
0.0
 10
1679.4121770307
 20
762.3572525257
 30
0.0
  0
SPLINE
  5
512
100
AcDbEntity
  8
0
100
AcDbSpline
 62
7
  6
CONTINUOUS
 70
0
 71
3
 72
9
 73
5
 74
0
 42
0.0000001
 43
0.0000001
 44
0.0000000001
 40
0.0
 40
0.0
 40
0.0
 40
0.0
 40
0.1842269866
 40
1.0
 40
1.0
 40
1.0
 40
1.0
 10
183.3201957738
 20
762.3572525257
 30
0.0
 10
183.2644347061
 20
762.3570586299
 30
0.0
 10
182.9643094767
 20
762.2589572705
 30
0.0
 10
182.8017314291
 20
761.9659304411
 30
0.0
 10
182.6715258585
 20
761.75613488
 30
0.0
  0
SPLINE
  5
513
100
AcDbEntity
  8
0
100
AcDbSpline
 62
7
  6
CONTINUOUS
 70
0
 71
3
 72
8
 73
4
 74
0
 42
0.0000001
 43
0.0000001
 44
0.0000000001
 40
0.0
 40
0.0
 40
0.0
 40
0.0
 40
1.0
 40
1.0
 40
1.0
 40
1.0
 10
182.6715258585
 20
761.75613488
 30
0.0
 10
182.6104252785
 20
761.6576857092
 30
0.0
 10
182.551961792
 20
761.5576169841
 30
0.0
 10
182.4934363811
 20
761.4576155022
 30
0.0
  0
SPLINE
  5
514
100
AcDbEntity
  8
0
100
AcDbSpline
 62
7
  6
CONTINUOUS
 70
0
 71
3
 72
9
 73
5
 74
0
 42
0.0000001
 43
0.0000001
 44
0.0000000001
 40
0.0
 40
0.0
 40
0.0
 40
0.0
 40
0.4896052776
 40
1.0
 40
1.0
 40
1.0
 40
1.0
 10
182.240450471
 20
236.5572834782
 30
0.0
 10
182.2485307367
 20
236.5226111405
 30
0.0
 10
182.2641722837
 20
236.4515898311
 30
0.0
 10
182.2755923516
 20
236.3796714919
 30
0.0
 10
182.2794674126
 20
236.3427612246
 30
0.0
  0
SPLINE
  5
515
100
AcDbEntity
  8
0
100
AcDbSpline
 62
7
  6
CONTINUOUS
 70
0
 71
3
 72
9
 73
5
 74
0
 42
0.0000001
 43
0.0000001
 44
0.0000000001
 40
0.0
 40
0.0
 40
0.0
 40
0.0
 40
0.5130781049
 40
1.0
 40
1.0
 40
1.0
 40
1.0
 10
1680.4747840507
 20
760.0635875104
 30
0.0
 10
1680.4788522143
 20
760.1146500327
 30
0.0
 10
1680.5139911054
 20
760.2119366308
 30
0.0
 10
1680.5864500366
 20
760.2880817858
 30
0.0
 10
1680.6298227659
 20
760.3100368749
 30
0.0
  0
SPLINE
  5
516
100
AcDbEntity
  8
0
100
AcDbSpline
 62
7
  6
CONTINUOUS
 70
0
 71
3
 72
9
 73
5
 74
0
 42
0.0000001
 43
0.0000001
 44
0.0000000001
 40
0.0
 40
0.0
 40
0.0
 40
0.0
 40
0.4761147063
 40
1.0
 40
1.0
 40
1.0
 40
1.0
 10
1680.9936877408
 20
759.679015715
 30
0.0
 10
1680.9745642544
 20
759.6872694603
 30
0.0
 10
1680.9359813673
 20
759.708445355
 30
0.0
 10
1680.9016571764
 20
759.7359152682
 30
0.0
 10
1680.8848521188
 20
759.7514987796
 30
0.0
  0
SPLINE
  5
517
100
AcDbEntity
  8
0
100
AcDbSpline
 62
7
  6
CONTINUOUS
 70
0
 71
3
 72
9
 73
5
 74
0
 42
0.0000001
 43
0.0000001
 44
0.0000000001
 40
0.0
 40
0.0
 40
0.0
 40
0.0
 40
0.4761583252
 40
1.0
 40
1.0
 40
1.0
 40
1.0
 10
181.7388569038
 20
236.8357616941
 30
0.0
 10
181.7580386035
 20
236.827518141
 30
0.0
 10
181.7967399621
 20
236.8063470909
 30
0.0
 10
181.8311692204
 20
236.7788459134
 30
0.0
 10
181.8480223342
 20
236.7632401452
 30
0.0
  0
SPLINE
  5
518
100
AcDbEntity
  8
0
100
AcDbSpline
 62
7
  6
CONTINUOUS
 70
0
 71
3
 72
9
 73
5
 74
0
 42
0.0000001
 43
0.0000001
 44
0.0000000001
 40
0.0
 40
0.0
 40
0.0
 40
0.0
 40
0.4896034269
 40
1.0
 40
1.0
 40
1.0
 40
1.0
 10
181.9661864023
 20
759.6830194095
 30
0.0
 10
181.931514571
 20
759.6749392617
 30
0.0
 10
181.8604941035
 20
759.6592975837
 30
0.0
 10
181.7885766794
 20
759.6478768779
 30
0.0
 10
181.751666732
 20
759.6440013284
 30
0.0
  0
SPLINE
  5
519
100
AcDbEntity
  8
0
100
AcDbSpline
 62
7
  6
CONTINUOUS
 70
0
 71
3
 72
9
 73
5
 74
0
 42
0.0000001
 43
0.0000001
 44
0.0000000001
 40
0.0
 40
0.0
 40
0.0
 40
0.0
 40
0.4761087151
 40
1.0
 40
1.0
 40
1.0
 40
1.0
 10
1680.4879345035
 20
236.329765592
 30
0.0
 10
1680.4961891001
 20
236.3488844087
 30
0.0
 10
1680.5173657517
 20
236.3874579106
 30
0.0
 10
1680.5448337452
 20
236.4217735508
 30
0.0
 10
1680.5604158584
 20
236.4385747283
 30
0.0
  0
SPLINE
  5
51A
100
AcDbEntity
  8
0
100
AcDbSpline
 62
7
  6
CONTINUOUS
 70
0
 71
3
 72
9
 73
5
 74
0
 42
0.0000001
 43
0.0000001
 44
0.0000000001
 40
0.0
 40
0.0
 40
0.0
 40
0.0
 40
0.4896101273
 40
1.0
 40
1.0
 40
1.0
 40
1.0
 10
1680.7661864023
 20
236.8315475469
 30
0.0
 10
1680.8008595631
 20
236.8396280044
 30
0.0
 10
1680.871883355
 20
236.8552636559
 30
0.0
 10
1680.9438042322
 20
236.8666739496
 30
0.0
 10
1680.9807150773
 20
236.8705450448
 30
0.0
  0
SPLINE
  5
51B
100
AcDbEntity
  8
0
100
AcDbSpline
 62
7
  6
CONTINUOUS
 70
0
 71
3
 72
9
 73
5
 74
0
 42
0.0000001
 43
0.0000001
 44
0.0000000001
 40
0.0
 40
0.0
 40
0.0
 40
0.0
 40
0.4869218951
 40
1.0
 40
1.0
 40
1.0
 40
1.0
 10
182.1025500386
 20
760.3100368749
 30
0.0
 10
182.1459227679
 20
760.2880817858
 30
0.0
 10
182.2183816992
 20
760.2119366308
 30
0.0
 10
182.2535205902
 20
760.1146500327
 30
0.0
 10
182.2575887538
 20
760.0635875104
 30
0.0
  0
SPLINE
  5
51C
100
AcDbEntity
  8
0
100
AcDbSpline
 62
7
  6
CONTINUOUS
 70
0
 71
3
 72
8
 73
4
 74
0
 42
0.0000001
 43
0.0000001
 44
0.0000000001
 40
0.0
 40
0.0
 40
0.0
 40
0.0
 40
1.0
 40
1.0
 40
1.0
 40
1.0
 10
182.1025500386
 20
760.3100368749
 30
0.0
 10
181.9985311602
 20
760.3626907839
 30
0.0
 10
181.905924984
 20
760.4353708879
 30
0.0
 10
181.8072594046
 20
760.4974793788
 30
0.0
  0
SPLINE
  5
51D
100
AcDbEntity
  8
02___PRT_ALL_AXES
100
AcDbSpline
 62
7
  6
CONTINUOUS
 70
0
 71
3
 72
9
 73
5
 74
0
 42
0.0000001
 43
0.0000001
 44
0.0000000001
 40
0.0
 40
0.0
 40
0.0
 40
0.0
 40
0.2986908008
 40
1.0
 40
1.0
 40
1.0
 40
1.0
 10
631.3661866519
 20
335.15920771
 30
0.0
 10
631.3661865433
 20
335.2885471649
 30
0.0
 10
631.3669136354
 20
335.7215638699
 30
0.0
 10
631.3683760963
 20
336.1546071962
 30
0.0
 10
631.3735172689
 20
336.4582454392
 30
0.0
  0
SPLINE
  5
51E
100
AcDbEntity
  8
02___PRT_ALL_AXES
100
AcDbSpline
 62
7
  6
CONTINUOUS
 70
0
 71
3
 72
9
 73
5
 74
0
 42
0.0000001
 43
0.0000001
 44
0.0000000001
 40
0.0
 40
0.0
 40
0.0
 40
0.0
 40
0.2986911244
 40
1.0
 40
1.0
 40
1.0
 40
1.0
 10
433.9872738981
 20
335.1592132819
 30
0.0
 10
433.9872632146
 20
335.288552331
 30
0.0
 10
433.9879526887
 20
335.721567349
 30
0.0
 10
433.9893914408
 20
336.1546085072
 30
0.0
 10
433.9944749242
 20
336.4582463006
 30
0.0
  0
SPLINE
  5
51F
100
AcDbEntity
  8
02___PRT_ALL_AXES
100
AcDbSpline
 62
7
  6
CONTINUOUS
 70
0
 71
3
 72
9
 73
5
 74
0
 42
0.0000001
 43
0.0000001
 44
0.0000000001
 40
0.0
 40
0.0
 40
0.0
 40
0.0
 40
0.2985336422
 40
1.0
 40
1.0
 40
1.0
 40
1.0
 10
433.0244296144
 20
350.8964576976
 30
0.0
 10
433.0402051171
 20
350.7680649084
 30
0.0
 10
433.0937460697
 20
350.3380765504
 30
0.0
 10
433.1481243603
 20
349.9081675289
 30
0.0
 10
433.1900977981
 20
349.6071255151
 30
0.0
  0
SPLINE
  5
520
100
AcDbEntity
  8
02___PRT_ALL_AXES
100
AcDbSpline
 62
7
  6
CONTINUOUS
 70
0
 71
3
 72
9
 73
5
 74
0
 42
0.0000001
 43
0.0000001
 44
0.0000000001
 40
0.0
 40
0.0
 40
0.0
 40
0.0
 40
0.298531493
 40
1.0
 40
1.0
 40
1.0
 40
1.0
 10
678.0190180665
 20
380.9780561227
 30
0.0
 10
678.0347863101
 20
380.8496595412
 30
0.0
 10
678.0883224335
 20
380.4196581427
 30
0.0
 10
678.142581954
 20
379.9897190072
 30
0.0
 10
678.1847043797
 20
379.688687823
 30
0.0
  0
SPLINE
  5
521
100
AcDbEntity
  8
02___PRT_ALL_AXES
100
AcDbSpline
 62
7
  6
CONTINUOUS
 70
0
 71
3
 72
9
 73
5
 74
0
 42
0.0000001
 43
0.0000001
 44
0.0000000001
 40
0.0
 40
0.0
 40
0.0
 40
0.0
 40
0.2999078109
 40
1.0
 40
1.0
 40
1.0
 40
1.0
 10
685.2583227536
 20
371.5545999808
 30
0.0
 10
685.1384906707
 20
371.6028558025
 30
0.0
 10
684.7390303642
 20
371.7640113908
 30
0.0
 10
684.3396620502
 20
371.925405827
 30
0.0
 10
684.0606600424
 20
372.0398457788
 30
0.0
  0
SPLINE
  5
522
100
AcDbEntity
  8
02___PRT_ALL_AXES
100
AcDbSpline
 62
7
  6
CONTINUOUS
 70
0
 71
3
 72
9
 73
5
 74
0
 42
0.0000001
 43
0.0000001
 44
0.0000000001
 40
0.0
 40
0.0
 40
0.0
 40
0.0
 40
0.2986907429
 40
1.0
 40
1.0
 40
1.0
 40
1.0
 10
631.3661870132
 20
661.3553595969
 30
0.0
 10
631.3661869881
 20
661.2260201378
 30
0.0
 10
631.3669142267
 20
660.7930033326
 30
0.0
 10
631.3683770549
 20
660.3599599202
 30
0.0
 10
631.3735174487
 20
660.0563215699
 30
0.0
  0
SPLINE
  5
523
100
AcDbEntity
  8
02___PRT_ALL_AXES
100
AcDbSpline
 62
7
  6
CONTINUOUS
 70
0
 71
3
 72
9
 73
5
 74
0
 42
0.0000001
 43
0.0000001
 44
0.0000000001
 40
0.0
 40
0.0
 40
0.0
 40
0.0
 40
0.2999020624
 40
1.0
 40
1.0
 40
1.0
 40
1.0
 10
685.2582546729
 20
624.9603155498
 30
0.0
 10
685.1384240662
 20
624.9120488618
 30
0.0
 10
684.7389614624
 20
624.7508529779
 30
0.0
 10
684.3395861411
 20
624.5894296431
 30
0.0
 10
684.0605869293
 20
624.4749445778
 30
0.0
  0
SPLINE
  5
524
100
AcDbEntity
  8
02___PRT_ALL_AXES
100
AcDbSpline
 62
7
  6
CONTINUOUS
 70
0
 71
3
 72
9
 73
5
 74
0
 42
0.0000001
 43
0.0000001
 44
0.0000000001
 40
0.0
 40
0.0
 40
0.0
 40
0.0
 40
0.2986909486
 40
1.0
 40
1.0
 40
1.0
 40
1.0
 10
1428.7450988764
 20
335.1592132819
 30
0.0
 10
1428.7451442467
 20
335.2885523067
 30
0.0
 10
1428.7445056885
 20
335.72156621
 30
0.0
 10
1428.7434373008
 20
336.1546162682
 30
0.0
 10
1428.7378978517
 20
336.4582463006
 30
0.0
  0
SPLINE
  5
525
100
AcDbEntity
  8
02___PRT_ALL_AXES
100
AcDbSpline
 62
7
  6
CONTINUOUS
 70
0
 71
3
 72
9
 73
5
 74
0
 42
0.0000001
 43
0.0000001
 44
0.0000000001
 40
0.0
 40
0.0
 40
0.0
 40
0.0
 40
0.2986907589
 40
1.0
 40
1.0
 40
1.0
 40
1.0
 10
1231.3661862737
 20
335.1592077734
 30
0.0
 10
1231.3661862786
 20
335.2885472047
 30
0.0
 10
1231.36545897
 20
335.7215638928
 30
0.0
 10
1231.3639960829
 20
336.1546071888
 30
0.0
 10
1231.358855596
 20
336.4582454488
 30
0.0
  0
SPLINE
  5
526
100
AcDbEntity
  8
02___PRT_ALL_AXES
100
AcDbSpline
 62
7
  6
CONTINUOUS
 70
0
 71
3
 72
9
 73
5
 74
0
 42
0.0000001
 43
0.0000001
 44
0.0000000001
 40
0.0
 40
0.0
 40
0.0
 40
0.0
 40
0.2986200451
 40
1.0
 40
1.0
 40
1.0
 40
1.0
 10
249.7938271023
 20
422.6508621457
 30
0.0
 10
249.8008165936
 20
422.5217016762
 30
0.0
 10
249.8249356135
 20
422.089220069
 30
0.0
 10
249.849846775
 20
421.656756431
 30
0.0
 10
249.8712909246
 20
421.3537063507
 30
0.0
  0
SPLINE
  5
527
100
AcDbEntity
  8
02___PRT_ALL_AXES
100
AcDbSpline
 62
7
  6
CONTINUOUS
 70
0
 71
3
 72
9
 73
5
 74
0
 42
0.0000001
 43
0.0000001
 44
0.0000000001
 40
0.0
 40
0.0
 40
0.0
 40
0.0
 40
0.2986201918
 40
1.0
 40
1.0
 40
1.0
 40
1.0
 10
682.1939603498
 20
446.0238389351
 30
0.0
 10
682.2009377795
 20
445.8946780613
 30
0.0
 10
682.2250274438
 20
445.4621960608
 30
0.0
 10
682.2498590095
 20
445.0297278093
 30
0.0
 10
682.2713577281
 20
444.7266823912
 30
0.0
  0
SPLINE
  5
528
100
AcDbEntity
  8
02___PRT_ALL_AXES
100
AcDbSpline
 62
7
  6
CONTINUOUS
 70
0
 71
3
 72
9
 73
5
 74
0
 42
0.0000001
 43
0.0000001
 44
0.0000000001
 40
0.0
 40
0.0
 40
0.0
 40
0.0
 40
0.2999047716
 40
1.0
 40
1.0
 40
1.0
 40
1.0
 10
1177.4740502677
 20
371.5545990597
 30
0.0
 10
1177.5938792399
 20
371.6028578203
 30
0.0
 10
1177.9933333381
 20
371.7640245366
 30
0.0
 10
1178.3926951654
 20
371.9254307417
 30
0.0
 10
1178.6716946561
 20
372.0398773361
 30
0.0
  0
SPLINE
  5
529
100
AcDbEntity
  8
02___PRT_ALL_AXES
100
AcDbSpline
 62
7
  6
CONTINUOUS
 70
0
 71
3
 72
9
 73
5
 74
0
 42
0.0000001
 43
0.0000001
 44
0.0000000001
 40
0.0
 40
0.0
 40
0.0
 40
0.0
 40
0.2985316194
 40
1.0
 40
1.0
 40
1.0
 40
1.0
 10
1184.7133546362
 20
380.9780561401
 30
0.0
 10
1184.6975697434
 20
380.8496615759
 30
0.0
 10
1184.6440079213
 20
380.4196628868
 30
0.0
 10
1184.589584503
 20
379.9897476884
 30
0.0
 10
1184.5476682592
 20
379.6886878441
 30
0.0
  0
SPLINE
  5
52A
100
AcDbEntity
  8
02___PRT_ALL_AXES
100
AcDbSpline
 62
7
  6
CONTINUOUS
 70
0
 71
3
 72
9
 73
5
 74
0
 42
0.0000001
 43
0.0000001
 44
0.0000000001
 40
0.0
 40
0.0
 40
0.0
 40
0.0
 40
0.2985333202
 40
1.0
 40
1.0
 40
1.0
 40
1.0
 10
1429.7079424714
 20
350.8964577859
 30
0.0
 10
1429.692175694
 20
350.7680640503
 30
0.0
 10
1429.6386454755
 20
350.3380747046
 30
0.0
 10
1429.5843848426
 20
349.9081486447
 30
0.0
 10
1429.5422743171
 20
349.6071255997
 30
0.0
  0
SPLINE
  5
52B
100
AcDbEntity
  8
02___PRT_ALL_AXES
100
AcDbSpline
 62
7
  6
CONTINUOUS
 70
0
 71
3
 72
9
 73
5
 74
0
 42
0.0000001
 43
0.0000001
 44
0.0000000001
 40
0.0
 40
0.0
 40
0.0
 40
0.0
 40
0.2988495834
 40
1.0
 40
1.0
 40
1.0
 40
1.0
 10
1579.1964077686
 20
340.4040619701
 30
0.0
 10
1579.2121664098
 20
340.532417333
 30
0.0
 10
1579.2641796097
 20
340.961999163
 30
0.0
 10
1579.3154811592
 20
341.3916949985
 30
0.0
 10
1579.347376152
 20
341.6934178577
 30
0.0
  0
SPLINE
  5
52C
100
AcDbEntity
  8
02___PRT_ALL_AXES
100
AcDbSpline
 62
7
  6
CONTINUOUS
 70
0
 71
3
 72
9
 73
5
 74
0
 42
0.0000001
 43
0.0000001
 44
0.0000000001
 40
0.0
 40
0.0
 40
0.0
 40
0.0
 40
0.2988502932
 40
1.0
 40
1.0
 40
1.0
 40
1.0
 10
1179.3256138583
 20
389.5020444841
 30
0.0
 10
1179.3413697893
 20
389.630398605
 30
0.0
 10
1179.3933737197
 20
390.0599752499
 30
0.0
 10
1179.4446638768
 20
390.4896661681
 30
0.0
 10
1179.4765492941
 20
390.7913853184
 30
0.0
  0
SPLINE
  5
52D
100
AcDbEntity
  8
02___PRT_ALL_AXES
100
AcDbSpline
 62
7
  6
CONTINUOUS
 70
0
 71
3
 72
9
 73
5
 74
0
 42
0.0000001
 43
0.0000001
 44
0.0000000001
 40
0.0
 40
0.0
 40
0.0
 40
0.0
 40
0.2985732621
 40
1.0
 40
1.0
 40
1.0
 40
1.0
 10
1180.7851869253
 20
413.7415413947
 30
0.0
 10
1180.7735656531
 20
413.6127084869
 30
0.0
 10
1180.7339433545
 20
413.1812805222
 30
0.0
 10
1180.693494622
 20
412.7499034821
 30
0.0
 10
1180.6612675342
 20
412.4477260492
 30
0.0
  0
SPLINE
  5
52E
100
AcDbEntity
  8
02___PRT_ALL_AXES
100
AcDbSpline
 62
7
  6
CONTINUOUS
 70
0
 71
3
 72
9
 73
5
 74
0
 42
0.0000001
 43
0.0000001
 44
0.0000000001
 40
0.0
 40
0.0
 40
0.0
 40
0.0
 40
0.2988496995
 40
1.0
 40
1.0
 40
1.0
 40
1.0
 10
683.4068469888
 20
389.5020389518
 30
0.0
 10
683.3910840088
 20
389.6303932989
 30
0.0
 10
683.3390625327
 20
390.0599722159
 30
0.0
 10
683.2877220418
 20
390.4896622913
 30
0.0
 10
683.2558668122
 20
390.7913880508
 30
0.0
  0
SPLINE
  5
52F
100
AcDbEntity
  8
02___PRT_ALL_AXES
100
AcDbSpline
 62
7
  6
CONTINUOUS
 70
0
 71
3
 72
9
 73
5
 74
0
 42
0.0000001
 43
0.0000001
 44
0.0000000001
 40
0.0
 40
0.0
 40
0.0
 40
0.0
 40
0.2985757739
 40
1.0
 40
1.0
 40
1.0
 40
1.0
 10
1606.7970567006
 20
375.3620297182
 30
0.0
 10
1606.7854516204
 20
375.2331996308
 30
0.0
 10
1606.7458627576
 20
374.8017869821
 30
0.0
 10
1606.7055381872
 20
374.3704142087
 30
0.0
 10
1606.6731835073
 20
374.0682641474
 30
0.0
  0
SPLINE
  5
530
100
AcDbEntity
  8
02___PRT_ALL_AXES
100
AcDbSpline
 62
7
  6
CONTINUOUS
 70
0
 71
3
 72
9
 73
5
 74
0
 42
0.0000001
 43
0.0000001
 44
0.0000000001
 40
0.0
 40
0.0
 40
0.0
 40
0.0
 40
0.2975647582
 40
1.0
 40
1.0
 40
1.0
 40
1.0
 10
1612.2153261844
 20
365.1551438961
 30
0.0
 10
1612.1020148453
 20
365.2177801959
 30
0.0
 10
1611.7210523572
 20
365.4279724105
 30
0.0
 10
1611.3399130805
 20
365.6378577124
 30
0.0
 10
1611.0712321332
 20
365.7835318566
 30
0.0
  0
SPLINE
  5
531
100
AcDbEntity
  8
02___PRT_ALL_AXES
100
AcDbSpline
 62
7
  6
CONTINUOUS
 70
0
 71
3
 72
9
 73
5
 74
0
 42
0.0000001
 43
0.0000001
 44
0.0000000001
 40
0.0
 40
0.0
 40
0.0
 40
0.0
 40
0.2980605048
 40
1.0
 40
1.0
 40
1.0
 40
1.0
 10
1589.4132809816
 20
342.3776809108
 30
0.0
 10
1589.3507978796
 20
342.4910252079
 30
0.0
 10
1589.1406112731
 20
342.8709885621
 30
0.0
 10
1588.9298280737
 20
343.2506456402
 30
0.0
 10
1588.7787760622
 20
343.5153851062
 30
0.0
  0
SPLINE
  5
532
100
AcDbEntity
  8
0
100
AcDbSpline
 62
7
  6
CONTINUOUS
 70
0
 71
3
 72
9
 73
5
 74
0
 42
0.0000001
 43
0.0000001
 44
0.0000000001
 40
0.0
 40
0.0
 40
0.0
 40
0.0
 40
0.4934312409
 40
1.0
 40
1.0
 40
1.0
 40
1.0
 10
1680.4919223336
 20
759.9572834782
 30
0.0
 10
1680.4843777621
 20
759.9734703177
 30
0.0
 10
1680.474147956
 20
760.008780883
 30
0.0
 10
1680.4733279729
 20
760.0453112034
 30
0.0
 10
1680.4747840507
 20
760.0635875104
 30
0.0
  0
SPLINE
  5
533
100
AcDbEntity
  8
02___PRT_ALL_AXES
100
AcDbSpline
 62
7
  6
CONTINUOUS
 70
0
 71
3
 72
9
 73
5
 74
0
 42
0.0000001
 43
0.0000001
 44
0.0000000001
 40
0.0
 40
0.0
 40
0.0
 40
0.0
 40
0.2988537764
 40
1.0
 40
1.0
 40
1.0
 40
1.0
 10
283.5360447377
 20
340.4041814983
 30
0.0
 10
283.5202832567
 20
340.5325290358
 30
0.0
 10
283.4682604209
 20
340.9620785992
 30
0.0
 10
283.4169547068
 20
341.391742656
 30
0.0
 10
283.385041443
 20
341.6934399702
 30
0.0
  0
SPLINE
  5
534
100
AcDbEntity
  8
02___PRT_ALL_AXES
100
AcDbSpline
 62
7
  6
CONTINUOUS
 70
0
 71
3
 72
9
 73
5
 74
0
 42
0.0000001
 43
0.0000001
 44
0.0000000001
 40
0.0
 40
0.0
 40
0.0
 40
0.0
 40
0.2988070073
 40
1.0
 40
1.0
 40
1.0
 40
1.0
 10
1611.9473460702
 20
382.7335196976
 30
0.0
 10
1611.958936861
 20
382.8623247003
 30
0.0
 10
1611.997022614
 20
383.2934481772
 30
0.0
 10
1612.0342847679
 20
383.7246697273
 30
0.0
 10
1612.0565235683
 20
384.0273343363
 30
0.0
  0
SPLINE
  5
535
100
AcDbEntity
  8
02___PRT_ALL_AXES
100
AcDbSpline
 62
7
  6
CONTINUOUS
 70
0
 71
3
 72
9
 73
5
 74
0
 42
0.0000001
 43
0.0000001
 44
0.0000000001
 40
0.0
 40
0.0
 40
0.0
 40
0.0
 40
0.2988075895
 40
1.0
 40
1.0
 40
1.0
 40
1.0
 10
1179.5472799425
 20
421.6884969156
 30
0.0
 10
1179.5588821592
 20
421.8172997604
 30
0.0
 10
1179.5969881916
 20
422.2484164452
 30
0.0
 10
1179.6343724798
 20
422.6796247906
 30
0.0
 10
1179.6564899563
 20
422.9822947979
 30
0.0
  0
SPLINE
  5
536
100
AcDbEntity
  8
02___PRT_ALL_AXES
100
AcDbSpline
 62
7
  6
CONTINUOUS
 70
0
 71
3
 72
9
 73
5
 74
0
 42
0.0000001
 43
0.0000001
 44
0.0000000001
 40
0.0
 40
0.0
 40
0.0
 40
0.0
 40
0.2987603892
 40
1.0
 40
1.0
 40
1.0
 40
1.0
 10
682.9385457023
 20
453.8793015841
 30
0.0
 10
682.9315571628
 20
454.0084440652
 30
0.0
 10
682.9089027928
 20
454.4407402577
 30
0.0
 10
682.8869229038
 20
454.8731012309
 30
0.0
 10
682.8757432854
 20
455.176457379
 30
0.0
  0
SPLINE
  5
537
100
AcDbEntity
  8
02___PRT_ALL_AXES
100
AcDbSpline
 62
7
  6
CONTINUOUS
 70
0
 71
3
 72
9
 73
5
 74
0
 42
0.0000001
 43
0.0000001
 44
0.0000000001
 40
0.0
 40
0.0
 40
0.0
 40
0.0
 40
0.2986201951
 40
1.0
 40
1.0
 40
1.0
 40
1.0
 10
1180.538412946
 20
446.023838898
 30
0.0
 10
1180.5314422631
 20
445.8946776466
 30
0.0
 10
1180.5073580981
 20
445.4621957161
 30
0.0
 10
1180.4826504178
 20
445.0297181193
 30
0.0
 10
1180.4610155538
 20
444.7266823638
 30
0.0
  0
SPLINE
  5
538
100
AcDbEntity
  8
02___PRT_ALL_AXES
100
AcDbSpline
 62
7
  6
CONTINUOUS
 70
0
 71
3
 72
9
 73
5
 74
0
 42
0.0000001
 43
0.0000001
 44
0.0000000001
 40
0.0
 40
0.0
 40
0.0
 40
0.0
 40
0.2986199798
 40
1.0
 40
1.0
 40
1.0
 40
1.0
 10
1612.9385460124
 20
422.6508621347
 30
0.0
 10
1612.9315631147
 20
422.5217013258
 30
0.0
 10
1612.9074543769
 20
422.0892193353
 30
0.0
 10
1612.8826066731
 20
421.6567507747
 30
0.0
 10
1612.8610821864
 20
421.3537063351
 30
0.0
  0
SPLINE
  5
539
100
AcDbEntity
  8
02___PRT_ALL_AXES
100
AcDbSpline
 62
7
  6
CONTINUOUS
 70
0
 71
3
 72
9
 73
5
 74
0
 42
0.0000001
 43
0.0000001
 44
0.0000000001
 40
0.0
 40
0.0
 40
0.0
 40
0.0
 40
0.2987599681
 40
1.0
 40
1.0
 40
1.0
 40
1.0
 10
1612.1938256135
 20
430.5063190549
 30
0.0
 10
1612.2008165601
 20
430.6354620362
 30
0.0
 10
1612.2234766465
 20
431.0677606299
 30
0.0
 10
1612.2454584396
 20
431.5001243591
 30
0.0
 10
1612.2566291223
 20
431.8034829256
 30
0.0
  0
SPLINE
  5
53A
100
AcDbEntity
  8
02___PRT_ALL_AXES
100
AcDbSpline
 62
7
  6
CONTINUOUS
 70
0
 71
3
 72
9
 73
5
 74
0
 42
0.0000001
 43
0.0000001
 44
0.0000000001
 40
0.0
 40
0.0
 40
0.0
 40
0.0
 40
0.2987621553
 40
1.0
 40
1.0
 40
1.0
 40
1.0
 10
1179.7939173204
 20
453.8793414969
 30
0.0
 10
1179.8008954659
 20
454.0084815559
 30
0.0
 10
1179.8235264416
 20
454.4407666452
 30
0.0
 10
1179.8454291514
 20
454.8731177857
 30
0.0
 10
1179.8566736794
 20
455.1764619752
 30
0.0
  0
SPLINE
  5
53B
100
AcDbEntity
  8
02___PRT_ALL_AXES
100
AcDbSpline
 62
7
  6
CONTINUOUS
 70
0
 71
3
 72
9
 73
5
 74
0
 42
0.0000001
 43
0.0000001
 44
0.0000000001
 40
0.0
 40
0.0
 40
0.0
 40
0.0
 40
0.2986663774
 40
1.0
 40
1.0
 40
1.0
 40
1.0
 10
1180.2904716589
 20
478.2471948342
 30
0.0
 10
1180.2881357135
 20
478.1178718554
 30
0.0
 10
1180.2795948452
 20
477.6848877738
 30
0.0
 10
1180.2702994994
 20
477.2518915309
 30
0.0
 10
1180.2597304986
 20
476.9483474525
 30
0.0
  0
SPLINE
  5
53C
100
AcDbEntity
  8
02___PRT_ALL_AXES
100
AcDbSpline
 62
7
  6
CONTINUOUS
 70
0
 71
3
 72
9
 73
5
 74
0
 42
0.0000001
 43
0.0000001
 44
0.0000000001
 40
0.0
 40
0.0
 40
0.0
 40
0.0
 40
0.2986686888
 40
1.0
 40
1.0
 40
1.0
 40
1.0
 10
1612.6904215686
 20
470.4561471816
 30
0.0
 10
1612.6880928882
 20
470.3268279133
 30
0.0
 10
1612.6795692381
 20
469.893859814
 30
0.0
 10
1612.6703086708
 20
469.4608784382
 30
0.0
 10
1612.6597058151
 20
469.1573479187
 30
0.0
  0
SPLINE
  5
53D
100
AcDbEntity
  8
02___PRT_ALL_AXES
100
AcDbSpline
 62
7
  6
CONTINUOUS
 70
0
 71
3
 72
9
 73
5
 74
0
 42
0.0000001
 43
0.0000001
 44
0.0000000001
 40
0.0
 40
0.0
 40
0.0
 40
0.0
 40
0.2987139024
 40
1.0
 40
1.0
 40
1.0
 40
1.0
 10
1612.4420104623
 20
478.2657628508
 30
0.0
 10
1612.4443289578
 20
478.3950791151
 30
0.0
 10
1612.4513810095
 20
478.8279978431
 30
0.0
 10
1612.4575818455
 20
479.2609556034
 30
0.0
 10
1612.458035312
 20
479.5645978872
 30
0.0
  0
SPLINE
  5
53E
100
AcDbEntity
  8
02___PRT_ALL_AXES
100
AcDbSpline
 62
7
  6
CONTINUOUS
 70
0
 71
3
 72
9
 73
5
 74
0
 42
0.0000001
 43
0.0000001
 44
0.0000000001
 40
0.0
 40
0.0
 40
0.0
 40
0.0
 40
0.2987135232
 40
1.0
 40
1.0
 40
1.0
 40
1.0
 10
1180.0418863553
 20
486.0567474676
 30
0.0
 10
1180.044217585
 20
486.1860640383
 30
0.0
 10
1180.0512945418
 20
486.6189843041
 30
0.0
 10
1180.0576396341
 20
487.051944396
 30
0.0
 10
1180.0579731853
 20
487.3555886416
 30
0.0
  0
SPLINE
  5
53F
100
AcDbEntity
  8
02___PRT_ALL_AXES
100
AcDbSpline
 62
7
  6
CONTINUOUS
 70
0
 71
3
 72
9
 73
5
 74
0
 42
0.0000001
 43
0.0000001
 44
0.0000000001
 40
0.0
 40
0.0
 40
0.0
 40
0.0
 40
0.2980647995
 40
1.0
 40
1.0
 40
1.0
 40
1.0
 10
273.3190579142
 20
342.3779089078
 30
0.0
 10
273.3815442907
 20
342.4912444522
 30
0.0
 10
273.5917396017
 20
342.8711724303
 30
0.0
 10
273.8025207243
 20
343.2508006078
 30
0.0
 10
273.953607657
 20
343.515496444
 30
0.0
  0
SPLINE
  5
540
100
AcDbEntity
  8
02___PRT_ALL_AXES
100
AcDbSpline
 62
7
  6
CONTINUOUS
 70
0
 71
3
 72
9
 73
5
 74
0
 42
0.0000001
 43
0.0000001
 44
0.0000000001
 40
0.0
 40
0.0
 40
0.0
 40
0.0
 40
0.2987604727
 40
1.0
 40
1.0
 40
1.0
 40
1.0
 10
250.5384124557
 20
430.5063247947
 30
0.0
 10
250.5314359772
 20
430.6354677094
 30
0.0
 10
250.508810907
 20
431.0677647898
 30
0.0
 10
250.4869108306
 20
431.500127845
 30
0.0
 10
250.4756765012
 20
431.8034813386
 30
0.0
  0
SPLINE
  5
541
100
AcDbEntity
  8
02___PRT_ALL_AXES
100
AcDbSpline
 62
7
  6
CONTINUOUS
 70
0
 71
3
 72
9
 73
5
 74
0
 42
0.0000001
 43
0.0000001
 44
0.0000000001
 40
0.0
 40
0.0
 40
0.0
 40
0.0
 40
0.2975537872
 40
1.0
 40
1.0
 40
1.0
 40
1.0
 10
250.5170534423
 20
365.1552054618
 30
0.0
 10
250.630381227
 20
365.2178579419
 30
0.0
 10
251.0114151333
 20
365.4281085507
 30
0.0
 10
251.3926344023
 20
365.6380364747
 30
0.0
 10
251.6613656399
 20
365.7837615786
 30
0.0
  0
SPLINE
  5
542
100
AcDbEntity
  8
02___PRT_ALL_AXES
100
AcDbSpline
 62
7
  6
CONTINUOUS
 70
0
 71
3
 72
9
 73
5
 74
0
 42
0.0000001
 43
0.0000001
 44
0.0000000001
 40
0.0
 40
0.0
 40
0.0
 40
0.0
 40
0.2985733521
 40
1.0
 40
1.0
 40
1.0
 40
1.0
 10
255.935313108
 20
375.3620896681
 30
0.0
 10
255.9469114628
 20
375.2332549647
 30
0.0
 10
255.9864854394
 20
374.8018240524
 30
0.0
 10
256.026804385
 20
374.3704333665
 30
0.0
 10
256.05918949
 20
374.0682735934
 30
0.0
  0
SPLINE
  5
543
100
AcDbEntity
  8
02___PRT_ALL_AXES
100
AcDbSpline
 62
7
  6
CONTINUOUS
 70
0
 71
3
 72
9
 73
5
 74
0
 42
0.0000001
 43
0.0000001
 44
0.0000000001
 40
0.0
 40
0.0
 40
0.0
 40
0.0
 40
0.2985736388
 40
1.0
 40
1.0
 40
1.0
 40
1.0
 10
681.9473465564
 20
413.7415464264
 30
0.0
 10
681.9589487565
 20
413.6127124542
 30
0.0
 10
681.9985276371
 20
413.1812836104
 30
0.0
 10
682.0388469497
 20
412.7498952174
 30
0.0
 10
682.0711854516
 20
412.4477317774
 30
0.0
  0
SPLINE
  5
544
100
AcDbEntity
  8
02___PRT_ALL_AXES
100
AcDbSpline
 62
7
  6
CONTINUOUS
 70
0
 71
3
 72
9
 73
5
 74
0
 42
0.0000001
 43
0.0000001
 44
0.0000000001
 40
0.0
 40
0.0
 40
0.0
 40
0.0
 40
0.2986667071
 40
1.0
 40
1.0
 40
1.0
 40
1.0
 10
250.0418866515
 20
470.4561963752
 30
0.0
 10
250.0442233301
 20
470.3268738692
 30
0.0
 10
250.0527648497
 20
469.8938917602
 30
0.0
 10
250.0620821652
 20
469.4608982933
 30
0.0
 10
250.0726348762
 20
469.157355206
 30
0.0
  0
SPLINE
  5
545
100
AcDbEntity
  8
02___PRT_ALL_AXES
100
AcDbSpline
 62
7
  6
CONTINUOUS
 70
0
 71
3
 72
9
 73
5
 74
0
 42
0.0000001
 43
0.0000001
 44
0.0000000001
 40
0.0
 40
0.0
 40
0.0
 40
0.0
 40
0.298667048
 40
1.0
 40
1.0
 40
1.0
 40
1.0
 10
682.4420109531
 20
478.247181011
 30
0.0
 10
682.4443371698
 20
478.1178589174
 30
0.0
 10
682.4528520486
 20
477.6848789332
 30
0.0
 10
682.4621085953
 20
477.2518858956
 30
0.0
 10
682.4726972262
 20
476.948345966
 30
0.0
  0
SPLINE
  5
546
100
AcDbEntity
  8
02___PRT_ALL_AXES
100
AcDbSpline
 62
7
  6
CONTINUOUS
 70
0
 71
3
 72
9
 73
5
 74
0
 42
0.0000001
 43
0.0000001
 44
0.0000000001
 40
0.0
 40
0.0
 40
0.0
 40
0.0
 40
0.2988078777
 40
1.0
 40
1.0
 40
1.0
 40
1.0
 10
683.185136286
 20
421.6885059022
 30
0.0
 10
683.1735287158
 20
421.8173079562
 30
0.0
 10
683.1354117684
 20
422.2484220798
 30
0.0
 10
683.0979785235
 20
422.6796255032
 30
0.0
 10
683.0759047307
 20
422.9822975579
 30
0.0
  0
SPLINE
  5
547
100
AcDbEntity
  8
0
100
AcDbSpline
 62
7
  6
CONTINUOUS
 70
0
 71
3
 72
9
 73
5
 74
0
 42
0.0000001
 43
0.0000001
 44
0.0000000001
 40
0.0
 40
0.0
 40
0.0
 40
0.0
 40
0.4904749254
 40
1.0
 40
1.0
 40
1.0
 40
1.0
 10
1681.4717181023
 20
759.8209444456
 30
0.0
 10
1681.4568351343
 20
759.8062412441
 30
0.0
 10
1681.4251702579
 20
759.7775751046
 30
0.0
 10
1681.3910448523
 20
759.7518600219
 30
0.0
 10
1681.3730531611
 20
759.7396679797
 30
0.0
  0
SPLINE
  5
548
100
AcDbEntity
  8
0
100
AcDbSpline
 62
7
  6
CONTINUOUS
 70
0
 71
3
 72
8
 73
4
 74
0
 42
0.0000001
 43
0.0000001
 44
0.0000000001
 40
0.0
 40
0.0
 40
0.0
 40
0.0
 40
1.0
 40
1.0
 40
1.0
 40
1.0
 10
1681.3730531611
 20
759.7396679797
 30
0.0
 10
1681.267040259
 20
759.6678284976
 30
0.0
 10
1681.1112650461
 20
759.6282690515
 30
0.0
 10
1680.9936877408
 20
759.679015715
 30
0.0
  0
SPLINE
  5
549
100
AcDbEntity
  8
0
100
AcDbSpline
 62
7
  6
CONTINUOUS
 70
0
 71
3
 72
9
 73
5
 74
0
 42
0.0000001
 43
0.0000001
 44
0.0000000001
 40
0.0
 40
0.0
 40
0.0
 40
0.0
 40
0.5294794453
 40
1.0
 40
1.0
 40
1.0
 40
1.0
 10
1681.4717181023
 20
759.8209444456
 30
0.0
 10
1681.5127594785
 20
759.8614900961
 30
0.0
 10
1681.5941495102
 20
759.9341862002
 30
0.0
 10
1681.6800436465
 20
760.0012587742
 30
0.0
 10
1681.7207789172
 20
760.0323877348
 30
0.0
  0
SPLINE
  5
54A
100
AcDbEntity
  8
0
100
AcDbSpline
 62
7
  6
CONTINUOUS
 70
0
 71
3
 72
9
 73
5
 74
0
 42
0.0000001
 43
0.0000001
 44
0.0000000001
 40
0.0
 40
0.0
 40
0.0
 40
0.0
 40
0.619883892
 40
1.0
 40
1.0
 40
1.0
 40
1.0
 10
1681.7207789172
 20
760.0323877348
 30
0.0
 10
1681.7690754402
 20
760.069294831
 30
0.0
 10
1681.8470621836
 20
760.1281417432
 30
0.0
 10
1681.9254209523
 20
760.1884174324
 30
0.0
 10
1681.9502309822
 20
760.2162336477
 30
0.0
  0
SPLINE
  5
54B
100
AcDbEntity
  8
02___PRT_ALL_AXES
100
AcDbSpline
 62
7
  6
CONTINUOUS
 70
0
 71
3
 72
9
 73
5
 74
0
 42
0.0000001
 43
0.0000001
 44
0.0000000001
 40
0.0
 40
0.0
 40
0.0
 40
0.0
 40
0.2987139312
 40
1.0
 40
1.0
 40
1.0
 40
1.0
 10
1180.0418313884
 20
510.457806824
 30
0.0
 10
1180.0441727552
 20
510.3284912417
 30
0.0
 10
1180.0512656477
 20
509.8955749398
 30
0.0
 10
1180.057742415
 20
509.4626178676
 30
0.0
 10
1180.0579457472
 20
509.1589759885
 30
0.0
  0
SPLINE
  5
54C
100
AcDbEntity
  8
02___PRT_ALL_AXES
100
AcDbSpline
 62
7
  6
CONTINUOUS
 70
0
 71
3
 72
9
 73
5
 74
0
 42
0.0000001
 43
0.0000001
 44
0.0000000001
 40
0.0
 40
0.0
 40
0.0
 40
0.0
 40
0.2987134227
 40
1.0
 40
1.0
 40
1.0
 40
1.0
 10
1612.4419404954
 20
518.2488132232
 30
0.0
 10
1612.4442695379
 20
518.1194964924
 30
0.0
 10
1612.4513392797
 20
517.6865755556
 30
0.0
 10
1612.4576729362
 20
517.2536147566
 30
0.0
 10
1612.4580005635
 20
516.9499700754
 30
0.0
  0
SPLINE
  5
54D
100
AcDbEntity
  8
02___PRT_ALL_AXES
100
AcDbSpline
 62
7
  6
CONTINUOUS
 70
0
 71
3
 72
9
 73
5
 74
0
 42
0.0000001
 43
0.0000001
 44
0.0000000001
 40
0.0
 40
0.0
 40
0.0
 40
0.0
 40
0.2988069079
 40
1.0
 40
1.0
 40
1.0
 40
1.0
 10
250.7850262499
 20
382.7335196428
 30
0.0
 10
250.7734267077
 20
382.8623238307
 30
0.0
 10
250.73533004
 20
383.293446004
 30
0.0
 10
250.6979522354
 20
383.7246596889
 30
0.0
 10
250.6758487618
 20
384.0273342918
 30
0.0
  0
SPLINE
  5
54E
100
AcDbEntity
  8
02___PRT_ALL_AXES
100
AcDbSpline
 62
7
  6
CONTINUOUS
 70
0
 71
3
 72
9
 73
5
 74
0
 42
0.0000001
 43
0.0000001
 44
0.0000000001
 40
0.0
 40
0.0
 40
0.0
 40
0.0
 40
0.2986670895
 40
1.0
 40
1.0
 40
1.0
 40
1.0
 10
1612.6905414161
 20
526.0583832455
 30
0.0
 10
1612.6881999887
 20
526.187704863
 30
0.0
 10
1612.6796514188
 20
526.6206838226
 30
0.0
 10
1612.670248303
 20
527.0536710085
 30
0.0
 10
1612.6597656008
 20
527.3572140809
 30
0.0
  0
SPLINE
  5
54F
100
AcDbEntity
  8
02___PRT_ALL_AXES
100
AcDbSpline
 62
7
  6
CONTINUOUS
 70
0
 71
3
 72
9
 73
5
 74
0
 42
0.0000001
 43
0.0000001
 44
0.0000000001
 40
0.0
 40
0.0
 40
0.0
 40
0.0
 40
0.2986665905
 40
1.0
 40
1.0
 40
1.0
 40
1.0
 10
1180.290432309
 20
518.2673768462
 30
0.0
 10
1180.2881031895
 20
518.3966995799
 30
0.0
 10
1180.279577765
 20
518.8296823093
 30
0.0
 10
1180.2703176663
 20
519.2626784087
 30
0.0
 10
1180.2597108558
 20
519.5662199941
 30
0.0
  0
SPLINE
  5
550
100
AcDbEntity
  8
02___PRT_ALL_AXES
100
AcDbSpline
 62
7
  6
CONTINUOUS
 70
0
 71
3
 72
9
 73
5
 74
0
 42
0.0000001
 43
0.0000001
 44
0.0000000001
 40
0.0
 40
0.0
 40
0.0
 40
0.0
 40
0.2987608424
 40
1.0
 40
1.0
 40
1.0
 40
1.0
 10
1179.7937858333
 20
542.6352506128
 30
0.0
 10
1179.8007775146
 20
542.5061091663
 30
0.0
 10
1179.8234360546
 20
542.073816926
 30
0.0
 10
1179.8454807872
 20
541.6414618538
 30
0.0
 10
1179.85660862
 20
541.3381064862
 30
0.0
  0
SPLINE
  5
551
100
AcDbEntity
  8
02___PRT_ALL_AXES
100
AcDbSpline
 62
7
  6
CONTINUOUS
 70
0
 71
3
 72
9
 73
5
 74
0
 42
0.0000001
 43
0.0000001
 44
0.0000000001
 40
0.0
 40
0.0
 40
0.0
 40
0.0
 40
0.2987601745
 40
1.0
 40
1.0
 40
1.0
 40
1.0
 10
1612.1938740508
 20
566.0082460907
 30
0.0
 10
1612.2008541074
 20
565.8791028034
 30
0.0
 10
1612.2234920891
 20
565.4468040392
 30
0.0
 10
1612.2453974816
 20
565.0144391049
 30
0.0
 10
1612.2566532404
 20
564.7110846462
 30
0.0
  0
SPLINE
  5
552
100
AcDbEntity
  8
02___PRT_ALL_AXES
100
AcDbSpline
 62
7
  6
CONTINUOUS
 70
0
 71
3
 72
9
 73
5
 74
0
 42
0.0000001
 43
0.0000001
 44
0.0000000001
 40
0.0
 40
0.0
 40
0.0
 40
0.0
 40
0.2986204794
 40
1.0
 40
1.0
 40
1.0
 40
1.0
 10
1612.9385869713
 20
573.8637195701
 30
0.0
 10
1612.9315943582
 20
573.9928790163
 30
0.0
 10
1612.90747117
 20
574.4253570717
 30
0.0
 10
1612.8824953316
 20
574.8578126144
 30
0.0
 10
1612.8611027128
 20
575.1608636967
 30
0.0
  0
SPLINE
  5
553
100
AcDbEntity
  8
02___PRT_ALL_AXES
100
AcDbSpline
 62
7
  6
CONTINUOUS
 70
0
 71
3
 72
9
 73
5
 74
0
 42
0.0000001
 43
0.0000001
 44
0.0000000001
 40
0.0
 40
0.0
 40
0.0
 40
0.0
 40
0.2986197968
 40
1.0
 40
1.0
 40
1.0
 40
1.0
 10
1180.5384987532
 20
550.4907240922
 30
0.0
 10
1180.5315177588
 20
550.6198853476
 30
0.0
 10
1180.5074152144
 20
551.0523690943
 30
0.0
 10
1180.482578312
 20
551.4848397135
 30
0.0
 10
1180.4610581857
 20
551.7878855366
 30
0.0
  0
SPLINE
  5
554
100
AcDbEntity
  8
02___PRT_ALL_AXES
100
AcDbSpline
 62
7
  6
CONTINUOUS
 70
0
 71
3
 72
9
 73
5
 74
0
 42
0.0000001
 43
0.0000001
 44
0.0000000001
 40
0.0
 40
0.0
 40
0.0
 40
0.0
 40
0.2988079917
 40
1.0
 40
1.0
 40
1.0
 40
1.0
 10
1179.5472626965
 20
574.8260600409
 30
0.0
 10
1179.5588658452
 20
574.6972578206
 30
0.0
 10
1179.5969741992
 20
574.2661437535
 30
0.0
 10
1179.6343676115
 20
573.8349384947
 30
0.0
 10
1179.6564810501
 20
573.532270043
 30
0.0
  0
SPLINE
  5
555
100
AcDbEntity
  8
02___PRT_ALL_AXES
100
AcDbSpline
 62
7
  6
CONTINUOUS
 70
0
 71
3
 72
9
 73
5
 74
0
 42
0.0000001
 43
0.0000001
 44
0.0000000001
 40
0.0
 40
0.0
 40
0.0
 40
0.0
 40
0.2988067111
 40
1.0
 40
1.0
 40
1.0
 40
1.0
 10
1611.9472437545
 20
613.7810443528
 30
0.0
 10
1611.9588475549
 20
613.6522401369
 30
0.0
 10
1611.9969595935
 20
613.2211176186
 30
0.0
 10
1612.03434371
 20
612.7899030303
 30
0.0
 10
1612.0564727457
 20
612.4872290447
 30
0.0
  0
SPLINE
  5
556
100
AcDbEntity
  8
02___PRT_ALL_AXES
100
AcDbSpline
 62
7
  6
CONTINUOUS
 70
0
 71
3
 72
9
 73
5
 74
0
 42
0.0000001
 43
0.0000001
 44
0.0000000001
 40
0.0
 40
0.0
 40
0.0
 40
0.0
 40
0.2985737123
 40
1.0
 40
1.0
 40
1.0
 40
1.0
 10
1606.7971504674
 20
621.1524934624
 30
0.0
 10
1606.7855302814
 20
621.2813256845
 30
0.0
 10
1606.7459111602
 20
621.7127506759
 30
0.0
 10
1606.7054532868
 20
622.1441235168
 30
0.0
 10
1606.6732289236
 20
622.4462987393
 30
0.0
  0
SPLINE
  5
557
100
AcDbEntity
  8
02___PRT_ALL_AXES
100
AcDbSpline
 62
7
  6
CONTINUOUS
 70
0
 71
3
 72
9
 73
5
 74
0
 42
0.0000001
 43
0.0000001
 44
0.0000000001
 40
0.0
 40
0.0
 40
0.0
 40
0.0
 40
0.2985733266
 40
1.0
 40
1.0
 40
1.0
 40
1.0
 10
1180.7851290491
 20
582.7730234907
 30
0.0
 10
1180.7735225994
 20
582.9018575017
 30
0.0
 10
1180.7339283679
 20
583.3332867648
 30
0.0
 10
1180.6936026393
 20
583.7646766362
 30
0.0
 10
1180.6612386846
 20
584.0668387988
 30
0.0
  0
SPLINE
  5
558
100
AcDbEntity
  8
02___PRT_ALL_AXES
100
AcDbSpline
 62
7
  6
CONTINUOUS
 70
0
 71
3
 72
9
 73
5
 74
0
 42
0.0000001
 43
0.0000001
 44
0.0000000001
 40
0.0
 40
0.0
 40
0.0
 40
0.0
 40
0.2988498443
 40
1.0
 40
1.0
 40
1.0
 40
1.0
 10
1179.3254610625
 20
607.0125866314
 30
0.0
 10
1179.3412211143
 20
606.8842321503
 30
0.0
 10
1179.3932393452
 20
606.4546536727
 30
0.0
 10
1179.444543289
 20
606.0249609188
 30
0.0
 10
1179.4764446072
 20
605.7232407679
 30
0.0
  0
SPLINE
  5
559
100
AcDbEntity
  8
02___PRT_ALL_AXES
100
AcDbSpline
 62
7
  6
CONTINUOUS
 70
0
 71
3
 72
9
 73
5
 74
0
 42
0.0000001
 43
0.0000001
 44
0.0000000001
 40
0.0
 40
0.0
 40
0.0
 40
0.0
 40
0.2988543024
 40
1.0
 40
1.0
 40
1.0
 40
1.0
 10
1579.1878804363
 20
656.1148941852
 30
0.0
 10
1579.2036424096
 20
655.9865476101
 30
0.0
 10
1579.2556666425
 20
655.5570020065
 30
0.0
 10
1579.3069745233
 20
655.1273419579
 30
0.0
 10
1579.3388861098
 20
654.825647344
 30
0.0
  0
SPLINE
  5
55A
100
AcDbEntity
  8
02___PRT_ALL_AXES
100
AcDbSpline
 62
7
  6
CONTINUOUS
 70
0
 71
3
 72
9
 73
5
 74
0
 42
0.0000001
 43
0.0000001
 44
0.0000000001
 40
0.0
 40
0.0
 40
0.0
 40
0.0
 40
0.2980625489
 40
1.0
 40
1.0
 40
1.0
 40
1.0
 10
1589.4017187848
 20
654.1430838298
 30
0.0
 10
1589.3392546793
 20
654.0297345882
 30
0.0
 10
1589.1291322149
 20
653.6497578179
 30
0.0
 10
1588.918426374
 20
653.2700792175
 30
0.0
 10
1588.7673824943
 20
653.0053516618
 30
0.0
  0
SPLINE
  5
55B
100
AcDbEntity
  8
02___PRT_ALL_AXES
100
AcDbSpline
 62
7
  6
CONTINUOUS
 70
0
 71
3
 72
9
 73
5
 74
0
 42
0.0000001
 43
0.0000001
 44
0.0000000001
 40
0.0
 40
0.0
 40
0.0
 40
0.0
 40
0.2975527328
 40
1.0
 40
1.0
 40
1.0
 40
1.0
 10
1612.2152715162
 20
631.3594335459
 30
0.0
 10
1612.1019440276
 20
631.2967767965
 30
0.0
 10
1611.720910032
 20
631.0865105652
 30
0.0
 10
1611.3396879855
 20
630.8765720367
 30
0.0
 10
1611.0709608135
 20
630.7308272544
 30
0.0
  0
SPLINE
  5
55C
100
AcDbEntity
  8
02___PRT_ALL_AXES
100
AcDbSpline
 62
7
  6
CONTINUOUS
 70
0
 71
3
 72
9
 73
5
 74
0
 42
0.0000001
 43
0.0000001
 44
0.0000000001
 40
0.0
 40
0.0
 40
0.0
 40
0.0
 40
0.2985326168
 40
1.0
 40
1.0
 40
1.0
 40
1.0
 10
1184.7132846311
 20
615.5366846303
 30
0.0
 10
1184.6975241481
 20
615.6650804607
 30
0.0
 10
1184.6440161258
 20
616.095078074
 30
0.0
 10
1184.589771395
 20
616.5250113401
 30
0.0
 10
1184.5476962965
 20
616.8260434828
 30
0.0
  0
SPLINE
  5
55D
100
AcDbEntity
  8
02___PRT_ALL_AXES
100
AcDbSpline
 62
7
  6
CONTINUOUS
 70
0
 71
3
 72
9
 73
5
 74
0
 42
0.0000001
 43
0.0000001
 44
0.0000000001
 40
0.0
 40
0.0
 40
0.0
 40
0.0
 40
0.2998976246
 40
1.0
 40
1.0
 40
1.0
 40
1.0
 10
1177.4740557177
 20
624.9600329153
 30
0.0
 10
1177.5939010094
 20
624.911795161
 30
0.0
 10
1177.9934192196
 20
624.7506949485
 30
0.0
 10
1178.3928459485
 20
624.5893570101
 30
0.0
 10
1178.6718922623
 20
624.4749526659
 30
0.0
  0
SPLINE
  5
55E
100
AcDbEntity
  8
02___PRT_ALL_AXES
100
AcDbSpline
 62
7
  6
CONTINUOUS
 70
0
 71
3
 72
9
 73
5
 74
0
 42
0.0000001
 43
0.0000001
 44
0.0000000001
 40
0.0
 40
0.0
 40
0.0
 40
0.0
 40
0.2986908334
 40
1.0
 40
1.0
 40
1.0
 40
1.0
 10
1231.3661859111
 20
661.3553596509
 30
0.0
 10
1231.3661859803
 20
661.2260201478
 30
0.0
 10
1231.3654587847
 20
660.7930033292
 30
0.0
 10
1231.3639965932
 20
660.3599598869
 30
0.0
 10
1231.3588554159
 20
660.056321578
 30
0.0
  0
SPLINE
  5
55F
100
AcDbEntity
  8
02___PRT_ALL_AXES
100
AcDbSpline
 62
7
  6
CONTINUOUS
 70
0
 71
3
 72
9
 73
5
 74
0
 42
0.0000001
 43
0.0000001
 44
0.0000000001
 40
0.0
 40
0.0
 40
0.0
 40
0.0
 40
0.2986911069
 40
1.0
 40
1.0
 40
1.0
 40
1.0
 10
1428.716455374
 20
661.3553537754
 30
0.0
 10
1428.7164650776
 20
661.2260147183
 30
0.0
 10
1428.7157720457
 20
660.7929996643
 30
0.0
 10
1428.7143321389
 20
660.3599584055
 30
0.0
 10
1428.7092424891
 20
660.0563206715
 30
0.0
  0
SPLINE
  5
560
100
AcDbEntity
  8
02___PRT_ALL_AXES
100
AcDbSpline
 62
7
  6
CONTINUOUS
 70
0
 71
3
 72
9
 73
5
 74
0
 42
0.0000001
 43
0.0000001
 44
0.0000000001
 40
0.0
 40
0.0
 40
0.0
 40
0.0
 40
0.2985316507
 40
1.0
 40
1.0
 40
1.0
 40
1.0
 10
1429.6792413326
 20
645.6180637071
 30
0.0
 10
1429.6634874521
 20
645.7464617454
 30
0.0
 10
1429.6099851391
 20
646.1764658377
 30
0.0
 10
1429.5558184631
 20
646.6064168311
 30
0.0
 10
1429.5136240982
 20
646.9074369876
 30
0.0
  0
SPLINE
  5
561
100
AcDbEntity
  8
02___PRT_ALL_AXES
100
AcDbSpline
 62
7
  6
CONTINUOUS
 70
0
 71
3
 72
9
 73
5
 74
0
 42
0.0000001
 43
0.0000001
 44
0.0000000001
 40
0.0
 40
0.0
 40
0.0
 40
0.0
 40
0.2980819128
 40
1.0
 40
1.0
 40
1.0
 40
1.0
 10
274.5989975248
 20
651.8678017984
 30
0.0
 10
274.5365569277
 20
651.9811453843
 30
0.0
 10
274.3265276312
 20
652.3610790435
 30
0.0
 10
274.1159037242
 20
652.7407078507
 30
0.0
 10
273.964960472
 20
653.0054161476
 30
0.0
  0
SPLINE
  5
562
100
AcDbEntity
  8
02___PRT_ALL_AXES
100
AcDbSpline
 62
7
  6
CONTINUOUS
 70
0
 71
3
 72
9
 73
5
 74
0
 42
0.0000001
 43
0.0000001
 44
0.0000000001
 40
0.0
 40
0.0
 40
0.0
 40
0.0
 40
0.2988493745
 40
1.0
 40
1.0
 40
1.0
 40
1.0
 10
283.2424699229
 20
653.5363159084
 30
0.0
 10
283.2582301964
 20
653.6646709484
 30
0.0
 10
283.3102491055
 20
654.0942519892
 30
0.0
 10
283.3615534557
 20
654.5239473479
 30
0.0
 10
283.393454488
 20
654.8256695858
 30
0.0
  0
SPLINE
  5
563
100
AcDbEntity
  8
02___PRT_ALL_AXES
100
AcDbSpline
 62
7
  6
CONTINUOUS
 70
0
 71
3
 72
8
 73
4
 74
0
 42
0.0000001
 43
0.0000001
 44
0.0000000001
 40
0.0
 40
0.0
 40
0.0
 40
0.0
 40
1.0
 40
1.0
 40
1.0
 40
1.0
 10
283.3934539648
 20
654.8256654208
 30
0.0
 10
280.2163537306
 20
655.2151392153
 30
0.0
 10
276.7684532602
 20
654.5501125873
 30
0.0
 10
273.9648699892
 20
653.0055814035
 30
0.0
  0
SPLINE
  5
564
100
AcDbEntity
  8
02___PRT_ALL_AXES
100
AcDbSpline
 62
7
  6
CONTINUOUS
 70
0
 71
3
 72
9
 73
5
 74
0
 42
0.0000001
 43
0.0000001
 44
0.0000000001
 40
0.0
 40
0.0
 40
0.0
 40
0.0
 40
0.2988498101
 40
1.0
 40
1.0
 40
1.0
 40
1.0
 10
683.1049437814
 20
604.4338882277
 30
0.0
 10
683.1207041146
 20
604.562243752
 30
0.0
 10
683.1727231366
 20
604.9918257884
 30
0.0
 10
683.2240276407
 20
605.4215221388
 30
0.0
 10
683.255928664
 20
605.7232448946
 30
0.0
  0
SPLINE
  5
565
100
AcDbEntity
  8
02___PRT_ALL_AXES
100
AcDbSpline
 62
7
  6
CONTINUOUS
 70
0
 71
3
 72
9
 73
5
 74
0
 42
0.0000001
 43
0.0000001
 44
0.0000000001
 40
0.0
 40
0.0
 40
0.0
 40
0.0
 40
0.2985769725
 40
1.0
 40
1.0
 40
1.0
 40
1.0
 10
682.1950230526
 20
585.3606398614
 30
0.0
 10
682.1834177955
 20
585.2318065756
 30
0.0
 10
682.1438283846
 20
584.8003849547
 30
0.0
 10
682.103501699
 20
584.3690033645
 30
0.0
 10
682.0711466427
 20
584.0668475289
 30
0.0
  0
SPLINE
  5
566
100
AcDbEntity
  8
02___PRT_ALL_AXES
100
AcDbSpline
 62
7
  6
CONTINUOUS
 70
0
 71
3
 72
9
 73
5
 74
0
 42
0.0000001
 43
0.0000001
 44
0.0000000001
 40
0.0
 40
0.0
 40
0.0
 40
0.0
 40
0.2985732714
 40
1.0
 40
1.0
 40
1.0
 40
1.0
 10
256.1830647272
 20
623.7400955664
 30
0.0
 10
256.1714592864
 20
623.6112628722
 30
0.0
 10
256.1318689582
 20
623.1798378676
 30
0.0
 10
256.0915414989
 20
622.7484528891
 30
0.0
 10
256.0591862734
 20
622.4462930237
 30
0.0
  0
SPLINE
  5
567
100
AcDbEntity
  8
02___PRT_ALL_AXES
100
AcDbSpline
 62
7
  6
CONTINUOUS
 70
0
 71
3
 72
9
 73
5
 74
0
 42
0.0000001
 43
0.0000001
 44
0.0000000001
 40
0.0
 40
0.0
 40
0.0
 40
0.0
 40
0.2975536381
 40
1.0
 40
1.0
 40
1.0
 40
1.0
 10
252.8053852457
 20
630.1026635185
 30
0.0
 10
252.6920729878
 20
630.1652916234
 30
0.0
 10
252.3110917371
 20
630.3754615941
 30
0.0
 10
251.9299217479
 20
630.5853023656
 30
0.0
 10
251.6612371294
 20
630.7309882019
 30
0.0
  0
SPLINE
  5
568
100
AcDbEntity
  8
02___PRT_ALL_AXES
100
AcDbSpline
 62
7
  6
CONTINUOUS
 70
0
 71
3
 72
9
 73
5
 74
0
 42
0.0000001
 43
0.0000001
 44
0.0000000001
 40
0.0
 40
0.0
 40
0.0
 40
0.0
 40
0.2988103864
 40
1.0
 40
1.0
 40
1.0
 40
1.0
 10
250.5666727147
 20
611.1934279822
 30
0.0
 10
250.5782752906
 20
611.3222314998
 30
0.0
 10
250.6163824013
 20
611.7533463867
 30
0.0
 10
250.6537674155
 20
612.1845529341
 30
0.0
 10
250.6758878703
 20
612.4872203144
 30
0.0
  0
SPLINE
  5
569
100
AcDbEntity
  8
02___PRT_ALL_AXES
100
AcDbSpline
 62
7
  6
CONTINUOUS
 70
0
 71
3
 72
9
 73
5
 74
0
 42
0.0000001
 43
0.0000001
 44
0.0000000001
 40
0.0
 40
0.0
 40
0.0
 40
0.0
 40
0.298807952
 40
1.0
 40
1.0
 40
1.0
 40
1.0
 10
682.9666727147
 20
572.2384730272
 30
0.0
 10
682.9782755159
 20
572.367276423
 30
0.0
 10
683.0163835319
 20
572.798394428
 30
0.0
 10
683.0537693963
 20
573.2296041127
 30
0.0
 10
683.0758895093
 20
573.5322748154
 30
0.0
  0
SPLINE
  5
56A
100
AcDbEntity
  8
02___PRT_ALL_AXES
100
AcDbSpline
 62
7
  6
CONTINUOUS
 70
0
 71
3
 72
9
 73
5
 74
0
 42
0.0000001
 43
0.0000001
 44
0.0000000001
 40
0.0
 40
0.0
 40
0.0
 40
0.0
 40
0.2986237928
 40
1.0
 40
1.0
 40
1.0
 40
1.0
 10
682.3487542742
 20
553.0850332616
 30
0.0
 10
682.341773499
 20
552.95587256
 30
0.0
 10
682.3176721221
 20
552.5233964392
 30
0.0
 10
682.2928326455
 20
552.0909337104
 30
0.0
 10
682.271315622
 20
551.7878948076
 30
0.0
  0
SPLINE
  5
56B
100
AcDbEntity
  8
02___PRT_ALL_AXES
100
AcDbSpline
 62
7
  6
CONTINUOUS
 70
0
 71
3
 72
9
 73
5
 74
0
 42
0.0000001
 43
0.0000001
 44
0.0000000001
 40
0.0
 40
0.0
 40
0.0
 40
0.0
 40
0.2986172319
 40
1.0
 40
1.0
 40
1.0
 40
1.0
 10
249.9487542742
 20
576.4580062346
 30
0.0
 10
249.9417733836
 20
576.3288474346
 30
0.0
 10
249.9176713035
 20
575.8963681681
 30
0.0
 10
249.8928312119
 20
575.4639022966
 30
0.0
 10
249.8713140721
 20
575.1608583179
 30
0.0
  0
SPLINE
  5
56C
100
AcDbEntity
  8
02___PRT_ALL_AXES
100
AcDbSpline
 62
7
  6
CONTINUOUS
 70
0
 71
3
 72
9
 73
5
 74
0
 42
0.0000001
 43
0.0000001
 44
0.0000000001
 40
0.0
 40
0.0
 40
0.0
 40
0.0
 40
0.1834934151
 40
1.0
 40
1.0
 40
1.0
 40
1.0
 10
250.072651707
 20
527.3572132777
 30
0.0
 10
250.0754271514
 20
527.4366296074
 30
0.0
 10
250.0881924704
 20
527.8695115885
 30
0.0
 10
250.097013129
 20
528.3024972163
 30
0.0
 10
250.1033829796
 20
528.6560413178
 30
0.0
  0
SPLINE
  5
56D
100
AcDbEntity
  8
02___PRT_ALL_AXES
100
AcDbSpline
 62
7
  6
CONTINUOUS
 70
0
 71
3
 72
9
 73
5
 74
0
 42
0.0000001
 43
0.0000001
 44
0.0000000001
 40
0.0
 40
0.0
 40
0.0
 40
0.0
 40
0.183493016
 40
1.0
 40
1.0
 40
1.0
 40
1.0
 10
682.4726520822
 20
519.5662201727
 30
0.0
 10
682.4754275894
 20
519.6456364562
 30
0.0
 10
682.4881930282
 20
520.0785191368
 30
0.0
 10
682.4970134127
 20
520.5115054741
 30
0.0
 10
682.5033829796
 20
520.8650503268
 30
0.0
  0
SPLINE
  5
56E
100
AcDbEntity
  8
02___PRT_ALL_AXES
100
AcDbSpline
 62
7
  6
CONTINUOUS
 70
0
 71
3
 72
9
 73
5
 74
0
 42
0.0000001
 43
0.0000001
 44
0.0000000001
 40
0.0
 40
0.0
 40
0.0
 40
0.0
 40
0.1833998466
 40
1.0
 40
1.0
 40
1.0
 40
1.0
 10
682.8757204253
 20
541.3381088528
 30
0.0
 10
682.8727774889
 20
541.2587714253
 30
0.0
 10
682.8543690763
 20
540.8262689577
 30
0.0
 10
682.832020125
 20
540.3939469086
 30
0.0
 10
682.8129414931
 20
540.0409639483
 30
0.0
  0
SPLINE
  5
56F
100
AcDbEntity
  8
02___PRT_ALL_AXES
100
AcDbSpline
 62
7
  6
CONTINUOUS
 70
0
 71
3
 72
9
 73
5
 74
0
 42
0.0000001
 43
0.0000001
 44
0.0000000001
 40
0.0
 40
0.0
 40
0.0
 40
0.0
 40
0.1833993513
 40
1.0
 40
1.0
 40
1.0
 40
1.0
 10
250.4757200936
 20
564.7110846168
 30
0.0
 10
250.4727771184
 20
564.6317472358
 30
0.0
 10
250.4543686174
 20
564.1992438482
 30
0.0
 10
250.4320198829
 20
563.7669208646
 30
0.0
 10
250.4129414931
 20
563.4139369213
 30
0.0
  0
SPLINE
  5
570
100
AcDbEntity
  8
02___PRT_ALL_AXES
100
AcDbSpline
 62
7
  6
CONTINUOUS
 70
0
 71
3
 72
9
 73
5
 74
0
 42
0.0000001
 43
0.0000001
 44
0.0000000001
 40
0.0
 40
0.0
 40
0.0
 40
0.0
 40
0.1834464777
 40
1.0
 40
1.0
 40
1.0
 40
1.0
 10
250.2743816486
 20
479.5645986813
 30
0.0
 10
250.2742955076
 20
479.6440270008
 30
0.0
 10
250.2714620076
 20
480.0770000235
 30
0.0
 10
250.2646811085
 20
480.5099345185
 30
0.0
 10
250.2583127877
 20
480.8634272137
 30
0.0
  0
SPLINE
  5
571
100
AcDbEntity
  8
02___PRT_ALL_AXES
100
AcDbSpline
 62
7
  6
CONTINUOUS
 70
0
 71
3
 72
9
 73
5
 74
0
 42
0.0000001
 43
0.0000001
 44
0.0000000001
 40
0.0
 40
0.0
 40
0.0
 40
0.0
 40
0.1834577877
 40
1.0
 40
1.0
 40
1.0
 40
1.0
 10
682.6743821091
 20
487.355588327
 30
0.0
 10
682.6742960222
 20
487.4350216262
 30
0.0
 10
682.6714623058
 20
487.8679950994
 30
0.0
 10
682.6646813372
 20
488.3009300434
 30
0.0
 10
682.6583127877
 20
488.6544182047
 30
0.0
  0
SPLINE
  5
572
100
AcDbEntity
  8
02___PRT_ALL_AXES
100
AcDbSpline
 62
7
  6
CONTINUOUS
 70
0
 71
3
 72
9
 73
5
 74
0
 42
0.0000001
 43
0.0000001
 44
0.0000000001
 40
0.0
 40
0.0
 40
0.0
 40
0.0
 40
0.1834465627
 40
1.0
 40
1.0
 40
1.0
 40
1.0
 10
682.6743825537
 20
509.1589767918
 30
0.0
 10
682.6742965126
 20
509.0795484647
 30
0.0
 10
682.6714631478
 20
508.6465755993
 30
0.0
 10
682.6646817161
 20
508.2136412689
 30
0.0
 10
682.6583127877
 20
507.8601487517
 30
0.0
  0
SPLINE
  5
573
100
AcDbEntity
  8
02___PRT_ALL_AXES
100
AcDbSpline
 62
7
  6
CONTINUOUS
 70
0
 71
3
 72
9
 73
5
 74
0
 42
0.0000001
 43
0.0000001
 44
0.0000000001
 40
0.0
 40
0.0
 40
0.0
 40
0.0
 40
0.1834461626
 40
1.0
 40
1.0
 40
1.0
 40
1.0
 10
250.2743821075
 20
516.9499698968
 30
0.0
 10
250.2742960216
 20
516.8705416141
 30
0.0
 10
250.2714625959
 20
516.4375680473
 30
0.0
 10
250.2646814268
 20
516.0046330119
 30
0.0
 10
250.2583127877
 20
515.6511397427
 30
0.0
  0
SPLINE
  5
574
100
AcDbEntity
  8
02___PRT_ALL_AXES
100
AcDbSpline
 62
7
  6
CONTINUOUS
 70
0
 71
3
 72
9
 73
5
 74
0
 42
0.0000001
 43
0.0000001
 44
0.0000000001
 40
0.0
 40
0.0
 40
0.0
 40
0.0
 40
0.1833995636
 40
1.0
 40
1.0
 40
1.0
 40
1.0
 10
250.4757195795
 20
431.8034836672
 30
0.0
 10
250.4727765491
 20
431.8828210554
 30
0.0
 10
250.4543679922
 20
432.3153239887
 30
0.0
 10
250.4320195466
 20
432.7476465342
 30
0.0
 10
250.4129414931
 20
433.100630035
 30
0.0
  0
SPLINE
  5
575
100
AcDbEntity
  8
02___PRT_ALL_AXES
100
AcDbSpline
 62
7
  6
CONTINUOUS
 70
0
 71
3
 72
9
 73
5
 74
0
 42
0.0000001
 43
0.0000001
 44
0.0000000001
 40
0.0
 40
0.0
 40
0.0
 40
0.0
 40
0.1834089692
 40
1.0
 40
1.0
 40
1.0
 40
1.0
 10
682.8757200649
 20
455.1764561239
 30
0.0
 10
682.8727769393
 20
455.255797616
 30
0.0
 10
682.854368209
 20
455.6883007233
 30
0.0
 10
682.8320196488
 20
456.1206234429
 30
0.0
 10
682.8129414931
 20
456.473603008
 30
0.0
  0
SPLINE
  5
576
100
AcDbEntity
  8
02___PRT_ALL_AXES
100
AcDbSpline
 62
7
  6
CONTINUOUS
 70
0
 71
3
 72
9
 73
5
 74
0
 42
0.0000001
 43
0.0000001
 44
0.0000000001
 40
0.0
 40
0.0
 40
0.0
 40
0.0
 40
0.1834933289
 40
1.0
 40
1.0
 40
1.0
 40
1.0
 10
682.4726525966
 20
476.9483451619
 30
0.0
 10
682.4754281501
 20
476.8689288444
 30
0.0
 10
682.488193627
 20
476.4360467085
 30
0.0
 10
682.4970137223
 20
476.003060908
 30
0.0
 10
682.5033829796
 20
475.6495166295
 30
0.0
  0
SPLINE
  5
577
100
AcDbEntity
  8
02___PRT_ALL_AXES
100
AcDbSpline
 62
7
  6
CONTINUOUS
 70
0
 71
3
 72
9
 73
5
 74
0
 42
0.0000001
 43
0.0000001
 44
0.0000000001
 40
0.0
 40
0.0
 40
0.0
 40
0.0
 40
0.1835046873
 40
1.0
 40
1.0
 40
1.0
 40
1.0
 10
250.07265209
 20
469.1573555162
 30
0.0
 10
250.0754277671
 20
469.077934198
 30
0.0
 10
250.0881928861
 20
468.6450515999
 30
0.0
 10
250.0970135012
 20
468.2120653621
 30
0.0
 10
250.1033829796
 20
467.8585256385
 30
0.0
  0
SPLINE
  5
578
100
AcDbEntity
  8
02___PRT_ALL_AXES
100
AcDbSpline
 62
7
  6
CONTINUOUS
 70
0
 71
3
 72
9
 73
5
 74
0
 42
0.0000001
 43
0.0000001
 44
0.0000000001
 40
0.0
 40
0.0
 40
0.0
 40
0.0
 40
0.1833528872
 40
1.0
 40
1.0
 40
1.0
 40
1.0
 10
250.6758889854
 20
384.0273379156
 30
0.0
 10
250.670104789
 20
384.1064825667
 30
0.0
 10
250.6362050731
 20
384.5379600846
 30
0.0
 10
250.598383082
 20
384.9691167641
 30
0.0
 10
250.5666727147
 20
385.3211389741
 30
0.0
  0
SPLINE
  5
579
100
AcDbEntity
  8
02___PRT_ALL_AXES
100
AcDbSpline
 62
7
  6
CONTINUOUS
 70
0
 71
3
 72
9
 73
5
 74
0
 42
0.0000001
 43
0.0000001
 44
0.0000000001
 40
0.0
 40
0.0
 40
0.0
 40
0.0
 40
0.183364354
 40
1.0
 40
1.0
 40
1.0
 40
1.0
 10
683.0758892136
 20
422.98229616
 30
0.0
 10
683.0701047089
 20
423.0614455651
 30
0.0
 10
683.0362048373
 20
423.4929219826
 30
0.0
 10
682.99838287
 20
423.9240775733
 30
0.0
 10
682.9666727147
 20
424.2760939291
 30
0.0
  0
SPLINE
  5
57A
100
AcDbEntity
  8
02___PRT_ALL_AXES
100
AcDbSpline
 62
7
  6
CONTINUOUS
 70
0
 71
3
 72
9
 73
5
 74
0
 42
0.0000001
 43
0.0000001
 44
0.0000000001
 40
0.0
 40
0.0
 40
0.0
 40
0.0
 40
0.1835399351
 40
1.0
 40
1.0
 40
1.0
 40
1.0
 10
682.2713146498
 20
444.7266800626
 30
0.0
 10
682.2769453724
 20
444.6473785834
 30
0.0
 10
682.3052728584
 20
444.2151476029
 30
0.0
 10
682.3296678712
 20
443.7826715463
 30
0.0
 10
682.3487542742
 20
443.4295336947
 30
0.0
  0
SPLINE
  5
57B
100
AcDbEntity
  8
02___PRT_ALL_AXES
100
AcDbSpline
 62
7
  6
CONTINUOUS
 70
0
 71
3
 72
9
 73
5
 74
0
 42
0.0000001
 43
0.0000001
 44
0.0000000001
 40
0.0
 40
0.0
 40
0.0
 40
0.0
 40
0.1835493903
 40
1.0
 40
1.0
 40
1.0
 40
1.0
 10
249.8713141451
 20
421.3537076059
 30
0.0
 10
249.8769451051
 20
421.2744020043
 30
0.0
 10
249.9052722786
 20
420.842170822
 30
0.0
 10
249.9296677773
 20
420.4096946149
 30
0.0
 10
249.9487542742
 20
420.0565607217
 30
0.0
  0
SPLINE
  5
57C
100
AcDbEntity
  8
02___PRT_ALL_AXES
100
AcDbSpline
 62
7
  6
CONTINUOUS
 70
0
 71
3
 72
9
 73
5
 74
0
 42
0.0000001
 43
0.0000001
 44
0.0000000001
 40
0.0
 40
0.0
 40
0.0
 40
0.0
 40
0.1845902659
 40
1.0
 40
1.0
 40
1.0
 40
1.0
 10
251.6611651764
 20
365.7835384311
 30
0.0
 10
251.7317751479
 20
365.8218244786
 30
0.0
 10
252.1137652627
 20
366.0302165487
 30
0.0
 10
252.494847138
 20
366.2402675104
 30
0.0
 10
252.8053852458
 20
366.4119034378
 30
0.0
  0
SPLINE
  5
57D
100
AcDbEntity
  8
02___PRT_ALL_AXES
100
AcDbSpline
 62
7
  6
CONTINUOUS
 70
0
 71
3
 72
9
 73
5
 74
0
 42
0.0000001
 43
0.0000001
 44
0.0000000001
 40
0.0
 40
0.0
 40
0.0
 40
0.0
 40
0.1841073654
 40
1.0
 40
1.0
 40
1.0
 40
1.0
 10
273.9536288363
 20
343.5154935315
 30
0.0
 10
273.9932331924
 20
343.5849109897
 30
0.0
 10
274.206573652
 20
343.9629703043
 30
0.0
 10
274.4169154226
 20
344.3427108763
 30
0.0
 10
274.58788444
 20
344.6528895418
 30
0.0
  0
SPLINE
  5
57E
100
AcDbEntity
  8
02___PRT_ALL_AXES
100
AcDbSpline
 62
7
  6
CONTINUOUS
 70
0
 71
3
 72
9
 73
5
 74
0
 42
0.0000001
 43
0.0000001
 44
0.0000000001
 40
0.0
 40
0.0
 40
0.0
 40
0.0
 40
0.1833146817
 40
1.0
 40
1.0
 40
1.0
 40
1.0
 10
283.3849937517
 20
341.6934341151
 30
0.0
 10
283.3766543814
 20
341.7723181571
 30
0.0
 10
283.3288222793
 20
342.2023885761
 30
0.0
 10
283.2770922496
 20
342.6320128203
 30
0.0
 10
283.2340282535
 20
342.9827738669
 30
0.0
  0
SPLINE
  5
57F
100
AcDbEntity
  8
02___PRT_ALL_AXES
100
AcDbSpline
 62
7
  6
CONTINUOUS
 70
0
 71
3
 72
8
 73
4
 74
0
 42
0.0000001
 43
0.0000001
 44
0.0000000001
 40
0.0
 40
0.0
 40
0.0
 40
0.0
 40
1.0
 40
1.0
 40
1.0
 40
1.0
 10
273.9536054701
 20
343.5154508478
 30
0.0
 10
276.7574999523
 20
341.9693699345
 30
0.0
 10
280.206996267
 20
341.3028887055
 30
0.0
 10
283.3849704347
 20
341.6936196197
 30
0.0
  0
SPLINE
  5
580
100
AcDbEntity
  8
02___PRT_ALL_AXES
100
AcDbSpline
 62
7
  6
CONTINUOUS
 70
0
 71
3
 72
9
 73
5
 74
0
 42
0.0000001
 43
0.0000001
 44
0.0000000001
 40
0.0
 40
0.0
 40
0.0
 40
0.0
 40
0.1833181703
 40
1.0
 40
1.0
 40
1.0
 40
1.0
 10
683.2558531224
 20
390.7913863699
 30
0.0
 10
683.2475135472
 20
390.8702728617
 30
0.0
 10
683.1996808296
 20
391.3003484169
 30
0.0
 10
683.1479503185
 20
391.7299778114
 30
0.0
 10
683.1048860603
 20
392.0807415605
 30
0.0
  0
SPLINE
  5
581
100
AcDbEntity
  8
02___PRT_ALL_AXES
100
AcDbSpline
 62
7
  6
CONTINUOUS
 70
0
 71
3
 72
9
 73
5
 74
0
 42
0.0000001
 43
0.0000001
 44
0.0000000001
 40
0.0
 40
0.0
 40
0.0
 40
0.0
 40
0.1835862314
 40
1.0
 40
1.0
 40
1.0
 40
1.0
 10
682.071145228
 20
412.4477281536
 30
0.0
 10
682.0796136991
 20
412.3686430441
 30
0.0
 10
682.1234064366
 20
411.9376164458
 30
0.0
 10
682.1632896241
 20
411.5062052341
 30
0.0
 10
682.1950230526
 20
411.1539270949
 30
0.0
  0
SPLINE
  5
582
100
AcDbEntity
  8
02___PRT_ALL_AXES
100
AcDbSpline
 62
7
  6
CONTINUOUS
 70
0
 71
3
 72
9
 73
5
 74
0
 42
0.0000001
 43
0.0000001
 44
0.0000000001
 40
0.0
 40
0.0
 40
0.0
 40
0.0
 40
0.1835860894
 40
1.0
 40
1.0
 40
1.0
 40
1.0
 10
256.0591863385
 20
374.0682733094
 30
0.0
 10
256.0676547558
 20
373.9891882
 30
0.0
 10
256.1114474506
 20
373.5581612934
 30
0.0
 10
256.151330963
 20
373.1267498091
 30
0.0
 10
256.1830647272
 20
372.7744713899
 30
0.0
  0
SPLINE
  5
583
100
AcDbEntity
  8
02___PRT_ALL_AXES
100
AcDbSpline
 62
7
  6
CONTINUOUS
 70
0
 71
3
 72
9
 73
5
 74
0
 42
0.0000001
 43
0.0000001
 44
0.0000000001
 40
0.0
 40
0.0
 40
0.0
 40
0.0
 40
0.2986906894
 40
1.0
 40
1.0
 40
1.0
 40
1.0
 10
631.3808478837
 20
658.7572834782
 30
0.0
 10
631.3808478837
 20
658.8866229208
 30
0.0
 10
631.3801205608
 20
659.3196397479
 30
0.0
 10
631.3786576257
 20
659.7526831823
 30
0.0
 10
631.3735171432
 20
660.0563215699
 30
0.0
  0
SPLINE
  5
584
100
AcDbEntity
  8
02___PRT_ALL_AXES
100
AcDbSpline
 62
7
  6
CONTINUOUS
 70
0
 71
3
 72
9
 73
5
 74
0
 42
0.0000001
 43
0.0000001
 44
0.0000000001
 40
0.0
 40
0.0
 40
0.0
 40
0.0
 40
0.2999063851
 40
1.0
 40
1.0
 40
1.0
 40
1.0
 10
682.863073585
 20
623.9896358975
 30
0.0
 10
682.98289922
 20
624.0378953625
 30
0.0
 10
683.3823399448
 20
624.1990637795
 30
0.0
 10
683.7816893009
 20
624.3604695047
 30
0.0
 10
684.0606774479
 20
624.474920224
 30
0.0
  0
SPLINE
  5
585
100
AcDbEntity
  8
02___PRT_ALL_AXES
100
AcDbSpline
 62
7
  6
CONTINUOUS
 70
0
 71
3
 72
9
 73
5
 74
0
 42
0.0000001
 43
0.0000001
 44
0.0000000001
 40
0.0
 40
0.0
 40
0.0
 40
0.0
 40
0.2985332644
 40
1.0
 40
1.0
 40
1.0
 40
1.0
 10
678.350264705
 20
618.1154041655
 30
0.0
 10
678.3344997633
 20
617.987009044
 30
0.0
 10
678.2809761428
 20
617.5570148842
 30
0.0
 10
678.2267177156
 20
617.1270846981
 30
0.0
 10
678.1846206228
 20
616.8260569596
 30
0.0
  0
SPLINE
  5
586
100
AcDbEntity
  8
02___PRT_ALL_AXES
100
AcDbSpline
 62
7
  6
CONTINUOUS
 70
0
 71
3
 72
9
 73
5
 74
0
 42
0.0000001
 43
0.0000001
 44
0.0000000001
 40
0.0
 40
0.0
 40
0.0
 40
0.0
 40
0.2985275366
 40
1.0
 40
1.0
 40
1.0
 40
1.0
 10
433.3843644809
 20
648.1967976104
 30
0.0
 10
433.3685995179
 20
648.0684043795
 30
0.0
 10
433.3150750401
 20
647.6384082725
 30
0.0
 10
433.2608157781
 20
647.2084761476
 30
0.0
 10
433.2187185212
 20
646.9074444833
 30
0.0
  0
SPLINE
  5
587
100
AcDbEntity
  8
02___PRT_ALL_AXES
100
AcDbSpline
 62
7
  6
CONTINUOUS
 70
0
 71
3
 72
9
 73
5
 74
0
 42
0.0000001
 43
0.0000001
 44
0.0000000001
 40
0.0
 40
0.0
 40
0.0
 40
0.0
 40
0.2986902249
 40
1.0
 40
1.0
 40
1.0
 40
1.0
 10
434.0303431455
 20
658.7572834782
 30
0.0
 10
434.0303429813
 20
658.8866223661
 30
0.0
 10
434.0296152327
 20
659.3196380097
 30
0.0
 10
434.028151943
 20
659.752680252
 30
0.0
 10
434.0230118078
 20
660.0563180163
 30
0.0
  0
SPLINE
  5
588
100
AcDbEntity
  8
02___PRT_ALL_AXES
100
AcDbSpline
 62
7
  6
CONTINUOUS
 70
0
 71
3
 72
9
 73
5
 74
0
 42
0.0000001
 43
0.0000001
 44
0.0000000001
 40
0.0
 40
0.0
 40
0.0
 40
0.0
 40
0.298527105
 40
1.0
 40
1.0
 40
1.0
 40
1.0
 10
678.3503889158
 20
378.3993349854
 30
0.0
 10
678.3346256599
 20
378.5277286702
 30
0.0
 10
678.2811068196
 20
378.9577269285
 30
0.0
 10
678.2268532141
 20
379.3876612186
 30
0.0
 10
678.1847597788
 20
379.6886946251
 30
0.0
  0
SPLINE
  5
589
100
AcDbEntity
  8
02___PRT_ALL_AXES
100
AcDbSpline
 62
7
  6
CONTINUOUS
 70
0
 71
3
 72
9
 73
5
 74
0
 42
0.0000001
 43
0.0000001
 44
0.0000000001
 40
0.0
 40
0.0
 40
0.0
 40
0.0
 40
0.2999128548
 40
1.0
 40
1.0
 40
1.0
 40
1.0
 10
682.8631456587
 20
372.5251100321
 30
0.0
 10
682.9829659084
 20
372.4768534399
 30
0.0
 10
683.3823800255
 20
372.3156979907
 30
0.0
 10
683.7817027931
 20
372.1543052662
 30
0.0
 10
684.0606694545
 20
372.039863979
 30
0.0
  0
SPLINE
  5
58A
100
AcDbEntity
  8
02___PRT_ALL_AXES
100
AcDbSpline
 62
7
  6
CONTINUOUS
 70
0
 71
3
 72
9
 73
5
 74
0
 42
0.0000001
 43
0.0000001
 44
0.0000000001
 40
0.0
 40
0.0
 40
0.0
 40
0.0
 40
0.2986970279
 40
1.0
 40
1.0
 40
1.0
 40
1.0
 10
631.3808478837
 20
337.7572834782
 30
0.0
 10
631.3808478837
 20
337.6279412961
 30
0.0
 10
631.3801205136
 20
337.1949244867
 30
0.0
 10
631.3786575791
 20
336.7618810702
 30
0.0
 10
631.3735171441
 20
336.4582454392
 30
0.0
  0
SPLINE
  5
58B
100
AcDbEntity
  8
02___PRT_ALL_AXES
100
AcDbSpline
 62
7
  6
CONTINUOUS
 70
0
 71
3
 72
9
 73
5
 74
0
 42
0.0000001
 43
0.0000001
 44
0.0000000001
 40
0.0
 40
0.0
 40
0.0
 40
0.0
 40
0.2986856511
 40
1.0
 40
1.0
 40
1.0
 40
1.0
 10
434.0016759209
 20
337.7572834782
 30
0.0
 10
434.0016759207
 20
337.6279463082
 30
0.0
 10
434.00094865
 20
337.1949297857
 30
0.0
 10
433.9994856946
 20
336.7618866561
 30
0.0
 10
433.9943451929
 20
336.4582463006
 30
0.0
  0
SPLINE
  5
58C
100
AcDbEntity
  8
02___PRT_ALL_AXES
100
AcDbSpline
 62
7
  6
CONTINUOUS
 70
0
 71
3
 72
9
 73
5
 74
0
 42
0.0000001
 43
0.0000001
 44
0.0000000001
 40
0.0
 40
0.0
 40
0.0
 40
0.0
 40
0.2985319507
 40
1.0
 40
1.0
 40
1.0
 40
1.0
 10
433.3557684008
 20
348.3177780819
 30
0.0
 10
433.3400048151
 20
348.4461731338
 30
0.0
 10
433.2864858014
 20
348.8761690002
 30
0.0
 10
433.232232091
 20
349.3061008964
 30
0.0
 10
433.1901395894
 20
349.6071306464
 30
0.0
  0
SPLINE
  5
58D
100
AcDbEntity
  8
02___PRT_ALL_AXES
100
AcDbSpline
 62
7
  6
CONTINUOUS
 70
0
 71
3
 72
9
 73
5
 74
0
 42
0.0000001
 43
0.0000001
 44
0.0000000001
 40
0.0
 40
0.0
 40
0.0
 40
0.0
 40
0.2985276436
 40
1.0
 40
1.0
 40
1.0
 40
1.0
 10
1184.3819838888
 20
378.3993349854
 30
0.0
 10
1184.3977471173
 20
378.5277289087
 30
0.0
 10
1184.4512658153
 20
378.9577271843
 30
0.0
 10
1184.505519293
 20
379.3876614927
 30
0.0
 10
1184.5476127965
 20
379.688694654
 30
0.0
  0
SPLINE
  5
58E
100
AcDbEntity
  8
02___PRT_ALL_AXES
100
AcDbSpline
 62
7
  6
CONTINUOUS
 70
0
 71
3
 72
9
 73
5
 74
0
 42
0.0000001
 43
0.0000001
 44
0.0000000001
 40
0.0
 40
0.0
 40
0.0
 40
0.0
 40
0.2985303993
 40
1.0
 40
1.0
 40
1.0
 40
1.0
 10
1429.3766044037
 20
348.3177780819
 30
0.0
 10
1429.3923677481
 20
348.4461724859
 30
0.0
 10
1429.4458863231
 20
348.8761684051
 30
0.0
 10
1429.5001396839
 20
349.3061003509
 30
0.0
 10
1429.542232554
 20
349.6071307276
 30
0.0
  0
SPLINE
  5
58F
100
AcDbEntity
  8
02___PRT_ALL_AXES
100
AcDbSpline
 62
7
  6
CONTINUOUS
 70
0
 71
3
 72
9
 73
5
 74
0
 42
0.0000001
 43
0.0000001
 44
0.0000000001
 40
0.0
 40
0.0
 40
0.0
 40
0.0
 40
0.2986851697
 40
1.0
 40
1.0
 40
1.0
 40
1.0
 10
1428.7306968837
 20
337.7572834782
 30
0.0
 10
1428.7306968767
 20
337.6279465167
 30
0.0
 10
1428.7314241237
 20
337.1949299942
 30
0.0
 10
1428.7328870649
 20
336.7618868643
 30
0.0
 10
1428.7380275845
 20
336.4582463006
 30
0.0
  0
SPLINE
  5
590
100
AcDbEntity
  8
02___PRT_ALL_AXES
100
AcDbSpline
 62
7
  6
CONTINUOUS
 70
0
 71
3
 72
9
 73
5
 74
0
 42
0.0000001
 43
0.0000001
 44
0.0000000001
 40
0.0
 40
0.0
 40
0.0
 40
0.0
 40
0.2986906814
 40
1.0
 40
1.0
 40
1.0
 40
1.0
 10
1231.3515249209
 20
337.7572834782
 30
0.0
 10
1231.3515249209
 20
337.6279440452
 30
0.0
 10
1231.3522522436
 20
337.1949272388
 30
0.0
 10
1231.353715179
 20
336.7618838252
 30
0.0
 10
1231.3588556603
 20
336.4582454488
 30
0.0
  0
SPLINE
  5
591
100
AcDbEntity
  8
02___PRT_ALL_AXES
100
AcDbSpline
 62
7
  6
CONTINUOUS
 70
0
 71
3
 72
9
 73
5
 74
0
 42
0.0000001
 43
0.0000001
 44
0.0000000001
 40
0.0
 40
0.0
 40
0.0
 40
0.0
 40
0.299913811
 40
1.0
 40
1.0
 40
1.0
 40
1.0
 10
1179.8692271458
 20
372.5251100321
 30
0.0
 10
1179.7493992757
 20
372.4768501521
 30
0.0
 10
1179.3499609961
 20
372.3156843211
 30
0.0
 10
1178.9506140719
 20
372.1542812133
 30
0.0
 10
1178.6716305637
 20
372.039833581
 30
0.0
  0
SPLINE
  5
592
100
AcDbEntity
  8
02___PRT_ALL_AXES
100
AcDbSpline
 62
7
  6
CONTINUOUS
 70
0
 71
3
 72
9
 73
5
 74
0
 42
0.0000001
 43
0.0000001
 44
0.0000000001
 40
0.0
 40
0.0
 40
0.0
 40
0.0
 40
0.2985698121
 40
1.0
 40
1.0
 40
1.0
 40
1.0
 10
1180.5373497519
 20
411.1539270949
 30
0.0
 10
1180.5489549945
 20
411.2827582976
 30
0.0
 10
1180.5885451204
 20
411.7141833049
 30
0.0
 10
1180.6288724379
 20
412.1455682841
 30
0.0
 10
1180.6612279487
 20
412.4477296154
 30
0.0
  0
SPLINE
  5
593
100
AcDbEntity
  8
02___PRT_ALL_AXES
100
AcDbSpline
 62
7
  6
CONTINUOUS
 70
0
 71
3
 72
9
 73
5
 74
0
 42
0.0000001
 43
0.0000001
 44
0.0000000001
 40
0.0
 40
0.0
 40
0.0
 40
0.0
 40
0.2985732685
 40
1.0
 40
1.0
 40
1.0
 40
1.0
 10
1606.5493080774
 20
372.7744713899
 30
0.0
 10
1606.5609134301
 20
372.9033030897
 30
0.0
 10
1606.6005034481
 20
373.3347247698
 30
0.0
 10
1606.6408306655
 20
373.7661064144
 30
0.0
 10
1606.6731854666
 20
374.0682639708
 30
0.0
  0
SPLINE
  5
594
100
AcDbEntity
  8
02___PRT_ALL_AXES
100
AcDbSpline
 62
7
  6
CONTINUOUS
 70
0
 71
3
 72
9
 73
5
 74
0
 42
0.0000001
 43
0.0000001
 44
0.0000000001
 40
0.0
 40
0.0
 40
0.0
 40
0.0
 40
0.297543233
 40
1.0
 40
1.0
 40
1.0
 40
1.0
 10
1609.9269875588
 20
366.4119034378
 30
0.0
 10
1610.0403059626
 20
366.3492717422
 30
0.0
 10
1610.421321218
 20
366.1390824019
 30
0.0
 10
1610.8025252664
 20
365.9292223519
 30
0.0
 10
1611.0712380735
 20
365.783521337
 30
0.0
  0
SPLINE
  5
595
100
AcDbEntity
  8
02___PRT_ALL_AXES
100
AcDbSpline
 62
7
  6
CONTINUOUS
 70
0
 71
3
 72
9
 73
5
 74
0
 42
0.0000001
 43
0.0000001
 44
0.0000000001
 40
0.0
 40
0.0
 40
0.0
 40
0.0
 40
0.2980788133
 40
1.0
 40
1.0
 40
1.0
 40
1.0
 10
1588.1444883644
 20
344.6528895418
 30
0.0
 10
1588.2069569791
 20
344.5395563214
 30
0.0
 10
1588.4170823408
 20
344.1596535882
 30
0.0
 10
1588.6278022194
 20
343.7800558343
 30
0.0
 10
1588.7788128423
 20
343.515368721
 30
0.0
  0
SPLINE
  5
596
100
AcDbEntity
  8
02___PRT_ALL_AXES
100
AcDbSpline
 62
7
  6
CONTINUOUS
 70
0
 71
3
 72
9
 73
5
 74
0
 42
0.0000001
 43
0.0000001
 44
0.0000000001
 40
0.0
 40
0.0
 40
0.0
 40
0.0
 40
0.2988494069
 40
1.0
 40
1.0
 40
1.0
 40
1.0
 10
1579.4983445511
 20
342.9827738669
 30
0.0
 10
1579.4825860063
 20
342.854418556
 30
0.0
 10
1579.4305728909
 20
342.424836665
 30
0.0
 10
1579.3792743352
 20
341.9951404657
 30
0.0
 10
1579.3473773863
 20
341.6934177061
 30
0.0
  0
SPLINE
  5
597
100
AcDbEntity
  8
02___PRT_ALL_AXES
100
AcDbSpline
 62
7
  6
CONTINUOUS
 70
0
 71
3
 72
8
 73
4
 74
0
 42
0.0000001
 43
0.0000001
 44
0.0000000001
 40
0.0
 40
0.0
 40
0.0
 40
0.0
 40
1.0
 40
1.0
 40
1.0
 40
1.0
 10
1579.347377424
 20
341.693418007
 30
0.0
 10
1582.5255363255
 20
341.3038299891
 30
0.0
 10
1585.9746995364
 20
341.9695926633
 30
0.0
 10
1588.7788764705
 20
343.5152525706
 30
0.0
  0
SPLINE
  5
598
100
AcDbEntity
  8
02___PRT_ALL_AXES
100
AcDbSpline
 62
7
  6
CONTINUOUS
 70
0
 71
3
 72
9
 73
5
 74
0
 42
0.0000001
 43
0.0000001
 44
0.0000000001
 40
0.0
 40
0.0
 40
0.0
 40
0.0
 40
0.2988488954
 40
1.0
 40
1.0
 40
1.0
 40
1.0
 10
1179.6274867442
 20
392.0807415605
 30
0.0
 10
1179.611728269
 20
391.9523868195
 30
0.0
 10
1179.5597152885
 20
391.522806101
 30
0.0
 10
1179.5084168669
 20
391.0931110748
 30
0.0
 10
1179.4765199489
 20
390.7913889215
 30
0.0
  0
SPLINE
  5
599
100
AcDbEntity
  8
02___PRT_ALL_AXES
100
AcDbSpline
 62
7
  6
CONTINUOUS
 70
0
 71
3
 72
9
 73
5
 74
0
 42
0.0000001
 43
0.0000001
 44
0.0000000001
 40
0.0
 40
0.0
 40
0.0
 40
0.0
 40
0.1833518972
 40
1.0
 40
1.0
 40
1.0
 40
1.0
 10
1179.6564835357
 20
422.9822953763
 30
0.0
 10
1179.6622676478
 20
423.0614394525
 30
0.0
 10
1179.6961672116
 20
423.4929161565
 30
0.0
 10
1179.7339894332
 20
423.9240719905
 30
0.0
 10
1179.7657000898
 20
424.2760939291
 30
0.0
  0
SPLINE
  5
59A
100
AcDbEntity
  8
02___PRT_ALL_AXES
100
AcDbSpline
 62
7
  6
CONTINUOUS
 70
0
 71
3
 72
9
 73
5
 74
0
 42
0.0000001
 43
0.0000001
 44
0.0000000001
 40
0.0
 40
0.0
 40
0.0
 40
0.0
 40
0.1833601144
 40
1.0
 40
1.0
 40
1.0
 40
1.0
 10
1612.0564833556
 20
384.0273379591
 30
0.0
 10
1612.0622677315
 20
384.1064857332
 30
0.0
 10
1612.096167573
 20
384.5379632411
 30
0.0
 10
1612.1339896936
 20
384.9691199082
 30
0.0
 10
1612.1657000898
 20
385.3211389741
 30
0.0
  0
SPLINE
  5
59B
100
AcDbEntity
  8
02___PRT_ALL_AXES
100
AcDbSpline
 62
7
  6
CONTINUOUS
 70
0
 71
3
 72
9
 73
5
 74
0
 42
0.0000001
 43
0.0000001
 44
0.0000000001
 40
0.0
 40
0.0
 40
0.0
 40
0.0
 40
0.1835414908
 40
1.0
 40
1.0
 40
1.0
 40
1.0
 10
1612.8610589625
 20
421.3537075904
 30
0.0
 10
1612.8554282779
 20
421.2744053995
 30
0.0
 10
1612.8271009423
 20
420.8421742279
 30
0.0
 10
1612.8027054094
 20
420.4096980215
 30
0.0
 10
1612.7836185303
 20
420.0565607217
 30
0.0
  0
SPLINE
  5
59C
100
AcDbEntity
  8
02___PRT_ALL_AXES
100
AcDbSpline
 62
7
  6
CONTINUOUS
 70
0
 71
3
 72
9
 73
5
 74
0
 42
0.0000001
 43
0.0000001
 44
0.0000000001
 40
0.0
 40
0.0
 40
0.0
 40
0.0
 40
0.183547462
 40
1.0
 40
1.0
 40
1.0
 40
1.0
 10
1180.4610586176
 20
444.726680036
 30
0.0
 10
1180.4554277148
 20
444.6473753011
 30
0.0
 10
1180.4271004897
 20
444.215144304
 30
0.0
 10
1180.4027050591
 20
443.7826682743
 30
0.0
 10
1180.3836185303
 20
443.4295336947
 30
0.0
  0
SPLINE
  5
59D
100
AcDbEntity
  8
02___PRT_ALL_AXES
100
AcDbSpline
 62
7
  6
CONTINUOUS
 70
0
 71
3
 72
9
 73
5
 74
0
 42
0.0000001
 43
0.0000001
 44
0.0000000001
 40
0.0
 40
0.0
 40
0.0
 40
0.0
 40
0.2986642455
 40
1.0
 40
1.0
 40
1.0
 40
1.0
 10
1180.2289898249
 20
475.6495166295
 30
0.0
 10
1180.2313196257
 20
475.7788371483
 30
0.0
 10
1180.2398473151
 20
476.2118158612
 30
0.0
 10
1180.2491119291
 20
476.6448078801
 30
0.0
 10
1180.2597204393
 20
476.9483476337
 30
0.0
  0
SPLINE
  5
59E
100
AcDbEntity
  8
02___PRT_ALL_AXES
100
AcDbSpline
 62
7
  6
CONTINUOUS
 70
0
 71
3
 72
9
 73
5
 74
0
 42
0.0000001
 43
0.0000001
 44
0.0000000001
 40
0.0
 40
0.0
 40
0.0
 40
0.0
 40
0.2986665627
 40
1.0
 40
1.0
 40
1.0
 40
1.0
 10
1612.6289898249
 20
467.8585256385
 30
0.0
 10
1612.6313197055
 20
467.9878462648
 30
0.0
 10
1612.6398475561
 20
468.4208219795
 30
0.0
 10
1612.6491123467
 20
468.8538109931
 30
0.0
 10
1612.6597204406
 20
469.1573476551
 30
0.0
  0
SPLINE
  5
59F
100
AcDbEntity
  8
02___PRT_ALL_AXES
100
AcDbSpline
 62
7
  6
CONTINUOUS
 70
0
 71
3
 72
9
 73
5
 74
0
 42
0.0000001
 43
0.0000001
 44
0.0000000001
 40
0.0
 40
0.0
 40
0.0
 40
0.0
 40
0.2987572888
 40
1.0
 40
1.0
 40
1.0
 40
1.0
 10
1612.3194313114
 20
433.100630035
 30
0.0
 10
1612.3124514677
 20
432.9714892909
 30
0.0
 10
1612.2898141497
 20
432.5391948644
 30
0.0
 10
1612.2679057806
 20
432.1068343971
 30
0.0
 10
1612.2566529711
 20
431.8034816365
 30
0.0
  0
SPLINE
  5
5A0
100
AcDbEntity
  8
02___PRT_ALL_AXES
100
AcDbSpline
 62
7
  6
CONTINUOUS
 70
0
 71
3
 72
9
 73
5
 74
0
 42
0.0000001
 43
0.0000001
 44
0.0000000001
 40
0.0
 40
0.0
 40
0.0
 40
0.0
 40
0.2987602893
 40
1.0
 40
1.0
 40
1.0
 40
1.0
 10
1179.9194313114
 20
456.473603008
 30
0.0
 10
1179.9124513727
 20
456.3444618135
 30
0.0
 10
1179.8898140438
 20
455.9121702166
 30
0.0
 10
1179.8679056588
 20
455.4798125773
 30
0.0
 10
1179.8566529971
 20
455.1764630932
 30
0.0
  0
SPLINE
  5
5A1
100
AcDbEntity
  8
02___PRT_ALL_AXES
100
AcDbSpline
 62
7
  6
CONTINUOUS
 70
0
 71
3
 72
9
 73
5
 74
0
 42
0.0000001
 43
0.0000001
 44
0.0000000001
 40
0.0
 40
0.0
 40
0.0
 40
0.0
 40
0.1834485412
 40
1.0
 40
1.0
 40
1.0
 40
1.0
 10
1180.0579903985
 20
487.3555883315
 30
0.0
 10
1180.0580764485
 20
487.4350176272
 30
0.0
 10
1180.0609098809
 20
487.8679911024
 30
0.0
 10
1180.0676912014
 20
488.3009260439
 30
0.0
 10
1180.0740600168
 20
488.6544182047
 30
0.0
  0
SPLINE
  5
5A2
100
AcDbEntity
  8
02___PRT_ALL_AXES
100
AcDbSpline
 62
7
  6
CONTINUOUS
 70
0
 71
3
 72
9
 73
5
 74
0
 42
0.0000001
 43
0.0000001
 44
0.0000000001
 40
0.0
 40
0.0
 40
0.0
 40
0.0
 40
0.1834532585
 40
1.0
 40
1.0
 40
1.0
 40
1.0
 10
1612.4579906996
 20
479.564598691
 30
0.0
 10
1612.4580767963
 20
479.6440299463
 30
0.0
 10
1612.4609104121
 20
480.0770029682
 30
0.0
 10
1612.4676914437
 20
480.5099374603
 30
0.0
 10
1612.4740600168
 20
480.8634272137
 30
0.0
  0
SPLINE
  5
5A3
100
AcDbEntity
  8
02___PRT_ALL_AXES
100
AcDbSpline
 62
7
  6
CONTINUOUS
 70
0
 71
3
 72
9
 73
5
 74
0
 42
0.0000001
 43
0.0000001
 44
0.0000000001
 40
0.0
 40
0.0
 40
0.0
 40
0.0
 40
0.1834461525
 40
1.0
 40
1.0
 40
1.0
 40
1.0
 10
1612.4579909841
 20
516.9499699028
 30
0.0
 10
1612.4580770992
 20
516.8705416244
 30
0.0
 10
1612.4609105612
 20
516.4375680577
 30
0.0
 10
1612.4676915711
 20
516.0046330202
 30
0.0
 10
1612.4740600168
 20
515.6511397427
 30
0.0
  0
SPLINE
  5
5A4
100
AcDbEntity
  8
02___PRT_ALL_AXES
100
AcDbSpline
 62
7
  6
CONTINUOUS
 70
0
 71
3
 72
9
 73
5
 74
0
 42
0.0000001
 43
0.0000001
 44
0.0000000001
 40
0.0
 40
0.0
 40
0.0
 40
0.0
 40
0.1834465485
 40
1.0
 40
1.0
 40
1.0
 40
1.0
 10
1180.0579906977
 20
509.1589767985
 30
0.0
 10
1180.0580767844
 20
509.0795484775
 30
0.0
 10
1180.0609102059
 20
508.6465756131
 30
0.0
 10
1180.0676913896
 20
508.2136412804
 30
0.0
 10
1180.0740600168
 20
507.8601487517
 30
0.0
  0
SPLINE
  5
5A5
100
AcDbEntity
  8
02___PRT_ALL_AXES
100
AcDbSpline
 62
7
  6
CONTINUOUS
 70
0
 71
3
 72
9
 73
5
 74
0
 42
0.0000001
 43
0.0000001
 44
0.0000000001
 40
0.0
 40
0.0
 40
0.0
 40
0.0
 40
0.1833998286
 40
1.0
 40
1.0
 40
1.0
 40
1.0
 10
1179.8566528132
 20
541.338108875
 30
0.0
 10
1179.8595957937
 20
541.2587714569
 30
0.0
 10
1179.8780042618
 20
540.8262689923
 30
0.0
 10
1179.900352972
 20
540.3939469322
 30
0.0
 10
1179.9194313114
 20
540.0409639483
 30
0.0
  0
SPLINE
  5
5A6
100
AcDbEntity
  8
02___PRT_ALL_AXES
100
AcDbSpline
 62
7
  6
CONTINUOUS
 70
0
 71
3
 72
9
 73
5
 74
0
 42
0.0000001
 43
0.0000001
 44
0.0000000001
 40
0.0
 40
0.0
 40
0.0
 40
0.0
 40
0.1834930046
 40
1.0
 40
1.0
 40
1.0
 40
1.0
 10
1180.2597204352
 20
519.5662201667
 30
0.0
 10
1180.2569448964
 20
519.6456364441
 30
0.0
 10
1180.2441794159
 20
520.078519124
 30
0.0
 10
1180.2353592046
 20
520.5115054658
 30
0.0
 10
1180.2289898249
 20
520.8650503268
 30
0.0
  0
SPLINE
  5
5A7
100
AcDbEntity
  8
02___PRT_ALL_AXES
100
AcDbSpline
 62
7
  6
CONTINUOUS
 70
0
 71
3
 72
9
 73
5
 74
0
 42
0.0000001
 43
0.0000001
 44
0.0000000001
 40
0.0
 40
0.0
 40
0.0
 40
0.0
 40
0.1834934098
 40
1.0
 40
1.0
 40
1.0
 40
1.0
 10
1612.6597206503
 20
527.357213271
 30
0.0
 10
1612.6569451566
 20
527.4366295965
 30
0.0
 10
1612.6441797728
 20
527.8695115755
 30
0.0
 10
1612.6353593836
 20
528.3024972095
 30
0.0
 10
1612.6289898249
 20
528.6560413178
 30
0.0
  0
SPLINE
  5
5A8
100
AcDbEntity
  8
02___PRT_ALL_AXES
100
AcDbSpline
 62
7
  6
CONTINUOUS
 70
0
 71
3
 72
9
 73
5
 74
0
 42
0.0000001
 43
0.0000001
 44
0.0000000001
 40
0.0
 40
0.0
 40
0.0
 40
0.0
 40
0.1833993083
 40
1.0
 40
1.0
 40
1.0
 40
1.0
 10
1612.2566529837
 20
564.7110846323
 30
0.0
 10
1612.2595959862
 20
564.6317472708
 30
0.0
 10
1612.2780045213
 20
564.1992438846
 30
0.0
 10
1612.3003531049
 20
563.7669208936
 30
0.0
 10
1612.3194313114
 20
563.4139369213
 30
0.0
  0
SPLINE
  5
5A9
100
AcDbEntity
  8
02___PRT_ALL_AXES
100
AcDbSpline
 62
7
  6
CONTINUOUS
 70
0
 71
3
 72
9
 73
5
 74
0
 42
0.0000001
 43
0.0000001
 44
0.0000000001
 40
0.0
 40
0.0
 40
0.0
 40
0.0
 40
0.1833615188
 40
1.0
 40
1.0
 40
1.0
 40
1.0
 10
1179.6564836287
 20
573.5322702753
 30
0.0
 10
1179.6622680438
 20
573.453122126
 30
0.0
 10
1179.6961678301
 20
573.0216458766
 30
0.0
 10
1179.7339898372
 20
572.5904904635
 30
0.0
 10
1179.7657000898
 20
572.2384730272
 30
0.0
  0
SPLINE
  5
5AA
100
AcDbEntity
  8
02___PRT_ALL_AXES
100
AcDbSpline
 62
7
  6
CONTINUOUS
 70
0
 71
3
 72
9
 73
5
 74
0
 42
0.0000001
 43
0.0000001
 44
0.0000000001
 40
0.0
 40
0.0
 40
0.0
 40
0.0
 40
0.1835396745
 40
1.0
 40
1.0
 40
1.0
 40
1.0
 10
1180.4610584424
 20
551.7878855505
 30
0.0
 10
1180.4554277385
 20
551.8671870012
 30
0.0
 10
1180.4271002404
 20
552.2994184341
 30
0.0
 10
1180.4027050839
 20
552.7318949352
 30
0.0
 10
1180.3836185303
 20
553.0850332616
 30
0.0
  0
SPLINE
  5
5AB
100
AcDbEntity
  8
02___PRT_ALL_AXES
100
AcDbSpline
 62
7
  6
CONTINUOUS
 70
0
 71
3
 72
9
 73
5
 74
0
 42
0.0000001
 43
0.0000001
 44
0.0000000001
 40
0.0
 40
0.0
 40
0.0
 40
0.0
 40
0.1835402054
 40
1.0
 40
1.0
 40
1.0
 40
1.0
 10
1612.8610585195
 20
575.1608613079
 30
0.0
 10
1612.855427859
 20
575.2401628219
 30
0.0
 10
1612.8271005015
 20
575.6723933362
 30
0.0
 10
1612.8027052141
 20
576.104868902
 30
0.0
 10
1612.7836185303
 20
576.4580062346
 30
0.0
  0
SPLINE
  5
5AC
100
AcDbEntity
  8
02___PRT_ALL_AXES
100
AcDbSpline
 62
7
  6
CONTINUOUS
 70
0
 71
3
 72
9
 73
5
 74
0
 42
0.0000001
 43
0.0000001
 44
0.0000000001
 40
0.0
 40
0.0
 40
0.0
 40
0.0
 40
0.1833468239
 40
1.0
 40
1.0
 40
1.0
 40
1.0
 10
1612.0564835336
 20
612.4872300165
 30
0.0
 10
1612.0622675157
 20
612.4080879198
 30
0.0
 10
1612.0961670569
 20
611.9766100547
 30
0.0
 10
1612.1339893226
 20
611.5454530636
 30
0.0
 10
1612.1657000898
 20
611.1934279822
 30
0.0
  0
SPLINE
  5
5AD
100
AcDbEntity
  8
02___PRT_ALL_AXES
100
AcDbSpline
 62
7
  6
CONTINUOUS
 70
0
 71
3
 72
9
 73
5
 74
0
 42
0.0000001
 43
0.0000001
 44
0.0000000001
 40
0.0
 40
0.0
 40
0.0
 40
0.0
 40
0.1833154569
 40
1.0
 40
1.0
 40
1.0
 40
1.0
 10
1179.476444579
 20
605.7232407644
 30
0.0
 10
1179.4847850976
 20
605.6443555908
 30
0.0
 10
1179.5326235487
 20
605.2142808795
 30
0.0
 10
1179.5843598989
 20
604.7846523938
 30
0.0
 10
1179.6274290232
 20
604.4338882277
 30
0.0
  0
SPLINE
  5
5AE
100
AcDbEntity
  8
02___PRT_ALL_AXES
100
AcDbSpline
 62
7
  6
CONTINUOUS
 70
0
 71
3
 72
9
 73
5
 74
0
 42
0.0000001
 43
0.0000001
 44
0.0000000001
 40
0.0
 40
0.0
 40
0.0
 40
0.0
 40
0.1835801151
 40
1.0
 40
1.0
 40
1.0
 40
1.0
 10
1180.6612278967
 20
584.066837827
 30
0.0
 10
1180.6527597229
 20
584.145920365
 30
0.0
 10
1180.6089668175
 20
584.5769472812
 30
0.0
 10
1180.5690835758
 20
585.0083588237
 30
0.0
 10
1180.5373497519
 20
585.3606398614
 30
0.0
  0
SPLINE
  5
5AF
100
AcDbEntity
  8
02___PRT_ALL_AXES
100
AcDbSpline
 62
7
  6
CONTINUOUS
 70
0
 71
3
 72
9
 73
5
 74
0
 42
0.0000001
 43
0.0000001
 44
0.0000000001
 40
0.0
 40
0.0
 40
0.0
 40
0.0
 40
0.1835920685
 40
1.0
 40
1.0
 40
1.0
 40
1.0
 10
1606.6731863339
 20
622.4462949024
 30
0.0
 10
1606.6647176561
 20
622.5253825115
 30
0.0
 10
1606.620925167
 20
622.956409016
 30
0.0
 10
1606.58104158
 20
623.3878200696
 30
0.0
 10
1606.5493080774
 20
623.7400955664
 30
0.0
  0
SPLINE
  5
5B0
100
AcDbEntity
  8
02___PRT_ALL_AXES
100
AcDbSpline
 62
7
  6
CONTINUOUS
 70
0
 71
3
 72
9
 73
5
 74
0
 42
0.0000001
 43
0.0000001
 44
0.0000000001
 40
0.0
 40
0.0
 40
0.0
 40
0.0
 40
0.184594554
 40
1.0
 40
1.0
 40
1.0
 40
1.0
 10
1611.0712227461
 20
630.7310371658
 30
0.0
 10
1611.0006101869
 20
630.6927497287
 30
0.0
 10
1610.6186150068
 20
630.4843548248
 30
0.0
 10
1610.2375281097
 20
630.274300951
 30
0.0
 10
1609.9269875588
 20
630.1026635185
 30
0.0
  0
SPLINE
  5
5B1
100
AcDbEntity
  8
02___PRT_ALL_AXES
100
AcDbSpline
 62
7
  6
CONTINUOUS
 70
0
 71
3
 72
9
 73
5
 74
0
 42
0.0000001
 43
0.0000001
 44
0.0000000001
 40
0.0
 40
0.0
 40
0.0
 40
0.0
 40
0.1841087645
 40
1.0
 40
1.0
 40
1.0
 40
1.0
 10
1588.7673872528
 20
653.0053709058
 30
0.0
 10
1588.7277973467
 20
652.9359422062
 30
0.0
 10
1588.5145375815
 20
652.5578249051
 30
0.0
 10
1588.3042773009
 20
652.1780267991
 30
0.0
 10
1588.1333752798
 20
651.8678017984
 30
0.0
  0
SPLINE
  5
5B2
100
AcDbEntity
  8
02___PRT_ALL_AXES
100
AcDbSpline
 62
7
  6
CONTINUOUS
 70
0
 71
3
 72
9
 73
5
 74
0
 42
0.0000001
 43
0.0000001
 44
0.0000000001
 40
0.0
 40
0.0
 40
0.0
 40
0.0
 40
0.183315058
 40
1.0
 40
1.0
 40
1.0
 40
1.0
 10
1579.3389201489
 20
654.8256515232
 30
0.0
 10
1579.3472605993
 20
654.7467675609
 30
0.0
 10
1579.3950984667
 20
654.3166984892
 30
0.0
 10
1579.44683423
 20
653.8870756421
 30
0.0
 10
1579.4899028817
 20
653.5363159084
 30
0.0
  0
SPLINE
  5
5B3
100
AcDbEntity
  8
02___PRT_ALL_AXES
100
AcDbSpline
 62
7
  6
CONTINUOUS
 70
0
 71
3
 72
8
 73
4
 74
0
 42
0.0000001
 43
0.0000001
 44
0.0000000001
 40
0.0
 40
0.0
 40
0.0
 40
0.0
 40
1.0
 40
1.0
 40
1.0
 40
1.0
 10
1588.7674077288
 20
653.0054083302
 30
0.0
 10
1585.9641417088
 20
654.5504257532
 30
0.0
 10
1582.5158746561
 20
655.2159629073
 30
0.0
 10
1579.3389462971
 20
654.8254434873
 30
0.0
  0
SPLINE
  5
5B4
100
AcDbEntity
  8
02___PRT_ALL_AXES
100
AcDbSpline
 62
7
  6
CONTINUOUS
 70
0
 71
3
 72
9
 73
5
 74
0
 42
0.0000001
 43
0.0000001
 44
0.0000000001
 40
0.0
 40
0.0
 40
0.0
 40
0.0
 40
0.1836300048
 40
1.0
 40
1.0
 40
1.0
 40
1.0
 10
1184.5477537784
 20
616.8260505415
 30
0.0
 10
1184.5367335823
 20
616.9048541314
 30
0.0
 10
1184.4790365653
 20
617.3343187919
 30
0.0
 10
1184.4252197002
 20
617.764292195
 30
0.0
 10
1184.3821080995
 20
618.1154041655
 30
0.0
  0
SPLINE
  5
5B5
100
AcDbEntity
  8
02___PRT_ALL_AXES
100
AcDbSpline
 62
7
  6
CONTINUOUS
 70
0
 71
3
 72
9
 73
5
 74
0
 42
0.0000001
 43
0.0000001
 44
0.0000000001
 40
0.0
 40
0.0
 40
0.0
 40
0.0
 40
0.1836278132
 40
1.0
 40
1.0
 40
1.0
 40
1.0
 10
1429.5136547991
 20
646.9074407576
 30
0.0
 10
1429.502634735
 20
646.9862436113
 30
0.0
 10
1429.444937562
 20
647.4157093612
 30
0.0
 10
1429.3911203753
 20
647.8456838329
 30
0.0
 10
1429.3480083237
 20
648.1967976104
 30
0.0
  0
SPLINE
  5
5B6
100
AcDbEntity
  8
02___PRT_ALL_AXES
100
AcDbSpline
 62
7
  6
CONTINUOUS
 70
0
 71
3
 72
9
 73
5
 74
0
 42
0.0000001
 43
0.0000001
 44
0.0000000001
 40
0.0
 40
0.0
 40
0.0
 40
0.0
 40
0.1834612865
 40
1.0
 40
1.0
 40
1.0
 40
1.0
 10
1428.7093603613
 20
660.0563206715
 30
0.0
 10
1428.7080156196
 20
659.9768893287
 30
0.0
 10
1428.7030485902
 20
659.5438922083
 30
0.0
 10
1428.7020296401
 20
659.1108624904
 30
0.0
 10
1428.7020296591
 20
658.7572834782
 30
0.0
  0
SPLINE
  5
5B7
100
AcDbEntity
  8
02___PRT_ALL_AXES
100
AcDbSpline
 62
7
  6
CONTINUOUS
 70
0
 71
3
 72
9
 73
5
 74
0
 42
0.0000001
 43
0.0000001
 44
0.0000000001
 40
0.0
 40
0.0
 40
0.0
 40
0.0
 40
0.1834701979
 40
1.0
 40
1.0
 40
1.0
 40
1.0
 10
1231.3588556615
 20
660.056321578
 30
0.0
 10
1231.3575108528
 20
659.9768863215
 30
0.0
 10
1231.3525440657
 20
659.5438888958
 30
0.0
 10
1231.3515249209
 20
659.1108588782
 30
0.0
 10
1231.3515249209
 20
658.7572834782
 30
0.0
  0
SPLINE
  5
5B8
100
AcDbEntity
  8
02___PRT_ALL_AXES
100
AcDbSpline
 62
7
  6
CONTINUOUS
 70
0
 71
3
 72
8
 73
4
 74
0
 42
0.0000001
 43
0.0000001
 44
0.0000000001
 40
0.0
 40
0.0
 40
0.0
 40
0.0
 40
1.0
 40
1.0
 40
1.0
 40
1.0
 10
631.366188571
 20
668.2572856444
 30
0.0
 10
631.370044294
 20
668.0977136198
 30
0.0
 10
631.371239752
 20
667.938085052
 30
0.0
 10
631.3724979142
 20
667.7784714102
 30
0.0
  0
LINE
  5
5B9
100
AcDbEntity
  8
02___PRT_ALL_AXES
100
AcDbLine
 62
7
  6
CONTINUOUS
 10
631.3756541596
 20
667.088310479
 11
631.3759607232
 21
666.7740437807
  0
SPLINE
  5
5BA
100
AcDbEntity
  8
02___PRT_ALL_AXES
100
AcDbSpline
 62
7
  6
CONTINUOUS
 70
0
 71
3
 72
8
 73
4
 74
0
 42
0.0000001
 43
0.0000001
 44
0.0000000001
 40
0.0
 40
0.0
 40
0.0
 40
0.0
 40
1.0
 40
1.0
 40
1.0
 40
1.0
 10
301.3661841975
 20
668.2572834782
 30
0.0
 10
301.3700367565
 20
668.0978649734
 30
0.0
 10
301.3712329696
 20
667.9383899932
 30
0.0
 10
301.3724913194
 20
667.7789299091
 30
0.0
  0
LINE
  5
5BB
100
AcDbEntity
  8
02___PRT_ALL_AXES
100
AcDbLine
 62
7
  6
CONTINUOUS
 10
301.3756531706
 20
667.0883085408
 11
301.3759607232
 21
666.7740437807
  0
SPLINE
  5
5BC
100
AcDbEntity
  8
02___PRT_ALL_AXES
100
AcDbSpline
 62
7
  6
CONTINUOUS
 70
0
 71
3
 72
8
 73
4
 74
0
 42
0.0000001
 43
0.0000001
 44
0.0000000001
 40
0.0
 40
0.0
 40
0.0
 40
0.0
 40
1.0
 40
1.0
 40
1.0
 40
1.0
 10
301.3661885851
 20
328.2572813416
 30
0.0
 10
301.3700407518
 20
328.4167057802
 30
0.0
 10
301.3712365267
 20
328.5761866864
 30
0.0
 10
301.37249444
 20
328.7356526967
 30
0.0
  0
LINE
  5
5BD
100
AcDbEntity
  8
02___PRT_ALL_AXES
100
AcDbLine
 62
7
  6
CONTINUOUS
 10
301.3756541635
 20
329.4262565058
 11
301.3759607232
 21
329.7405231756
  0
SPLINE
  5
5BE
100
AcDbEntity
  8
02___PRT_ALL_AXES
100
AcDbSpline
 62
7
  6
CONTINUOUS
 70
0
 71
3
 72
8
 73
4
 74
0
 42
0.0000001
 43
0.0000001
 44
0.0000000001
 40
0.0
 40
0.0
 40
0.0
 40
0.0
 40
1.0
 40
1.0
 40
1.0
 40
1.0
 10
631.3661841856
 20
328.2572834782
 30
0.0
 10
631.3700403021
 20
328.4168494842
 30
0.0
 10
631.3712361985
 20
328.5764720414
 30
0.0
 10
631.3724947971
 20
328.7360796723
 30
0.0
  0
LINE
  5
5BF
100
AcDbEntity
  8
02___PRT_ALL_AXES
100
AcDbLine
 62
7
  6
CONTINUOUS
 10
631.3756531678
 20
329.4262584139
 11
631.3759607232
 21
329.7405231756
  0
SPLINE
  5
5C0
100
AcDbEntity
  8
02___PRT_ALL_AXES
100
AcDbSpline
 62
7
  6
CONTINUOUS
 70
0
 71
3
 72
9
 73
5
 74
0
 42
0.0000001
 43
0.0000001
 44
0.0000000001
 40
0.0
 40
0.0
 40
0.0
 40
0.0
 40
0.2987135301
 40
1.0
 40
1.0
 40
1.0
 40
1.0
 10
682.6904861531
 20
486.056747468
 30
0.0
 10
682.6881495577
 20
486.186063953
 30
0.0
 10
682.6810637484
 20
486.61898393
 30
0.0
 10
682.6746728402
 20
487.0519443154
 30
0.0
 10
682.6743993228
 20
487.3555886372
 30
0.0
  0
SPLINE
  5
5C1
100
AcDbEntity
  8
02___PRT_ALL_AXES
100
AcDbSpline
 62
7
  6
CONTINUOUS
 70
0
 71
3
 72
9
 73
5
 74
0
 42
0.0000001
 43
0.0000001
 44
0.0000000001
 40
0.0
 40
0.0
 40
0.0
 40
0.0
 40
0.2987138008
 40
1.0
 40
1.0
 40
1.0
 40
1.0
 10
250.2903618518
 20
478.2657628322
 30
0.0
 10
250.2880357291
 20
478.3950789303
 30
0.0
 10
250.2809765731
 20
478.8279971683
 30
0.0
 10
250.2746465133
 20
479.2609553337
 30
0.0
 10
250.2743370191
 20
479.5645978772
 30
0.0
  0
SPLINE
  5
5C2
100
AcDbEntity
  8
02___PRT_ALL_AXES
100
AcDbSpline
 62
7
  6
CONTINUOUS
 70
0
 71
3
 72
14
 73
10
 74
0
 42
0.0000001
 43
0.0000001
 44
0.0000000001
 40
0.0
 40
0.0
 40
0.0
 40
0.0
 40
0.3690389586
 40
0.5367171721
 40
0.6853299849
 40
0.8097293327
 40
0.9056375905
 40
0.9697680217
 40
1.0
 40
1.0
 40
1.0
 40
1.0
 10
827.2420802803
 20
602.787834191
 30
0.0
 10
826.1886932303
 20
609.3498063188
 30
0.0
 10
824.6900297914
 20
618.8990072759
 30
0.0
 10
822.8608181192
 20
631.1041469091
 30
0.0
 10
821.7201624304
 20
638.9596370501
 30
0.0
 10
820.8291839558
 20
645.5393938073
 30
0.0
 10
820.1487206372
 20
650.6268130916
 30
0.0
 10
819.8495972091
 20
654.0219368909
 30
0.0
 10
819.6385131452
 20
655.7332618402
 30
0.0
 10
819.7165752973
 20
656.2720810541
 30
0.0
  0
SPLINE
  5
5C3
100
AcDbEntity
  8
02___PRT_ALL_AXES
100
AcDbSpline
 62
7
  6
CONTINUOUS
 70
0
 71
3
 72
14
 73
10
 74
0
 42
0.0000001
 43
0.0000001
 44
0.0000000001
 40
0.0
 40
0.0
 40
0.0
 40
0.0
 40
0.3698899893
 40
0.5377246722
 40
0.6863476259
 40
0.8106365414
 40
0.9063365823
 40
0.9701742174
 40
1.0
 40
1.0
 40
1.0
 40
1.0
 10
792.238368189
 20
429.8213674721
 30
0.0
 10
785.6692443843
 20
429.0052534164
 30
0.0
 10
776.1164335295
 20
427.8415322913
 30
0.0
 10
763.9169399664
 20
426.4142512761
 30
0.0
 10
756.0791100056
 20
425.521663799
 30
0.0
 10
749.521908307
 20
424.8201915955
 30
0.0
 10
744.465682425
 20
424.2814512777
 30
0.0
 10
741.0953684332
 20
424.0350349779
 30
0.0
 10
739.4149084291
 20
423.8623289988
 30
0.0
 10
738.8834373501
 20
423.9117951162
 30
0.0
  0
SPLINE
  5
5C4
100
AcDbEntity
  8
02___PRT_ALL_AXES
100
AcDbSpline
 62
7
  6
CONTINUOUS
 70
0
 71
3
 72
13
 73
9
 74
0
 42
0.0000001
 43
0.0000001
 44
0.0000000001
 40
0.0
 40
0.0
 40
0.0
 40
0.0
 40
0.3700569339
 40
0.6865213525
 40
0.8107813901
 40
0.9064429147
 40
0.9702364331
 40
1.0
 40
1.0
 40
1.0
 40
1.0
 10
827.682017485
 20
393.1093104552
 30
0.0
 10
826.6295214215
 20
386.5834293147
 30
0.0
 10
824.7029832638
 20
374.4729533466
 30
0.0
 10
822.4791724682
 20
360.1606562892
 30
0.0
 10
821.0780491479
 20
350.6841157809
 30
0.0
 10
820.3382822283
 20
345.6671207161
 30
0.0
 10
819.9335137693
 20
342.3174377062
 30
0.0
 10
819.6922318103
 20
340.6555957535
 30
0.0
 10
819.6973416834
 20
340.1239631481
 30
0.0
  0
SPLINE
  5
5C5
100
AcDbEntity
  8
02___PRT_ALL_AXES
100
AcDbSpline
 62
7
  6
CONTINUOUS
 70
0
 71
3
 72
13
 73
9
 74
0
 42
0.0000001
 43
0.0000001
 44
0.0000000001
 40
0.0
 40
0.0
 40
0.0
 40
0.0
 40
0.3700565625
 40
0.6865209517
 40
0.8107810786
 40
0.9064427228
 40
0.9702363553
 40
1.0
 40
1.0
 40
1.0
 40
1.0
 10
1035.0503553272
 20
393.1093104439
 30
0.0
 10
1036.1028534502
 20
386.583415744
 30
0.0
 10
1038.0293963436
 20
374.4729095478
 30
0.0
 10
1040.2532133067
 20
360.1605739807
 30
0.0
 10
1041.6543420555
 20
350.6840011898
 30
0.0
 10
1042.394112316
 20
345.666985061
 30
0.0
 10
1042.7988836576
 20
342.3172862342
 30
0.0
 10
1043.0401667428
 20
340.6554358901
 30
0.0
 10
1043.035057568
 20
340.1238002516
 30
0.0
  0
SPLINE
  5
5C6
100
AcDbEntity
  8
02___PRT_ALL_AXES
100
AcDbSpline
 62
7
  6
CONTINUOUS
 70
0
 71
3
 72
14
 73
10
 74
0
 42
0.0000001
 43
0.0000001
 44
0.0000000001
 40
0.0
 40
0.0
 40
0.0
 40
0.0
 40
0.3698903596
 40
0.5377250978
 40
0.6863480236
 40
0.8106368492
 40
0.9063367707
 40
0.9701742929
 40
1.0
 40
1.0
 40
1.0
 40
1.0
 10
1070.4940045953
 20
429.821367489
 30
0.0
 10
1077.0631145988
 20
429.0052551784
 30
0.0
 10
1086.6159033907
 20
427.8415368311
 30
0.0
 10
1098.8153662099
 20
426.4142597702
 30
0.0
 10
1106.6531707892
 20
425.5216754864
 30
0.0
 10
1113.2103479466
 20
424.8202064243
 30
0.0
 10
1118.2665525097
 20
424.2814686313
 30
0.0
 10
1121.6368504979
 20
424.0350545008
 30
0.0
 10
1123.3173020915
 20
423.8623492851
 30
0.0
 10
1123.848770106
 20
423.9118158765
 30
0.0
  0
SPLINE
  5
5C7
100
AcDbEntity
  8
02___PRT_ALL_AXES
100
AcDbSpline
 62
7
  6
CONTINUOUS
 70
0
 71
3
 72
9
 73
5
 74
0
 42
0.0000001
 43
0.0000001
 44
0.0000000001
 40
0.0
 40
0.0
 40
0.0
 40
0.0
 40
0.2987133878
 40
1.0
 40
1.0
 40
1.0
 40
1.0
 10
250.290432586
 20
518.2488132128
 30
0.0
 10
250.288101393
 20
518.1194965341
 30
0.0
 10
250.28102437
 20
517.6865756495
 30
0.0
 10
250.2747160189
 20
517.2536147524
 30
0.0
 10
250.274372523
 20
516.9499700695
 30
0.0
  0
SPLINE
  5
5C8
100
AcDbEntity
  8
02___PRT_ALL_AXES
100
AcDbSpline
 62
7
  6
CONTINUOUS
 70
0
 71
3
 72
9
 73
5
 74
0
 42
0.0000001
 43
0.0000001
 44
0.0000000001
 40
0.0
 40
0.0
 40
0.0
 40
0.0
 40
0.2987140242
 40
1.0
 40
1.0
 40
1.0
 40
1.0
 10
682.6905419015
 20
510.4578068242
 30
0.0
 10
682.6882083993
 20
510.3284910732
 30
0.0
 10
682.6811232216
 20
509.8955742527
 30
0.0
 10
682.6747751618
 20
509.4626176572
 30
0.0
 10
682.6744275234
 20
509.1589759815
 30
0.0
  0
SPLINE
  5
5C9
100
AcDbEntity
  8
02___PRT_ALL_AXES
100
AcDbSpline
 62
7
  6
CONTINUOUS
 70
0
 71
3
 72
14
 73
10
 74
0
 42
0.0000001
 43
0.0000001
 44
0.0000000001
 40
0.0
 40
0.0
 40
0.0
 40
0.0
 40
0.3690393217
 40
0.5367175887
 40
0.6853303731
 40
0.809729632
 40
0.9056377723
 40
0.9697680935
 40
1.0
 40
1.0
 40
1.0
 40
1.0
 10
1035.4902925095
 20
602.787834183
 30
0.0
 10
1036.5436772292
 20
609.3497927048
 30
0.0
 10
1038.042337005
 20
618.8989718882
 30
0.0
 10
1039.871543542
 20
631.1040811567
 30
0.0
 10
1041.0121951216
 20
638.9595462011
 30
0.0
 10
1041.9031696224
 20
645.5392786717
 30
0.0
 10
1042.5836297205
 20
650.6266769042
 30
0.0
 10
1042.882750567
 20
654.0217848516
 30
0.0
 10
1043.093833613
 20
655.7331015692
 30
0.0
 10
1043.0157709906
 20
656.2719177246
 30
0.0
  0
SPLINE
  5
5CA
100
AcDbEntity
  8
02___PRT_ALL_AXES
100
AcDbSpline
 62
7
  6
CONTINUOUS
 70
0
 71
3
 72
9
 73
5
 74
0
 42
0.0000001
 43
0.0000001
 44
0.0000000001
 40
0.0
 40
0.0
 40
0.0
 40
0.0
 40
0.1834736037
 40
1.0
 40
1.0
 40
1.0
 40
1.0
 10
1626.3661864023
 20
711.3789483808
 30
0.0
 10
1626.3757494918
 20
710.955312789
 30
0.0
 10
1626.415270777
 20
708.6460691098
 30
0.0
 10
1626.4337395877
 20
706.3365328093
 30
0.0
 10
1626.4443809698
 20
704.4507451505
 30
0.0
  0
SPLINE
  5
5CB
100
AcDbEntity
  8
02___PRT_ALL_AXES
100
AcDbSpline
 62
7
  6
CONTINUOUS
 70
0
 71
3
 72
9
 73
5
 74
0
 42
0.0000001
 43
0.0000001
 44
0.0000000001
 40
0.0
 40
0.0
 40
0.0
 40
0.0
 40
0.1834736397
 40
1.0
 40
1.0
 40
1.0
 40
1.0
 10
1626.3661864023
 20
285.1356185755
 30
0.0
 10
1626.3757494662
 20
285.5592542513
 30
0.0
 10
1626.4152706799
 20
287.8684979312
 30
0.0
 10
1626.4337395724
 20
290.1780342306
 30
0.0
 10
1626.4443809698
 20
292.0638218058
 30
0.0
  0
SPLINE
  5
5CC
100
AcDbEntity
  8
02___PRT_ALL_AXES
100
AcDbSpline
 62
7
  6
CONTINUOUS
 70
0
 71
3
 72
9
 73
5
 74
0
 42
0.0000001
 43
0.0000001
 44
0.0000000001
 40
0.0
 40
0.0
 40
0.0
 40
0.0
 40
0.1834736037
 40
1.0
 40
1.0
 40
1.0
 40
1.0
 10
1143.1715137027
 20
287.862516313
 30
0.0
 10
1143.1810768125
 20
288.2861519045
 30
0.0
 10
1143.220598145
 20
290.5953955832
 30
0.0
 10
1143.2390668887
 20
292.9049318845
 30
0.0
 10
1143.2497082702
 20
294.7907195433
 30
0.0
  0
SPLINE
  5
5CD
100
AcDbEntity
  8
02___PRT_ALL_AXES
100
AcDbSpline
 62
7
  6
CONTINUOUS
 70
0
 71
3
 72
9
 73
5
 74
0
 42
0.0000001
 43
0.0000001
 44
0.0000000001
 40
0.0
 40
0.0
 40
0.0
 40
0.0
 40
0.1834736037
 40
1.0
 40
1.0
 40
1.0
 40
1.0
 10
719.5608591019
 20
287.862516313
 30
0.0
 10
719.551295992
 20
288.2861519045
 30
0.0
 10
719.5117746596
 20
290.5953955832
 30
0.0
 10
719.4933059158
 20
292.9049318845
 30
0.0
 10
719.4826645344
 20
294.7907195433
 30
0.0
  0
SPLINE
  5
5CE
100
AcDbEntity
  8
02___PRT_ALL_AXES
100
AcDbSpline
 62
7
  6
CONTINUOUS
 70
0
 71
3
 72
9
 73
5
 74
0
 42
0.0000001
 43
0.0000001
 44
0.0000000001
 40
0.0
 40
0.0
 40
0.0
 40
0.0
 40
0.1834736037
 40
1.0
 40
1.0
 40
1.0
 40
1.0
 10
236.3661864023
 20
285.1356185755
 30
0.0
 10
236.3566233127
 20
285.5592541674
 30
0.0
 10
236.3171020276
 20
287.8684978465
 30
0.0
 10
236.2986332169
 20
290.1780341471
 30
0.0
 10
236.2879918348
 20
292.0638218058
 30
0.0
  0
SPLINE
  5
5CF
100
AcDbEntity
  8
02___PRT_ALL_AXES
100
AcDbSpline
 62
7
  6
CONTINUOUS
 70
0
 71
3
 72
9
 73
5
 74
0
 42
0.0000001
 43
0.0000001
 44
0.0000000001
 40
0.0
 40
0.0
 40
0.0
 40
0.0
 40
0.1834736397
 40
1.0
 40
1.0
 40
1.0
 40
1.0
 10
236.3661864023
 20
711.3789483808
 30
0.0
 10
236.3566233384
 20
710.9553127051
 30
0.0
 10
236.3171021247
 20
708.6460690251
 30
0.0
 10
236.2986332321
 20
706.3365327257
 30
0.0
 10
236.2879918348
 20
704.4507451505
 30
0.0
  0
SPLINE
  5
5D0
100
AcDbEntity
  8
02___PRT_ALL_AXES
100
AcDbSpline
 62
7
  6
CONTINUOUS
 70
0
 71
3
 72
9
 73
5
 74
0
 42
0.0000001
 43
0.0000001
 44
0.0000000001
 40
0.0
 40
0.0
 40
0.0
 40
0.0
 40
0.1834736037
 40
1.0
 40
1.0
 40
1.0
 40
1.0
 10
719.5608591019
 20
708.6520506433
 30
0.0
 10
719.551295992
 20
708.2284150519
 30
0.0
 10
719.5117746596
 20
705.9191713732
 30
0.0
 10
719.4933059158
 20
703.6096350718
 30
0.0
 10
719.4826645344
 20
701.7238474131
 30
0.0
  0
SPLINE
  5
5D1
100
AcDbEntity
  8
02___PRT_ALL_AXES
100
AcDbSpline
 62
7
  6
CONTINUOUS
 70
0
 71
3
 72
9
 73
5
 74
0
 42
0.0000001
 43
0.0000001
 44
0.0000000001
 40
0.0
 40
0.0
 40
0.0
 40
0.0
 40
0.1834736037
 40
1.0
 40
1.0
 40
1.0
 40
1.0
 10
1143.1715137027
 20
708.6520506433
 30
0.0
 10
1143.1810768125
 20
708.2284150519
 30
0.0
 10
1143.220598145
 20
705.9191713732
 30
0.0
 10
1143.2390668887
 20
703.6096350718
 30
0.0
 10
1143.2497082702
 20
701.7238474131
 30
0.0
  0
SPLINE
  5
5D2
100
AcDbEntity
  8
02___PRT_ALL_AXES
100
AcDbSpline
 62
7
  6
CONTINUOUS
 70
0
 71
3
 72
9
 73
5
 74
0
 42
0.0000001
 43
0.0000001
 44
0.0000000001
 40
0.0
 40
0.0
 40
0.0
 40
0.0
 40
0.2986665724
 40
1.0
 40
1.0
 40
1.0
 40
1.0
 10
682.4419402186
 20
518.2673768566
 30
0.0
 10
682.4442714346
 20
518.3966995422
 30
0.0
 10
682.4528040029
 20
518.829682061
 30
0.0
 10
682.4620388548
 20
519.2626789726
 30
0.0
 10
682.4726616667
 20
519.56622
 30
0.0
  0
SPLINE
  5
5D3
100
AcDbEntity
  8
02___PRT_ALL_AXES
100
AcDbSpline
 62
7
  6
CONTINUOUS
 70
0
 71
3
 72
9
 73
5
 74
0
 42
0.0000001
 43
0.0000001
 44
0.0000000001
 40
0.0
 40
0.0
 40
0.0
 40
0.0
 40
0.2986670701
 40
1.0
 40
1.0
 40
1.0
 40
1.0
 10
250.0418309028
 20
526.0583832453
 30
0.0
 10
250.0441645049
 20
526.1877050108
 30
0.0
 10
250.0527054254
 20
526.6206837487
 30
0.0
 10
250.0619799819
 20
527.0536759808
 30
0.0
 10
250.0726067373
 20
527.3572140879
 30
0.0
  0
SPLINE
  5
5D4
100
AcDbEntity
  8
02___PRT_ALL_AXES
100
AcDbSpline
 62
7
  6
CONTINUOUS
 70
0
 71
3
 72
9
 73
5
 74
0
 42
0.0000001
 43
0.0000001
 44
0.0000000001
 40
0.0
 40
0.0
 40
0.0
 40
0.0
 40
0.2987601669
 40
1.0
 40
1.0
 40
1.0
 40
1.0
 10
250.538499005
 20
566.0082460723
 30
0.0
 10
250.5315122116
 20
565.8791031437
 30
0.0
 10
250.5088583524
 20
565.4468052304
 30
0.0
 10
250.4869511709
 20
565.0144400191
 30
0.0
 10
250.4757198263
 20
564.7110846313
 30
0.0
  0
SPLINE
  5
5D5
100
AcDbEntity
  8
02___PRT_ALL_AXES
100
AcDbSpline
 62
7
  6
CONTINUOUS
 70
0
 71
3
 72
9
 73
5
 74
0
 42
0.0000001
 43
0.0000001
 44
0.0000000001
 40
0.0
 40
0.0
 40
0.0
 40
0.0
 40
0.298760936
 40
1.0
 40
1.0
 40
1.0
 40
1.0
 10
682.9385874466
 20
542.6352505953
 30
0.0
 10
682.9316038134
 20
542.5061086867
 30
0.0
 10
682.9089535672
 20
542.0738156243
 30
0.0
 10
682.8870356996
 20
541.6414564692
 30
0.0
 10
682.8757646391
 20
541.3381064629
 30
0.0
  0
SPLINE
  5
5D6
100
AcDbEntity
  8
02___PRT_ALL_AXES
100
AcDbSpline
 62
7
  6
CONTINUOUS
 70
0
 71
3
 72
9
 73
5
 74
0
 42
0.0000001
 43
0.0000001
 44
0.0000000001
 40
0.0
 40
0.0
 40
0.0
 40
0.0
 40
0.2986222307
 40
1.0
 40
1.0
 40
1.0
 40
1.0
 10
682.1938773317
 20
550.4907835017
 30
0.0
 10
682.2008572208
 20
550.6199408711
 30
0.0
 10
682.2249564749
 20
551.0524080548
 30
0.0
 10
682.2497960765
 20
551.4848617596
 30
0.0
 10
682.2713156139
 20
551.787894808
 30
0.0
  0
SPLINE
  5
5D7
100
AcDbEntity
  8
02___PRT_ALL_AXES
100
AcDbSpline
 62
7
  6
CONTINUOUS
 70
0
 71
3
 72
9
 73
5
 74
0
 42
0.0000001
 43
0.0000001
 44
0.0000000001
 40
0.0
 40
0.0
 40
0.0
 40
0.0
 40
0.2986197264
 40
1.0
 40
1.0
 40
1.0
 40
1.0
 10
249.7938497338
 20
573.8636969085
 30
0.0
 10
249.8008316979
 20
573.9928582123
 30
0.0
 10
249.8249370337
 20
574.4253422594
 30
0.0
 10
249.849784104
 20
574.8578126554
 30
0.0
 10
249.8713023471
 20
575.1608589517
 30
0.0
  0
SPLINE
  5
5D8
100
AcDbEntity
  8
02___PRT_ALL_AXES
100
AcDbSpline
 62
7
  6
CONTINUOUS
 70
0
 71
3
 72
9
 73
5
 74
0
 42
0.0000001
 43
0.0000001
 44
0.0000000001
 40
0.0
 40
0.0
 40
0.0
 40
0.0
 40
0.2988092695
 40
1.0
 40
1.0
 40
1.0
 40
1.0
 10
250.7850848462
 20
613.7809854237
 30
0.0
 10
250.77348574
 20
613.6521849532
 30
0.0
 10
250.7353857297
 20
613.2210789758
 30
0.0
 10
250.6980261291
 20
612.7898802803
 30
0.0
 10
250.67587971
 20
612.4872210496
 30
0.0
  0
SPLINE
  5
5D9
100
AcDbEntity
  8
02___PRT_ALL_AXES
100
AcDbSpline
 62
7
  6
CONTINUOUS
 70
0
 71
3
 72
9
 73
5
 74
0
 42
0.0000001
 43
0.0000001
 44
0.0000000001
 40
0.0
 40
0.0
 40
0.0
 40
0.0
 40
0.298806777
 40
1.0
 40
1.0
 40
1.0
 40
1.0
 10
683.1851472352
 20
574.8260863879
 30
0.0
 10
683.1735427174
 20
574.6972823274
 30
0.0
 10
683.1354286838
 20
574.2661603992
 30
0.0
 10
683.0980363883
 20
573.8349468515
 30
0.0
 10
683.0759093238
 20
573.5322730303
 30
0.0
  0
SPLINE
  5
5DA
100
AcDbEntity
  8
02___PRT_ALL_AXES
100
AcDbSpline
 62
7
  6
CONTINUOUS
 70
0
 71
3
 72
9
 73
5
 74
0
 42
0.0000001
 43
0.0000001
 44
0.0000000001
 40
0.0
 40
0.0
 40
0.0
 40
0.0
 40
0.2985758932
 40
1.0
 40
1.0
 40
1.0
 40
1.0
 10
681.9472879618
 20
582.7730824196
 30
0.0
 10
681.9588898435
 20
582.9019126716
 30
0.0
 10
681.9984723395
 20
583.3333252377
 30
0.0
 10
682.0387737746
 20
583.7647000198
 30
0.0
 10
682.0711548032
 20
584.0668467937
 30
0.0
  0
SPLINE
  5
5DB
100
AcDbEntity
  8
02___PRT_ALL_AXES
100
AcDbSpline
 62
7
  6
CONTINUOUS
 70
0
 71
3
 72
9
 73
5
 74
0
 42
0.0000001
 43
0.0000001
 44
0.0000000001
 40
0.0
 40
0.0
 40
0.0
 40
0.0
 40
0.2985732234
 40
1.0
 40
1.0
 40
1.0
 40
1.0
 10
255.9353450459
 20
621.1524703618
 30
0.0
 10
255.9469490105
 20
621.2813048251
 30
0.0
 10
255.9865338491
 20
621.7127359048
 30
0.0
 10
256.0268614592
 20
622.14412631
 30
0.0
 10
256.0592055737
 20
622.4462912849
 30
0.0
  0
SPLINE
  5
5DC
100
AcDbEntity
  8
02___PRT_ALL_AXES
100
AcDbSpline
 62
7
  6
CONTINUOUS
 70
0
 71
3
 72
9
 73
5
 74
0
 42
0.0000001
 43
0.0000001
 44
0.0000000001
 40
0.0
 40
0.0
 40
0.0
 40
0.0
 40
0.2975665422
 40
1.0
 40
1.0
 40
1.0
 40
1.0
 10
250.5170660723
 20
631.3593904231
 30
0.0
 10
250.6303863579
 20
631.2967539753
 30
0.0
 10
251.0113780761
 20
631.0865650935
 30
0.0
 10
251.3925571597
 20
630.8767028294
 30
0.0
 10
251.6612460586
 20
630.7310096907
 30
0.0
  0
SPLINE
  5
5DD
100
AcDbEntity
  8
02___PRT_ALL_AXES
100
AcDbSpline
 62
7
  6
CONTINUOUS
 70
0
 71
3
 72
9
 73
5
 74
0
 42
0.0000001
 43
0.0000001
 44
0.0000000001
 40
0.0
 40
0.0
 40
0.0
 40
0.0
 40
0.2980588168
 40
1.0
 40
1.0
 40
1.0
 40
1.0
 10
273.3307474379
 20
654.1432765656
 30
0.0
 10
273.3932040837
 20
654.0299145488
 30
0.0
 10
273.6033033521
 20
653.6498895479
 30
0.0
 10
273.8139989738
 20
653.2701704753
 30
0.0
 10
273.9649922238
 20
653.0053872056
 30
0.0
  0
SPLINE
  5
5DE
100
AcDbEntity
  8
02___PRT_ALL_AXES
100
AcDbSpline
 62
7
  6
CONTINUOUS
 70
0
 71
3
 72
9
 73
5
 74
0
 42
0.0000001
 43
0.0000001
 44
0.0000000001
 40
0.0
 40
0.0
 40
0.0
 40
0.0
 40
0.2988496961
 40
1.0
 40
1.0
 40
1.0
 40
1.0
 10
283.5444378909
 20
656.1150216903
 30
0.0
 10
283.5286778466
 20
655.9866666528
 30
0.0
 10
283.4766594525
 20
655.5570861157
 30
0.0
 10
283.4253568789
 20
655.1273911479
 30
0.0
 10
283.393454017
 20
654.8256696436
 30
0.0
  0
SPLINE
  5
5DF
100
AcDbEntity
  8
02___PRT_ALL_AXES
100
AcDbSpline
 62
7
  6
CONTINUOUS
 70
0
 71
3
 72
9
 73
5
 74
0
 42
0.0000001
 43
0.0000001
 44
0.0000000001
 40
0.0
 40
0.0
 40
0.0
 40
0.0
 40
0.2988487717
 40
1.0
 40
1.0
 40
1.0
 40
1.0
 10
683.4069663985
 20
607.0126071483
 30
0.0
 10
683.3912038543
 20
606.8842511605
 30
0.0
 10
683.3391770555
 20
606.4546660849
 30
0.0
 10
683.2878647035
 20
606.0249667432
 30
0.0
 10
683.255954316
 20
605.7232417446
 30
0.0
  0
SPLINE
  5
5E0
100
AcDbEntity
  8
02___PRT_ALL_AXES
100
AcDbSpline
 62
7
  6
CONTINUOUS
 70
0
 71
3
 72
9
 73
5
 74
0
 42
0.0000001
 43
0.0000001
 44
0.0000000001
 40
0.0
 40
0.0
 40
0.0
 40
0.0
 40
0.2985342816
 40
1.0
 40
1.0
 40
1.0
 40
1.0
 10
678.0190118356
 20
615.5367360945
 30
0.0
 10
678.0347714695
 20
615.6651292567
 30
0.0
 10
678.0882844773
 20
616.0951143462
 30
0.0
 10
678.1424920399
 20
616.5250415479
 30
0.0
 10
678.1846370473
 20
616.8260549426
 30
0.0
  0
LINE
  5
5E1
100
AcDbEntity
  8
02___PRT_ALL_AXES
100
AcDbLine
 62
7
  6
CONTINUOUS
 10
735.0979891931
 20
529.0389293845
 11
735.153186923
 21
530.0839710195
  0
SPLINE
  5
5E2
100
AcDbEntity
  8
02___PRT_ALL_AXES
100
AcDbSpline
 62
7
  6
CONTINUOUS
 70
0
 71
3
 72
9
 73
5
 74
0
 42
0.0000001
 43
0.0000001
 44
0.0000000001
 40
0.0
 40
0.0
 40
0.0
 40
0.0
 40
0.2985328205
 40
1.0
 40
1.0
 40
1.0
 40
1.0
 10
433.0533304643
 20
645.6180638617
 30
0.0
 10
433.0690850452
 20
645.7464601822
 30
0.0
 10
433.1225718325
 20
646.1764594072
 30
0.0
 10
433.1768067584
 20
646.6063925476
 30
0.0
 10
433.2188472345
 20
646.9074286775
 30
0.0
  0
SPLINE
  5
5E3
100
AcDbEntity
  8
02___PRT_ALL_AXES
100
AcDbSpline
 62
7
  6
CONTINUOUS
 70
0
 71
3
 72
9
 73
5
 74
0
 42
0.0000001
 43
0.0000001
 44
0.0000000001
 40
0.0
 40
0.0
 40
0.0
 40
0.0
 40
0.2986919264
 40
1.0
 40
1.0
 40
1.0
 40
1.0
 10
434.0155967906
 20
661.3553371125
 30
0.0
 10
434.0156090527
 20
661.2259990162
 30
0.0
 10
434.0163594134
 20
660.79298815
 30
0.0
 10
434.017949396
 20
660.3599534609
 30
0.0
 10
434.0229696998
 20
660.0563180163
 30
0.0
  0
SPLINE
  5
5E4
100
AcDbEntity
  8
0
100
AcDbSpline
 62
7
  6
CONTINUOUS
 70
0
 71
3
 72
9
 73
5
 74
0
 42
0.0000001
 43
0.0000001
 44
0.0000000001
 40
0.0
 40
0.0
 40
0.0
 40
0.0
 40
0.3011485244
 40
1.0
 40
1.0
 40
1.0
 40
1.0
 10
1681.9661864023
 20
236.270908026
 30
0.0
 10
1681.9661864023
 20
236.3188814592
 30
0.0
 10
1681.785152371
 20
236.4067295769
 30
0.0
 10
1681.68614949
 20
236.5061868344
 30
0.0
 10
1681.6005710775
 20
236.5773928011
 30
0.0
  0
SPLINE
  5
5E5
100
AcDbEntity
  8
0
100
AcDbSpline
 62
7
  6
CONTINUOUS
 70
0
 71
3
 72
9
 73
5
 74
0
 42
0.0000001
 43
0.0000001
 44
0.0000000001
 40
0.0
 40
0.0
 40
0.0
 40
0.0
 40
0.4880603225
 40
1.0
 40
1.0
 40
1.0
 40
1.0
 10
1681.6005710775
 20
236.5773928011
 30
0.0
 10
1681.5788605296
 20
236.5954571762
 30
0.0
 10
1681.5349924538
 20
236.6332182077
 30
0.0
 10
1681.492769747
 20
236.6728285345
 30
0.0
 10
1681.4716931957
 20
236.6936471145
 30
0.0
  0
SPLINE
  5
5E6
100
AcDbEntity
  8
0
100
AcDbSpline
 62
7
  6
CONTINUOUS
 70
0
 71
3
 72
9
 73
5
 74
0
 42
0.0000001
 43
0.0000001
 44
0.0000000001
 40
0.0
 40
0.0
 40
0.0
 40
0.0
 40
0.3011930931
 40
1.0
 40
1.0
 40
1.0
 40
1.0
 10
180.7661864023
 20
760.2437378314
 30
0.0
 10
180.7661864023
 20
760.1944842908
 30
0.0
 10
180.9527255631
 20
760.1050085806
 30
0.0
 10
181.0540640939
 20
760.0026034414
 30
0.0
 10
181.1415281957
 20
759.9290595046
 30
0.0
  0
SPLINE
  5
5E7
100
AcDbEntity
  8
0
100
AcDbSpline
 62
7
  6
CONTINUOUS
 70
0
 71
3
 72
9
 73
5
 74
0
 42
0.0000001
 43
0.0000001
 44
0.0000000001
 40
0.0
 40
0.0
 40
0.0
 40
0.0
 40
0.4891479664
 40
1.0
 40
1.0
 40
1.0
 40
1.0
 10
181.1415281957
 20
759.9290595046
 30
0.0
 10
181.161608421
 20
759.9121751053
 30
0.0
 10
181.2021053909
 20
759.8769902675
 30
0.0
 10
181.241162943
 20
759.8402007701
 30
0.0
 10
181.2606547022
 20
759.8209444456
 30
0.0
  0
SPLINE
  5
5E8
100
AcDbEntity
  8
02___PRT_ALL_AXES
100
AcDbSpline
 62
7
  6
CONTINUOUS
 70
0
 71
3
 72
9
 73
5
 74
0
 42
0.0000001
 43
0.0000001
 44
0.0000000001
 40
0.0
 40
0.0
 40
0.0
 40
0.0
 40
0.4999153018
 40
1.0
 40
1.0
 40
1.0
 40
1.0
 10
1035.490292519
 20
602.7878341882
 30
0.0
 10
1044.3175841117
 20
601.3133967776
 30
0.0
 10
1061.4603584682
 20
592.3529584594
 30
0.0
 10
1069.6302614346
 20
574.8448223584
 30
0.0
 10
1070.7467800798
 20
565.9621021508
 30
0.0
  0
SPLINE
  5
5E9
100
AcDbEntity
  8
02___PRT_ALL_AXES
100
AcDbSpline
 62
7
  6
CONTINUOUS
 70
0
 71
3
 72
8
 73
4
 74
0
 42
0.0000001
 43
0.0000001
 44
0.0000000001
 40
0.0
 40
0.0
 40
0.0
 40
0.0
 40
1.0
 40
1.0
 40
1.0
 40
1.0
 10
931.3661864023
 20
611.7393325303
 30
0.0
 10
966.2022449834
 20
611.7393089196
 30
0.0
 10
1001.1297928563
 20
608.5243000334
 30
0.0
 10
1035.490292519
 20
602.7878341882
 30
0.0
  0
SPLINE
  5
5EA
100
AcDbEntity
  8
02___PRT_ALL_AXES
100
AcDbSpline
 62
7
  6
CONTINUOUS
 70
0
 71
3
 72
8
 73
4
 74
0
 42
0.0000001
 43
0.0000001
 44
0.0000000001
 40
0.0
 40
0.0
 40
0.0
 40
0.0
 40
1.0
 40
1.0
 40
1.0
 40
1.0
 10
827.2420802855
 20
602.7878341882
 30
0.0
 10
861.6025797699
 20
608.5243011013
 30
0.0
 10
896.5301278212
 20
611.7393089881
 30
0.0
 10
931.3661864023
 20
611.7393325303
 30
0.0
  0
SPLINE
  5
5EB
100
AcDbEntity
  8
02___PRT_ALL_AXES
100
AcDbSpline
 62
7
  6
CONTINUOUS
 70
0
 71
3
 72
9
 73
5
 74
0
 42
0.0000001
 43
0.0000001
 44
0.0000000001
 40
0.0
 40
0.0
 40
0.0
 40
0.0
 40
0.5000845593
 40
1.0
 40
1.0
 40
1.0
 40
1.0
 10
791.9855927248
 20
565.9621021507
 30
0.0
 10
793.102130375
 20
574.8448174813
 30
0.0
 10
801.2720034583
 20
592.3529485212
 30
0.0
 10
818.4147832761
 20
601.313414002
 30
0.0
 10
827.2420802855
 20
602.7878341882
 30
0.0
  0
SPLINE
  5
5EC
100
AcDbEntity
  8
02___PRT_ALL_AXES
100
AcDbSpline
 62
7
  6
CONTINUOUS
 70
0
 71
3
 72
8
 73
4
 74
0
 42
0.0000001
 43
0.0000001
 44
0.0000000001
 40
0.0
 40
0.0
 40
0.0
 40
0.0
 40
1.0
 40
1.0
 40
1.0
 40
1.0
 10
1579.1964077686
 20
340.4040619701
 30
0.0
 10
1582.6393117254
 20
339.9827701171
 30
0.0
 10
1586.3755454586
 20
340.7033938185
 30
0.0
 10
1589.4132809991
 20
342.3776809107
 30
0.0
  0
SPLINE
  5
5ED
100
AcDbEntity
  8
02___PRT_ALL_AXES
100
AcDbSpline
 62
7
  6
CONTINUOUS
 70
0
 71
3
 72
8
 73
4
 74
0
 42
0.0000001
 43
0.0000001
 44
0.0000000001
 40
0.0
 40
0.0
 40
0.0
 40
0.0
 40
1.0
 40
1.0
 40
1.0
 40
1.0
 10
1589.4017188488
 20
654.1430838301
 30
0.0
 10
1586.3649356475
 20
655.8168042794
 30
0.0
 10
1582.6294498396
 20
656.5379691166
 30
0.0
 10
1579.1878804364
 20
656.1148941852
 30
0.0
  0
SPLINE
  5
5EE
100
AcDbEntity
  8
02___PRT_ALL_AXES
100
AcDbSpline
 62
7
  6
CONTINUOUS
 70
0
 71
3
 72
8
 73
4
 74
0
 42
0.0000001
 43
0.0000001
 44
0.0000000001
 40
0.0
 40
0.0
 40
0.0
 40
0.0
 40
1.0
 40
1.0
 40
1.0
 40
1.0
 10
273.3190579954
 20
342.3779089079
 30
0.0
 10
276.3565053752
 20
340.7030079585
 30
0.0
 10
280.0933386048
 20
339.9809153188
 30
0.0
 10
283.5360447376
 20
340.4041814983
 30
0.0
  0
SPLINE
  5
5EF
100
AcDbEntity
  8
02___PRT_ALL_AXES
100
AcDbSpline
 62
7
  6
CONTINUOUS
 70
0
 71
3
 72
8
 73
4
 74
0
 42
0.0000001
 43
0.0000001
 44
0.0000000001
 40
0.0
 40
0.0
 40
0.0
 40
0.0
 40
1.0
 40
1.0
 40
1.0
 40
1.0
 10
283.5444378909
 20
656.1150216903
 30
0.0
 10
280.1026839972
 20
656.5361608019
 30
0.0
 10
276.3678446629
 20
655.8163181889
 30
0.0
 10
273.3307474068
 20
654.1432765659
 30
0.0
  0
SPLINE
  5
5F0
100
AcDbEntity
  8
02___PRT_ALL_AXES
100
AcDbSpline
 62
7
  6
CONTINUOUS
 70
0
 71
3
 72
8
 73
4
 74
0
 42
0.0000001
 43
0.0000001
 44
0.0000000001
 40
0.0
 40
0.0
 40
0.0
 40
0.0
 40
1.0
 40
1.0
 40
1.0
 40
1.0
 10
1579.4899028817
 20
653.5363159084
 30
0.0
 10
1582.4023327881
 20
653.8942921318
 30
0.0
 10
1585.5635061853
 20
653.2841943198
 30
0.0
 10
1588.1333752796
 20
651.8678017984
 30
0.0
  0
SPLINE
  5
5F1
100
AcDbEntity
  8
02___PRT_ALL_AXES
100
AcDbSpline
 62
7
  6
CONTINUOUS
 70
0
 71
3
 72
8
 73
4
 74
0
 42
0.0000001
 43
0.0000001
 44
0.0000000001
 40
0.0
 40
0.0
 40
0.0
 40
0.0
 40
1.0
 40
1.0
 40
1.0
 40
1.0
 10
1579.4983445511
 20
342.9827738669
 30
0.0
 10
1582.4117866642
 20
342.6250364261
 30
0.0
 10
1585.5738580455
 20
343.2358571543
 30
0.0
 10
1588.1444883643
 20
344.6528895418
 30
0.0
  0
SPLINE
  5
5F2
100
AcDbEntity
  8
02___PRT_ALL_AXES
100
AcDbSpline
 62
7
  6
CONTINUOUS
 70
0
 71
3
 72
8
 73
4
 74
0
 42
0.0000001
 43
0.0000001
 44
0.0000000001
 40
0.0
 40
0.0
 40
0.0
 40
0.0
 40
1.0
 40
1.0
 40
1.0
 40
1.0
 10
283.2340282535
 20
342.9827738669
 30
0.0
 10
280.3206411986
 20
342.6245883127
 30
0.0
 10
277.1583449345
 20
343.2355491203
 30
0.0
 10
274.5878844403
 20
344.6528895418
 30
0.0
  0
SPLINE
  5
5F3
100
AcDbEntity
  8
02___PRT_ALL_AXES
100
AcDbSpline
 62
7
  6
CONTINUOUS
 70
0
 71
3
 72
8
 73
4
 74
0
 42
0.0000001
 43
0.0000001
 44
0.0000000001
 40
0.0
 40
0.0
 40
0.0
 40
0.0
 40
1.0
 40
1.0
 40
1.0
 40
1.0
 10
283.2424699229
 20
653.5363159084
 30
0.0
 10
280.3299989496
 20
653.8939578608
 30
0.0
 10
277.1690837673
 20
653.2838002601
 30
0.0
 10
274.598997525
 20
651.8678017984
 30
0.0
  0
SPLINE
  5
5F4
100
AcDbEntity
  8
0
100
AcDbSpline
 62
7
  6
CONTINUOUS
 70
0
 71
3
 72
9
 73
5
 74
0
 42
0.0000001
 43
0.0000001
 44
0.0000000001
 40
0.0
 40
0.0
 40
0.0
 40
0.0
 40
0.4904790169
 40
1.0
 40
1.0
 40
1.0
 40
1.0
 10
181.2606796089
 20
236.6936471145
 30
0.0
 10
181.2755628523
 20
236.7083481909
 30
0.0
 10
181.3072307853
 20
236.7370068062
 30
0.0
 10
181.3413606477
 20
236.7627110126
 30
0.0
 10
181.3593540113
 20
236.7748975488
 30
0.0
  0
SPLINE
  5
5F5
100
AcDbEntity
  8
0
100
AcDbSpline
 62
7
  6
CONTINUOUS
 70
0
 71
3
 72
8
 73
4
 74
0
 42
0.0000001
 43
0.0000001
 44
0.0000000001
 40
0.0
 40
0.0
 40
0.0
 40
0.0
 40
1.0
 40
1.0
 40
1.0
 40
1.0
 10
181.3593540113
 20
236.7748975488
 30
0.0
 10
181.4654317889
 20
236.8467418522
 30
0.0
 10
181.6211490941
 20
236.8863479607
 30
0.0
 10
181.7388569038
 20
236.8357616941
 30
0.0
  0
SPLINE
  5
5F6
100
AcDbEntity
  8
0
100
AcDbSpline
 62
7
  6
CONTINUOUS
 70
0
 71
3
 72
9
 73
5
 74
0
 42
0.0000001
 43
0.0000001
 44
0.0000000001
 40
0.0
 40
0.0
 40
0.0
 40
0.0
 40
0.3442949255
 40
1.0
 40
1.0
 40
1.0
 40
1.0
 10
181.2606796089
 20
236.6936471145
 30
0.0
 10
181.2099874434
 20
236.6435754077
 30
0.0
 10
181.0565127988
 20
236.5045630232
 30
0.0
 10
180.872480257
 20
236.3996617997
 30
0.0
 10
180.7821420643
 20
236.2984038358
 30
0.0
  0
SPLINE
  5
5F7
100
AcDbEntity
  8
0
100
AcDbSpline
 62
7
  6
CONTINUOUS
 70
0
 71
3
 72
8
 73
4
 74
0
 42
0.0000001
 43
0.0000001
 44
0.0000000001
 40
0.0
 40
0.0
 40
0.0
 40
0.0
 40
1.0
 40
1.0
 40
1.0
 40
1.0
 10
181.751666732
 20
759.6440013284
 30
0.0
 10
181.6290132848
 20
759.6311226996
 30
0.0
 10
181.4554756007
 20
759.65565034
 30
0.0
 10
181.4027813844
 20
759.7671539129
 30
0.0
  0
SPLINE
  5
5F8
100
AcDbEntity
  8
0
100
AcDbSpline
 62
7
  6
CONTINUOUS
 70
0
 71
3
 72
9
 73
5
 74
0
 42
0.0000001
 43
0.0000001
 44
0.0000000001
 40
0.0
 40
0.0
 40
0.0
 40
0.0
 40
0.4735392095
 40
1.0
 40
1.0
 40
1.0
 40
1.0
 10
181.4027813844
 20
759.7671539129
 30
0.0
 10
181.3969883549
 20
759.7794122504
 30
0.0
 10
181.3871417894
 20
759.8064644205
 30
0.0
 10
181.3817029211
 20
759.8346878182
 30
0.0
 10
181.3797938945
 20
759.8496399244
 30
0.0
  0
SPLINE
  5
5F9
100
AcDbEntity
  8
0
100
AcDbSpline
 62
7
  6
CONTINUOUS
 70
0
 71
3
 72
9
 73
5
 74
0
 42
0.0000001
 43
0.0000001
 44
0.0000000001
 40
0.0
 40
0.0
 40
0.0
 40
0.0
 40
0.1825743499
 40
1.0
 40
1.0
 40
1.0
 40
1.0
 10
1681.0661864023
 20
760.5572834782
 30
0.0
 10
1681.0088009685
 20
760.5572834782
 30
0.0
 10
1680.6976487226
 20
760.6628471064
 30
0.0
 10
1680.5333975405
 20
760.9692433071
 30
0.0
 10
1680.3990419905
 20
761.1882414753
 30
0.0
  0
SPLINE
  5
5FA
100
AcDbEntity
  8
0
100
AcDbSpline
 62
7
  6
CONTINUOUS
 70
0
 71
3
 72
9
 73
5
 74
0
 42
0.0000001
 43
0.0000001
 44
0.0000000001
 40
0.0
 40
0.0
 40
0.0
 40
0.0
 40
0.4955342926
 40
1.0
 40
1.0
 40
1.0
 40
1.0
 10
1680.3990419905
 20
761.1882414753
 30
0.0
 10
1680.3719743202
 20
761.2323615002
 30
0.0
 10
1680.3183116012
 20
761.3219853434
 30
0.0
 10
1680.2655523923
 20
761.4121371999
 30
0.0
 10
1680.2389364234
 20
761.4576155022
 30
0.0
  0
SPLINE
  5
5FB
100
AcDbEntity
  8
0
100
AcDbSpline
 62
7
  6
CONTINUOUS
 70
0
 71
3
 72
8
 73
4
 74
0
 42
0.0000001
 43
0.0000001
 44
0.0000000001
 40
0.0
 40
0.0
 40
0.0
 40
0.0
 40
1.0
 40
1.0
 40
1.0
 40
1.0
 10
182.4934363811
 20
761.4576155022
 30
0.0
 10
182.434215915
 20
761.35642639
 30
0.0
 10
182.3750581521
 20
761.2551677103
 30
0.0
 10
182.3131703351
 20
761.1555876011
 30
0.0
  0
SPLINE
  5
5FC
100
AcDbEntity
  8
0
100
AcDbSpline
 62
7
  6
CONTINUOUS
 70
0
 71
3
 72
9
 73
5
 74
0
 42
0.0000001
 43
0.0000001
 44
0.0000000001
 40
0.0
 40
0.0
 40
0.0
 40
0.0
 40
0.5124494254
 40
1.0
 40
1.0
 40
1.0
 40
1.0
 10
182.3131703351
 20
761.1555876011
 30
0.0
 10
182.2893404857
 20
761.117244368
 30
0.0
 10
182.2420322896
 20
761.0429168329
 30
0.0
 10
182.1923385085
 20
760.9701410928
 30
0.0
 10
182.167289651
 20
760.9352501094
 30
0.0
  0
SPLINE
  5
5FD
100
AcDbEntity
  8
0
100
AcDbSpline
 62
7
  6
CONTINUOUS
 70
0
 71
3
 72
8
 73
4
 74
0
 42
0.0000001
 43
0.0000001
 44
0.0000000001
 40
0.0
 40
0.0
 40
0.0
 40
0.0
 40
1.0
 40
1.0
 40
1.0
 40
1.0
 10
182.167289651
 20
760.9352501094
 30
0.0
 10
182.0724923067
 20
760.8032052623
 30
0.0
 10
181.9638700571
 20
760.6665047772
 30
0.0
 10
181.8178244256
 20
760.5951391577
 30
0.0
  0
SPLINE
  5
5FE
100
AcDbEntity
  8
0
100
AcDbSpline
 62
7
  6
CONTINUOUS
 70
0
 71
3
 72
9
 73
5
 74
0
 42
0.0000001
 43
0.0000001
 44
0.0000000001
 40
0.0
 40
0.0
 40
0.0
 40
0.0
 40
0.5158301335
 40
1.0
 40
1.0
 40
1.0
 40
1.0
 10
181.8178244256
 20
760.5951391577
 30
0.0
 10
181.7935206337
 20
760.5832630396
 30
0.0
 10
181.7441758564
 20
760.5643322788
 30
0.0
 10
181.6915763885
 20
760.5572834782
 30
0.0
 10
181.6661864023
 20
760.5572834782
 30
0.0
  0
SPLINE
  5
5FF
100
AcDbEntity
  8
0
100
AcDbSpline
 62
7
  6
CONTINUOUS
 70
0
 71
3
 72
9
 73
5
 74
0
 42
0.0000001
 43
0.0000001
 44
0.0000000001
 40
0.0
 40
0.0
 40
0.0
 40
0.0
 40
0.3011485244
 40
1.0
 40
1.0
 40
1.0
 40
1.0
 10
181.6798109501
 20
235.3572834782
 30
0.0
 10
181.7277843833
 20
235.3572834782
 30
0.0
 10
181.815632501
 20
235.5383175095
 30
0.0
 10
181.9150897585
 20
235.6373203905
 30
0.0
 10
181.9862957252
 20
235.7228988029
 30
0.0
  0
SPLINE
  5
600
100
AcDbEntity
  8
0
100
AcDbSpline
 62
7
  6
CONTINUOUS
 70
0
 71
3
 72
9
 73
5
 74
0
 42
0.0000001
 43
0.0000001
 44
0.0000000001
 40
0.0
 40
0.0
 40
0.0
 40
0.0
 40
0.4880603225
 40
1.0
 40
1.0
 40
1.0
 40
1.0
 10
181.9862957252
 20
235.7228988029
 30
0.0
 10
182.0043601003
 20
235.7446093508
 30
0.0
 10
182.0421211318
 20
235.7884774266
 30
0.0
 10
182.0817314587
 20
235.8307001334
 30
0.0
 10
182.1025500386
 20
235.8517766848
 30
0.0
  0
SPLINE
  5
601
100
AcDbEntity
  8
0
100
AcDbSpline
 62
7
  6
CONTINUOUS
 70
0
 71
3
 72
8
 73
4
 74
0
 42
0.0000001
 43
0.0000001
 44
0.0000000001
 40
0.0
 40
0.0
 40
0.0
 40
0.0
 40
1.0
 40
1.0
 40
1.0
 40
1.0
 10
1680.9807150773
 20
236.8705450448
 30
0.0
 10
1681.1034226713
 20
236.8834142374
 30
0.0
 10
1681.2769396484
 20
236.8589910924
 30
0.0
 10
1681.3298110911
 20
236.7475129319
 30
0.0
  0
SPLINE
  5
602
100
AcDbEntity
  8
0
100
AcDbSpline
 62
7
  6
CONTINUOUS
 70
0
 71
3
 72
9
 73
5
 74
0
 42
0.0000001
 43
0.0000001
 44
0.0000000001
 40
0.0
 40
0.0
 40
0.0
 40
0.0
 40
0.4735556269
 40
1.0
 40
1.0
 40
1.0
 40
1.0
 10
1681.3298110911
 20
236.7475129319
 30
0.0
 10
1681.335628085
 20
236.7352479407
 30
0.0
 10
1681.345519601
 20
236.7081758117
 30
0.0
 10
1681.3509898801
 20
236.6799238479
 30
0.0
 10
1681.3529121587
 20
236.6649562067
 30
0.0
  0
SPLINE
  5
603
100
AcDbEntity
  8
0
100
AcDbSpline
 62
7
  6
CONTINUOUS
 70
0
 71
3
 72
9
 73
5
 74
0
 42
0.0000001
 43
0.0000001
 44
0.0000000001
 40
0.0
 40
0.0
 40
0.0
 40
0.0
 40
0.4904749622
 40
1.0
 40
1.0
 40
1.0
 40
1.0
 10
1680.6298227659
 20
235.8517766848
 30
0.0
 10
1680.6151245985
 20
235.8666569831
 30
0.0
 10
1680.5864676172
 20
235.8983150758
 30
0.0
 10
1680.560759553
 20
235.9324317884
 30
0.0
 10
1680.5485705227
 20
235.9504186939
 30
0.0
  0
SPLINE
  5
604
100
AcDbEntity
  8
0
100
AcDbSpline
 62
7
  6
CONTINUOUS
 70
0
 71
3
 72
8
 73
4
 74
0
 42
0.0000001
 43
0.0000001
 44
0.0000000001
 40
0.0
 40
0.0
 40
0.0
 40
0.0
 40
1.0
 40
1.0
 40
1.0
 40
1.0
 10
1680.5485705227
 20
235.9504186939
 30
0.0
 10
1680.4767340067
 20
236.0564252087
 30
0.0
 10
1680.4371757352
 20
236.2122010835
 30
0.0
 10
1680.4879345035
 20
236.329765592
 30
0.0
  0
SPLINE
  5
605
100
AcDbEntity
  8
0
100
AcDbSpline
 62
7
  6
CONTINUOUS
 70
0
 71
3
 72
9
 73
5
 74
0
 42
0.0000001
 43
0.0000001
 44
0.0000000001
 40
0.0
 40
0.0
 40
0.0
 40
0.0
 40
0.3442949255
 40
1.0
 40
1.0
 40
1.0
 40
1.0
 10
1680.6298227659
 20
235.8517766848
 30
0.0
 10
1680.6798944727
 20
235.8010845193
 30
0.0
 10
1680.8189068572
 20
235.6476098747
 30
0.0
 10
1680.9238080807
 20
235.4635773328
 30
0.0
 10
1681.0250660446
 20
235.3732391402
 30
0.0
  0
SPLINE
  5
606
100
AcDbEntity
  8
0
100
AcDbSpline
 62
7
  6
CONTINUOUS
 70
0
 71
3
 72
8
 73
4
 74
0
 42
0.0000001
 43
0.0000001
 44
0.0000000001
 40
0.0
 40
0.0
 40
0.0
 40
0.0
 40
1.0
 40
1.0
 40
1.0
 40
1.0
 10
182.2794674126
 20
236.3427612246
 30
0.0
 10
182.2923441488
 20
236.220109278
 30
0.0
 10
182.2678160889
 20
236.0465799221
 30
0.0
 10
182.1563168221
 20
235.9938805498
 30
0.0
  0
SPLINE
  5
607
100
AcDbEntity
  8
0
100
AcDbSpline
 62
7
  6
CONTINUOUS
 70
0
 71
3
 72
9
 73
5
 74
0
 42
0.0000001
 43
0.0000001
 44
0.0000000001
 40
0.0
 40
0.0
 40
0.0
 40
0.0
 40
0.4735473591
 40
1.0
 40
1.0
 40
1.0
 40
1.0
 10
182.1563168221
 20
235.9938805498
 30
0.0
 10
182.1440612478
 20
235.9880880357
 30
0.0
 10
182.1170157354
 20
235.9782416727
 30
0.0
 10
182.0887990359
 20
235.9728012536
 30
0.0
 10
182.0738506111
 20
235.9708911481
 30
0.0
  0
SPLINE
  5
608
100
AcDbEntity
  8
0
100
AcDbSpline
 62
7
  6
CONTINUOUS
 70
0
 71
3
 72
9
 73
5
 74
0
 42
0.0000001
 43
0.0000001
 44
0.0000000001
 40
0.0
 40
0.0
 40
0.0
 40
0.0
 40
0.5065687591
 40
1.0
 40
1.0
 40
1.0
 40
1.0
 10
182.2575887538
 20
760.0635875104
 30
0.0
 10
182.2590448317
 20
760.0453112034
 30
0.0
 10
182.2582248486
 20
760.0087808829
 30
0.0
 10
182.2479950425
 20
759.9734703177
 30
0.0
 10
182.240450471
 20
759.9572834782
 30
0.0
  0
SPLINE
  5
609
100
AcDbEntity
  8
0
100
AcDbSpline
 62
3
  6
CONTINUOUS
 70
0
 71
3
 72
8
 73
4
 74
0
 42
0.0000001
 43
0.0000001
 44
0.0000000001
 40
0.0
 40
0.0
 40
0.0
 40
0.0
 40
1.0
 40
1.0
 40
1.0
 40
1.0
 10
182.4934654437
 20
761.4575418341
 30
0.0
 10
182.3168482959
 20
761.3592582283
 30
0.0
 10
182.1377461585
 20
761.2586636356
 30
0.0
 10
181.9439925782
 20
761.2011064104
 30
0.0
  0
SPLINE
  5
60A
100
AcDbEntity
  8
0
100
AcDbSpline
 62
3
  6
CONTINUOUS
 70
0
 71
3
 72
9
 73
5
 74
0
 42
0.0000001
 43
0.0000001
 44
0.0000000001
 40
0.0
 40
0.0
 40
0.0
 40
0.0
 40
0.5068524795
 40
1.0
 40
1.0
 40
1.0
 40
1.0
 10
181.9439925782
 20
761.2011064104
 30
0.0
 10
181.8983245947
 20
761.1875400938
 30
0.0
 10
181.8066400297
 20
761.1656696995
 30
0.0
 10
181.712538657
 20
761.1572834782
 30
0.0
 10
181.6661864023
 20
761.1572834782
 30
0.0
  0
SPLINE
  5
60B
100
AcDbEntity
  8
0
100
AcDbSpline
 62
3
  6
CONTINUOUS
 70
0
 71
3
 72
8
 73
4
 74
0
 42
0.0000001
 43
0.0000001
 44
0.0000000001
 40
0.0
 40
0.0
 40
0.0
 40
0.0
 40
1.0
 40
1.0
 40
1.0
 40
1.0
 10
1681.0661864023
 20
761.1572834782
 30
0.0
 10
1680.8738009903
 20
761.1572834782
 30
0.0
 10
1680.6832156203
 20
761.2282432544
 30
0.0
 10
1680.5103352204
 20
761.3126500911
 30
0.0
  0
SPLINE
  5
60C
100
AcDbEntity
  8
0
100
AcDbSpline
 62
3
  6
CONTINUOUS
 70
0
 71
3
 72
8
 73
4
 74
0
 42
0.0000001
 43
0.0000001
 44
0.0000000001
 40
0.0
 40
0.0
 40
0.0
 40
0.0
 40
1.0
 40
1.0
 40
1.0
 40
1.0
 10
1680.6298227659
 20
236.2045300815
 30
0.0
 10
1680.7435082612
 20
236.1469829725
 30
0.0
 10
1681.0347016716
 20
235.9179696618
 30
0.0
 10
1680.9681730618
 20
236.0266435118
 30
0.0
  0
SPLINE
  5
60D
100
AcDbEntity
  8
0
100
AcDbSpline
 62
3
  6
CONTINUOUS
 70
0
 71
3
 72
9
 73
5
 74
0
 42
0.0000001
 43
0.0000001
 44
0.0000000001
 40
0.0
 40
0.0
 40
0.0
 40
0.0
 40
0.1096107379
 40
1.0
 40
1.0
 40
1.0
 40
1.0
 10
1681.3661864023
 20
236.270908026
 30
0.0
 10
1681.3661864023
 20
236.2868225905
 30
0.0
 10
1681.2737092926
 20
236.4121653151
 30
0.0
 10
1681.2082390693
 20
236.5361834042
 30
0.0
 10
1681.1695772538
 20
236.6595439745
 30
0.0
  0
SPLINE
  5
60E
100
AcDbEntity
  8
0
100
AcDbSpline
 62
3
  6
CONTINUOUS
 70
0
 71
3
 72
9
 73
5
 74
0
 42
0.0000001
 43
0.0000001
 44
0.0000000001
 40
0.0
 40
0.0
 40
0.0
 40
0.0
 40
0.1096019249
 40
1.0
 40
1.0
 40
1.0
 40
1.0
 10
181.6798109501
 20
235.9572834782
 30
0.0
 10
181.6957230892
 20
235.9572834782
 30
0.0
 10
181.8210580409
 20
236.0497510639
 30
0.0
 10
181.9450688892
 20
236.1152129355
 30
0.0
 10
182.0684214497
 20
236.1538734601
 30
0.0
  0
SPLINE
  5
60F
100
AcDbEntity
  8
0
100
AcDbSpline
 62
3
  6
CONTINUOUS
 70
0
 71
3
 72
8
 73
4
 74
0
 42
0.0000001
 43
0.0000001
 44
0.0000000001
 40
0.0
 40
0.0
 40
0.0
 40
0.0
 40
1.0
 40
1.0
 40
1.0
 40
1.0
 10
181.6134330056
 20
236.6936471145
 30
0.0
 10
181.555887577
 20
236.5799649389
 30
0.0
 10
181.3268836995
 20
236.2887771284
 30
0.0
 10
181.4355530583
 20
236.3553059481
 30
0.0
  0
SPLINE
  5
610
100
AcDbEntity
  8
0
100
AcDbSpline
 62
3
  6
CONTINUOUS
 70
0
 71
3
 72
9
 73
5
 74
0
 42
0.0000001
 43
0.0000001
 44
0.0000000001
 40
0.0
 40
0.0
 40
0.0
 40
0.0
 40
0.1096248602
 40
1.0
 40
1.0
 40
1.0
 40
1.0
 10
181.3661864023
 20
760.2437378314
 30
0.0
 10
181.3661864023
 20
760.22782063
 30
0.0
 10
181.4586412226
 20
760.1024615431
 30
0.0
 10
181.5241150766
 20
759.978436435
 30
0.0
 10
181.5627689609
 20
759.8550705365
 30
0.0
  0
SPLINE
  5
611
100
AcDbEntity
  8
0
100
AcDbSpline
 62
3
  6
CONTINUOUS
 70
0
 71
3
 72
8
 73
4
 74
0
 42
0.0000001
 43
0.0000001
 44
0.0000000001
 40
0.0
 40
0.0
 40
0.0
 40
0.0
 40
1.0
 40
1.0
 40
1.0
 40
1.0
 10
1681.1189522523
 20
759.8209444456
 30
0.0
 10
1681.1764913173
 20
759.9346325837
 30
0.0
 10
1681.405478599
 20
760.2258331082
 30
0.0
 10
1681.2968034921
 20
760.1593089932
 30
0.0
  0
SPLINE
  5
612
100
AcDbEntity
  8
0
100
AcDbSpline
 62
7
  6
CONTINUOUS
 70
0
 71
3
 72
8
 73
4
 74
0
 42
0.0000001
 43
0.0000001
 44
0.0000000001
 40
0.0
 40
0.0
 40
0.0
 40
0.0
 40
1.0
 40
1.0
 40
1.0
 40
1.0
 10
2010.2621484622
 20
760.2437378314
 30
0.0
 10
2010.4706869902
 20
760.2228369095
 30
0.0
 10
2010.6809507139
 20
760.1775095319
 30
0.0
 10
2010.8723359859
 20
760.0920879666
 30
0.0
  0
SPLINE
  5
613
100
AcDbEntity
  8
0
100
AcDbSpline
 62
7
  6
CONTINUOUS
 70
0
 71
3
 72
9
 73
5
 74
0
 42
0.0000001
 43
0.0000001
 44
0.0000000001
 40
0.0
 40
0.0
 40
0.0
 40
0.0
 40
0.5143889858
 40
1.0
 40
1.0
 40
1.0
 40
1.0
 10
2010.8723359859
 20
760.0920879666
 30
0.0
 10
2010.9187611037
 20
760.0713669039
 30
0.0
 10
2011.0068964962
 20
760.0260407668
 30
0.0
 10
2011.0878677951
 20
759.9684875532
 30
0.0
 10
2011.1242695714
 20
759.9372073238
 30
0.0
  0
SPLINE
  5
614
100
AcDbEntity
  8
0
100
AcDbSpline
 62
7
  6
CONTINUOUS
 70
0
 71
3
 72
9
 73
5
 74
0
 42
0.0000001
 43
0.0000001
 44
0.0000000001
 40
0.0
 40
0.0
 40
0.0
 40
0.0
 40
0.5027830125
 40
1.0
 40
1.0
 40
1.0
 40
1.0
 10
2011.1242695714
 20
759.9372073238
 30
0.0
 10
2011.1445216055
 20
759.9198046491
 30
0.0
 10
2011.1830638823
 20
759.8831001111
 30
0.0
 10
2011.2171823322
 20
759.8422144058
 30
0.0
 10
2011.2328312221
 20
759.8209444456
 30
0.0
  0
SPLINE
  5
615
100
AcDbEntity
  8
0
100
AcDbSpline
 62
7
  6
CONTINUOUS
 70
0
 71
3
 72
9
 73
5
 74
0
 42
0.0000001
 43
0.0000001
 44
0.0000000001
 40
0.0
 40
0.0
 40
0.0
 40
0.0
 40
0.7936683477
 40
1.0
 40
1.0
 40
1.0
 40
1.0
 10
2011.2328493247
 20
236.6936471145
 30
0.0
 10
2011.2722140889
 20
236.7471458383
 30
0.0
 10
2011.2724338036
 20
236.8180643491
 30
0.0
 10
2011.430628018
 20
236.8516531477
 30
0.0
 10
2011.4238731262
 20
236.8357616941
 30
0.0
  0
SPLINE
  5
616
100
AcDbEntity
  8
0
100
AcDbSpline
 62
7
  6
CONTINUOUS
 70
0
 71
3
 72
8
 73
4
 74
0
 42
0.0000001
 43
0.0000001
 44
0.0000000001
 40
0.0
 40
0.0
 40
0.0
 40
0.0
 40
1.0
 40
1.0
 40
1.0
 40
1.0
 10
2011.2328493247
 20
236.6936471145
 30
0.0
 10
2011.1378908002
 20
236.5645936329
 30
0.0
 10
2010.9921621939
 20
236.4725450812
 30
0.0
 10
2010.8444592711
 20
236.4104502418
 30
0.0
  0
SPLINE
  5
617
100
AcDbEntity
  8
0
100
AcDbSpline
 62
7
  6
CONTINUOUS
 70
0
 71
3
 72
8
 73
4
 74
0
 42
0.0000001
 43
0.0000001
 44
0.0000000001
 40
0.0
 40
0.0
 40
0.0
 40
0.0
 40
1.0
 40
1.0
 40
1.0
 40
1.0
 10
2010.8444592711
 20
236.4104502418
 30
0.0
 10
2010.7203246149
 20
236.3582635864
 30
0.0
 10
2010.5887673381
 20
236.3227806976
 30
0.0
 10
2010.4563338511
 20
236.2984038358
 30
0.0
  0
SPLINE
  5
618
100
AcDbEntity
  8
0
100
AcDbSpline
 62
7
  6
CONTINUOUS
 70
0
 71
3
 72
9
 73
5
 74
0
 42
0.0000001
 43
0.0000001
 44
0.0000000001
 40
0.0
 40
0.0
 40
0.0
 40
0.0
 40
0.3036964393
 40
1.0
 40
1.0
 40
1.0
 40
1.0
 10
1983.2046262583
 20
760.2572834782
 30
0.0
 10
1983.0624800009
 20
760.1568063817
 30
0.0
 10
1982.6103942009
 20
759.8313396873
 30
0.0
 10
1982.085817336
 20
759.4247098112
 30
0.0
 10
1982.014444154
 20
759.0320370251
 30
0.0
  0
SPLINE
  5
619
100
AcDbEntity
  8
0
100
AcDbSpline
 62
7
  6
CONTINUOUS
 70
0
 71
3
 72
9
 73
5
 74
0
 42
0.0000001
 43
0.0000001
 44
0.0000000001
 40
0.0
 40
0.0
 40
0.0
 40
0.0
 40
0.5026686448
 40
1.0
 40
1.0
 40
1.0
 40
1.0
 10
1982.014444154
 20
759.0320370251
 30
0.0
 10
1982.0112168035
 20
759.014281158
 30
0.0
 10
1982.0063039395
 20
758.9786645682
 30
0.0
 10
1982.0046262583
 20
758.942744337
 30
0.0
 10
1982.0046262583
 20
758.9248891667
 30
0.0
  0
SPLINE
  5
61A
100
AcDbEntity
  8
0
100
AcDbSpline
 62
7
  6
CONTINUOUS
 70
0
 71
3
 72
9
 73
5
 74
0
 42
0.0000001
 43
0.0000001
 44
0.0000000001
 40
0.0
 40
0.0
 40
0.0
 40
0.0
 40
0.2056243227
 40
1.0
 40
1.0
 40
1.0
 40
1.0
 10
1982.0046262583
 20
237.5896777896
 30
0.0
 10
1982.0046262583
 20
237.5145915094
 30
0.0
 10
1982.0822888367
 20
237.1481101743
 30
0.0
 10
1982.3798895275
 20
236.8844933614
 30
0.0
 10
1982.6046079001
 20
236.7010653545
 30
0.0
  0
SPLINE
  5
61B
100
AcDbEntity
  8
0
100
AcDbSpline
 62
7
  6
CONTINUOUS
 70
0
 71
3
 72
8
 73
4
 74
0
 42
0.0000001
 43
0.0000001
 44
0.0000000001
 40
0.0
 40
0.0
 40
0.0
 40
0.0
 40
1.0
 40
1.0
 40
1.0
 40
1.0
 10
1982.6046079001
 20
236.7010653545
 30
0.0
 10
1982.6987471754
 20
236.6242234859
 30
0.0
 10
1982.795841493
 20
236.5509981183
 30
0.0
 10
1982.8939450463
 20
236.4792864125
 30
0.0
  0
SPLINE
  5
61C
100
AcDbEntity
  8
0
100
AcDbSpline
 62
7
  6
CONTINUOUS
 70
0
 71
3
 72
8
 73
4
 74
0
 42
0.0000001
 43
0.0000001
 44
0.0000000001
 40
0.0
 40
0.0
 40
0.0
 40
0.0
 40
1.0
 40
1.0
 40
1.0
 40
1.0
 10
1982.8939450463
 20
236.4792864125
 30
0.0
 10
1982.9967017165
 20
236.4041733726
 30
0.0
 10
1983.1006880862
 20
236.3307529168
 30
0.0
 10
1983.2046262583
 20
236.2572834782
 30
0.0
  0
SPLINE
  5
61D
100
AcDbEntity
  8
0
100
AcDbSpline
 62
7
  6
CONTINUOUS
 70
0
 71
3
 72
9
 73
5
 74
0
 42
0.0000001
 43
0.0000001
 44
0.0000000001
 40
0.0
 40
0.0
 40
0.0
 40
0.0
 40
0.2416837852
 40
1.0
 40
1.0
 40
1.0
 40
1.0
 10
2011.4455249853
 20
759.6440013284
 30
0.0
 10
2011.4263818338
 20
759.630792406
 30
0.0
 10
2011.3197433297
 20
759.7036513862
 30
0.0
 10
2011.2924289667
 20
759.7844886216
 30
0.0
 10
2011.2595549943
 20
759.8496399244
 30
0.0
  0
SPLINE
  5
61E
100
AcDbEntity
  8
0
100
AcDbSpline
 62
7
  6
CONTINUOUS
 70
0
 71
3
 72
9
 73
5
 74
0
 42
0.0000001
 43
0.0000001
 44
0.0000000001
 40
0.0
 40
0.0
 40
0.0
 40
0.0
 40
0.3970367118
 40
1.0
 40
1.0
 40
1.0
 40
1.0
 10
2011.4238731262
 20
236.8357616941
 30
0.0
 10
2011.4194618312
 20
236.8253837502
 30
0.0
 10
2011.4053157237
 20
236.8006112292
 30
0.0
 10
2011.3893092517
 20
236.7771635057
 30
0.0
 10
2011.3793385388
 20
236.7632401452
 30
0.0
  0
SPLINE
  5
61F
100
AcDbEntity
  8
02___PRT_ALL_AXES
100
AcDbSpline
 62
3
  6
CONTINUOUS
 70
0
 71
3
 72
9
 73
5
 74
0
 42
0.0000001
 43
0.0000001
 44
0.0000000001
 40
0.0
 40
0.0
 40
0.0
 40
0.0
 40
0.3932586559
 40
1.0
 40
1.0
 40
1.0
 40
1.0
 10
1880.9288462001
 20
606.6145066435
 30
0.0
 10
1880.8302928992
 20
607.2844646915
 30
0.0
 10
1880.568099415
 20
608.9863745332
 30
0.0
 10
1880.2673477971
 20
610.6821993921
 30
0.0
 10
1880.0675324562
 20
611.7076863324
 30
0.0
  0
SPLINE
  5
620
100
AcDbEntity
  8
02___PRT_ALL_AXES
100
AcDbSpline
 62
3
  6
CONTINUOUS
 70
0
 71
3
 72
11
 73
7
 74
0
 42
0.0000001
 43
0.0000001
 44
0.0000000001
 40
0.0
 40
0.0
 40
0.0
 40
0.0
 40
0.3544214514
 40
0.658486342
 40
0.8813356528
 40
1.0
 40
1.0
 40
1.0
 40
1.0
 10
1882.0296732144
 20
565.9643007352
 30
0.0
 10
1882.0314444741
 20
570.3167143076
 30
0.0
 10
1882.0069610358
 20
578.4022758455
 30
0.0
 10
1881.9306155039
 20
589.2283350718
 30
0.0
 10
1881.7283255166
 20
597.1475085081
 30
0.0
 10
1881.6271573829
 20
601.3493842637
 30
0.0
 10
1881.4460810612
 20
602.7953280916
 30
0.0
  0
SPLINE
  5
621
100
AcDbEntity
  8
02___PRT_ALL_AXES
100
AcDbSpline
 62
3
  6
CONTINUOUS
 70
0
 71
3
 72
11
 73
7
 74
0
 42
0.0000001
 43
0.0000001
 44
0.0000000001
 40
0.0
 40
0.0
 40
0.0
 40
0.0
 40
0.1178245951
 40
0.3401665915
 40
0.6444821874
 40
1.0
 40
1.0
 40
1.0
 40
1.0
 10
1883.1865298105
 20
393.0963045927
 30
0.0
 10
1883.2835625943
 20
394.5351090836
 30
0.0
 10
1883.2982201068
 20
398.7021073041
 30
0.0
 10
1883.3332762792
 20
406.5874749972
 30
0.0
 10
1883.2478856197
 20
417.3855407003
 30
0.0
 10
1883.1561745919
 20
425.4604924095
 30
0.0
 10
1883.0942678454
 20
429.8112873102
 30
0.0
  0
LINE
  5
622
100
AcDbEntity
  8
02___PRT_ALL_AXES
100
AcDbLine
 62
3
  6
CONTINUOUS
 10
1934.5505274828
 20
330.5649993508
 11
1934.7153035159
 21
332.7360102699
  0
LINE
  5
623
100
AcDbEntity
  8
02___PRT_ALL_AXES
100
AcDbLine
 62
3
  6
CONTINUOUS
 10
1934.7153035159
 20
332.7360102699
 11
1935.1964065156
 21
339.5321028795
  0
SPLINE
  5
624
100
AcDbEntity
  8
02___PRT_ALL_AXES
100
AcDbSpline
 62
3
  6
CONTINUOUS
 70
0
 71
3
 72
11
 73
7
 74
0
 42
0.0000001
 43
0.0000001
 44
0.0000000001
 40
0.0
 40
0.0
 40
0.0
 40
0.0
 40
0.1171117778
 40
0.3394016038
 40
0.6440978065
 40
1.0
 40
1.0
 40
1.0
 40
1.0
 10
1935.1964284731
 20
339.5320980259
 30
0.0
 10
1935.300154525
 20
342.821702939
 30
0.0
 10
1935.3138690124
 20
352.3618978778
 30
0.0
 10
1935.3522061422
 20
370.4619415048
 30
0.0
 10
1935.2611362681
 20
395.2746167669
 30
0.0
 10
1935.1640911404
 20
413.8392600728
 30
0.0
 10
1935.0987336743
 20
423.8411103288
 30
0.0
  0
SPLINE
  5
625
100
AcDbEntity
  8
02___PRT_ALL_AXES
100
AcDbSpline
 62
3
  6
CONTINUOUS
 70
0
 71
3
 72
11
 73
7
 74
0
 42
0.0000001
 43
0.0000001
 44
0.0000000001
 40
0.0
 40
0.0
 40
0.0
 40
0.0
 40
0.3559571794
 40
0.6606638201
 40
0.8829310125
 40
1.0
 40
1.0
 40
1.0
 40
1.0
 10
1933.9715273843
 20
572.66390663
 30
0.0
 10
1933.9733203871
 20
582.654989776
 30
0.0
 10
1933.9469164064
 20
601.1981770546
 30
0.0
 10
1933.8677737853
 20
625.9820729833
 30
0.0
 10
1933.6498211273
 20
644.0546159908
 30
0.0
 10
1933.5480800409
 20
653.5834743715
 30
0.0
 10
1933.3535636275
 20
656.8636296548
 30
0.0
  0
SPLINE
  5
626
100
AcDbEntity
  8
02___PRT_ALL_AXES
100
AcDbSpline
 62
3
  6
CONTINUOUS
 70
0
 71
3
 72
9
 73
5
 74
0
 42
0.0000001
 43
0.0000001
 44
0.0000000001
 40
0.0
 40
0.0
 40
0.0
 40
0.0
 40
0.3028794263
 40
1.0
 40
1.0
 40
1.0
 40
1.0
 10
1933.353523475
 20
656.8636239635
 30
0.0
 10
1933.274158872
 20
657.487453244
 30
0.0
 10
1933.0022930674
 20
659.5457862934
 30
0.0
 10
1932.6931050508
 20
661.599627024
 30
0.0
 10
1932.4397636476
 20
663.0246891462
 30
0.0
  0
LINE
  5
627
100
AcDbEntity
  8
02___PRT_ALL_AXES
100
AcDbLine
 62
3
  6
CONTINUOUS
 10
1932.4397636476
 20
663.0246891462
 11
1931.8841415512
 21
665.7726509758
  0
LINE
  5
628
100
AcDbEntity
  8
02___PRT_ALL_AXES
100
AcDbLine
 62
3
  6
CONTINUOUS
 10
1882.5765021875
 20
384.5924422936
 11
1882.6458085868
 21
385.5049597566
  0
LINE
  5
629
100
AcDbEntity
  8
02___PRT_ALL_AXES
100
AcDbLine
 62
3
  6
CONTINUOUS
 10
1882.6458085868
 20
385.5049597566
 11
1883.1865298105
 21
393.0963045927
  0
SPLINE
  5
62A
100
AcDbEntity
  8
02___PRT_ALL_AXES
100
AcDbSpline
 62
3
  6
CONTINUOUS
 70
0
 71
3
 72
11
 73
7
 74
0
 42
0.0000001
 43
0.0000001
 44
0.0000000001
 40
0.0
 40
0.0
 40
0.0
 40
0.0
 40
0.2485234898
 40
0.4979743836
 40
0.7485907148
 40
1.0
 40
1.0
 40
1.0
 40
1.0
 10
1883.1865306451
 20
393.0963035694
 30
0.0
 10
1883.3488401637
 20
386.348386375
 30
0.0
 10
1886.2640682756
 20
372.7559411885
 30
0.0
 10
1897.7774736357
 20
355.4446107451
 30
0.0
 10
1914.8113113044
 20
343.4010521401
 30
0.0
 10
1928.382724105
 20
339.9778946303
 30
0.0
 10
1935.1964576521
 20
339.5329342927
 30
0.0
  0
SPLINE
  5
62B
100
AcDbEntity
  8
02___PRT_ALL_AXES
100
AcDbSpline
 62
3
  6
CONTINUOUS
 70
0
 71
3
 72
13
 73
9
 74
0
 42
0.0000001
 43
0.0000001
 44
0.0000000001
 40
0.0
 40
0.0
 40
0.0
 40
0.0
 40
0.0324124679
 40
0.0940416333
 40
0.1869951798
 40
0.309135596
 40
0.6248352507
 40
1.0
 40
1.0
 40
1.0
 40
1.0
 10
1883.0942675232
 20
429.8112873059
 30
0.0
 10
1883.1948381897
 20
429.2476966547
 30
0.0
 10
1884.7695416312
 20
428.1472587087
 30
0.0
 10
1887.795030996
 20
427.1971234487
 30
0.0
 10
1892.6468736998
 20
426.1659645155
 30
0.0
 10
1901.9111760325
 20
424.9383615829
 30
0.0
 10
1916.2746809636
 20
423.9847260074
 30
0.0
 10
1928.4724364713
 20
423.7967078118
 30
0.0
 10
1935.0987564964
 20
423.8372468849
 30
0.0
  0
SPLINE
  5
62C
100
AcDbEntity
  8
02___PRT_ALL_AXES
100
AcDbSpline
 62
3
  6
CONTINUOUS
 70
0
 71
3
 72
14
 73
10
 74
0
 42
0.0000001
 43
0.0000001
 44
0.0000000001
 40
0.0
 40
0.0
 40
0.0
 40
0.0
 40
0.0331359428
 40
0.0954219461
 40
0.1887537506
 40
0.3109795592
 40
0.4583726082
 40
0.6261255418
 40
1.0
 40
1.0
 40
1.0
 40
1.0
 10
1882.0296744477
 20
565.9643008621
 30
0.0
 10
1882.1501898095
 20
566.5371693908
 30
0.0
 10
1883.7333052799
 20
567.6413206333
 30
0.0
 10
1886.780724685
 20
568.6526081877
 30
0.0
 10
1891.6367746885
 20
569.7461818971
 30
0.0
 10
1897.9590642269
 20
570.6782374706
 30
0.0
 10
1905.6542142742
 20
571.4851785452
 30
0.0
 10
1917.7950415653
 20
572.3386663322
 30
0.0
 10
1927.3665504008
 20
572.6169295138
 30
0.0
 10
1933.9715364764
 20
572.6681731879
 30
0.0
  0
SPLINE
  5
62D
100
AcDbEntity
  8
02___PRT_ALL_AXES
100
AcDbSpline
 62
3
  6
CONTINUOUS
 70
0
 71
3
 72
11
 73
7
 74
0
 42
0.0000001
 43
0.0000001
 44
0.0000000001
 40
0.0
 40
0.0
 40
0.0
 40
0.0
 40
0.248496593
 40
0.4979973997
 40
0.7486514378
 40
1.0
 40
1.0
 40
1.0
 40
1.0
 10
1881.4460808345
 20
602.795328095
 30
0.0
 10
1881.555804615
 20
609.5732620387
 30
0.0
 10
1884.3869852618
 20
623.2490728515
 30
0.0
 10
1895.8468715431
 20
640.7101126533
 30
0.0
 10
1912.8945123248
 20
652.8979102889
 30
0.0
 10
1926.5130961676
 20
656.3931327634
 30
0.0
 10
1933.3535969311
 20
656.8630394699
 30
0.0
  0
ENDSEC
  0
SECTION
  2
OBJECTS
  0
DICTIONARY
  5
C
100
AcDbDictionary
280
0
281
1
  3
ACAD_GROUP
350
D
  3
ACAD_MLINESTYLE
350
17
  3
ACAD_LAYOUT
350
1A
  3
ACAD_PLOTSETTINGS
350
19
  3
ACAD_PLOTSTYLENAME
350
E
  0
DICTIONARY
  5
D
102
{ACAD_REACTORS
330
C
102
}
100
AcDbDictionary
280
0
281
1
  0
ACDBDICTIONARYWDFLT
  5
E
102
{ACAD_REACTORS
330
C
102
}
100
AcDbDictionary
281
1
  3
Normal
350
F
100
AcDbDictionaryWithDefault
340
F
  0
DICTIONARY
  5
17
102
{ACAD_REACTORS
330
C
102
}
100
AcDbDictionary
280
0
281
1
  3
Standard
350
18
  0
DICTIONARY
  5
19
102
{ACAD_REACTORS
330
C
102
}
100
AcDbDictionary
281
1
  0
DICTIONARY
  5
1A
102
{ACAD_REACTORS
330
C
102
}
100
AcDbDictionary
281
1
  3
Model
350
62E
  3
Layout1
350
62F
  0
ACDBPLACEHOLDER
  5
F
102
{ACAD_REACTORS
330
E
102
}
  0
MLINESTYLE
  5
18
102
{ACAD_REACTORS
330
17
102
}
100
AcDbMlineStyle
  2
STANDARD
 70
0
  3

 62
256
 51
90.0
 52
90.0
 71
2
 49
0.5
 62
256
  6
BYLAYER
 49
-0.5
 62
256
  6
BYLAYER
  0
LAYOUT
  5
62E
102
{ACAD_REACTORS
330
1A
102
}
100
AcDbPlotSettings
  1

  2
none_device
  4

  6

 40
0.0
 41
0.0
 42
0.0
 43
0.0
 44
2200.0
 45
1000.0
 46
0.0
 47
0.0
 48
0.0
 49
0.0
140
0.0
141
0.0
142
1.0
143
1.0
 70
1024
 72
1
 73
0
 74
0
  7

 75
0
147
1.0
148
0.0
149
0.0
100
AcDbLayout
  1
Model
 70
0
 71
0
 10
0.0
 20
0.0
 11
2200.0
 21
1000.0
 12
0.0
 22
0.0
 32
0.0
 14
0.0
 24
0.0
 34
0.0
 15
0.0
 25
0.0
 35
0.0
146
0.0
 13
0.0
 23
0.0
 33
0.0
 16
1.0
 26
0.0
 36
0.0
 17
0.0
 27
1.0
 37
0.0
 76
0
330
207
345
0
346
0
  0
LAYOUT
  5
62F
102
{ACAD_REACTORS
330
1A
102
}
100
AcDbPlotSettings
  1

  2
none_device
  4

  6

 40
0.0
 41
0.0
 42
0.0
 43
0.0
 44
2200.0
 45
1000.0
 46
0.0
 47
0.0
 48
0.0
 49
0.0
140
0.0
141
0.0
142
1.0
143
1.0
 70
0
 72
1
 73
0
 74
0
  7

 75
0
147
1.0
148
0.0
149
0.0
100
AcDbLayout
  1
Layout1
 70
0
 71
1
 10
0.0
 20
0.0
 11
2200.0
 21
1000.0
 12
0.0
 22
0.0
 32
0.0
 14
0.0
 24
0.0
 34
0.0
 15
0.0
 25
0.0
 35
0.0
146
0.0
 13
0.0
 23
0.0
 33
0.0
 16
1.0
 26
0.0
 36
0.0
 17
0.0
 27
1.0
 37
0.0
 76
0
330
208
345
0
346
0
  0
ENDSEC
  0
EOF
