999
DXF file: S:\Engenharia\Wildfire\Engenharia\Produtos\Pias_Apoio\Aco_430\Serie_525\vistas_93041_527.dxf
999
Pro/ENGINEER 2013150 by Parametric Technology Corporation
  0
SECTION
  2
HEADER
  9
$ACADVER
  1
AC1021
  9
$DWGCODEPAGE
  3
ANSI_1252
  9
$EXTMAX
 10
2000.0
 20
1000.0
 30
0.0
  9
$EXTMIN
 10
0.0
 20
0.0
 30
0.0
  9
$LIMMIN
 10
0.0
 20
0.0
  9
$LIMMAX
 10
2000.0
 20
1000.0
  9
$VIEWCTR
 10
1000.0
 20
500.0
  9
$VIEWSIZE
 40
1000.0
  9
$CLAYER
  8
0
  9
$LTSCALE
 40
110.0
  9
$CELTYPE
  6
BYLAYER
  9
$DIMSCALE
 40
1.0
  9
$DIMASZ
 40
3.0
  9
$DIMEXO
 40
0.5
  9
$DIMDLI
 40
76.0
  9
$DIMEXE
 40
0.5
  9
$DIMCEN
 40
18.0
  9
$DIMLFAC
 40
1.0
  9
$DIMBLK
  1
_FILLED
  9
$DIMTXT
 40
1.8
  9
$DIMTOL
 70
1
  9
$DIMLIM
 70
0
  9
$DIMTFAC
 40
1.0
  9
$DIMTP
 40
0.001
  9
$DIMTM
 40
0.001
  9
$DIMGAP
 40
0.625
  9
$DIMDSEP
 70
46
  9
$PDMODE
 70
3
  9
$PDSIZE
 40
1.0
  9
$HANDSEED
  5
6E7
  9
$TILEMODE
 70
1
  9
$MEASUREMENT
 70
1
  9
$INSUNITS
 70
4
  0
ENDSEC
  0
SECTION
  2
CLASSES
  0
CLASS
  1
ACDBDICTIONARYWDFLT
  2
AcDbDictionaryWithDefault
  3
AutoCAD 2000
 90
0
 91
1
280
0
281
0
  0
CLASS
  1
ACDBPLACEHOLDER
  2
AcDbPlaceHolder
  3
AutoCAD 2000
 90
0
 91
1
280
0
281
0
  0
CLASS
  1
LAYOUT
  2
AcDbLayout
  3
AutoCAD 2000
 90
0
 91
0
280
0
281
0
  0
ENDSEC
  0
SECTION
  2
TABLES
  0
TABLE
  2
VPORT
  5
8
100
AcDbSymbolTable
 70
2
  0
VPORT
  5
1F4
100
AcDbSymbolTableRecord
100
AcDbViewportTableRecord
  2
*ACTIVE
 70
0
 10
0.0
 20
0.0
 11
1.0
 21
1.0
 12
1000.0
 22
500.0
 13
0.0
 23
0.0
 14
1.0
 24
1.0
 15
0.0
 25
0.0
 16
0.0
 26
0.0
 36
1.0
 17
0.0
 27
0.0
 37
0.0
 40
1000.0
 41
2.0
 42
50.0
 43
0.0
 44
0.0
 50
0.0
 51
0.0
 71
0
 72
100
 73
1
 74
1
 75
0
 76
0
 77
0
 78
0
  0
ENDTAB
  0
TABLE
  2
LTYPE
  5
5
100
AcDbSymbolTable
 70
6
  0
LTYPE
  5
14
100
AcDbSymbolTableRecord
100
AcDbLinetypeTableRecord
  2
BYBLOCK
 70
0
  3

 72
65
 73
0
 40
0.0
  0
LTYPE
  5
15
100
AcDbSymbolTableRecord
100
AcDbLinetypeTableRecord
  2
BYLAYER
 70
0
  3

 72
65
 73
0
 40
0.0
  0
LTYPE
  5
16
100
AcDbSymbolTableRecord
100
AcDbLinetypeTableRecord
  2
CONTINUOUS
 70
64
  3
Solid line
 72
65
 73
0
 40
0.0
  0
LTYPE
  5
1F5
100
AcDbSymbolTableRecord
100
AcDbLinetypeTableRecord
  2
CENTER
 70
64
  3
____ _ ____ _ ____ _ ____ _ ____ _ ____ _ ____
 72
65
 73
4
 40
0.6
 49
0.375
 74
0
 49
-0.075
 74
0
 49
0.075
 74
0
 49
-0.075
 74
0
  0
LTYPE
  5
1F6
100
AcDbSymbolTableRecord
100
AcDbLinetypeTableRecord
  2
HIDDEN
 70
64
  3
- - - - - - - - - - - - - - - - - - - -
 72
65
 73
2
 40
0.2
 49
0.1
 74
0
 49
-0.1
 74
0
  0
LTYPE
  5
1F7
100
AcDbSymbolTableRecord
100
AcDbLinetypeTableRecord
  2
PHANTOM
 70
64
  3
_____ _ _ _____ _ _ _____ _ _ _____
 72
65
 73
6
 40
0.8
 49
0.45
 74
0
 49
-0.05
 74
0
 49
0.1
 74
0
 49
-0.05
 74
0
 49
0.1
 74
0
 49
-0.05
 74
0
  0
LTYPE
  5
1F8
100
AcDbSymbolTableRecord
100
AcDbLinetypeTableRecord
  2
DOT
 70
64
  3
. . . . . . . . . . . . . . . . . . . .
 72
65
 73
2
 40
0.2
 49
0.1
 74
0
 49
-0.1
 74
0
  0
LTYPE
  5
1F9
100
AcDbSymbolTableRecord
100
AcDbLinetypeTableRecord
  2
DASHED
 70
64
  3
- - - - - - - - - - - - - - - - - - - -
 72
65
 73
2
 40
0.2
 49
0.1
 74
0
 49
-0.1
 74
0
  0
ENDTAB
  0
TABLE
  2
LAYER
  5
2
100
AcDbSymbolTable
 70
36
  0
LAYER
  5
10
100
AcDbSymbolTableRecord
100
AcDbLayerTableRecord
  2
0
 70
0
 62
7
  6
CONTINUOUS
370
-3
390
F
  0
LAYER
  5
1FA
100
AcDbSymbolTableRecord
100
AcDbLayerTableRecord
  2
DEFAULT_1
 70
0
 62
7
  6
CENTER
370
-3
390
F
  0
LAYER
  5
1FB
100
AcDbSymbolTableRecord
100
AcDbLayerTableRecord
  2
DEFAULT_2
 70
0
 62
8
  6
HIDDEN
370
-3
390
F
  0
LAYER
  5
1FC
100
AcDbSymbolTableRecord
100
AcDbLayerTableRecord
  2
DEFAULT_3
 70
0
 62
7
  6
PHANTOM
370
-3
390
F
  0
LAYER
  5
1FD
100
AcDbSymbolTableRecord
100
AcDbLayerTableRecord
  2
01___PRT_ALL_DTM_PLN
 70
0
 62
7
  6
CONTINUOUS
370
-3
390
F
  0
LAYER
  5
1FE
100
AcDbSymbolTableRecord
100
AcDbLayerTableRecord
  2
01___PRT_DEF_DTM_PLN
 70
0
 62
7
  6
CONTINUOUS
370
-3
390
F
  0
LAYER
  5
1FF
100
AcDbSymbolTableRecord
100
AcDbLayerTableRecord
  2
02___PRT_ALL_AXES
 70
0
 62
7
  6
CONTINUOUS
370
-3
390
F
  0
LAYER
  5
200
100
AcDbSymbolTableRecord
100
AcDbLayerTableRecord
  2
03___PRT_ALL_CURVES
 70
0
 62
7
  6
CONTINUOUS
370
-3
390
F
  0
LAYER
  5
201
100
AcDbSymbolTableRecord
100
AcDbLayerTableRecord
  2
04___PRT_ALL_DTM_PNT
 70
0
 62
7
  6
CONTINUOUS
370
-3
390
F
  0
LAYER
  5
202
100
AcDbSymbolTableRecord
100
AcDbLayerTableRecord
  2
05___PRT_ALL_DTM_CSYS
 70
0
 62
7
  6
CONTINUOUS
370
-3
390
F
  0
LAYER
  5
203
100
AcDbSymbolTableRecord
100
AcDbLayerTableRecord
  2
05___PRT_DEF_DTM_CSYS
 70
0
 62
7
  6
CONTINUOUS
370
-3
390
F
  0
LAYER
  5
204
100
AcDbSymbolTableRecord
100
AcDbLayerTableRecord
  2
06___PRT_ALL_SURFS
 70
0
 62
7
  6
CONTINUOUS
370
-3
390
F
  0
ENDTAB
  0
TABLE
  2
STYLE
  5
3
100
AcDbSymbolTable
 70
1
  0
STYLE
  5
11
100
AcDbSymbolTableRecord
100
AcDbTextStyleTableRecord
  2
STANDARD
 70
0
 40
0.0
 41
0.8
 50
0.0
 71
0
 42
0.2
  3
txt
  4

  0
STYLE
  5
205
100
AcDbSymbolTableRecord
100
AcDbTextStyleTableRecord
  2
TEXTSTYLE_1
 70
0
 40
0.0
 41
0.8
 50
0.0
 71
0
 42
0.2
  3
gdt
  4

  0
ENDTAB
  0
TABLE
  2
VIEW
  5
6
100
AcDbSymbolTable
 70
0
  0
ENDTAB
  0
TABLE
  2
UCS
  5
7
100
AcDbSymbolTable
 70
0
  0
ENDTAB
  0
TABLE
  2
APPID
  5
9
100
AcDbSymbolTable
 70
1
  0
APPID
  5
206
100
AcDbSymbolTableRecord
100
AcDbRegAppTableRecord
  2
ACAD
 70
0
  0
ENDTAB
  0
TABLE
  2
BLOCK_RECORD
  5
1
100
AcDbSymbolTable
 70
0
  0
BLOCK_RECORD
  5
207
100
AcDbSymbolTableRecord
100
AcDbBlockTableRecord
  2
*Model_Space
  0
BLOCK_RECORD
  5
208
100
AcDbSymbolTableRecord
100
AcDbBlockTableRecord
  2
*Paper_Space
  0
BLOCK_RECORD
  5
209
100
AcDbSymbolTableRecord
100
AcDbBlockTableRecord
  2
_FILLED
  0
BLOCK_RECORD
  5
20A
100
AcDbSymbolTableRecord
100
AcDbBlockTableRecord
  2
*D0
  0
BLOCK_RECORD
  5
20B
100
AcDbSymbolTableRecord
100
AcDbBlockTableRecord
  2
*D1
  0
BLOCK_RECORD
  5
20C
100
AcDbSymbolTableRecord
100
AcDbBlockTableRecord
  2
*D2
  0
BLOCK_RECORD
  5
20D
100
AcDbSymbolTableRecord
100
AcDbBlockTableRecord
  2
*D3
  0
ENDTAB
  0
TABLE
  2
DIMSTYLE
  5
A
100
AcDbSymbolTable
 70
1
100
AcDbDimStyleTable
 71
0
  0
DIMSTYLE
105
20E
100
AcDbSymbolTableRecord
100
AcDbDimStyleTableRecord
  2
STANDARD
 70
0
  3

  4

 40
1.0
 41
3.0
 42
0.5
 43
0.38
 44
0.5
 45
0.0
 46
0.0
 47
0.001
 48
0.001
140
1.8
141
0.09
142
0.0
143
25.4
144
1.0
145
0.0
146
1.0
147
0.625
 71
1.0
 72
0.0
 73
0
 74
0
 75
0
 76
0
 77
1
 78
8
170
0
171
2
172
0
173
0
174
0
175
0
176
0
177
0
178
0
270
2
271
3
272
3
273
2
274
2
275
0
280
0
281
0
282
0
283
1
284
8
285
0
286
0
287
3
288
0
340
11
278
46
341
209
342
209
343
209
344
209
  0
DIMSTYLE
105
20F
100
AcDbSymbolTableRecord
100
AcDbDimStyleTableRecord
  2
DIMSTYLE_1
 70
0
  3

  4

 40
1.0
 41
3.0
 42
0.5
 43
0.38
 44
0.5
 45
0.0
 46
0.0
 47
0.001
 48
0.001
140
10.0
141
0.09
142
0.0
143
25.4
144
1.0
145
0.0
146
1.0
147
2.5
 71
0.0
 72
0.0
 73
0
 74
0
 75
0
 76
0
 77
1
 78
8
170
0
171
2
172
0
173
0
174
0
175
0
176
0
177
0
178
0
270
2
271
3
272
3
273
2
274
2
275
0
280
0
281
0
282
0
283
1
284
8
285
0
286
0
287
3
288
0
340
11
278
46
341
209
342
209
343
209
344
209
  0
ENDTAB
  0
ENDSEC
  0
SECTION
  2
BLOCKS
  0
BLOCK
  5
20
100
AcDbEntity
  8
0
100
AcDbBlockBegin
  2
*Model_Space
 70
0
 10
0.0
 20
0.0
 30
0.0
  3
*Model_Space
  1

  0
ENDBLK
  5
21
100
AcDbEntity
  8
0
100
AcDbBlockEnd
  0
BLOCK
  5
1C
100
AcDbEntity
  8
0
100
AcDbBlockBegin
  2
*Paper_Space
 70
0
 10
0.0
 20
0.0
 30
0.0
  3
*Paper_Space
  1

  0
ENDBLK
  5
1D
100
AcDbEntity
  8
0
100
AcDbBlockEnd
  0
BLOCK
  5
210
100
AcDbEntity
  8
0
100
AcDbBlockBegin
  2
_FILLED
 70
64
 10
0.0
 20
0.0
  3
_FILLED
  1

  0
SOLID
  5
211
100
AcDbEntity
  8
0
  6
BYBLOCK
 62
0
100
AcDbTrace
 10
0.0
 20
0.0
 11
-1.0
 21
0.1666666667
 12
-1.0
 22
-0.1666666667
 13
-1.0
 23
-0.1666666667
  0
ENDBLK
  5
212
100
AcDbEntity
  8
0
  6
BYBLOCK
 62
0
100
AcDbBlockEnd
  0
BLOCK
  5
213
100
AcDbEntity
  8
0
100
AcDbBlockBegin
 62
2
  6
CONTINUOUS
  2
*D0
 70
65
 10
0.0
 20
0.0
  3
*D0
  1

  0
MTEXT
  5
214
100
AcDbEntity
  8
0
100
AcDbMText
 62
2
  6
CONTINUOUS
  7
STANDARD
 71
2
 72
1
 10
844.4078669675
 20
817.8567269045
 30
0.0
 11
1.0
 21
0.0
 31
0.0
 44
0.9
  1
1200
 40
10.0
 41
61.7142857143
  0
LINE
  5
215
100
AcDbEntity
  8
0
100
AcDbLine
 62
2
  6
CONTINUOUS
 10
243.8078669675
 20
749.9244196138
 11
243.8078669675
 21
804.0710126188
  0
LINE
  5
216
100
AcDbEntity
  8
0
100
AcDbLine
 62
2
  6
CONTINUOUS
 10
1445.0078669675
 20
749.9244196138
 11
1445.0078669675
 21
804.0710126188
  0
LINE
  5
217
100
AcDbEntity
  8
0
100
AcDbLine
 62
2
  6
CONTINUOUS
 10
243.8078669675
 20
803.5710126188
 11
844.4078669675
 21
803.5710126188
  0
LINE
  5
218
100
AcDbEntity
  8
0
100
AcDbLine
 62
2
  6
CONTINUOUS
 10
1445.0078669675
 20
803.5710126188
 11
844.4078669675
 21
803.5710126188
  0
INSERT
  5
219
100
AcDbEntity
  8
0
100
AcDbBlockReference
 62
2
  6
CONTINUOUS
  2
_FILLED
 10
243.8078669675
 20
803.5710126188
 41
3.0
 42
3.0
 43
3.0
 50
180.0
  0
INSERT
  5
21A
100
AcDbEntity
  8
0
100
AcDbBlockReference
 62
2
  6
CONTINUOUS
  2
_FILLED
 10
1445.0078669675
 20
803.5710126188
 41
3.0
 42
3.0
 43
3.0
  0
ENDBLK
  5
21B
100
AcDbEntity
  8
0
  6
BYBLOCK
 62
0
100
AcDbBlockEnd
  0
BLOCK
  5
21C
100
AcDbEntity
  8
0
100
AcDbBlockBegin
 62
2
  6
CONTINUOUS
  2
*D1
 70
65
 10
0.0
 20
0.0
  3
*D1
  1

  0
MTEXT
  5
21D
100
AcDbEntity
  8
0
100
AcDbMText
 62
2
  6
CONTINUOUS
  7
STANDARD
 71
2
 72
1
 10
179.281972573
 20
488.0376911327
 30
0.0
 11
0.0
 21
1.0
 31
0.0
 44
0.9
  1
525
 40
10.0
 41
46.2857142857
  0
LINE
  5
21E
100
AcDbEntity
  8
0
100
AcDbLine
 62
2
  6
CONTINUOUS
 10
245.0441089015
 20
751.5374170049
 11
193.0676868587
 21
751.5374170049
  0
LINE
  5
21F
100
AcDbEntity
  8
0
100
AcDbLine
 62
2
  6
CONTINUOUS
 10
244.2214915153
 20
224.5379652605
 11
193.0676868587
 21
224.5379652605
  0
LINE
  5
220
100
AcDbEntity
  8
0
100
AcDbLine
 62
2
  6
CONTINUOUS
 10
193.5676868587
 20
751.5374170049
 11
193.5676868587
 21
488.0376911327
  0
LINE
  5
221
100
AcDbEntity
  8
0
100
AcDbLine
 62
2
  6
CONTINUOUS
 10
193.5676868587
 20
224.5379652605
 11
193.5676868587
 21
488.0376911327
  0
INSERT
  5
222
100
AcDbEntity
  8
0
100
AcDbBlockReference
 62
2
  6
CONTINUOUS
  2
_FILLED
 10
193.5676868587
 20
751.5374170049
 41
3.0
 42
3.0
 43
3.0
 50
90.0
  0
INSERT
  5
223
100
AcDbEntity
  8
0
100
AcDbBlockReference
 62
2
  6
CONTINUOUS
  2
_FILLED
 10
193.5676868587
 20
224.5379652605
 41
3.0
 42
3.0
 43
3.0
 50
270.0
  0
ENDBLK
  5
224
100
AcDbEntity
  8
0
  6
BYBLOCK
 62
0
100
AcDbBlockEnd
  0
BLOCK
  5
225
100
AcDbEntity
  8
0
100
AcDbBlockBegin
 62
2
  6
CONTINUOUS
  2
*D2
 70
65
 10
0.0
 20
0.0
  3
*D2
  1

  0
MTEXT
  5
226
100
AcDbEntity
  8
0
100
AcDbMText
 62
2
  6
CONTINUOUS
  7
STANDARD
 71
1
 72
1
 10
1811.8564037998
 20
817.8567269045
 30
0.0
 11
1.0
 21
0.0
 31
0.0
 44
0.9
  1
28
 40
10.0
 41
30.8571428571
  0
LINE
  5
227
100
AcDbEntity
  8
0
100
AcDbLine
 62
2
  6
CONTINUOUS
 10
1773.0141084701
 20
749.3637011918
 11
1773.0141084701
 21
804.0710126188
  0
LINE
  5
228
100
AcDbEntity
  8
0
100
AcDbLine
 62
2
  6
CONTINUOUS
 10
1800.7916853806
 20
751.1536724263
 11
1800.7916853806
 21
804.0710126188
  0
LINE
  5
229
100
AcDbEntity
  8
0
100
AcDbLine
 62
2
  6
CONTINUOUS
 10
1773.0141084701
 20
803.5710126188
 11
1772.0141084701
 21
803.5710126188
  0
LINE
  5
22A
100
AcDbEntity
  8
0
100
AcDbLine
 62
2
  6
CONTINUOUS
 10
1772.0141084701
 20
803.5710126188
 11
1786.9028969254
 21
803.5710126188
  0
LINE
  5
22B
100
AcDbEntity
  8
0
100
AcDbLine
 62
2
  6
CONTINUOUS
 10
1800.7916853806
 20
803.5710126188
 11
1832.4278323712
 21
803.5710126188
  0
LINE
  5
22C
100
AcDbEntity
  8
0
100
AcDbLine
 62
2
  6
CONTINUOUS
 10
1832.4278323712
 20
803.5710126188
 11
1786.9028969254
 21
803.5710126188
  0
INSERT
  5
22D
100
AcDbEntity
  8
0
100
AcDbBlockReference
 62
2
  6
CONTINUOUS
  2
_FILLED
 10
1773.0141084701
 20
803.5710126188
 41
3.0
 42
3.0
 43
3.0
  0
INSERT
  5
22E
100
AcDbEntity
  8
0
100
AcDbBlockReference
 62
2
  6
CONTINUOUS
  2
_FILLED
 10
1800.7916853806
 20
803.5710126188
 41
3.0
 42
3.0
 43
3.0
 50
180.0
  0
ENDBLK
  5
22F
100
AcDbEntity
  8
0
  6
BYBLOCK
 62
0
100
AcDbBlockEnd
  0
BLOCK
  5
230
100
AcDbEntity
  8
0
100
AcDbBlockBegin
 62
2
  6
CONTINUOUS
  2
*D3
 70
65
 10
0.0
 20
0.0
  3
*D3
  1

  0
MTEXT
  5
231
100
AcDbEntity
  8
0
100
AcDbMText
 62
2
  6
CONTINUOUS
  7
STANDARD
 71
2
 72
1
 10
1707.5141084701
 20
817.8567269045
 30
0.0
 11
1.0
 21
0.0
 31
0.0
 44
0.9
  1
130
 40
10.0
 41
46.2857142857
  0
LINE
  5
232
100
AcDbEntity
  8
0
100
AcDbLine
 62
2
  6
CONTINUOUS
 10
1642.0141084701
 20
593.9379652605
 11
1642.0141084701
 21
804.0710126188
  0
LINE
  5
233
100
AcDbEntity
  8
0
100
AcDbLine
 62
2
  6
CONTINUOUS
 10
1773.0141084701
 20
749.3637011918
 11
1773.0141084701
 21
804.0710126188
  0
LINE
  5
234
100
AcDbEntity
  8
0
100
AcDbLine
 62
2
  6
CONTINUOUS
 10
1642.0141084701
 20
803.5710126188
 11
1707.5141084701
 21
803.5710126188
  0
LINE
  5
235
100
AcDbEntity
  8
0
100
AcDbLine
 62
2
  6
CONTINUOUS
 10
1773.0141084701
 20
803.5710126188
 11
1707.5141084701
 21
803.5710126188
  0
INSERT
  5
236
100
AcDbEntity
  8
0
100
AcDbBlockReference
 62
2
  6
CONTINUOUS
  2
_FILLED
 10
1642.0141084701
 20
803.5710126188
 41
3.0
 42
3.0
 43
3.0
 50
180.0
  0
INSERT
  5
237
100
AcDbEntity
  8
0
100
AcDbBlockReference
 62
2
  6
CONTINUOUS
  2
_FILLED
 10
1773.0141084701
 20
803.5710126188
 41
3.0
 42
3.0
 43
3.0
  0
ENDBLK
  5
238
100
AcDbEntity
  8
0
  6
BYBLOCK
 62
0
100
AcDbBlockEnd
  0
ENDSEC
  0
SECTION
  2
ENTITIES
  0
DIMENSION
  5
239
100
AcDbEntity
  8
0
100
AcDbDimension
 62
2
  6
CONTINUOUS
  2
*D0
 10
1445.0078669675
 20
803.5710126188
 11
844.4078669675
 21
803.5710126188
 70
160
 71
2
 42
1201.2
  3
DIMSTYLE_1
100
AcDbAlignedDimension
 13
243.8078669675
 23
749.4244196138
 14
1445.0078669675
 24
749.4244196138
100
AcDbRotatedDimension
  0
DIMENSION
  5
23A
100
AcDbEntity
  8
0
100
AcDbDimension
 62
2
  6
CONTINUOUS
  2
*D1
 10
193.5676868587
 20
224.5379652605
 11
193.5676868587
 21
488.0376911327
 70
160
 71
2
 42
526.9994517443
  3
DIMSTYLE_1
100
AcDbAlignedDimension
 13
245.5441089015
 23
751.5374170049
 14
244.7214915153
 24
224.5379652605
 50
270.0
100
AcDbRotatedDimension
  0
DIMENSION
  5
23B
100
AcDbEntity
  8
0
100
AcDbDimension
 62
2
  6
CONTINUOUS
  2
*D2
 10
1800.7916853806
 20
803.5710126188
 11
1822.1421180855
 21
803.5710126188
 70
160
 71
1
 42
27.7775769104
  3
DIMSTYLE_1
100
AcDbAlignedDimension
 13
1773.0141084701
 23
748.8637011918
 14
1800.7916853806
 24
750.6536724263
100
AcDbRotatedDimension
  0
DIMENSION
  5
23C
100
AcDbEntity
  8
0
100
AcDbDimension
 62
2
  6
CONTINUOUS
  2
*D3
 10
1773.0141084701
 20
803.5710126188
 11
1707.5141084701
 21
803.5710126188
 70
160
 71
2
 42
131.0
  3
DIMSTYLE_1
100
AcDbAlignedDimension
 13
1642.0141084701
 23
593.4379652605
 14
1773.0141084701
 24
748.8637011918
100
AcDbRotatedDimension
  0
LINE
  5
23D
100
AcDbEntity
  8
0
100
AcDbLine
 62
7
  6
CONTINUOUS
 10
0.0
 20
0.0
 11
0.0
 21
1000.0
  0
LINE
  5
23E
100
AcDbEntity
  8
0
100
AcDbLine
 62
7
  6
CONTINUOUS
 10
0.0
 20
0.0
 11
2000.0
 21
0.0
  0
LINE
  5
23F
100
AcDbEntity
  8
0
100
AcDbLine
 62
7
  6
CONTINUOUS
 10
0.0
 20
1000.0
 11
2000.0
 21
1000.0
  0
LINE
  5
240
100
AcDbEntity
  8
0
100
AcDbLine
 62
7
  6
CONTINUOUS
 10
2000.0
 20
0.0
 11
2000.0
 21
1000.0
  0
LINE
  5
241
100
AcDbEntity
  8
0
100
AcDbLine
 62
7
  6
CONTINUOUS
 10
243.8078669675
 20
749.4375216676
 11
243.8078669675
 21
225.4515898084
  0
LINE
  5
242
100
AcDbEntity
  8
0
100
AcDbLine
 62
3
  6
CONTINUOUS
 10
244.4078669675
 20
749.4375216676
 11
244.4078669675
 21
749.1379652605
  0
LINE
  5
243
100
AcDbEntity
  8
0
100
AcDbLine
 62
3
  6
CONTINUOUS
 10
244.4078669675
 20
225.7379652605
 11
244.4078669675
 21
225.4515898084
  0
LINE
  5
244
100
AcDbEntity
  8
0
100
AcDbLine
 62
7
  6
CONTINUOUS
 10
244.7078669675
 20
750.6536724263
 11
244.7078669675
 21
749.7729840833
  0
LINE
  5
245
100
AcDbEntity
  8
02___PRT_ALL_AXES
100
AcDbLine
 62
7
  6
CONTINUOUS
 10
244.7078669675
 20
225.1379652605
 11
244.7078669675
 21
224.5379652605
  0
LINE
  5
246
100
AcDbEntity
  8
0
100
AcDbLine
 62
7
  6
CONTINUOUS
 10
244.7078669675
 20
224.5379652605
 11
244.7078669675
 21
225.1379652605
  0
LINE
  5
247
100
AcDbEntity
  8
0
100
AcDbLine
 62
7
  6
CONTINUOUS
 10
245.0078669675
 20
748.8637011918
 11
245.0078669675
 21
226.0122293293
  0
LINE
  5
248
100
AcDbEntity
  8
0
100
AcDbLine
 62
7
  6
CONTINUOUS
 10
245.1442306039
 20
225.3852118638
 11
245.1442306039
 21
225.0324584672
  0
LINE
  5
249
100
AcDbEntity
  8
02___PRT_ALL_AXES
100
AcDbLine
 62
7
  6
CONTINUOUS
 10
267.0407308638
 20
672.4379652605
 11
267.0407308638
 21
302.4379652605
  0
LINE
  5
24A
100
AcDbEntity
  8
02___PRT_ALL_AXES
100
AcDbLine
 62
7
  6
CONTINUOUS
 10
270.5914350193
 20
672.4379652605
 11
270.5914350193
 21
302.4379652605
  0
LINE
  5
24B
100
AcDbEntity
  8
02___PRT_ALL_AXES
100
AcDbLine
 62
7
  6
CONTINUOUS
 10
271.1767067995
 20
672.4379652605
 11
271.1767067995
 21
302.4379652605
  0
LINE
  5
24C
100
AcDbEntity
  8
02___PRT_ALL_AXES
100
AcDbLine
 62
7
  6
CONTINUOUS
 10
277.9941045811
 20
672.4379652605
 11
277.9941045811
 21
302.4379652605
  0
LINE
  5
24D
100
AcDbEntity
  8
02___PRT_ALL_AXES
100
AcDbLine
 62
7
  6
CONTINUOUS
 10
307.7989964743
 20
410.3804016776
 11
307.839504565
 21
409.9379911415
  0
LINE
  5
24E
100
AcDbEntity
  8
02___PRT_ALL_AXES
100
AcDbLine
 62
7
  6
CONTINUOUS
 10
308.6007118882
 20
421.8025735815
 11
308.6291726001
 21
421.3563255575
  0
LINE
  5
24F
100
AcDbEntity
  8
02___PRT_ALL_AXES
100
AcDbLine
 62
7
  6
CONTINUOUS
 10
308.0929084537
 20
457.6960667084
 11
308.075228476
 21
458.1408862044
  0
LINE
  5
250
100
AcDbEntity
  8
02___PRT_ALL_AXES
100
AcDbLine
 62
7
  6
CONTINUOUS
 10
309.2070673128
 20
469.0478103731
 11
309.2017136047
 21
469.4938610855
  0
LINE
  5
251
100
AcDbEntity
  8
02___PRT_ALL_AXES
100
AcDbLine
 62
7
  6
CONTINUOUS
 10
294.4078669675
 20
382.4379654538
 11
294.4078462681
 21
592.4379654326
  0
LINE
  5
252
100
AcDbEntity
  8
02___PRT_ALL_AXES
100
AcDbLine
 62
7
  6
CONTINUOUS
 10
295.9048150658
 20
382.4379652605
 11
295.9048150658
 21
592.4379652605
  0
LINE
  5
253
100
AcDbEntity
  8
02___PRT_ALL_AXES
100
AcDbLine
 62
7
  6
CONTINUOUS
 10
299.4078669675
 20
270.0708291569
 11
299.4078669675
 21
274.3771746728
  0
LINE
  5
254
100
AcDbEntity
  8
02___PRT_ALL_AXES
100
AcDbLine
 62
7
  6
CONTINUOUS
 10
299.4078669675
 20
700.4987558483
 11
299.4078669675
 21
704.8051013642
  0
LINE
  5
255
100
AcDbEntity
  8
02___PRT_ALL_AXES
100
AcDbLine
 62
7
  6
CONTINUOUS
 10
301.8014180832
 20
405.0382469487
 11
301.8017263678
 21
379.0030946551
  0
LINE
  5
256
100
AcDbEntity
  8
02___PRT_ALL_AXES
100
AcDbLine
 62
7
  6
CONTINUOUS
 10
301.8012887152
 20
548.1774663059
 11
301.8012889117
 21
522.0997495008
  0
LINE
  5
257
100
AcDbEntity
  8
02___PRT_ALL_AXES
100
AcDbLine
 62
7
  6
CONTINUOUS
 10
301.8016005156
 20
595.8731842298
 11
301.8015478977
 21
569.8379149145
  0
LINE
  5
258
100
AcDbEntity
  8
02___PRT_ALL_AXES
100
AcDbLine
 62
7
  6
CONTINUOUS
 10
301.8015889946
 20
452.7820014718
 11
301.8016460073
 21
426.7016888152
  0
LINE
  5
259
100
AcDbEntity
  8
02___PRT_ALL_AXES
100
AcDbLine
 62
7
  6
CONTINUOUS
 10
302.6566614537
 20
500.4939971226
 11
302.6558262596
 21
474.4054033434
  0
LINE
  5
25A
100
AcDbEntity
  8
02___PRT_ALL_AXES
100
AcDbLine
 62
7
  6
CONTINUOUS
 10
302.875424944
 20
405.0375376318
 11
302.8755943892
 21
379.0035379322
  0
LINE
  5
25B
100
AcDbEntity
  8
02___PRT_ALL_AXES
100
AcDbLine
 62
7
  6
CONTINUOUS
 10
302.8753538633
 20
548.1733385007
 11
302.8753540625
 21
522.0933393315
  0
LINE
  5
25C
100
AcDbEntity
  8
02___PRT_ALL_AXES
100
AcDbLine
 62
7
  6
CONTINUOUS
 10
302.875525203
 20
595.8723925335
 11
302.8754962897
 21
569.8383929232
  0
LINE
  5
25D
100
AcDbEntity
  8
02___PRT_ALL_AXES
100
AcDbLine
 62
7
  6
CONTINUOUS
 10
302.8755188753
 20
452.7825921397
 11
302.8755502049
 21
426.7025922921
  0
LINE
  5
25E
100
AcDbEntity
  8
02___PRT_ALL_AXES
100
AcDbLine
 62
7
  6
CONTINUOUS
 10
303.303298039
 20
405.0375376107
 11
303.3034191048
 21
379.003537977
  0
LINE
  5
25F
100
AcDbEntity
  8
02___PRT_ALL_AXES
100
AcDbLine
 62
7
  6
CONTINUOUS
 10
303.3032477666
 20
548.1733384859
 11
303.3032479502
 21
522.0933394989
  0
LINE
  5
260
100
AcDbEntity
  8
02___PRT_ALL_AXES
100
AcDbLine
 62
7
  6
CONTINUOUS
 10
303.3033694306
 20
595.8723924765
 11
303.3033491259
 21
569.8383929518
  0
LINE
  5
261
100
AcDbEntity
  8
02___PRT_ALL_AXES
100
AcDbLine
 62
7
  6
CONTINUOUS
 10
303.3033651349
 20
452.7825921807
 11
303.3033871101
 21
426.7025923666
  0
LINE
  5
262
100
AcDbEntity
  8
02___PRT_ALL_AXES
100
AcDbLine
 62
7
  6
CONTINUOUS
 10
303.7307269063
 20
500.5034187247
 11
303.7298914729
 21
474.407419821
  0
LINE
  5
263
100
AcDbEntity
  8
02___PRT_ALL_AXES
100
AcDbLine
 62
7
  6
CONTINUOUS
 10
304.1586207955
 20
500.5034050335
 11
304.1577853752
 21
474.4074063677
  0
LINE
  5
264
100
AcDbEntity
  8
02___PRT_ALL_AXES
100
AcDbLine
 62
7
  6
CONTINUOUS
 10
304.8070574197
 20
405.0362755581
 11
304.8073421044
 21
379.0043259416
  0
LINE
  5
265
100
AcDbEntity
  8
02___PRT_ALL_AXES
100
AcDbLine
 62
7
  6
CONTINUOUS
 10
304.8069389739
 20
548.1659115748
 11
304.8069391548
 21
522.1070984848
  0
LINE
  5
266
100
AcDbEntity
  8
02___PRT_ALL_AXES
100
AcDbLine
 62
7
  6
CONTINUOUS
 10
304.8072253961
 20
595.8709852091
 11
304.8071775302
 21
569.8392434004
  0
LINE
  5
267
100
AcDbEntity
  8
02___PRT_ALL_AXES
100
AcDbLine
 62
7
  6
CONTINUOUS
 10
304.8072152189
 20
452.7836459146
 11
304.8072670287
 21
426.7041977535
  0
LINE
  5
268
100
AcDbEntity
  8
02___PRT_ALL_AXES
100
AcDbLine
 62
7
  6
CONTINUOUS
 10
305.6623115381
 20
500.4889393282
 11
305.6614768547
 21
474.4158897383
  0
LINE
  5
269
100
AcDbEntity
  8
02___PRT_ALL_AXES
100
AcDbLine
 62
7
  6
CONTINUOUS
 10
309.2082508476
 20
505.8626795769
 11
309.2028680049
 21
505.4166280529
  0
LINE
  5
26A
100
AcDbEntity
  8
02___PRT_ALL_AXES
100
AcDbLine
 62
7
  6
CONTINUOUS
 10
308.0752283304
 20
516.7350442409
 11
308.092908365
 21
517.1798637421
  0
LINE
  5
26B
100
AcDbEntity
  8
02___PRT_ALL_AXES
100
AcDbLine
 62
7
  6
CONTINUOUS
 10
308.6291737599
 20
553.5196048502
 11
308.6007236333
 21
553.0735192926
  0
LINE
  5
26C
100
AcDbEntity
  8
02___PRT_ALL_AXES
100
AcDbLine
 62
7
  6
CONTINUOUS
 10
307.7989961751
 20
564.4955288358
 11
307.8395042859
 21
564.937939373
  0
LINE
  5
26D
100
AcDbEntity
  8
02___PRT_ALL_AXES
100
AcDbLine
 62
7
  6
CONTINUOUS
 10
308.9024830722
 20
601.1915032048
 11
308.8510997449
 21
600.7465713787
  0
LINE
  5
26E
100
AcDbEntity
  8
02___PRT_ALL_AXES
100
AcDbLine
 62
7
  6
CONTINUOUS
 10
313.7210544923
 20
611.5371995431
 11
313.7839966615
 21
611.9760708348
  0
LINE
  5
26F
100
AcDbEntity
  8
02___PRT_ALL_AXES
100
AcDbLine
 62
7
  6
CONTINUOUS
 10
341.2691561427
 20
643.0704288474
 11
341.1951746378
 21
642.6278331102
  0
LINE
  5
270
100
AcDbEntity
  8
02___PRT_ALL_AXES
100
AcDbLine
 62
7
  6
CONTINUOUS
 10
341.269149845
 20
331.8055395274
 11
341.1951690155
 21
332.2481311863
  0
LINE
  5
271
100
AcDbEntity
  8
02___PRT_ALL_AXES
100
AcDbLine
 62
7
  6
CONTINUOUS
 10
313.7210547762
 20
363.3387309838
 11
313.7839969298
 21
362.8998596926
  0
LINE
  5
272
100
AcDbEntity
  8
02___PRT_ALL_AXES
100
AcDbLine
 62
7
  6
CONTINUOUS
 10
308.9024829763
 20
373.6844272315
 11
308.8510996848
 21
374.1293590684
  0
LINE
  5
273
100
AcDbEntity
  8
02___PRT_ALL_AXES
100
AcDbLine
 62
7
  6
CONTINUOUS
 10
439.175255481
 20
636.3831138821
 11
439.2600719084
 21
636.817388472
  0
LINE
  5
274
100
AcDbEntity
  8
02___PRT_ALL_AXES
100
AcDbLine
 62
7
  6
CONTINUOUS
 10
439.1752555019
 20
338.4928166307
 11
439.260072022
 21
338.0585420585
  0
LINE
  5
275
100
AcDbEntity
  8
02___PRT_ALL_AXES
100
AcDbLine
 62
7
  6
CONTINUOUS
 10
440.3087667891
 20
648.9986254153
 11
440.3149384389
 21
648.5530410042
  0
LINE
  5
276
100
AcDbEntity
  8
02___PRT_ALL_AXES
100
AcDbLine
 62
7
  6
CONTINUOUS
 10
440.3087664362
 20
325.877305089
 11
440.3149380826
 21
326.3228895013
  0
LINE
  5
277
100
AcDbEntity
  8
02___PRT_ALL_AXES
100
AcDbLine
 62
7
  6
CONTINUOUS
 10
330.7501529618
 20
333.6946698556
 11
330.9758917983
 21
334.0683306718
  0
LINE
  5
278
100
AcDbEntity
  8
02___PRT_ALL_AXES
100
AcDbLine
 62
7
  6
CONTINUOUS
 10
330.7496744519
 20
641.182099654
 11
330.9754002681
 21
640.8084604891
  0
LINE
  5
279
100
AcDbEntity
  8
02___PRT_ALL_AXES
100
AcDbLine
 62
7
  6
CONTINUOUS
 10
554.4139248263
 20
649.0003793748
 11
554.4200956676
 21
648.5547424395
  0
LINE
  5
27A
100
AcDbEntity
  8
02___PRT_ALL_AXES
100
AcDbLine
 62
7
  6
CONTINUOUS
 10
554.4139240949
 20
325.8754785697
 11
554.420095132
 21
326.3211177784
  0
LINE
  5
27B
100
AcDbEntity
  8
02___PRT_ALL_AXES
100
AcDbLine
 62
7
  6
CONTINUOUS
 10
605.1989961083
 20
433.4794236559
 11
605.2395042045
 21
433.0370131177
  0
LINE
  5
27C
100
AcDbEntity
  8
02___PRT_ALL_AXES
100
AcDbLine
 62
7
  6
CONTINUOUS
 10
606.0007217948
 20
444.9014329483
 11
606.0291721403
 21
444.4553473973
  0
LINE
  5
27D
100
AcDbEntity
  8
02___PRT_ALL_AXES
100
AcDbLine
 62
7
  6
CONTINUOUS
 10
605.4929083791
 20
465.3960886921
 11
605.4752284068
 21
465.8409081892
  0
LINE
  5
27E
100
AcDbEntity
  8
02___PRT_ALL_AXES
100
AcDbLine
 62
7
  6
CONTINUOUS
 10
606.6073120351
 20
476.7379675478
 11
606.6019581417
 21
477.1840182683
  0
LINE
  5
27F
100
AcDbEntity
  8
02___PRT_ALL_AXES
100
AcDbLine
 62
7
  6
CONTINUOUS
 10
606.6080037414
 20
498.1531384237
 11
606.6026206097
 21
497.7070869233
  0
LINE
  5
280
100
AcDbEntity
  8
02___PRT_ALL_AXES
100
AcDbLine
 62
7
  6
CONTINUOUS
 10
605.4752275305
 20
509.0350224406
 11
605.4929072586
 21
509.4798419369
  0
LINE
  5
281
100
AcDbEntity
  8
02___PRT_ALL_AXES
100
AcDbLine
 62
7
  6
CONTINUOUS
 10
606.0291723697
 20
530.4205831347
 11
606.0007221495
 21
529.9744975716
  0
LINE
  5
282
100
AcDbEntity
  8
02___PRT_ALL_AXES
100
AcDbLine
 62
7
  6
CONTINUOUS
 10
605.1989958596
 20
541.3965070364
 11
605.2395037071
 21
541.8389175814
  0
LINE
  5
283
100
AcDbEntity
  8
02___PRT_ALL_AXES
100
AcDbLine
 62
7
  6
CONTINUOUS
 10
606.3024822299
 20
562.6924814812
 11
606.2510989557
 21
562.2475496362
  0
LINE
  5
284
100
AcDbEntity
  8
02___PRT_ALL_AXES
100
AcDbLine
 62
7
  6
CONTINUOUS
 10
604.9261482389
 20
573.8401039784
 11
604.9891148469
 21
574.2791465294
  0
LINE
  5
285
100
AcDbEntity
  8
02___PRT_ALL_AXES
100
AcDbLine
 62
7
  6
CONTINUOUS
 10
606.5705390325
 20
594.990216319
 11
606.4965523879
 21
594.5475892338
  0
LINE
  5
286
100
AcDbEntity
  8
02___PRT_ALL_AXES
100
AcDbLine
 62
7
  6
CONTINUOUS
 10
600.6080432432
 20
607.1266870695
 11
600.6928596268
 21
607.5609616617
  0
LINE
  5
287
100
AcDbEntity
  8
0
100
AcDbLine
 62
7
  6
CONTINUOUS
 10
1444.0942424197
 20
224.5379652605
 11
244.7214915153
 21
224.5379652605
  0
LINE
  5
288
100
AcDbEntity
  8
0
100
AcDbLine
 62
3
  6
CONTINUOUS
 10
1444.0942424197
 20
225.1379652605
 11
1443.9157313328
 21
225.1379652605
  0
LINE
  5
289
100
AcDbEntity
  8
0
100
AcDbLine
 62
3
  6
CONTINUOUS
 10
245.0078669675
 20
225.1379652605
 11
244.7214915153
 21
225.1379652605
  0
LINE
  5
28A
100
AcDbEntity
  8
0
100
AcDbLine
 62
7
  6
CONTINUOUS
 10
1445.0078669675
 20
225.4379652605
 11
1444.4078669675
 21
225.4379652605
  0
LINE
  5
28B
100
AcDbEntity
  8
02___PRT_ALL_AXES
100
AcDbLine
 62
7
  6
CONTINUOUS
 10
244.4078669675
 20
225.4379652605
 11
243.8078669675
 21
225.4379652605
  0
LINE
  5
28C
100
AcDbEntity
  8
02___PRT_ALL_AXES
100
AcDbLine
 62
7
  6
CONTINUOUS
 10
1444.4078669675
 20
225.4379652605
 11
1445.0078669675
 21
225.4379652605
  0
LINE
  5
28D
100
AcDbEntity
  8
0
100
AcDbLine
 62
7
  6
CONTINUOUS
 10
243.8078669675
 20
225.4515898084
 11
244.4078669675
 21
225.4515898084
  0
LINE
  5
28E
100
AcDbEntity
  8
0
100
AcDbLine
 62
7
  6
CONTINUOUS
 10
1443.5336028988
 20
225.7379652605
 11
245.2821310362
 21
225.7379652605
  0
LINE
  5
28F
100
AcDbEntity
  8
0
100
AcDbLine
 62
7
  6
CONTINUOUS
 10
244.6551135708
 20
225.8743288969
 11
244.3023601741
 21
225.8743288969
  0
LINE
  5
290
100
AcDbEntity
  8
0
100
AcDbLine
 62
7
  6
CONTINUOUS
 10
1444.1606203642
 20
225.8743288969
 11
1444.5133737609
 21
225.8743288969
  0
LINE
  5
291
100
AcDbEntity
  8
02___PRT_ALL_AXES
100
AcDbLine
 62
7
  6
CONTINUOUS
 10
600.6080430906
 20
367.7492434606
 11
600.6928755449
 21
367.3148866411
  0
LINE
  5
292
100
AcDbEntity
  8
02___PRT_ALL_AXES
100
AcDbLine
 62
7
  6
CONTINUOUS
 10
606.570539139
 20
379.8857142154
 11
606.4965525056
 21
380.3283413032
  0
LINE
  5
293
100
AcDbEntity
  8
02___PRT_ALL_AXES
100
AcDbLine
 62
7
  6
CONTINUOUS
 10
604.926172568
 20
401.035655397
 11
604.9891074269
 21
400.5968343113
  0
LINE
  5
294
100
AcDbEntity
  8
02___PRT_ALL_AXES
100
AcDbLine
 62
7
  6
CONTINUOUS
 10
606.3024823715
 20
412.1834490555
 11
606.2510990842
 21
412.628380899
  0
LINE
  5
295
100
AcDbEntity
  8
02___PRT_ALL_AXES
100
AcDbLine
 62
7
  6
CONTINUOUS
 10
609.0671835917
 20
385.1655398059
 11
609.0669801982
 21
395.721548127
  0
LINE
  5
296
100
AcDbEntity
  8
02___PRT_ALL_AXES
100
AcDbLine
 62
7
  6
CONTINUOUS
 10
609.0670972175
 20
579.1549946586
 11
609.067067992
 21
589.7108483872
  0
LINE
  5
297
100
AcDbEntity
  8
02___PRT_ALL_AXES
100
AcDbLine
 62
7
  6
CONTINUOUS
 10
609.0673842573
 20
514.4017012004
 11
609.0671452302
 21
525.0734757463
  0
LINE
  5
298
100
AcDbEntity
  8
02___PRT_ALL_AXES
100
AcDbLine
 62
7
  6
CONTINUOUS
 10
609.0672239278
 20
417.50380339
 11
609.0673840956
 21
428.122286424
  0
LINE
  5
299
100
AcDbEntity
  8
02___PRT_ALL_AXES
100
AcDbLine
 62
7
  6
CONTINUOUS
 10
609.0673842606
 20
546.7467243363
 11
609.0671043853
 21
557.3725606673
  0
LINE
  5
29A
100
AcDbEntity
  8
02___PRT_ALL_AXES
100
AcDbLine
 62
7
  6
CONTINUOUS
 10
609.9221685786
 20
482.1106090874
 11
609.9225103941
 21
492.7846560744
  0
LINE
  5
29B
100
AcDbEntity
  8
02___PRT_ALL_AXES
100
AcDbLine
 62
7
  6
CONTINUOUS
 10
610.5333853665
 20
385.1643274845
 11
610.5332990246
 21
395.7223270562
  0
LINE
  5
29C
100
AcDbEntity
  8
02___PRT_ALL_AXES
100
AcDbLine
 62
7
  6
CONTINUOUS
 10
610.5333487319
 20
579.1536035304
 11
610.5333362836
 21
589.7116030406
  0
LINE
  5
29D
100
AcDbEntity
  8
02___PRT_ALL_AXES
100
AcDbLine
 62
7
  6
CONTINUOUS
 10
610.5334704973
 20
514.3933168889
 11
610.533369057
 21
525.0743164381
  0
LINE
  5
29E
100
AcDbEntity
  8
02___PRT_ALL_AXES
100
AcDbLine
 62
7
  6
CONTINUOUS
 10
610.5334024714
 20
417.5025598576
 11
610.5334703649
 21
428.1365586781
  0
LINE
  5
29F
100
AcDbEntity
  8
02___PRT_ALL_AXES
100
AcDbLine
 62
7
  6
CONTINUOUS
 10
610.5330286893
 20
449.8016133971
 11
610.5333262321
 21
460.4826135667
  0
LINE
  5
2A0
100
AcDbEntity
  8
02___PRT_ALL_AXES
100
AcDbLine
 62
7
  6
CONTINUOUS
 10
610.5334705063
 20
546.7393708967
 11
610.5333517249
 21
557.3733706431
  0
LINE
  5
2A1
100
AcDbEntity
  8
02___PRT_ALL_AXES
100
AcDbLine
 62
7
  6
CONTINUOUS
 10
610.9965018255
 20
385.1643274541
 11
610.9963794808
 21
395.7223270954
  0
LINE
  5
2A2
100
AcDbEntity
  8
02___PRT_ALL_AXES
100
AcDbLine
 62
7
  6
CONTINUOUS
 10
610.9964496216
 20
579.1536034805
 11
610.9964324188
 21
589.7116030704
  0
LINE
  5
2A3
100
AcDbEntity
  8
02___PRT_ALL_AXES
100
AcDbLine
 62
7
  6
CONTINUOUS
 10
610.9966233231
 20
514.3933168407
 11
610.9964789406
 21
525.0743164631
  0
LINE
  5
2A4
100
AcDbEntity
  8
02___PRT_ALL_AXES
100
AcDbLine
 62
7
  6
CONTINUOUS
 10
610.996526122
 20
417.5025598326
 11
610.9966231779
 21
428.1365588446
  0
LINE
  5
2A5
100
AcDbEntity
  8
02___PRT_ALL_AXES
100
AcDbLine
 62
7
  6
CONTINUOUS
 10
610.9959956507
 20
449.8016135689
 11
610.9964176203
 21
460.4826136256
  0
LINE
  5
2A6
100
AcDbEntity
  8
02___PRT_ALL_AXES
100
AcDbLine
 62
7
  6
CONTINUOUS
 10
610.996623333
 20
546.7393708837
 11
610.9964543349
 21
557.3733706714
  0
LINE
  5
2A7
100
AcDbEntity
  8
02___PRT_ALL_AXES
100
AcDbLine
 62
7
  6
CONTINUOUS
 10
611.3882542062
 20
482.0972496962
 11
611.388596732
 21
492.7935500063
  0
LINE
  5
2A8
100
AcDbEntity
  8
02___PRT_ALL_AXES
100
AcDbLine
 62
7
  6
CONTINUOUS
 10
611.8514070143
 20
482.0972345171
 11
611.8517495561
 21
492.7935350438
  0
LINE
  5
2A9
100
AcDbEntity
  8
02___PRT_ALL_AXES
100
AcDbLine
 62
7
  6
CONTINUOUS
 10
612.0436065378
 20
385.1636425559
 11
612.0433839544
 21
395.7227674441
  0
LINE
  5
2AA
100
AcDbEntity
  8
02___PRT_ALL_AXES
100
AcDbLine
 62
7
  6
CONTINUOUS
 10
612.0435115472
 20
579.152817015
 11
612.043480261
 21
589.712029413
  0
LINE
  5
2AB
100
AcDbEntity
  8
02___PRT_ALL_AXES
100
AcDbLine
 62
7
  6
CONTINUOUS
 10
612.0438276812
 20
514.3918790561
 11
612.0435648934
 21
525.0747913169
  0
LINE
  5
2AC
100
AcDbEntity
  8
02___PRT_ALL_AXES
100
AcDbLine
 62
7
  6
CONTINUOUS
 10
612.0436507329
 20
417.5018573845
 11
612.0438274228
 21
428.1319970967
  0
LINE
  5
2AD
100
AcDbEntity
  8
02___PRT_ALL_AXES
100
AcDbLine
 62
7
  6
CONTINUOUS
 10
612.0438277737
 20
546.7352955784
 11
612.0435201259
 21
557.373828227
  0
LINE
  5
2AE
100
AcDbEntity
  8
02___PRT_ALL_AXES
100
AcDbLine
 62
7
  6
CONTINUOUS
 10
612.8986116507
 20
482.1070990207
 11
612.8989538874
 21
492.7937949962
  0
LINE
  5
2AF
100
AcDbEntity
  8
02___PRT_ALL_AXES
100
AcDbLine
 62
7
  6
CONTINUOUS
 10
617.9386202313
 20
592.4379652605
 11
617.9386202313
 21
382.4379652605
  0
LINE
  5
2B0
100
AcDbEntity
  8
02___PRT_ALL_AXES
100
AcDbLine
 62
7
  6
CONTINUOUS
 10
619.4078669675
 20
592.4379654193
 11
619.4078876545
 21
382.4379654433
  0
LINE
  5
2B1
100
AcDbEntity
  8
02___PRT_ALL_AXES
100
AcDbLine
 62
7
  6
CONTINUOUS
 10
630.9453677537
 20
283.9577224997
 11
630.9453677536
 21
690.9182080214
  0
LINE
  5
2B2
100
AcDbEntity
  8
02___PRT_ALL_AXES
100
AcDbLine
 62
7
  6
CONTINUOUS
 10
637.8707033241
 20
277.0567674141
 11
637.8707033241
 21
450.9052284994
  0
LINE
  5
2B3
100
AcDbEntity
  8
02___PRT_ALL_AXES
100
AcDbLine
 62
7
  6
CONTINUOUS
 10
637.8707033241
 20
523.9707020217
 11
637.8707033241
 21
697.819163107
  0
LINE
  5
2B4
100
AcDbEntity
  8
02___PRT_ALL_AXES
100
AcDbLine
 62
7
  6
CONTINUOUS
 10
609.0663436612
 20
449.8010744371
 11
609.0670441514
 21
460.4812272671
  0
LINE
  5
2B5
100
AcDbEntity
  8
02___PRT_ALL_AXES
100
AcDbLine
 62
7
  6
CONTINUOUS
 10
612.0426860395
 20
449.8019184945
 11
612.0434533557
 21
460.483397538
  0
LINE
  5
2B6
100
AcDbEntity
  8
02___PRT_ALL_AXES
100
AcDbLine
 62
7
  6
CONTINUOUS
 10
606.5197556697
 20
614.4959322062
 11
606.0955495428
 21
614.3136113014
  0
LINE
  5
2B7
100
AcDbEntity
  8
02___PRT_ALL_AXES
100
AcDbLine
 62
7
  6
CONTINUOUS
 10
299.4078669675
 20
274.3771746728
 11
631.056168233
 21
277.0295192297
  0
LINE
  5
2B8
100
AcDbEntity
  8
02___PRT_ALL_AXES
100
AcDbLine
 62
7
  6
CONTINUOUS
 10
299.2970615189
 20
281.3053779031
 11
637.8707033241
 21
283.9849706443
  0
LINE
  5
2B9
100
AcDbEntity
  8
02___PRT_ALL_AXES
100
AcDbLine
 62
7
  6
CONTINUOUS
 10
299.4078669675
 20
270.0708291569
 11
1389.4078669675
 21
270.0708291569
  0
LINE
  5
2BA
100
AcDbEntity
  8
02___PRT_ALL_AXES
100
AcDbLine
 62
7
  6
CONTINUOUS
 10
299.4078669675
 20
273.6215333124
 11
1389.4078669675
 21
273.6215333124
  0
LINE
  5
2BB
100
AcDbEntity
  8
02___PRT_ALL_AXES
100
AcDbLine
 62
7
  6
CONTINUOUS
 10
637.8707033241
 20
277.0567674141
 11
1050.9450306108
 21
277.0567674141
  0
LINE
  5
2BC
100
AcDbEntity
  8
02___PRT_ALL_AXES
100
AcDbLine
 62
7
  6
CONTINUOUS
 10
267.0407308638
 20
302.4379652605
 11
277.9941045811
 21
302.4379652605
  0
LINE
  5
2BD
100
AcDbEntity
  8
02___PRT_ALL_AXES
100
AcDbLine
 62
7
  6
CONTINUOUS
 10
1410.8216293538
 20
302.4379652605
 11
1421.7750030712
 21
302.4379652605
  0
LINE
  5
2BE
100
AcDbEntity
  8
02___PRT_ALL_AXES
100
AcDbLine
 62
7
  6
CONTINUOUS
 10
637.8707033241
 20
283.9849706443
 11
1057.8703711506
 21
283.95772246
  0
LINE
  5
2BF
100
AcDbEntity
  8
02___PRT_ALL_AXES
100
AcDbLine
 62
7
  6
CONTINUOUS
 10
1057.7595657019
 20
277.0295192297
 11
1389.4078669675
 21
274.3771746728
  0
LINE
  5
2C0
100
AcDbEntity
  8
02___PRT_ALL_AXES
100
AcDbLine
 62
7
  6
CONTINUOUS
 10
1057.8703711506
 20
283.95772246
 11
1389.5186724161
 21
281.3053779031
  0
LINE
  5
2C1
100
AcDbEntity
  8
02___PRT_ALL_AXES
100
AcDbLine
 62
7
  6
CONTINUOUS
 10
606.5248713274
 20
360.3778498546
 11
606.0987502743
 21
360.5609944067
  0
LINE
  5
2C2
100
AcDbEntity
  8
02___PRT_ALL_AXES
100
AcDbLine
 62
7
  6
CONTINUOUS
 10
1134.407863088
 20
317.4379440272
 11
1329.4078708174
 21
317.4379652605
  0
LINE
  5
2C3
100
AcDbEntity
  8
02___PRT_ALL_AXES
100
AcDbLine
 62
7
  6
CONTINUOUS
 10
554.4078630967
 20
317.4379652605
 11
359.4078708685
 21
317.4379447723
  0
LINE
  5
2C4
100
AcDbEntity
  8
02___PRT_ALL_AXES
100
AcDbLine
 62
7
  6
CONTINUOUS
 10
554.4217176486
 20
318.921204958
 11
359.4217176486
 21
318.921204958
  0
LINE
  5
2C5
100
AcDbEntity
  8
02___PRT_ALL_AXES
100
AcDbLine
 62
7
  6
CONTINUOUS
 10
1134.3940162864
 20
318.921204958
 11
1329.3940162864
 21
318.921204958
  0
LINE
  5
2C6
100
AcDbEntity
  8
02___PRT_ALL_AXES
100
AcDbLine
 62
7
  6
CONTINUOUS
 10
1133.5585049869
 20
324.8217328541
 11
1247.6681329757
 21
324.8295664756
  0
LINE
  5
2C7
100
AcDbEntity
  8
02___PRT_ALL_AXES
100
AcDbLine
 62
7
  6
CONTINUOUS
 10
440.2977061766
 20
324.8166450751
 11
554.4070712479
 21
324.8130248761
  0
LINE
  5
2C8
100
AcDbEntity
  8
02___PRT_ALL_AXES
100
AcDbLine
 62
7
  6
CONTINUOUS
 10
1133.5520286607
 20
325.884464788
 11
1247.6571834636
 21
325.8902265503
  0
LINE
  5
2C9
100
AcDbEntity
  8
02___PRT_ALL_AXES
100
AcDbLine
 62
7
  6
CONTINUOUS
 10
440.3087664362
 20
325.877305089
 11
554.4139240949
 21
325.8754785697
  0
LINE
  5
2CA
100
AcDbEntity
  8
02___PRT_ALL_AXES
100
AcDbLine
 62
7
  6
CONTINUOUS
 10
1133.5458425356
 20
326.3301119446
 11
1247.6509975658
 21
326.3358102005
  0
LINE
  5
2CB
100
AcDbEntity
  8
02___PRT_ALL_AXES
100
AcDbLine
 62
7
  6
CONTINUOUS
 10
440.3149380826
 20
326.3228895013
 11
554.420095132
 21
326.3211177784
  0
LINE
  5
2CC
100
AcDbEntity
  8
02___PRT_ALL_AXES
100
AcDbLine
 62
7
  6
CONTINUOUS
 10
1133.5367766755
 20
327.8129343038
 11
1247.637579842
 21
327.8207344378
  0
LINE
  5
2CD
100
AcDbEntity
  8
02___PRT_ALL_AXES
100
AcDbLine
 62
7
  6
CONTINUOUS
 10
440.3281680093
 20
327.8078135935
 11
554.4296913969
 21
327.8042216885
  0
LINE
  5
2CE
100
AcDbEntity
  8
02___PRT_ALL_AXES
100
AcDbLine
 62
7
  6
CONTINUOUS
 10
309.714285536
 20
355.4785487251
 11
310.0935157668
 21
355.6810705381
  0
LINE
  5
2CF
100
AcDbEntity
  8
02___PRT_ALL_AXES
100
AcDbLine
 62
7
  6
CONTINUOUS
 10
1383.1568779028
 20
379.019764722
 11
1386.1624908457
 21
379.021469771
  0
LINE
  5
2D0
100
AcDbEntity
  8
02___PRT_ALL_AXES
100
AcDbLine
 62
7
  6
CONTINUOUS
 10
301.8017263687
 20
379.0030946551
 11
304.8073421038
 21
379.0043259416
  0
LINE
  5
2D1
100
AcDbEntity
  8
02___PRT_ALL_AXES
100
AcDbLine
 62
7
  6
CONTINUOUS
 10
294.4078669675
 20
382.4379654538
 11
295.9048150658
 21
382.4379652605
  0
LINE
  5
2D2
100
AcDbEntity
  8
02___PRT_ALL_AXES
100
AcDbLine
 62
7
  6
CONTINUOUS
 10
1070.8771137036
 20
382.4379652605
 11
1069.4078669675
 21
382.4379650988
  0
LINE
  5
2D3
100
AcDbEntity
  8
02___PRT_ALL_AXES
100
AcDbLine
 62
7
  6
CONTINUOUS
 10
619.4078697769
 20
382.4379654433
 11
617.9386202313
 21
382.4379652605
  0
LINE
  5
2D4
100
AcDbEntity
  8
02___PRT_ALL_AXES
100
AcDbLine
 62
7
  6
CONTINUOUS
 10
1392.9109188692
 20
382.4379652605
 11
1394.4078700315
 21
382.4379650886
  0
LINE
  5
2D5
100
AcDbEntity
  8
02___PRT_ALL_AXES
100
AcDbLine
 62
7
  6
CONTINUOUS
 10
1078.8966679979
 20
385.1718473086
 11
1075.9202248052
 21
385.1717510227
  0
LINE
  5
2D6
100
AcDbEntity
  8
02___PRT_ALL_AXES
100
AcDbLine
 62
7
  6
CONTINUOUS
 10
1078.8967637376
 20
395.7308664836
 11
1075.9203631297
 21
395.7291765101
  0
LINE
  5
2D7
100
AcDbEntity
  8
02___PRT_ALL_AXES
100
AcDbLine
 62
7
  6
CONTINUOUS
 10
612.0433839554
 20
395.7227674441
 11
609.0669801977
 21
395.721548127
  0
LINE
  5
2D8
100
AcDbEntity
  8
02___PRT_ALL_AXES
100
AcDbLine
 62
7
  6
CONTINUOUS
 10
609.0671835916
 20
385.1655398058
 11
612.0436065381
 21
385.1636425559
  0
LINE
  5
2D9
100
AcDbEntity
  8
02___PRT_ALL_AXES
100
AcDbLine
 62
7
  6
CONTINUOUS
 10
309.7169029714
 20
619.3959607508
 11
310.0961597367
 21
619.1934253218
  0
LINE
  5
2DA
100
AcDbEntity
  8
02___PRT_ALL_AXES
100
AcDbLine
 62
7
  6
CONTINUOUS
 10
731.0569065449
 20
318.9389976569
 11
732.911114068
 21
330.3276802458
  0
LINE
  5
2DB
100
AcDbEntity
  8
02___PRT_ALL_AXES
100
AcDbLine
 62
7
  6
CONTINUOUS
 10
600.9669056225
 20
365.8519154414
 11
439.5301825907
 21
336.5949748323
  0
LINE
  5
2DC
100
AcDbEntity
  8
02___PRT_ALL_AXES
100
AcDbLine
 62
7
  6
CONTINUOUS
 10
600.6928755449
 20
367.3148866411
 11
439.260072022
 21
338.0585420585
  0
LINE
  5
2DD
100
AcDbEntity
  8
02___PRT_ALL_AXES
100
AcDbLine
 62
7
  6
CONTINUOUS
 10
600.6080430906
 20
367.7492434606
 11
439.1752555019
 21
338.4928166307
  0
LINE
  5
2DE
100
AcDbEntity
  8
02___PRT_ALL_AXES
100
AcDbLine
 62
7
  6
CONTINUOUS
 10
600.4060490246
 20
368.7930070559
 11
438.9770020928
 21
339.5372581444
  0
LINE
  5
2DF
100
AcDbEntity
  8
02___PRT_ALL_AXES
100
AcDbLine
 62
7
  6
CONTINUOUS
 10
341.4517609714
 20
330.7634435926
 11
606.7521197931
 21
378.8431191482
  0
LINE
  5
2E0
100
AcDbEntity
  8
02___PRT_ALL_AXES
100
AcDbLine
 62
7
  6
CONTINUOUS
 10
341.269149845
 20
331.8055395274
 11
606.570539139
 21
379.8857142154
  0
LINE
  5
2E1
100
AcDbEntity
  8
02___PRT_ALL_AXES
100
AcDbLine
 62
7
  6
CONTINUOUS
 10
341.1951690155
 20
332.2481311863
 11
606.4965525056
 21
380.3283413032
  0
LINE
  5
2E2
100
AcDbEntity
  8
02___PRT_ALL_AXES
100
AcDbLine
 62
7
  6
CONTINUOUS
 10
340.9390925128
 20
333.7077562309
 11
606.2487842817
 21
381.7891423523
  0
LINE
  5
2E3
100
AcDbEntity
  8
02___PRT_ALL_AXES
100
AcDbLine
 62
7
  6
CONTINUOUS
 10
605.188493761
 20
399.1227303362
 11
313.9906554951
 21
361.4268639848
  0
LINE
  5
2E4
100
AcDbEntity
  8
02___PRT_ALL_AXES
100
AcDbLine
 62
7
  6
CONTINUOUS
 10
604.9891074269
 20
400.5968343113
 11
313.7839969298
 21
362.8998596926
  0
LINE
  5
2E5
100
AcDbEntity
  8
02___PRT_ALL_AXES
100
AcDbLine
 62
7
  6
CONTINUOUS
 10
604.926172568
 20
401.035655397
 11
313.7210547762
 21
363.3387309838
  0
LINE
  5
2E6
100
AcDbEntity
  8
02___PRT_ALL_AXES
100
AcDbLine
 62
7
  6
CONTINUOUS
 10
604.7833207774
 20
402.0882689912
 11
313.5777248022
 21
364.3914252513
  0
LINE
  5
2E7
100
AcDbEntity
  8
02___PRT_ALL_AXES
100
AcDbLine
 62
7
  6
CONTINUOUS
 10
309.0359576393
 20
372.6339344082
 11
606.428895361
 21
411.1320420843
  0
LINE
  5
2E8
100
AcDbEntity
  8
02___PRT_ALL_AXES
100
AcDbLine
 62
7
  6
CONTINUOUS
 10
308.9024829763
 20
373.6844272315
 11
606.3024823715
 21
412.1834490555
  0
LINE
  5
2E9
100
AcDbEntity
  8
02___PRT_ALL_AXES
100
AcDbLine
 62
7
  6
CONTINUOUS
 10
308.8510996848
 20
374.1293590684
 11
606.2510990842
 21
412.628380899
  0
LINE
  5
2EA
100
AcDbEntity
  8
02___PRT_ALL_AXES
100
AcDbLine
 62
7
  6
CONTINUOUS
 10
308.6801252522
 20
375.6021060259
 11
606.0712271733
 21
414.0999760601
  0
LINE
  5
2EB
100
AcDbEntity
  8
02___PRT_ALL_AXES
100
AcDbLine
 62
7
  6
CONTINUOUS
 10
652.9553125254
 20
413.2273972703
 11
641.4995088016
 21
411.7842582166
  0
LINE
  5
2EC
100
AcDbEntity
  8
02___PRT_ALL_AXES
100
AcDbLine
 62
7
  6
CONTINUOUS
 10
1383.1564771316
 20
405.0547957015
 11
1386.1621273864
 21
405.0548915259
  0
LINE
  5
2ED
100
AcDbEntity
  8
02___PRT_ALL_AXES
100
AcDbLine
 62
7
  6
CONTINUOUS
 10
1078.8956329108
 20
417.5100796746
 11
1075.9191897157
 21
417.5099834128
  0
LINE
  5
2EE
100
AcDbEntity
  8
02___PRT_ALL_AXES
100
AcDbLine
 62
7
  6
CONTINUOUS
 10
1386.1614339721
 20
426.7199457395
 11
1383.1557837151
 21
426.7198502232
  0
LINE
  5
2EF
100
AcDbEntity
  8
02___PRT_ALL_AXES
100
AcDbLine
 62
7
  6
CONTINUOUS
 10
304.8072670283
 20
426.7041977536
 11
301.8016460079
 21
426.7016888151
  0
LINE
  5
2F0
100
AcDbEntity
  8
02___PRT_ALL_AXES
100
AcDbLine
 62
7
  6
CONTINUOUS
 10
1078.8956731691
 20
428.1451237135
 11
1075.9192674583
 21
428.1433950585
  0
LINE
  5
2F1
100
AcDbEntity
  8
02___PRT_ALL_AXES
100
AcDbLine
 62
7
  6
CONTINUOUS
 10
612.0438274986
 20
428.1365597041
 11
609.0673843109
 21
428.1365592174
  0
LINE
  5
2F2
100
AcDbEntity
  8
02___PRT_ALL_AXES
100
AcDbLine
 62
7
  6
CONTINUOUS
 10
304.8070574196
 20
405.036275558
 11
301.8014180832
 21
405.0382469487
  0
LINE
  5
2F3
100
AcDbEntity
  8
02___PRT_ALL_AXES
100
AcDbLine
 62
7
  6
CONTINUOUS
 10
609.0672239278
 20
417.50380339
 11
612.0436507331
 21
417.5018573845
  0
LINE
  5
2F4
100
AcDbEntity
  8
02___PRT_ALL_AXES
100
AcDbLine
 62
7
  6
CONTINUOUS
 10
1047.3162251334
 20
411.7842582166
 11
1035.8605061513
 21
413.2281031664
  0
LINE
  5
2F5
100
AcDbEntity
  8
02___PRT_ALL_AXES
100
AcDbLine
 62
7
  6
CONTINUOUS
 10
1373.9807954739
 20
361.4428282029
 11
1082.782198433
 21
399.1297473558
  0
LINE
  5
2F6
100
AcDbEntity
  8
02___PRT_ALL_AXES
100
AcDbLine
 62
7
  6
CONTINUOUS
 10
1374.180759616
 20
362.9167706334
 11
1082.9744684253
 21
400.6046051322
  0
LINE
  5
2F7
100
AcDbEntity
  8
02___PRT_ALL_AXES
100
AcDbLine
 62
7
  6
CONTINUOUS
 10
1374.2436963603
 20
363.355704142
 11
1083.0373965188
 21
401.0434789996
  0
LINE
  5
2F8
100
AcDbEntity
  8
02___PRT_ALL_AXES
100
AcDbLine
 62
7
  6
CONTINUOUS
 10
1374.3847533145
 20
364.4086923783
 11
1083.184625695
 21
402.0956684301
  0
LINE
  5
2F9
100
AcDbEntity
  8
02___PRT_ALL_AXES
100
AcDbLine
 62
7
  6
CONTINUOUS
 10
1081.5628446479
 20
411.1359558987
 11
1378.9328278022
 21
372.6504964652
  0
LINE
  5
2FA
100
AcDbEntity
  8
02___PRT_ALL_AXES
100
AcDbLine
 62
7
  6
CONTINUOUS
 10
1081.6607036856
 20
412.1910584256
 11
1379.061936632
 21
373.7015546625
  0
LINE
  5
2FB
100
AcDbEntity
  8
02___PRT_ALL_AXES
100
AcDbLine
 62
7
  6
CONTINUOUS
 10
1081.7120721587
 20
412.6359913582
 11
1379.1133055799
 21
374.1464875921
  0
LINE
  5
2FC
100
AcDbEntity
  8
02___PRT_ALL_AXES
100
AcDbLine
 62
7
  6
CONTINUOUS
 10
1081.9186542332
 20
414.1041299686
 11
1379.2834614486
 21
375.6193404608
  0
LINE
  5
2FD
100
AcDbEntity
  8
02___PRT_ALL_AXES
100
AcDbLine
 62
7
  6
CONTINUOUS
 10
1248.4310197653
 20
336.6085373509
 11
1086.9978588439
 21
365.8596799676
  0
LINE
  5
2FE
100
AcDbEntity
  8
02___PRT_ALL_AXES
100
AcDbLine
 62
7
  6
CONTINUOUS
 10
1248.7054727447
 20
338.0714188657
 11
1087.2717483523
 21
367.3226750971
  0
LINE
  5
2FF
100
AcDbEntity
  8
02___PRT_ALL_AXES
100
AcDbLine
 62
7
  6
CONTINUOUS
 10
1248.7902905777
 20
338.5057743668
 11
1087.3565668389
 21
367.7570341122
  0
LINE
  5
300
100
AcDbEntity
  8
02___PRT_ALL_AXES
100
AcDbLine
 62
7
  6
CONTINUOUS
 10
1248.9832231908
 20
339.5511798494
 11
1087.5571528176
 21
368.8010528301
  0
LINE
  5
301
100
AcDbEntity
  8
02___PRT_ALL_AXES
100
AcDbLine
 62
7
  6
CONTINUOUS
 10
1081.2362880641
 20
378.8463369513
 11
1346.5140089091
 21
330.7797477296
  0
LINE
  5
302
100
AcDbEntity
  8
02___PRT_ALL_AXES
100
AcDbLine
 62
7
  6
CONTINUOUS
 10
1081.3936805622
 20
379.8933149468
 11
1346.6966284277
 21
331.8217387688
  0
LINE
  5
303
100
AcDbEntity
  8
02___PRT_ALL_AXES
100
AcDbLine
 62
7
  6
CONTINUOUS
 10
1081.4676524592
 20
380.3359438908
 11
1346.7705930496
 21
332.2643205041
  0
LINE
  5
304
100
AcDbEntity
  8
02___PRT_ALL_AXES
100
AcDbLine
 62
7
  6
CONTINUOUS
 10
1081.7423111943
 20
381.7918726073
 11
1347.026736686
 21
333.7240430644
  0
LINE
  5
305
100
AcDbEntity
  8
02___PRT_ALL_AXES
100
AcDbLine
 62
7
  6
CONTINUOUS
 10
732.9343406753
 20
644.4009537908
 11
731.0569065449
 21
655.9369328642
  0
LINE
  5
306
100
AcDbEntity
  8
02___PRT_ALL_AXES
100
AcDbLine
 62
7
  6
CONTINUOUS
 10
605.35815074
 20
431.5553716906
 11
307.970405163
 21
408.4573014861
  0
LINE
  5
307
100
AcDbEntity
  8
02___PRT_ALL_AXES
100
AcDbLine
 62
7
  6
CONTINUOUS
 10
605.2395042045
 20
433.0370131177
 11
307.839504565
 21
409.9379911415
  0
LINE
  5
308
100
AcDbEntity
  8
02___PRT_ALL_AXES
100
AcDbLine
 62
7
  6
CONTINUOUS
 10
605.1989961083
 20
433.4794236559
 11
307.7989964743
 21
410.3804016776
  0
LINE
  5
309
100
AcDbEntity
  8
02___PRT_ALL_AXES
100
AcDbLine
 62
7
  6
CONTINUOUS
 10
605.112051828
 20
434.5375683392
 11
307.7107047636
 21
411.4384417062
  0
LINE
  5
30A
100
AcDbEntity
  8
02___PRT_ALL_AXES
100
AcDbLine
 62
7
  6
CONTINUOUS
 10
308.7129912641
 20
420.3000244123
 11
606.1042729485
 21
443.3983691372
  0
LINE
  5
30B
100
AcDbEntity
  8
02___PRT_ALL_AXES
100
AcDbLine
 62
7
  6
CONTINUOUS
 10
308.6291726001
 20
421.3563255575
 11
606.0291721403
 21
444.4553473973
  0
LINE
  5
30C
100
AcDbEntity
  8
02___PRT_ALL_AXES
100
AcDbLine
 62
7
  6
CONTINUOUS
 10
308.6007118882
 20
421.8025735815
 11
606.0007217948
 21
444.9014329483
  0
LINE
  5
30D
100
AcDbEntity
  8
02___PRT_ALL_AXES
100
AcDbLine
 62
7
  6
CONTINUOUS
 10
308.4947157667
 20
423.2824970081
 11
605.8865152927
 21
446.3804984163
  0
LINE
  5
30E
100
AcDbEntity
  8
02___PRT_ALL_AXES
100
AcDbLine
 62
7
  6
CONTINUOUS
 10
646.4527960778
 20
451.4221421446
 11
637.8707033242
 21
450.9052284994
  0
LINE
  5
30F
100
AcDbEntity
  8
02___PRT_ALL_AXES
100
AcDbLine
 62
7
  6
CONTINUOUS
 10
605.5385227343
 20
463.9113610298
 11
308.1510394779
 21
456.2116631168
  0
LINE
  5
310
100
AcDbEntity
  8
02___PRT_ALL_AXES
100
AcDbLine
 62
7
  6
CONTINUOUS
 10
605.4929083791
 20
465.3960886921
 11
308.0929084537
 21
457.6960667084
  0
LINE
  5
311
100
AcDbEntity
  8
02___PRT_ALL_AXES
100
AcDbLine
 62
7
  6
CONTINUOUS
 10
605.4752284068
 20
465.8409081892
 11
308.075228476
 21
458.1408862044
  0
LINE
  5
312
100
AcDbEntity
  8
02___PRT_ALL_AXES
100
AcDbLine
 62
7
  6
CONTINUOUS
 10
605.4283645669
 20
466.9010581668
 11
308.0423609115
 21
459.2013985615
  0
LINE
  5
313
100
AcDbEntity
  8
02___PRT_ALL_AXES
100
AcDbLine
 62
7
  6
CONTINUOUS
 10
309.2348001411
 20
467.9878600826
 11
606.6260360149
 21
475.6777843069
  0
LINE
  5
314
100
AcDbEntity
  8
02___PRT_ALL_AXES
100
AcDbLine
 62
7
  6
CONTINUOUS
 10
309.2070673128
 20
469.0478103731
 11
606.6073120351
 21
476.7379675478
  0
LINE
  5
315
100
AcDbEntity
  8
02___PRT_ALL_AXES
100
AcDbLine
 62
7
  6
CONTINUOUS
 10
309.2017136047
 20
469.4938610855
 11
606.6019581417
 21
477.1840182683
  0
LINE
  5
316
100
AcDbEntity
  8
02___PRT_ALL_AXES
100
AcDbLine
 62
7
  6
CONTINUOUS
 10
309.1885375714
 20
470.9784547466
 11
606.5655810907
 21
478.6680119989
  0
LINE
  5
317
100
AcDbEntity
  8
02___PRT_ALL_AXES
100
AcDbLine
 62
7
  6
CONTINUOUS
 10
1379.6424093743
 20
503.93212825
 11
1082.2428022455
 21
496.2225736911
  0
LINE
  5
318
100
AcDbEntity
  8
02___PRT_ALL_AXES
100
AcDbLine
 62
7
  6
CONTINUOUS
 10
1379.6128679377
 20
505.4164874932
 11
1082.2131146669
 21
497.7069393129
  0
LINE
  5
319
100
AcDbEntity
  8
02___PRT_ALL_AXES
100
AcDbLine
 62
7
  6
CONTINUOUS
 10
1379.6074832536
 20
505.8626794953
 11
1082.207729883
 21
498.1531385129
  0
LINE
  5
31A
100
AcDbEntity
  8
02___PRT_ALL_AXES
100
AcDbLine
 62
7
  6
CONTINUOUS
 10
1379.5792242446
 20
506.9226152513
 11
1082.1929272497
 21
499.2134231006
  0
LINE
  5
31B
100
AcDbEntity
  8
02___PRT_ALL_AXES
100
AcDbLine
 62
7
  6
CONTINUOUS
 10
1075.9184186179
 20
449.8085628881
 11
1078.8948382389
 21
449.8099744271
  0
LINE
  5
31C
100
AcDbEntity
  8
02___PRT_ALL_AXES
100
AcDbLine
 62
7
  6
CONTINUOUS
 10
609.0663436577
 20
449.8010744371
 11
612.0426860459
 21
449.8019184945
  0
LINE
  5
31D
100
AcDbEntity
  8
02___PRT_ALL_AXES
100
AcDbLine
 62
7
  6
CONTINUOUS
 10
304.8072152186
 20
452.7836459146
 11
301.801588995
 21
452.7820014718
  0
LINE
  5
31E
100
AcDbEntity
  8
02___PRT_ALL_AXES
100
AcDbLine
 62
7
  6
CONTINUOUS
 10
1383.1549487811
 20
452.7998497165
 11
1386.1605990227
 21
452.7999457262
  0
LINE
  5
31F
100
AcDbEntity
  8
02___PRT_ALL_AXES
100
AcDbLine
 62
7
  6
CONTINUOUS
 10
1075.9178139898
 20
460.4900376155
 11
1078.894257189
 21
460.4901334264
  0
LINE
  5
320
100
AcDbEntity
  8
02___PRT_ALL_AXES
100
AcDbLine
 62
7
  6
CONTINUOUS
 10
609.067044151
 20
460.481227267
 11
612.0434533563
 21
460.4833975381
  0
LINE
  5
321
100
AcDbEntity
  8
02___PRT_ALL_AXES
100
AcDbLine
 62
7
  6
CONTINUOUS
 10
1383.1539301728
 20
474.406293969
 11
1386.1595520074
 21
474.4080501442
  0
LINE
  5
322
100
AcDbEntity
  8
02___PRT_ALL_AXES
100
AcDbLine
 62
7
  6
CONTINUOUS
 10
302.6558263253
 20
474.4074537567
 11
305.6614765816
 21
474.4073583492
  0
LINE
  5
323
100
AcDbEntity
  8
02___PRT_ALL_AXES
100
AcDbLine
 62
7
  6
CONTINUOUS
 10
1078.8939118925
 20
482.0984892421
 11
1075.9175030524
 21
482.0965258396
  0
LINE
  5
324
100
AcDbEntity
  8
02___PRT_ALL_AXES
100
AcDbLine
 62
7
  6
CONTINUOUS
 10
609.9221681523
 20
482.0972964245
 11
612.8986113337
 21
482.0972000445
  0
LINE
  5
325
100
AcDbEntity
  8
02___PRT_ALL_AXES
100
AcDbLine
 62
7
  6
CONTINUOUS
 10
1078.8935002182
 20
492.7946395522
 11
1075.9170844757
 21
492.7929150582
  0
LINE
  5
326
100
AcDbEntity
  8
02___PRT_ALL_AXES
100
AcDbLine
 62
7
  6
CONTINUOUS
 10
612.898953878
 20
492.7935016884
 11
609.9225106804
 21
492.7935974357
  0
LINE
  5
327
100
AcDbEntity
  8
02___PRT_ALL_AXES
100
AcDbLine
 62
7
  6
CONTINUOUS
 10
1379.8106775469
 20
456.2288162282
 11
1082.4341072137
 21
463.9187068185
  0
LINE
  5
328
100
AcDbEntity
  8
02___PRT_ALL_AXES
100
AcDbLine
 62
7
  6
CONTINUOUS
 10
1379.8688223028
 20
457.7132194942
 11
1082.4685771039
 21
465.4037222952
  0
LINE
  5
329
100
AcDbEntity
  8
02___PRT_ALL_AXES
100
AcDbLine
 62
7
  6
CONTINUOUS
 10
1379.8864881302
 20
458.1580401246
 11
1082.4862426247
 21
465.8485429207
  0
LINE
  5
32A
100
AcDbEntity
  8
02___PRT_ALL_AXES
100
AcDbLine
 62
7
  6
CONTINUOUS
 10
1379.9218111203
 20
459.2184887304
 11
1082.5280087882
 21
466.9088249119
  0
LINE
  5
32B
100
AcDbEntity
  8
02___PRT_ALL_AXES
100
AcDbLine
 62
7
  6
CONTINUOUS
 10
1082.1991968732
 20
475.677538725
 11
1379.5871895258
 21
467.9876982432
  0
LINE
  5
32C
100
AcDbEntity
  8
02___PRT_ALL_AXES
100
AcDbLine
 62
7
  6
CONTINUOUS
 10
1082.2084212099
 20
476.7379676071
 11
1379.6086672987
 21
469.0478102766
  0
LINE
  5
32D
100
AcDbEntity
  8
02___PRT_ALL_AXES
100
AcDbLine
 62
7
  6
CONTINUOUS
 10
1082.2137750126
 20
477.1840183265
 11
1379.6140210905
 21
469.4938609934
  0
LINE
  5
32E
100
AcDbEntity
  8
02___PRT_ALL_AXES
100
AcDbLine
 62
7
  6
CONTINUOUS
 10
1082.2443385993
 20
478.6681623813
 11
1379.6325385938
 21
470.9783165351
  0
LINE
  5
32F
100
AcDbEntity
  8
02___PRT_ALL_AXES
100
AcDbLine
 62
7
  6
CONTINUOUS
 10
606.5617108944
 20
496.223211786
 11
309.1837968384
 21
503.9321867915
  0
LINE
  5
330
100
AcDbEntity
  8
02___PRT_ALL_AXES
100
AcDbLine
 62
7
  6
CONTINUOUS
 10
606.6026206097
 20
497.7070869233
 11
309.2028680049
 21
505.4166280529
  0
LINE
  5
331
100
AcDbEntity
  8
02___PRT_ALL_AXES
100
AcDbLine
 62
7
  6
CONTINUOUS
 10
606.6080037414
 20
498.1531384237
 11
309.2082508476
 21
505.8626795769
  0
LINE
  5
332
100
AcDbEntity
  8
02___PRT_ALL_AXES
100
AcDbLine
 62
7
  6
CONTINUOUS
 10
606.6294731919
 20
499.2127273847
 11
309.2248092242
 21
506.9229186587
  0
LINE
  5
333
100
AcDbEntity
  8
02___PRT_ALL_AXES
100
AcDbLine
 62
7
  6
CONTINUOUS
 10
1042.3629378572
 20
451.4221421445
 11
1050.9450306108
 21
450.9052284993
  0
LINE
  5
334
100
AcDbEntity
  8
02___PRT_ALL_AXES
100
AcDbLine
 62
7
  6
CONTINUOUS
 10
1379.9789871889
 20
408.4755381502
 11
1082.5996093202
 21
431.5630533603
  0
LINE
  5
335
100
AcDbEntity
  8
02___PRT_ALL_AXES
100
AcDbLine
 62
7
  6
CONTINUOUS
 10
1380.1237536876
 20
409.9551512198
 11
1082.7230031302
 21
433.0445158764
  0
LINE
  5
336
100
AcDbEntity
  8
02___PRT_ALL_AXES
100
AcDbLine
 62
7
  6
CONTINUOUS
 10
1380.1642477757
 20
410.3975635278
 11
1082.7634916907
 21
433.4868701172
  0
LINE
  5
337
100
AcDbEntity
  8
02___PRT_ALL_AXES
100
AcDbLine
 62
7
  6
CONTINUOUS
 10
1380.2257537431
 20
411.4576828744
 11
1082.8521085102
 21
434.5447221868
  0
LINE
  5
338
100
AcDbEntity
  8
02___PRT_ALL_AXES
100
AcDbLine
 62
7
  6
CONTINUOUS
 10
1081.8603265311
 20
443.4057962103
 11
1379.2561696193
 21
420.3166735209
  0
LINE
  5
339
100
AcDbEntity
  8
02___PRT_ALL_AXES
100
AcDbLine
 62
7
  6
CONTINUOUS
 10
1081.9329822987
 20
444.4629645044
 11
1379.3337200958
 21
421.3734618009
  0
LINE
  5
33A
100
AcDbEntity
  8
02___PRT_ALL_AXES
100
AcDbLine
 62
7
  6
CONTINUOUS
 10
1081.9614181925
 20
444.9090504176
 11
1379.362155896
 21
421.8195477087
  0
LINE
  5
33B
100
AcDbEntity
  8
02___PRT_ALL_AXES
100
AcDbLine
 62
7
  6
CONTINUOUS
 10
1082.066234508
 20
446.3888454891
 11
1379.4519686071
 21
423.3005076254
  0
LINE
  5
33C
100
AcDbEntity
  8
02___PRT_ALL_AXES
100
AcDbLine
 62
7
  6
CONTINUOUS
 10
1379.2876515415
 20
599.2918893604
 11
1081.8945963992
 21
560.7845273489
  0
LINE
  5
33D
100
AcDbEntity
  8
02___PRT_ALL_AXES
100
AcDbLine
 62
7
  6
CONTINUOUS
 10
1379.10607408
 20
600.7635156711
 11
1081.7072854303
 21
562.2551590138
  0
LINE
  5
33E
100
AcDbEntity
  8
02___PRT_ALL_AXES
100
AcDbLine
 62
7
  6
CONTINUOUS
 10
1379.0546550484
 20
601.2086305228
 11
1081.6558877478
 21
562.7000897547
  0
LINE
  5
33F
100
AcDbEntity
  8
02___PRT_ALL_AXES
100
AcDbLine
 62
7
  6
CONTINUOUS
 10
1378.9159536739
 20
602.2584462186
 11
1081.5284276883
 21
563.7513610272
  0
LINE
  5
340
100
AcDbEntity
  8
02___PRT_ALL_AXES
100
AcDbLine
 62
7
  6
CONTINUOUS
 10
1083.1894153093
 20
572.7969031898
 11
1374.3802853897
 21
610.5016339375
  0
LINE
  5
341
100
AcDbEntity
  8
02___PRT_ALL_AXES
100
AcDbLine
 62
7
  6
CONTINUOUS
 10
982.8030815054
 20
555.0192999311
 11
1047.3162251334
 21
563.0916723045
  0
LINE
  5
342
100
AcDbEntity
  8
02___PRT_ALL_AXES
100
AcDbLine
 62
7
  6
CONTINUOUS
 10
1379.4640094708
 20
551.6105739197
 11
1082.072949406
 21
528.5030537857
  0
LINE
  5
343
100
AcDbEntity
  8
02___PRT_ALL_AXES
100
AcDbLine
 62
7
  6
CONTINUOUS
 10
1379.3579660068
 20
553.0904933529
 11
1081.9586955869
 21
529.9821149974
  0
LINE
  5
344
100
AcDbEntity
  8
02___PRT_ALL_AXES
100
AcDbLine
 62
7
  6
CONTINUOUS
 10
1379.3294909633
 20
553.5367410259
 11
1081.930230915
 21
530.4282001976
  0
LINE
  5
345
100
AcDbEntity
  8
02___PRT_ALL_AXES
100
AcDbLine
 62
7
  6
CONTINUOUS
 10
1379.2456385117
 20
554.5930390595
 11
1081.8550962948
 21
531.4851756249
  0
LINE
  5
346
100
AcDbEntity
  8
02___PRT_ALL_AXES
100
AcDbLine
 62
7
  6
CONTINUOUS
 10
1082.8626666974
 20
540.3472230141
 11
1380.252403785
 21
563.455023889
  0
LINE
  5
347
100
AcDbEntity
  8
02___PRT_ALL_AXES
100
AcDbLine
 62
7
  6
CONTINUOUS
 10
1082.7600547955
 20
541.4041505688
 11
1380.1593153959
 21
564.5126914403
  0
LINE
  5
348
100
AcDbEntity
  8
02___PRT_ALL_AXES
100
AcDbLine
 62
7
  6
CONTINUOUS
 10
1082.7195326178
 20
541.8465592412
 11
1380.1187931352
 21
564.9551001146
  0
LINE
  5
349
100
AcDbEntity
  8
02___PRT_ALL_AXES
100
AcDbLine
 62
7
  6
CONTINUOUS
 10
1082.5987667282
 20
543.3280364781
 11
1379.9826043804
 21
566.4353789629
  0
LINE
  5
34A
100
AcDbEntity
  8
02___PRT_ALL_AXES
100
AcDbLine
 62
7
  6
CONTINUOUS
 10
1042.3629378572
 20
523.4537883765
 11
1050.9450306108
 21
523.9707020217
  0
LINE
  5
34B
100
AcDbEntity
  8
02___PRT_ALL_AXES
100
AcDbLine
 62
7
  6
CONTINUOUS
 10
1082.5317569329
 20
507.982508243
 11
1379.91751399
 21
515.6916863967
  0
LINE
  5
34C
100
AcDbEntity
  8
02___PRT_ALL_AXES
100
AcDbLine
 62
7
  6
CONTINUOUS
 10
1082.4848591611
 20
509.04265715
 11
1379.884612482
 21
516.7521981311
  0
LINE
  5
34D
100
AcDbEntity
  8
02___PRT_ALL_AXES
100
AcDbLine
 62
7
  6
CONTINUOUS
 10
1082.4671649816
 20
509.4874755174
 11
1379.866918297
 21
517.1970164974
  0
LINE
  5
34E
100
AcDbEntity
  8
02___PRT_ALL_AXES
100
AcDbLine
 62
7
  6
CONTINUOUS
 10
1082.4215031043
 20
510.9722023207
 11
1379.8087397732
 21
518.6814188298
  0
LINE
  5
34F
100
AcDbEntity
  8
02___PRT_ALL_AXES
100
AcDbLine
 62
7
  6
CONTINUOUS
 10
1383.1530828013
 20
500.5019554695
 11
1386.1587031302
 21
500.5042425114
  0
LINE
  5
350
100
AcDbEntity
  8
02___PRT_ALL_AXES
100
AcDbLine
 62
7
  6
CONTINUOUS
 10
302.6566617564
 20
500.5034537433
 11
305.6623119997
 21
500.5033576929
  0
LINE
  5
351
100
AcDbEntity
  8
02___PRT_ALL_AXES
100
AcDbLine
 62
7
  6
CONTINUOUS
 10
1078.8928718975
 20
514.4022229223
 11
1075.9164627631
 21
514.3999566116
  0
LINE
  5
352
100
AcDbEntity
  8
02___PRT_ALL_AXES
100
AcDbLine
 62
7
  6
CONTINUOUS
 10
609.0673844451
 20
514.3933167329
 11
612.0438276459
 21
514.3933165922
  0
LINE
  5
353
100
AcDbEntity
  8
02___PRT_ALL_AXES
100
AcDbLine
 62
7
  6
CONTINUOUS
 10
1383.1524542944
 20
522.1095428267
 11
1386.1580804638
 21
522.1112827358
  0
LINE
  5
354
100
AcDbEntity
  8
02___PRT_ALL_AXES
100
AcDbLine
 62
7
  6
CONTINUOUS
 10
301.8012889117
 20
522.0933385681
 11
304.8069391549
 21
522.0933390214
  0
LINE
  5
355
100
AcDbEntity
  8
02___PRT_ALL_AXES
100
AcDbLine
 62
7
  6
CONTINUOUS
 10
1078.8932305468
 20
525.0823757692
 11
1075.9168881872
 21
525.0814356743
  0
LINE
  5
356
100
AcDbEntity
  8
02___PRT_ALL_AXES
100
AcDbLine
 62
7
  6
CONTINUOUS
 10
612.0435648937
 20
525.0747913169
 11
609.06714523
 21
525.0734757463
  0
LINE
  5
357
100
AcDbEntity
  8
02___PRT_ALL_AXES
100
AcDbLine
 62
7
  6
CONTINUOUS
 10
308.0398713881
 20
515.6745963367
 11
605.4334274436
 21
507.9747413566
  0
LINE
  5
358
100
AcDbEntity
  8
02___PRT_ALL_AXES
100
AcDbLine
 62
7
  6
CONTINUOUS
 10
308.0752283304
 20
516.7350442409
 11
605.4752275305
 21
509.0350224406
  0
LINE
  5
359
100
AcDbEntity
  8
02___PRT_ALL_AXES
100
AcDbLine
 62
7
  6
CONTINUOUS
 10
308.092908365
 20
517.1798637421
 11
605.4929072586
 21
509.4798419369
  0
LINE
  5
35A
100
AcDbEntity
  8
02___PRT_ALL_AXES
100
AcDbLine
 62
7
  6
CONTINUOUS
 10
308.1511006371
 20
518.664265748
 11
605.5274246837
 21
510.9648569112
  0
LINE
  5
35B
100
AcDbEntity
  8
02___PRT_ALL_AXES
100
AcDbLine
 62
7
  6
CONTINUOUS
 10
646.4527960778
 20
523.4537883765
 11
637.8707033242
 21
523.9707020217
  0
LINE
  5
35C
100
AcDbEntity
  8
02___PRT_ALL_AXES
100
AcDbLine
 62
7
  6
CONTINUOUS
 10
605.8958615596
 20
528.4947062178
 11
308.5108635421
 21
551.5925628517
  0
LINE
  5
35D
100
AcDbEntity
  8
02___PRT_ALL_AXES
100
AcDbLine
 62
7
  6
CONTINUOUS
 10
606.0007221495
 20
529.9744975716
 11
308.6007236333
 21
553.0735192926
  0
LINE
  5
35E
100
AcDbEntity
  8
02___PRT_ALL_AXES
100
AcDbLine
 62
7
  6
CONTINUOUS
 10
606.0291723697
 20
530.4205831347
 11
308.6291737599
 21
553.5196048502
  0
LINE
  5
35F
100
AcDbEntity
  8
02___PRT_ALL_AXES
100
AcDbLine
 62
7
  6
CONTINUOUS
 10
606.1018626965
 20
531.4777486166
 11
308.7067580359
 21
554.5763902195
  0
LINE
  5
360
100
AcDbEntity
  8
02___PRT_ALL_AXES
100
AcDbLine
 62
7
  6
CONTINUOUS
 10
307.7082384251
 20
563.4376803442
 11
605.1031637464
 21
540.3390526698
  0
LINE
  5
361
100
AcDbEntity
  8
02___PRT_ALL_AXES
100
AcDbLine
 62
7
  6
CONTINUOUS
 10
307.7989961751
 20
564.4955288358
 11
605.1989958596
 21
541.3965070364
  0
LINE
  5
362
100
AcDbEntity
  8
02___PRT_ALL_AXES
100
AcDbLine
 62
7
  6
CONTINUOUS
 10
307.8395042859
 20
564.937939373
 11
605.2395037071
 21
541.8389175814
  0
LINE
  5
363
100
AcDbEntity
  8
02___PRT_ALL_AXES
100
AcDbLine
 62
7
  6
CONTINUOUS
 10
307.9665955933
 20
566.4189248956
 11
605.3511245866
 21
543.3211046901
  0
LINE
  5
364
100
AcDbEntity
  8
02___PRT_ALL_AXES
100
AcDbLine
 62
7
  6
CONTINUOUS
 10
641.4995088016
 20
563.0916723045
 11
706.0126539653
 21
555.0192997395
  0
LINE
  5
365
100
AcDbEntity
  8
02___PRT_ALL_AXES
100
AcDbLine
 62
7
  6
CONTINUOUS
 10
606.0744911985
 20
560.7755319239
 11
308.6813397647
 21
599.2736672078
  0
LINE
  5
366
100
AcDbEntity
  8
02___PRT_ALL_AXES
100
AcDbLine
 62
7
  6
CONTINUOUS
 10
606.2510989557
 20
562.2475496362
 11
308.8510997449
 21
600.7465713787
  0
LINE
  5
367
100
AcDbEntity
  8
02___PRT_ALL_AXES
100
AcDbLine
 62
7
  6
CONTINUOUS
 10
606.3024822299
 20
562.6924814812
 11
308.9024830722
 21
601.1915032048
  0
LINE
  5
368
100
AcDbEntity
  8
02___PRT_ALL_AXES
100
AcDbLine
 62
7
  6
CONTINUOUS
 10
606.4303772824
 20
563.7436965964
 11
309.0344020979
 21
602.2421974084
  0
LINE
  5
369
100
AcDbEntity
  8
02___PRT_ALL_AXES
100
AcDbLine
 62
7
  6
CONTINUOUS
 10
957.7588273901
 20
655.9369328642
 11
955.8806906561
 21
644.4010618264
  0
LINE
  5
36A
100
AcDbEntity
  8
02___PRT_ALL_AXES
100
AcDbLine
 62
7
  6
CONTINUOUS
 10
1347.0169532432
 20
641.184569418
 11
1081.716752923
 21
593.0957412184
  0
LINE
  5
36B
100
AcDbEntity
  8
02___PRT_ALL_AXES
100
AcDbLine
 62
7
  6
CONTINUOUS
 10
1346.7606225552
 20
642.6440121024
 11
1081.4608069499
 21
594.5551360929
  0
LINE
  5
36C
100
AcDbEntity
  8
02___PRT_ALL_AXES
100
AcDbLine
 62
7
  6
CONTINUOUS
 10
1346.6866250511
 20
643.0866163509
 11
1081.3868098253
 21
594.9977381898
  0
LINE
  5
36D
100
AcDbEntity
  8
02___PRT_ALL_AXES
100
AcDbLine
 62
7
  6
CONTINUOUS
 10
1346.5038031797
 20
644.1288026323
 11
1081.2044778346
 21
596.0401315802
  0
LINE
  5
36E
100
AcDbEntity
  8
02___PRT_ALL_AXES
100
AcDbLine
 62
7
  6
CONTINUOUS
 10
1087.5534253189
 20
606.0911719494
 11
1248.9738233698
 21
635.3506897826
  0
LINE
  5
36F
100
AcDbEntity
  8
02___PRT_ALL_AXES
100
AcDbLine
 62
7
  6
CONTINUOUS
 10
1087.3489044607
 20
607.1344775507
 11
1248.7807558319
 21
636.396071445
  0
LINE
  5
370
100
AcDbEntity
  8
02___PRT_ALL_AXES
100
AcDbLine
 62
7
  6
CONTINUOUS
 10
1087.2640742636
 20
607.5687488813
 11
1248.6959256547
 21
636.8303427821
  0
LINE
  5
371
100
AcDbEntity
  8
02___PRT_ALL_AXES
100
AcDbLine
 62
7
  6
CONTINUOUS
 10
1086.9902254485
 20
609.031638953
 11
1248.4233957261
 21
638.293471919
  0
LINE
  5
372
100
AcDbEntity
  8
02___PRT_ALL_AXES
100
AcDbLine
 62
7
  6
CONTINUOUS
 10
1083.0318644863
 20
573.84775628
 11
1374.2357520647
 21
611.5541725928
  0
LINE
  5
373
100
AcDbEntity
  8
02___PRT_ALL_AXES
100
AcDbLine
 62
7
  6
CONTINUOUS
 10
1082.9689084049
 20
574.2866249958
 11
1374.1727959555
 21
611.9930413188
  0
LINE
  5
374
100
AcDbEntity
  8
02___PRT_ALL_AXES
100
AcDbLine
 62
7
  6
CONTINUOUS
 10
1082.7753147799
 20
575.7613124955
 11
1373.9706742138
 21
613.466624559
  0
LINE
  5
375
100
AcDbEntity
  8
02___PRT_ALL_AXES
100
AcDbLine
 62
7
  6
CONTINUOUS
 10
1078.891825267
 20
546.748477848
 11
1075.9154153835
 21
546.7458972594
  0
LINE
  5
376
100
AcDbEntity
  8
02___PRT_ALL_AXES
100
AcDbLine
 62
7
  6
CONTINUOUS
 10
609.0673844542
 20
546.7393708548
 11
612.0438276558
 21
546.7393708169
  0
LINE
  5
377
100
AcDbEntity
  8
02___PRT_ALL_AXES
100
AcDbLine
 62
7
  6
CONTINUOUS
 10
1383.1515677495
 20
548.1889909725
 11
1386.1571886881
 21
548.1915953773
  0
LINE
  5
378
100
AcDbEntity
  8
02___PRT_ALL_AXES
100
AcDbLine
 62
7
  6
CONTINUOUS
 10
301.8012887153
 20
548.1733385681
 11
304.8069389738
 21
548.1733385281
  0
LINE
  5
379
100
AcDbEntity
  8
02___PRT_ALL_AXES
100
AcDbLine
 62
7
  6
CONTINUOUS
 10
1078.8921298437
 20
557.3816004504
 11
1075.9157811459
 21
557.3803937269
  0
LINE
  5
37A
100
AcDbEntity
  8
02___PRT_ALL_AXES
100
AcDbLine
 62
7
  6
CONTINUOUS
 10
612.0435201264
 20
557.373828227
 11
609.067104385
 21
557.3725606673
  0
LINE
  5
37B
100
AcDbEntity
  8
02___PRT_ALL_AXES
100
AcDbLine
 62
7
  6
CONTINUOUS
 10
1383.1501644589
 20
569.8551052126
 11
1386.1557265367
 21
569.8560530193
  0
LINE
  5
37C
100
AcDbEntity
  8
02___PRT_ALL_AXES
100
AcDbLine
 62
7
  6
CONTINUOUS
 10
301.801547898
 20
569.8379149145
 11
304.80717753
 21
569.8392434004
  0
LINE
  5
37D
100
AcDbEntity
  8
02___PRT_ALL_AXES
100
AcDbLine
 62
7
  6
CONTINUOUS
 10
1078.8904589117
 20
579.1611230053
 11
1075.9140157196
 21
579.1610268495
  0
LINE
  5
37E
100
AcDbEntity
  8
02___PRT_ALL_AXES
100
AcDbLine
 62
7
  6
CONTINUOUS
 10
609.0670972172
 20
579.1549946584
 11
612.0435115477
 21
579.152817015
  0
LINE
  5
37F
100
AcDbEntity
  8
02___PRT_ALL_AXES
100
AcDbLine
 62
7
  6
CONTINUOUS
 10
313.5762990407
 20
610.4846898078
 11
604.7759550356
 21
572.7882981708
  0
LINE
  5
380
100
AcDbEntity
  8
02___PRT_ALL_AXES
100
AcDbLine
 62
7
  6
CONTINUOUS
 10
313.7210544923
 20
611.5371995431
 11
604.9261482389
 21
573.8401039784
  0
LINE
  5
381
100
AcDbEntity
  8
02___PRT_ALL_AXES
100
AcDbLine
 62
7
  6
CONTINUOUS
 10
313.7839966615
 20
611.9760708348
 11
604.9891148469
 21
574.2791465294
  0
LINE
  5
382
100
AcDbEntity
  8
02___PRT_ALL_AXES
100
AcDbLine
 62
7
  6
CONTINUOUS
 10
313.9876059218
 20
613.4494612802
 11
605.1891204452
 21
575.7532380779
  0
LINE
  5
383
100
AcDbEntity
  8
02___PRT_ALL_AXES
100
AcDbLine
 62
7
  6
CONTINUOUS
 10
606.2500624628
 20
593.0865565193
 11
340.9390503557
 21
641.1682551021
  0
LINE
  5
384
100
AcDbEntity
  8
02___PRT_ALL_AXES
100
AcDbLine
 62
7
  6
CONTINUOUS
 10
606.4965523879
 20
594.5475892338
 11
341.1951746378
 21
642.6278331102
  0
LINE
  5
385
100
AcDbEntity
  8
02___PRT_ALL_AXES
100
AcDbLine
 62
7
  6
CONTINUOUS
 10
606.5705390325
 20
594.990216319
 11
341.2691561427
 21
643.0704288474
  0
LINE
  5
386
100
AcDbEntity
  8
02___PRT_ALL_AXES
100
AcDbLine
 62
7
  6
CONTINUOUS
 10
606.7530919211
 20
596.0326351909
 11
341.4518102699
 21
644.1125533445
  0
LINE
  5
387
100
AcDbEntity
  8
02___PRT_ALL_AXES
100
AcDbLine
 62
7
  6
CONTINUOUS
 10
438.9823919653
 20
635.3376955593
 11
600.4055073222
 21
606.0830216743
  0
LINE
  5
388
100
AcDbEntity
  8
02___PRT_ALL_AXES
100
AcDbLine
 62
7
  6
CONTINUOUS
 10
439.175255481
 20
636.3831138821
 11
600.6080432432
 21
607.1266870695
  0
LINE
  5
389
100
AcDbEntity
  8
02___PRT_ALL_AXES
100
AcDbLine
 62
7
  6
CONTINUOUS
 10
439.2600719084
 20
636.817388472
 11
600.6928596268
 21
607.5609616617
  0
LINE
  5
38A
100
AcDbEntity
  8
02___PRT_ALL_AXES
100
AcDbLine
 62
7
  6
CONTINUOUS
 10
439.53302481
 20
638.2804405872
 11
600.9602291939
 21
609.0250256432
  0
LINE
  5
38B
100
AcDbEntity
  8
02___PRT_ALL_AXES
100
AcDbLine
 62
7
  6
CONTINUOUS
 10
955.9053135986
 20
330.3277896597
 11
957.7588273901
 21
318.9389976569
  0
LINE
  5
38C
100
AcDbEntity
  8
02___PRT_ALL_AXES
100
AcDbLine
 62
7
  6
CONTINUOUS
 10
1377.8608074506
 20
619.210729976
 11
1378.2400516293
 21
619.413272924
  0
LINE
  5
38D
100
AcDbEntity
  8
02___PRT_ALL_AXES
100
AcDbLine
 62
7
  6
CONTINUOUS
 10
1078.8910052456
 20
589.7199927983
 11
1075.9146480421
 21
589.7185359502
  0
LINE
  5
38E
100
AcDbEntity
  8
02___PRT_ALL_AXES
100
AcDbLine
 62
7
  6
CONTINUOUS
 10
612.0434802615
 20
589.712029413
 11
609.0670679917
 21
589.7108483872
  0
LINE
  5
38F
100
AcDbEntity
  8
02___PRT_ALL_AXES
100
AcDbLine
 62
7
  6
CONTINUOUS
 10
294.407863957
 20
592.4379654326
 11
295.9048150658
 21
592.4379652605
  0
LINE
  5
390
100
AcDbEntity
  8
02___PRT_ALL_AXES
100
AcDbLine
 62
7
  6
CONTINUOUS
 10
1070.8771137036
 20
592.4379652605
 11
1069.4078641081
 21
592.4379650775
  0
LINE
  5
391
100
AcDbEntity
  8
02___PRT_ALL_AXES
100
AcDbLine
 62
7
  6
CONTINUOUS
 10
619.4078669675
 20
592.4379654193
 11
617.9386202313
 21
592.4379652605
  0
LINE
  5
392
100
AcDbEntity
  8
02___PRT_ALL_AXES
100
AcDbLine
 62
7
  6
CONTINUOUS
 10
1392.9109188692
 20
592.4379652605
 11
1394.4078669675
 21
592.4379650703
  0
LINE
  5
393
100
AcDbEntity
  8
02___PRT_ALL_AXES
100
AcDbLine
 62
7
  6
CONTINUOUS
 10
1383.150368953
 20
595.8896507202
 11
1386.1560192035
 21
595.8897464928
  0
LINE
  5
394
100
AcDbEntity
  8
02___PRT_ALL_AXES
100
AcDbLine
 62
7
  6
CONTINUOUS
 10
304.8072253958
 20
595.8709852092
 11
301.8016005161
 21
595.8731842298
  0
LINE
  5
395
100
AcDbEntity
  8
02___PRT_ALL_AXES
100
AcDbLine
 62
7
  6
CONTINUOUS
 10
1377.8713744772
 20
355.698214759
 11
1378.2505760676
 21
355.495724577
  0
LINE
  5
396
100
AcDbEntity
  8
02___PRT_ALL_AXES
100
AcDbLine
 62
7
  6
CONTINUOUS
 10
554.429856331
 20
647.071566303
 11
440.3311582243
 21
647.0681169965
  0
LINE
  5
397
100
AcDbEntity
  8
02___PRT_ALL_AXES
100
AcDbLine
 62
7
  6
CONTINUOUS
 10
1247.621820585
 20
647.0810375339
 11
1133.5258259476
 21
647.0810534496
  0
LINE
  5
398
100
AcDbEntity
  8
02___PRT_ALL_AXES
100
AcDbLine
 62
7
  6
CONTINUOUS
 10
554.4200956676
 20
648.5547424395
 11
440.3149384389
 21
648.5530410042
  0
LINE
  5
399
100
AcDbEntity
  8
02___PRT_ALL_AXES
100
AcDbLine
 62
7
  6
CONTINUOUS
 10
1247.6406834407
 20
648.565961443
 11
1133.5355279664
 21
648.5641185322
  0
LINE
  5
39A
100
AcDbEntity
  8
02___PRT_ALL_AXES
100
AcDbLine
 62
7
  6
CONTINUOUS
 10
554.4139248263
 20
649.0003793748
 11
440.3087667891
 21
648.9986254153
  0
LINE
  5
39B
100
AcDbEntity
  8
02___PRT_ALL_AXES
100
AcDbLine
 62
7
  6
CONTINUOUS
 10
1247.6468407533
 20
649.0115466084
 11
1133.5416845213
 21
649.0097595845
  0
LINE
  5
39C
100
AcDbEntity
  8
02___PRT_ALL_AXES
100
AcDbLine
 62
7
  6
CONTINUOUS
 10
554.4069554601
 20
650.0627617861
 11
440.3005955263
 21
650.0592855235
  0
LINE
  5
39D
100
AcDbEntity
  8
02___PRT_ALL_AXES
100
AcDbLine
 62
7
  6
CONTINUOUS
 10
1247.6438126076
 20
650.0722065481
 11
1133.5486096276
 21
650.0722509477
  0
LINE
  5
39E
100
AcDbEntity
  8
02___PRT_ALL_AXES
100
AcDbLine
 62
7
  6
CONTINUOUS
 10
1329.3940162864
 20
655.9547255631
 11
1134.3940162864
 21
655.9547255631
  0
LINE
  5
39F
100
AcDbEntity
  8
02___PRT_ALL_AXES
100
AcDbLine
 62
7
  6
CONTINUOUS
 10
359.4217176486
 20
655.9547255631
 11
554.4217176486
 21
655.9547255631
  0
LINE
  5
3A0
100
AcDbEntity
  8
02___PRT_ALL_AXES
100
AcDbLine
 62
7
  6
CONTINUOUS
 10
1329.4078630645
 20
657.4379861127
 11
1134.4078708335
 21
657.4379652605
  0
LINE
  5
3A1
100
AcDbEntity
  8
02___PRT_ALL_AXES
100
AcDbLine
 62
7
  6
CONTINUOUS
 10
359.4078631188
 20
657.4379652605
 11
554.4078708454
 21
657.4379861224
  0
LINE
  5
3A2
100
AcDbEntity
  8
02___PRT_ALL_AXES
100
AcDbLine
 62
7
  6
CONTINUOUS
 10
267.0407308638
 20
672.4379652605
 11
277.9941045811
 21
672.4379652605
  0
LINE
  5
3A3
100
AcDbEntity
  8
02___PRT_ALL_AXES
100
AcDbLine
 62
7
  6
CONTINUOUS
 10
1410.8216293538
 20
672.4379652605
 11
1421.7750030712
 21
672.4379652605
  0
LINE
  5
3A4
100
AcDbEntity
  8
02___PRT_ALL_AXES
100
AcDbLine
 62
7
  6
CONTINUOUS
 10
1050.9450306108
 20
277.0567674141
 11
1050.9450306109
 21
450.9052284997
  0
LINE
  5
3A5
100
AcDbEntity
  8
02___PRT_ALL_AXES
100
AcDbLine
 62
7
  6
CONTINUOUS
 10
1050.9450306109
 20
523.9707020214
 11
1050.9450306108
 21
697.819163107
  0
LINE
  5
3A6
100
AcDbEntity
  8
02___PRT_ALL_AXES
100
AcDbLine
 62
7
  6
CONTINUOUS
 10
1057.8703711506
 20
283.95772246
 11
1057.8703711506
 21
690.9182080611
  0
LINE
  5
3A7
100
AcDbEntity
  8
02___PRT_ALL_AXES
100
AcDbLine
 62
7
  6
CONTINUOUS
 10
1069.4078459125
 20
592.4379650775
 11
1069.4078669675
 21
382.4379650988
  0
LINE
  5
3A8
100
AcDbEntity
  8
02___PRT_ALL_AXES
100
AcDbLine
 62
7
  6
CONTINUOUS
 10
1070.8771137036
 20
592.4379652605
 11
1070.8771137036
 21
382.4379652605
  0
LINE
  5
3A9
100
AcDbEntity
  8
02___PRT_ALL_AXES
100
AcDbLine
 62
7
  6
CONTINUOUS
 10
1081.864015543
 20
360.5677253947
 11
1081.4395632871
 21
360.3852799768
  0
LINE
  5
3AA
100
AcDbEntity
  8
02___PRT_ALL_AXES
100
AcDbLine
 62
7
  6
CONTINUOUS
 10
1389.4078669675
 20
700.4987558483
 11
1057.7595657019
 21
697.8464112914
  0
LINE
  5
3AB
100
AcDbEntity
  8
02___PRT_ALL_AXES
100
AcDbLine
 62
7
  6
CONTINUOUS
 10
1389.5186724161
 20
693.570552618
 11
1050.9450355832
 21
690.8909598865
  0
LINE
  5
3AC
100
AcDbEntity
  8
02___PRT_ALL_AXES
100
AcDbLine
 62
7
  6
CONTINUOUS
 10
1050.9450306108
 20
697.819163107
 11
637.8707033241
 21
697.819163107
  0
LINE
  5
3AD
100
AcDbEntity
  8
02___PRT_ALL_AXES
100
AcDbLine
 62
7
  6
CONTINUOUS
 10
1389.4078669675
 20
701.2543972087
 11
299.4078669675
 21
701.2543972087
  0
LINE
  5
3AE
100
AcDbEntity
  8
02___PRT_ALL_AXES
100
AcDbLine
 62
7
  6
CONTINUOUS
 10
1389.4078669675
 20
704.8051013642
 11
299.4078669675
 21
704.8051013642
  0
LINE
  5
3AF
100
AcDbEntity
  8
02___PRT_ALL_AXES
100
AcDbLine
 62
7
  6
CONTINUOUS
 10
1050.9450355832
 20
690.8909598768
 11
630.9453677536
 21
690.9182080318
  0
LINE
  5
3B0
100
AcDbEntity
  8
02___PRT_ALL_AXES
100
AcDbLine
 62
7
  6
CONTINUOUS
 10
630.9453677536
 20
690.9182080214
 11
299.2970615189
 21
693.570552618
  0
LINE
  5
3B1
100
AcDbEntity
  8
02___PRT_ALL_AXES
100
AcDbLine
 62
7
  6
CONTINUOUS
 10
631.056168233
 20
697.8464112914
 11
299.4078669675
 21
700.4987558483
  0
LINE
  5
3B2
100
AcDbEntity
  8
02___PRT_ALL_AXES
100
AcDbLine
 62
7
  6
CONTINUOUS
 10
1081.8609137025
 20
614.3213379472
 11
1081.4366935619
 21
614.5036475644
  0
LINE
  5
3B3
100
AcDbEntity
  8
02___PRT_ALL_AXES
100
AcDbLine
 62
7
  6
CONTINUOUS
 10
1082.7195326178
 20
541.8465592412
 11
1082.7600547955
 21
541.4041505688
  0
LINE
  5
3B4
100
AcDbEntity
  8
02___PRT_ALL_AXES
100
AcDbLine
 62
7
  6
CONTINUOUS
 10
1081.9586955869
 20
529.9821149974
 11
1081.930230915
 21
530.4282001976
  0
LINE
  5
3B5
100
AcDbEntity
  8
02___PRT_ALL_AXES
100
AcDbLine
 62
7
  6
CONTINUOUS
 10
1082.4671649816
 20
509.4874755174
 11
1082.4848591611
 21
509.04265715
  0
LINE
  5
3B6
100
AcDbEntity
  8
02___PRT_ALL_AXES
100
AcDbLine
 62
7
  6
CONTINUOUS
 10
1082.2131146669
 20
497.7069393129
 11
1082.207729883
 21
498.1531385129
  0
LINE
  5
3B7
100
AcDbEntity
  8
02___PRT_ALL_AXES
100
AcDbLine
 62
7
  6
CONTINUOUS
 10
1075.9157811515
 20
557.3803937269
 11
1075.9154153841
 21
546.7458972594
  0
LINE
  5
3B8
100
AcDbEntity
  8
02___PRT_ALL_AXES
100
AcDbLine
 62
7
  6
CONTINUOUS
 10
1075.9168881935
 20
525.0814356742
 11
1075.9164627638
 21
514.3999566116
  0
LINE
  5
3B9
100
AcDbEntity
  8
02___PRT_ALL_AXES
100
AcDbLine
 62
7
  6
CONTINUOUS
 10
1075.9178139084
 20
460.4914750638
 11
1075.9184186183
 21
449.8085628881
  0
LINE
  5
3BA
100
AcDbEntity
  8
02___PRT_ALL_AXES
100
AcDbLine
 62
7
  6
CONTINUOUS
 10
1075.9170844762
 20
492.7929150582
 11
1075.9175030531
 21
482.0965258396
  0
LINE
  5
3BB
100
AcDbEntity
  8
02___PRT_ALL_AXES
100
AcDbLine
 62
7
  6
CONTINUOUS
 10
1075.9192674591
 20
428.1433950585
 11
1075.9191897135
 21
417.5096815184
  0
LINE
  5
3BC
100
AcDbEntity
  8
02___PRT_ALL_AXES
100
AcDbLine
 62
7
  6
CONTINUOUS
 10
1075.9203631307
 20
395.7291765101
 11
1075.9202248128
 21
385.1723346645
  0
LINE
  5
3BD
100
AcDbEntity
  8
02___PRT_ALL_AXES
100
AcDbLine
 62
7
  6
CONTINUOUS
 10
1076.9614154802
 20
589.7190610707
 11
1076.9612200407
 21
579.1610609264
  0
LINE
  5
3BE
100
AcDbEntity
  8
02___PRT_ALL_AXES
100
AcDbLine
 62
7
  6
CONTINUOUS
 10
1076.9625044729
 20
557.3808286326
 11
1076.9624565235
 21
546.7468285181
  0
LINE
  5
3BF
100
AcDbEntity
  8
02___PRT_ALL_AXES
100
AcDbLine
 62
7
  6
CONTINUOUS
 10
1076.963578572
 20
525.0817743424
 11
1076.9634984736
 21
514.4007742775
  0
LINE
  5
3C0
100
AcDbEntity
  8
02___PRT_ALL_AXES
100
AcDbLine
 62
7
  6
CONTINUOUS
 10
1076.965018312
 20
460.4900710833
 11
1076.9655045599
 21
449.8090714711
  0
LINE
  5
3C1
100
AcDbEntity
  8
02___PRT_ALL_AXES
100
AcDbLine
 62
7
  6
CONTINUOUS
 10
1076.9641516453
 20
492.7935355952
 11
1076.9645358969
 21
482.097234033
  0
LINE
  5
3C2
100
AcDbEntity
  8
02___PRT_ALL_AXES
100
AcDbLine
 62
7
  6
CONTINUOUS
 10
1076.9662834262
 20
428.1440173858
 11
1076.9663940373
 21
417.5100176768
  0
LINE
  5
3C3
100
AcDbEntity
  8
02___PRT_ALL_AXES
100
AcDbLine
 62
7
  6
CONTINUOUS
 10
1076.9673529045
 20
395.7297850254
 11
1076.9674291264
 21
385.1717853292
  0
LINE
  5
3C4
100
AcDbEntity
  8
02___PRT_ALL_AXES
100
AcDbLine
 62
7
  6
CONTINUOUS
 10
1077.4244101746
 20
589.7190761938
 11
1077.4243728593
 21
579.1610760289
  0
LINE
  5
3C5
100
AcDbEntity
  8
02___PRT_ALL_AXES
100
AcDbLine
 62
7
  6
CONTINUOUS
 10
1077.4254832915
 20
557.3808437455
 11
1077.4255497274
 21
546.7468436139
  0
LINE
  5
3C6
100
AcDbEntity
  8
02___PRT_ALL_AXES
100
AcDbLine
 62
7
  6
CONTINUOUS
 10
1077.4265455332
 20
525.0817895407
 11
1077.4265898615
 21
514.4007893669
  0
LINE
  5
3C7
100
AcDbEntity
  8
02___PRT_ALL_AXES
100
AcDbLine
 62
7
  6
CONTINUOUS
 10
1077.4281711376
 20
460.4900860676
 11
1077.428614445
 21
449.8090865272
  0
LINE
  5
3C8
100
AcDbEntity
  8
02___PRT_ALL_AXES
100
AcDbLine
 62
7
  6
CONTINUOUS
 10
1077.4272546492
 20
492.793550662
 11
1077.4276264131
 21
482.097249115
  0
LINE
  5
3C9
100
AcDbEntity
  8
02___PRT_ALL_AXES
100
AcDbLine
 62
7
  6
CONTINUOUS
 10
1077.4293679025
 20
428.1440324657
 11
1077.4295468588
 21
417.5100328155
  0
LINE
  5
3CA
100
AcDbEntity
  8
02___PRT_ALL_AXES
100
AcDbLine
 62
7
  6
CONTINUOUS
 10
1077.4304279233
 20
395.7298001105
 11
1077.4305819456
 21
385.1718004761
  0
LINE
  5
3CB
100
AcDbEntity
  8
02___PRT_ALL_AXES
100
AcDbLine
 62
7
  6
CONTINUOUS
 10
1078.8921298407
 20
557.3816004505
 11
1078.8918252667
 21
546.7484778479
  0
LINE
  5
3CC
100
AcDbEntity
  8
02___PRT_ALL_AXES
100
AcDbLine
 62
7
  6
CONTINUOUS
 10
1078.8932305434
 20
525.0823757692
 11
1078.8928718971
 21
514.4022229222
  0
LINE
  5
3CD
100
AcDbEntity
  8
02___PRT_ALL_AXES
100
AcDbLine
 62
7
  6
CONTINUOUS
 10
1078.8942576451
 20
460.481749036
 11
1078.8948382387
 21
449.8099744271
  0
LINE
  5
3CE
100
AcDbEntity
  8
02___PRT_ALL_AXES
100
AcDbLine
 62
7
  6
CONTINUOUS
 10
1078.893500218
 20
492.7946395522
 11
1078.8939118921
 21
482.0984892421
  0
LINE
  5
3CF
100
AcDbEntity
  8
02___PRT_ALL_AXES
100
AcDbLine
 62
7
  6
CONTINUOUS
 10
1078.8956731686
 20
428.1451237135
 11
1078.8956329507
 21
417.5206186103
  0
LINE
  5
3D0
100
AcDbEntity
  8
02___PRT_ALL_AXES
100
AcDbLine
 62
7
  6
CONTINUOUS
 10
1078.8967637369
 20
395.7308664836
 11
1078.8966680931
 21
385.1823412733
  0
LINE
  5
3D1
100
AcDbEntity
  8
02___PRT_ALL_AXES
100
AcDbLine
 62
7
  6
CONTINUOUS
 10
1075.9146480466
 20
589.7185359502
 11
1075.9140158458
 21
579.1631342598
  0
LINE
  5
3D2
100
AcDbEntity
  8
02___PRT_ALL_AXES
100
AcDbLine
 62
7
  6
CONTINUOUS
 10
1078.8910052431
 20
589.7199927983
 11
1078.8904593998
 21
579.1705550855
  0
LINE
  5
3D3
100
AcDbEntity
  8
02___PRT_ALL_AXES
100
AcDbLine
 62
7
  6
CONTINUOUS
 10
1082.2137750126
 20
477.1840183265
 11
1082.2084212099
 21
476.7379676071
  0
LINE
  5
3D4
100
AcDbEntity
  8
02___PRT_ALL_AXES
100
AcDbLine
 62
7
  6
CONTINUOUS
 10
1082.4862426247
 20
465.8485429207
 11
1082.4685771039
 21
465.4037222952
  0
LINE
  5
3D5
100
AcDbEntity
  8
02___PRT_ALL_AXES
100
AcDbLine
 62
7
  6
CONTINUOUS
 10
1081.9329822987
 20
444.4629645044
 11
1081.9614181925
 21
444.9090504176
  0
LINE
  5
3D6
100
AcDbEntity
  8
02___PRT_ALL_AXES
100
AcDbLine
 62
7
  6
CONTINUOUS
 10
1082.7230031302
 20
433.0445158764
 11
1082.7634916907
 21
433.4868701172
  0
LINE
  5
3D7
100
AcDbEntity
  8
02___PRT_ALL_AXES
100
AcDbLine
 62
7
  6
CONTINUOUS
 10
1081.7120721587
 20
412.6359913582
 11
1081.6607036856
 21
412.1910584256
  0
LINE
  5
3D8
100
AcDbEntity
  8
02___PRT_ALL_AXES
100
AcDbLine
 62
7
  6
CONTINUOUS
 10
1082.9744684253
 20
400.6046051322
 11
1083.0373965188
 21
401.0434789996
  0
LINE
  5
3D9
100
AcDbEntity
  8
02___PRT_ALL_AXES
100
AcDbLine
 62
7
  6
CONTINUOUS
 10
1081.4676524592
 20
380.3359438908
 11
1081.3936805622
 21
379.8933149468
  0
LINE
  5
3DA
100
AcDbEntity
  8
02___PRT_ALL_AXES
100
AcDbLine
 62
7
  6
CONTINUOUS
 10
1087.2717483523
 20
367.3226750971
 11
1087.3565668389
 21
367.7570341122
  0
LINE
  5
3DB
100
AcDbEntity
  8
0
100
AcDbLine
 62
7
  6
CONTINUOUS
 10
244.6551011175
 20
749.001626228
 11
244.3023352674
 21
749.001626228
  0
LINE
  5
3DC
100
AcDbEntity
  8
0
100
AcDbLine
 62
7
  6
CONTINUOUS
 10
1444.1606328175
 20
749.001626228
 11
1444.5133986675
 21
749.001626228
  0
LINE
  5
3DD
100
AcDbEntity
  8
0
100
AcDbLine
 62
7
  6
CONTINUOUS
 10
1443.5336028988
 20
749.1379652605
 11
245.2821310362
 21
749.1379652605
  0
LINE
  5
3DE
100
AcDbEntity
  8
0
100
AcDbLine
 62
7
  6
CONTINUOUS
 10
1445.0078669675
 20
749.4244196138
 11
1444.4078669675
 21
749.4244196138
  0
LINE
  5
3DF
100
AcDbEntity
  8
0
100
AcDbLine
 62
7
  6
CONTINUOUS
 10
243.8078669675
 20
749.4244196138
 11
244.4078669675
 21
749.4244196138
  0
LINE
  5
3E0
100
AcDbEntity
  8
0
100
AcDbLine
 62
7
  6
CONTINUOUS
 10
1444.1078669675
 20
749.7379652605
 11
244.7078669675
 21
749.7379652605
  0
LINE
  5
3E1
100
AcDbEntity
  8
0
100
AcDbLine
 62
7
  6
CONTINUOUS
 10
1443.2900965662
 20
751.5379652605
 11
245.5256373688
 21
751.5379652605
  0
LINE
  5
3E2
100
AcDbEntity
  8
02___PRT_ALL_AXES
100
AcDbLine
 62
7
  6
CONTINUOUS
 10
1087.2640742636
 20
607.5687488813
 11
1087.3489044607
 21
607.1344775507
  0
LINE
  5
3E3
100
AcDbEntity
  8
02___PRT_ALL_AXES
100
AcDbLine
 62
7
  6
CONTINUOUS
 10
1081.4608069499
 20
594.5551360929
 11
1081.3868098253
 21
594.9977381898
  0
LINE
  5
3E4
100
AcDbEntity
  8
02___PRT_ALL_AXES
100
AcDbLine
 62
7
  6
CONTINUOUS
 10
1082.9689084049
 20
574.2866249958
 11
1083.0318644863
 21
573.84775628
  0
LINE
  5
3E5
100
AcDbEntity
  8
02___PRT_ALL_AXES
100
AcDbLine
 62
7
  6
CONTINUOUS
 10
1081.7072854303
 20
562.2551590138
 11
1081.6558877478
 21
562.7000897547
  0
LINE
  5
3E6
100
AcDbEntity
  8
02___PRT_ALL_AXES
100
AcDbLine
 62
7
  6
CONTINUOUS
 10
1133.5458425356
 20
326.3301119446
 11
1133.5520286607
 21
325.884464788
  0
LINE
  5
3E7
100
AcDbEntity
  8
02___PRT_ALL_AXES
100
AcDbLine
 62
7
  6
CONTINUOUS
 10
1133.5355279664
 20
648.5641185322
 11
1133.5416845213
 21
649.0097595845
  0
LINE
  5
3E8
100
AcDbEntity
  8
02___PRT_ALL_AXES
100
AcDbLine
 62
7
  6
CONTINUOUS
 10
1356.9802055862
 20
640.8244340872
 11
1357.2058979997
 21
641.1980450113
  0
LINE
  5
3E9
100
AcDbEntity
  8
02___PRT_ALL_AXES
100
AcDbLine
 62
7
  6
CONTINUOUS
 10
1356.9896866555
 20
334.084941454
 11
1357.2154375111
 21
333.711287433
  0
LINE
  5
3EA
100
AcDbEntity
  8
02___PRT_ALL_AXES
100
AcDbLine
 62
7
  6
CONTINUOUS
 10
1247.6509975658
 20
326.3358102005
 11
1247.6571834636
 21
325.8902265503
  0
LINE
  5
3EB
100
AcDbEntity
  8
02___PRT_ALL_AXES
100
AcDbLine
 62
7
  6
CONTINUOUS
 10
1247.6406834407
 20
648.565961443
 11
1247.6468407533
 21
649.0115466084
  0
LINE
  5
3EC
100
AcDbEntity
  8
02___PRT_ALL_AXES
100
AcDbLine
 62
7
  6
CONTINUOUS
 10
1248.7054727447
 20
338.0714188657
 11
1248.7902905777
 21
338.5057743668
  0
LINE
  5
3ED
100
AcDbEntity
  8
02___PRT_ALL_AXES
100
AcDbLine
 62
7
  6
CONTINUOUS
 10
1248.6959256547
 20
636.8303427821
 11
1248.7807558319
 21
636.396071445
  0
LINE
  5
3EE
100
AcDbEntity
  8
02___PRT_ALL_AXES
100
AcDbLine
 62
7
  6
CONTINUOUS
 10
1380.1187931352
 20
564.9551001146
 11
1380.1593153959
 21
564.5126914403
  0
LINE
  5
3EF
100
AcDbEntity
  8
02___PRT_ALL_AXES
100
AcDbLine
 62
7
  6
CONTINUOUS
 10
1379.3579660068
 20
553.0904933529
 11
1379.3294909633
 21
553.5367410259
  0
LINE
  5
3F0
100
AcDbEntity
  8
02___PRT_ALL_AXES
100
AcDbLine
 62
7
  6
CONTINUOUS
 10
1379.866918297
 20
517.1970164974
 11
1379.884612482
 21
516.7521981311
  0
LINE
  5
3F1
100
AcDbEntity
  8
02___PRT_ALL_AXES
100
AcDbLine
 62
7
  6
CONTINUOUS
 10
1379.6128679377
 20
505.4164874932
 11
1379.6074832536
 21
505.8626794953
  0
LINE
  5
3F2
100
AcDbEntity
  8
02___PRT_ALL_AXES
100
AcDbLine
 62
7
  6
CONTINUOUS
 10
1383.1501644552
 20
569.8551052125
 11
1383.1503688786
 21
595.8801827103
  0
LINE
  5
3F3
100
AcDbEntity
  8
02___PRT_ALL_AXES
100
AcDbLine
 62
7
  6
CONTINUOUS
 10
1383.1539301724
 20
474.406293969
 11
1383.1530828009
 21
500.5019554696
  0
LINE
  5
3F4
100
AcDbEntity
  8
02___PRT_ALL_AXES
100
AcDbLine
 62
7
  6
CONTINUOUS
 10
1383.1524542942
 20
522.1095428267
 11
1383.1515677491
 21
548.1889909726
  0
LINE
  5
3F5
100
AcDbEntity
  8
02___PRT_ALL_AXES
100
AcDbLine
 62
7
  6
CONTINUOUS
 10
1383.1557834773
 20
426.7272772555
 11
1383.1549492216
 21
452.7860903273
  0
LINE
  5
3F6
100
AcDbEntity
  8
02___PRT_ALL_AXES
100
AcDbLine
 62
7
  6
CONTINUOUS
 10
1383.1568779022
 20
379.0197647221
 11
1383.1564772899
 21
405.0445139997
  0
LINE
  5
3F7
100
AcDbEntity
  8
02___PRT_ALL_AXES
100
AcDbLine
 62
7
  6
CONTINUOUS
 10
1384.6544520727
 20
569.8556982464
 11
1384.6540601583
 21
595.8896983536
  0
LINE
  5
3F8
100
AcDbEntity
  8
02___PRT_ALL_AXES
100
AcDbLine
 62
7
  6
CONTINUOUS
 10
1384.6578095273
 20
474.4074057847
 11
1384.6569691399
 21
500.5034056702
  0
LINE
  5
3F9
100
AcDbEntity
  8
02___PRT_ALL_AXES
100
AcDbLine
 62
7
  6
CONTINUOUS
 10
1384.6563043436
 20
522.1106443791
 11
1384.6554476156
 21
548.1906441793
  0
LINE
  5
3FA
100
AcDbEntity
  8
02___PRT_ALL_AXES
100
AcDbLine
 62
7
  6
CONTINUOUS
 10
1384.6594749215
 20
426.7198981266
 11
1384.658639985
 21
452.7998971001
  0
LINE
  5
3FB
100
AcDbEntity
  8
02___PRT_ALL_AXES
100
AcDbLine
 62
7
  6
CONTINUOUS
 10
1384.6608178086
 20
379.0208434893
 11
1384.6601683377
 21
405.0548432803
  0
LINE
  5
3FC
100
AcDbEntity
  8
02___PRT_ALL_AXES
100
AcDbLine
 62
7
  6
CONTINUOUS
 10
1385.082168323
 20
569.855711937
 11
1385.0819540548
 21
595.8897119422
  0
LINE
  5
3FD
100
AcDbEntity
  8
02___PRT_ALL_AXES
100
AcDbLine
 62
7
  6
CONTINUOUS
 10
1385.0856470561
 20
474.4074193406
 11
1385.0848043167
 21
500.5034192443
  0
LINE
  5
3FE
100
AcDbEntity
  8
02___PRT_ALL_AXES
100
AcDbLine
 62
7
  6
CONTINUOUS
 10
1385.084150603
 20
522.1106579273
 11
1385.0832845205
 21
548.1906577606
  0
LINE
  5
3FF
100
AcDbEntity
  8
02___PRT_ALL_AXES
100
AcDbLine
 62
7
  6
CONTINUOUS
 10
1385.0873688246
 20
426.7199116204
 11
1385.0865338725
 21
452.7999107763
  0
LINE
  5
400
100
AcDbEntity
  8
02___PRT_ALL_AXES
100
AcDbLine
 62
7
  6
CONTINUOUS
 10
1385.0886373304
 20
379.0208570585
 11
1385.0880622386
 21
405.054856888
  0
LINE
  5
401
100
AcDbEntity
  8
02___PRT_ALL_AXES
100
AcDbLine
 62
7
  6
CONTINUOUS
 10
1386.1557265423
 20
569.8560530193
 11
1386.1560191801
 21
595.8876674621
  0
LINE
  5
402
100
AcDbEntity
  8
02___PRT_ALL_AXES
100
AcDbLine
 62
7
  6
CONTINUOUS
 10
1386.1595520079
 20
474.4080501443
 11
1386.1587031308
 21
500.5042425114
  0
LINE
  5
403
100
AcDbEntity
  8
02___PRT_ALL_AXES
100
AcDbLine
 62
7
  6
CONTINUOUS
 10
1386.1580804642
 20
522.1112827358
 11
1386.1571886886
 21
548.1915953772
  0
LINE
  5
404
100
AcDbEntity
  8
02___PRT_ALL_AXES
100
AcDbLine
 62
7
  6
CONTINUOUS
 10
1386.1614341042
 20
426.7158179132
 11
1386.160599228
 21
452.7935347098
  0
LINE
  5
405
100
AcDbEntity
  8
02___PRT_ALL_AXES
100
AcDbLine
 62
7
  6
CONTINUOUS
 10
1386.1624908467
 20
379.021469771
 11
1386.1621273575
 21
405.0569642021
  0
LINE
  5
406
100
AcDbEntity
  8
02___PRT_ALL_AXES
100
AcDbLine
 62
7
  6
CONTINUOUS
 10
1389.4078669675
 20
270.0708291569
 11
1389.4078669675
 21
274.3771746728
  0
LINE
  5
407
100
AcDbEntity
  8
02___PRT_ALL_AXES
100
AcDbLine
 62
7
  6
CONTINUOUS
 10
1389.4078669675
 20
700.4987558483
 11
1389.4078669675
 21
704.8051013642
  0
LINE
  5
408
100
AcDbEntity
  8
02___PRT_ALL_AXES
100
AcDbLine
 62
7
  6
CONTINUOUS
 10
1392.9109188692
 20
382.4379652605
 11
1392.9109188692
 21
592.4379652605
  0
LINE
  5
409
100
AcDbEntity
  8
02___PRT_ALL_AXES
100
AcDbLine
 62
7
  6
CONTINUOUS
 10
1394.407888035
 20
382.4379650886
 11
1394.4078669675
 21
592.4379650703
  0
LINE
  5
40A
100
AcDbEntity
  8
02___PRT_ALL_AXES
100
AcDbLine
 62
7
  6
CONTINUOUS
 10
1379.6140210905
 20
469.4938609934
 11
1379.6086672987
 21
469.0478102766
  0
LINE
  5
40B
100
AcDbEntity
  8
02___PRT_ALL_AXES
100
AcDbLine
 62
7
  6
CONTINUOUS
 10
1379.8864881302
 20
458.1580401246
 11
1379.8688223028
 21
457.7132194942
  0
LINE
  5
40C
100
AcDbEntity
  8
02___PRT_ALL_AXES
100
AcDbLine
 62
7
  6
CONTINUOUS
 10
1379.3337200958
 20
421.3734618009
 11
1379.362155896
 21
421.8195477087
  0
LINE
  5
40D
100
AcDbEntity
  8
02___PRT_ALL_AXES
100
AcDbLine
 62
7
  6
CONTINUOUS
 10
1380.1237536876
 20
409.9551512198
 11
1380.1642477757
 21
410.3975635278
  0
LINE
  5
40E
100
AcDbEntity
  8
02___PRT_ALL_AXES
100
AcDbLine
 62
7
  6
CONTINUOUS
 10
1379.1133055799
 20
374.1464875921
 11
1379.061936632
 21
373.7015546625
  0
LINE
  5
40F
100
AcDbEntity
  8
02___PRT_ALL_AXES
100
AcDbLine
 62
7
  6
CONTINUOUS
 10
1374.180759616
 20
362.9167706334
 11
1374.2436963603
 21
363.355704142
  0
LINE
  5
410
100
AcDbEntity
  8
02___PRT_ALL_AXES
100
AcDbLine
 62
7
  6
CONTINUOUS
 10
1346.7705930496
 20
332.2643205041
 11
1346.6966284277
 21
331.8217387688
  0
LINE
  5
411
100
AcDbEntity
  8
02___PRT_ALL_AXES
100
AcDbLine
 62
7
  6
CONTINUOUS
 10
1346.7606225552
 20
642.6440121024
 11
1346.6866250511
 21
643.0866163509
  0
LINE
  5
412
100
AcDbEntity
  8
02___PRT_ALL_AXES
100
AcDbLine
 62
7
  6
CONTINUOUS
 10
1374.1727959555
 20
611.9930413188
 11
1374.2357520647
 21
611.5541725928
  0
LINE
  5
413
100
AcDbEntity
  8
02___PRT_ALL_AXES
100
AcDbLine
 62
7
  6
CONTINUOUS
 10
1379.10607408
 20
600.7635156711
 11
1379.0546550484
 21
601.2086305228
  0
LINE
  5
414
100
AcDbEntity
  8
02___PRT_ALL_AXES
100
AcDbLine
 62
7
  6
CONTINUOUS
 10
1410.8216293538
 20
302.4379652605
 11
1410.8216293538
 21
672.4379652605
  0
LINE
  5
415
100
AcDbEntity
  8
02___PRT_ALL_AXES
100
AcDbLine
 62
7
  6
CONTINUOUS
 10
1417.6390271355
 20
302.4379652605
 11
1417.6390271355
 21
672.4379652606
  0
LINE
  5
416
100
AcDbEntity
  8
02___PRT_ALL_AXES
100
AcDbLine
 62
7
  6
CONTINUOUS
 10
1418.2242989156
 20
302.4379652605
 11
1418.2242989156
 21
672.4379652605
  0
LINE
  5
417
100
AcDbEntity
  8
02___PRT_ALL_AXES
100
AcDbLine
 62
7
  6
CONTINUOUS
 10
1421.7750030712
 20
302.4379652605
 11
1421.7750030712
 21
672.4379652605
  0
LINE
  5
418
100
AcDbEntity
  8
0
100
AcDbLine
 62
7
  6
CONTINUOUS
 10
1443.6715033311
 20
225.3852118639
 11
1443.6715033311
 21
225.0324584672
  0
LINE
  5
419
100
AcDbEntity
  8
0
100
AcDbLine
 62
7
  6
CONTINUOUS
 10
1443.8078669675
 20
748.8637011918
 11
1443.8078669675
 21
226.0122293293
  0
LINE
  5
41A
100
AcDbEntity
  8
0
100
AcDbLine
 62
7
  6
CONTINUOUS
 10
1444.0942424197
 20
224.5379652605
 11
1444.0942424197
 21
225.1379652605
  0
LINE
  5
41B
100
AcDbEntity
  8
02___PRT_ALL_AXES
100
AcDbLine
 62
7
  6
CONTINUOUS
 10
1444.1078669675
 20
225.1379652605
 11
1444.1078669675
 21
224.5379652605
  0
LINE
  5
41C
100
AcDbEntity
  8
0
100
AcDbLine
 62
7
  6
CONTINUOUS
 10
1444.1078669675
 20
749.7379652605
 11
1444.1078669675
 21
750.6536724263
  0
LINE
  5
41D
100
AcDbEntity
  8
0
100
AcDbLine
 62
3
  6
CONTINUOUS
 10
1444.4078669675
 20
749.4244196138
 11
1444.4078669675
 21
749.2458296654
  0
LINE
  5
41E
100
AcDbEntity
  8
0
100
AcDbLine
 62
3
  6
CONTINUOUS
 10
1444.4078669675
 20
225.6300992442
 11
1444.4078669675
 21
225.4515898084
  0
LINE
  5
41F
100
AcDbEntity
  8
0
100
AcDbLine
 62
7
  6
CONTINUOUS
 10
1445.0078669675
 20
749.4244196138
 11
1445.0078669675
 21
225.4515898084
  0
LINE
  5
420
100
AcDbEntity
  8
0
100
AcDbLine
 62
7
  6
CONTINUOUS
 10
1744.7565862662
 20
224.5379652605
 11
1771.8141084701
 21
224.5379652605
  0
LINE
  5
421
100
AcDbEntity
  8
0
100
AcDbLine
 62
3
  6
CONTINUOUS
 10
1744.7565862662
 20
225.1379652605
 11
1771.8141084701
 21
225.1379652605
  0
LINE
  5
422
100
AcDbEntity
  8
0
100
AcDbLine
 62
7
  6
CONTINUOUS
 10
1744.7565862662
 20
225.4379652605
 11
1771.6337940601
 21
225.4379652605
  0
LINE
  5
423
100
AcDbEntity
  8
0
100
AcDbLine
 62
7
  6
CONTINUOUS
 10
1773.0141084701
 20
225.7379652605
 11
1772.7848093327
 21
225.7379652605
  0
LINE
  5
424
100
AcDbEntity
  8
0
100
AcDbLine
 62
7
  6
CONTINUOUS
 10
1743.5565862662
 20
225.7379652605
 11
1744.1565862662
 21
225.7379652605
  0
LINE
  5
425
100
AcDbEntity
  8
0
100
AcDbLine
 62
7
  6
CONTINUOUS
 10
1772.2994589014
 20
225.3852118638
 11
1772.7848093327
 21
225.0324584672
  0
LINE
  5
426
100
AcDbEntity
  8
02___PRT_ALL_AXES
100
AcDbLine
 62
3
  6
CONTINUOUS
 10
1638.1288372668
 20
580.3697639436
 11
1635.4676198303
 21
570.4379652605
  0
LINE
  5
427
100
AcDbEntity
  8
02___PRT_ALL_AXES
100
AcDbLine
 62
3
  6
CONTINUOUS
 10
1635.4676198303
 20
500.4379652605
 11
1635.4676198303
 21
570.4379652605
  0
LINE
  5
428
100
AcDbEntity
  8
02___PRT_ALL_AXES
100
AcDbLine
 62
3
  6
CONTINUOUS
 10
1638.1288372668
 20
580.3697639436
 11
1638.1288372668
 21
490.5061665775
  0
LINE
  5
429
100
AcDbEntity
  8
02___PRT_ALL_AXES
100
AcDbLine
 62
3
  6
CONTINUOUS
 10
1640.1887591533
 20
582.2573345841
 11
1640.1887591533
 21
488.618595937
  0
LINE
  5
42A
100
AcDbEntity
  8
02___PRT_ALL_AXES
100
AcDbLine
 62
3
  6
CONTINUOUS
 10
1641.5834045722
 20
599.910976992
 11
1641.4141084701
 21
593.4458196908
  0
LINE
  5
42B
100
AcDbEntity
  8
02___PRT_ALL_AXES
100
AcDbLine
 62
3
  6
CONTINUOUS
 10
1641.4141084701
 20
477.4301108303
 11
1644.1026872542
 21
374.7574293693
  0
LINE
  5
42C
100
AcDbEntity
  8
02___PRT_ALL_AXES
100
AcDbLine
 62
3
  6
CONTINUOUS
 10
1641.000932559
 20
488.4753878525
 11
1641.000932559
 21
582.4005426686
  0
LINE
  5
42D
100
AcDbEntity
  8
02___PRT_ALL_AXES
100
AcDbLine
 62
3
  6
CONTINUOUS
 10
1641.4141084701
 20
593.4458196908
 11
1641.4141084701
 21
477.4301108303
  0
LINE
  5
42E
100
AcDbEntity
  8
02___PRT_ALL_AXES
100
AcDbLine
 62
3
  6
CONTINUOUS
 10
1638.1288372668
 20
490.5061665775
 11
1635.4676198303
 21
500.4379652605
  0
LINE
  5
42F
100
AcDbEntity
  8
02___PRT_ALL_AXES
100
AcDbLine
 62
3
  6
CONTINUOUS
 10
1641.000932559
 20
488.4753878525
 11
1640.1887591533
 21
488.618595937
  0
LINE
  5
430
100
AcDbEntity
  8
0
100
AcDbLine
 62
7
  6
CONTINUOUS
 10
1743.5565862662
 20
225.7379652605
 11
1743.5565862662
 21
748.1055709491
  0
LINE
  5
431
100
AcDbEntity
  8
0
100
AcDbLine
 62
7
  6
CONTINUOUS
 10
1744.7565862662
 20
749.4379652605
 11
1744.7565862662
 21
225.4379652605
  0
LINE
  5
432
100
AcDbEntity
  8
0
100
AcDbLine
 62
7
  6
CONTINUOUS
 10
1744.7565862662
 20
224.5379652605
 11
1744.7565862662
 21
225.1379652605
  0
LINE
  5
433
100
AcDbEntity
  8
02___PRT_ALL_AXES
100
AcDbLine
 62
7
  6
CONTINUOUS
 10
1771.6337940601
 20
225.1379652605
 11
1771.6337940601
 21
224.5379652605
  0
LINE
  5
434
100
AcDbEntity
  8
0
100
AcDbLine
 62
7
  6
CONTINUOUS
 10
1771.8141084701
 20
749.4244196138
 11
1771.8141084701
 21
225.4515898084
  0
LINE
  5
435
100
AcDbEntity
  8
0
100
AcDbLine
 62
7
  6
CONTINUOUS
 10
1771.8141084701
 20
224.5379652605
 11
1771.8141084701
 21
225.1379652605
  0
LINE
  5
436
100
AcDbEntity
  8
0
100
AcDbLine
 62
7
  6
CONTINUOUS
 10
1773.0141084701
 20
749.1379652605
 11
1773.0141084701
 21
225.7379652605
  0
LINE
  5
437
100
AcDbEntity
  8
0
100
AcDbLine
 62
7
  6
CONTINUOUS
 10
1773.6141084701
 20
749.7379652605
 11
1773.6141084701
 21
750.3379652605
  0
LINE
  5
438
100
AcDbEntity
  8
02___PRT_ALL_AXES
100
AcDbLine
 62
7
  6
CONTINUOUS
 10
1773.7944228802
 20
750.3379652605
 11
1773.7944228802
 21
749.7379652605
  0
LINE
  5
439
100
AcDbEntity
  8
02___PRT_ALL_AXES
100
AcDbLine
 62
7
  6
CONTINUOUS
 10
1790.3669602687
 20
750.605532607
 11
1790.3460205706
 21
751.2051671032
  0
LINE
  5
43A
100
AcDbEntity
  8
0
100
AcDbLine
 62
7
  6
CONTINUOUS
 10
1799.8918224549
 20
749.7379652605
 11
1799.8918224549
 21
750.3379652605
  0
LINE
  5
43B
100
AcDbEntity
  8
0
100
AcDbLine
 62
7
  6
CONTINUOUS
 10
1799.8604129079
 20
751.5374170049
 11
1799.8813526059
 21
750.9377825087
  0
LINE
  5
43C
100
AcDbEntity
  8
02___PRT_ALL_AXES
100
AcDbLine
 62
3
  6
CONTINUOUS
 10
1641.000932559
 20
582.4005426686
 11
1640.1887591533
 21
582.2573345841
  0
LINE
  5
43D
100
AcDbEntity
  8
0
100
AcDbLine
 62
3
  6
CONTINUOUS
 10
1790.3669602687
 20
750.605532607
 11
1799.8813526059
 21
750.9377825087
  0
LINE
  5
43E
100
AcDbEntity
  8
0
100
AcDbLine
 62
7
  6
CONTINUOUS
 10
1790.3460205706
 20
751.2051671032
 11
1799.8604129079
 21
751.5374170049
  0
LINE
  5
43F
100
AcDbEntity
  8
0
100
AcDbLine
 62
7
  6
CONTINUOUS
 10
1800.1917767635
 20
750.6432009825
 11
1800.7916853806
 21
750.6536724263
  0
LINE
  5
440
100
AcDbEntity
  8
0
100
AcDbLine
 62
7
  6
CONTINUOUS
 10
1773.0141084701
 20
749.1379652605
 11
1772.78479123
 21
749.1379652605
  0
LINE
  5
441
100
AcDbEntity
  8
0
100
AcDbLine
 62
7
  6
CONTINUOUS
 10
1771.6190055235
 20
749.4379652605
 11
1744.7565862662
 21
749.4379652605
  0
LINE
  5
442
100
AcDbEntity
  8
0
100
AcDbLine
 62
7
  6
CONTINUOUS
 10
1773.6141084701
 20
749.7379652605
 11
1799.8918224549
 21
749.7379652605
  0
LINE
  5
443
100
AcDbEntity
  8
0
100
AcDbLine
 62
3
  6
CONTINUOUS
 10
1773.6141084701
 20
750.3379652605
 11
1799.8918224549
 21
750.3379652605
  0
LINE
  5
444
100
AcDbEntity
  8
0
100
AcDbLine
 62
7
  6
CONTINUOUS
 10
1772.6434076076
 20
749.8434720539
 11
1773.1287580389
 21
749.4907186572
  0
ARC
  5
445
100
AcDbEntity
  8
02___PRT_ALL_AXES
100
AcDbCircle
 62
7
  6
CONTINUOUS
 10
441.4480635072
 20
487.0679435414
 40
598.9811966971
100
AcDbArc
 50
352.9188081275
 51
7.1515078904
  0
ARC
  5
446
100
AcDbEntity
  8
02___PRT_ALL_AXES
100
AcDbCircle
 62
7
  6
CONTINUOUS
 10
189.4401367057
 20
392.2686306346
 40
257.0072942906
100
AcDbArc
 50
61.6662393353
 51
62.0010057583
  0
ARC
  5
447
100
AcDbEntity
  8
02___PRT_ALL_AXES
100
AcDbCircle
 62
7
  6
CONTINUOUS
 10
381.3389999896
 20
221.6661599453
 40
151.7756900668
100
AcDbArc
 50
118.1572347163
 51
118.5621382113
  0
ARC
  5
448
100
AcDbEntity
  8
02___PRT_ALL_AXES
100
AcDbCircle
 62
7
  6
CONTINUOUS
 10
440.8742998524
 20
318.921579299
 40
113.5474177968
100
AcDbArc
 50
359.8412335676
 51
359.9998111083
  0
ARC
  5
449
100
AcDbEntity
  8
02___PRT_ALL_AXES
100
AcDbCircle
 62
7
  6
CONTINUOUS
 10
245.8930944972
 20
318.920922844
 40
113.5286231517
100
AcDbArc
 50
359.8415372874
 51
0.0001423777
  0
ARC
  5
44A
100
AcDbEntity
  8
02___PRT_ALL_AXES
100
AcDbCircle
 62
7
  6
CONTINUOUS
 10
404.9211451012
 20
288.8232510273
 40
86.6876680316
100
AcDbArc
 50
148.8279412256
 51
149.5331549962
  0
ARC
  5
44B
100
AcDbEntity
  8
02___PRT_ALL_AXES
100
AcDbCircle
 62
7
  6
CONTINUOUS
 10
277.2260522351
 20
318.7944838323
 40
82.1954451831
100
AcDbArc
 50
359.38785892
 51
359.8692674733
  0
ARC
  5
44C
100
AcDbEntity
  8
02___PRT_ALL_AXES
100
AcDbCircle
 62
7
  6
CONTINUOUS
 10
359.4089499443
 20
382.4390277488
 40
65.0010829855
100
AcDbArc
 50
180.0009363693
 51
269.9990488391
  0
ARC
  5
44D
100
AcDbEntity
  8
02___PRT_ALL_AXES
100
AcDbCircle
 62
7
  6
CONTINUOUS
 10
359.4216465313
 20
382.4380364235
 40
63.5168314656
100
AcDbArc
 50
180.000064193
 51
270.0000641518
  0
ARC
  5
44E
100
AcDbEntity
  8
02___PRT_ALL_AXES
100
AcDbCircle
 62
7
  6
CONTINUOUS
 10
299.4078669675
 20
302.4379652605
 40
32.3671361037
100
AcDbArc
 50
180.0
 51
270.0
  0
ARC
  5
44F
100
AcDbEntity
  8
02___PRT_ALL_AXES
100
AcDbCircle
 62
7
  6
CONTINUOUS
 10
299.4078669675
 20
302.4379652605
 40
28.8164319482
100
AcDbArc
 50
180.0
 51
270.0
  0
ARC
  5
450
100
AcDbEntity
  8
02___PRT_ALL_AXES
100
AcDbCircle
 62
7
  6
CONTINUOUS
 10
299.2386091576
 20
302.4385665861
 40
28.0619023645
100
AcDbArc
 50
180.0012277648
 51
270.3455865833
  0
ARC
  5
451
100
AcDbEntity
  8
02___PRT_ALL_AXES
100
AcDbCircle
 62
7
  6
CONTINUOUS
 10
299.1290205984
 20
302.4396725489
 40
21.1350538176
100
AcDbArc
 50
180.0046283798
 51
270.4555549548
  0
ARC
  5
452
100
AcDbEntity
  8
02___PRT_ALL_AXES
100
AcDbCircle
 62
7
  6
CONTINUOUS
 10
338.5318396209
 20
346.8760365554
 40
16.3750295474
100
AcDbArc
 50
239.4276540926
 51
280.2716569763
  0
ARC
  5
453
100
AcDbEntity
  8
02___PRT_ALL_AXES
100
AcDbCircle
 62
7
  6
CONTINUOUS
 10
338.5371321828
 20
346.8379483401
 40
15.2779941456
100
AcDbArc
 50
239.3546512279
 51
280.3005826253
  0
ARC
  5
454
100
AcDbEntity
  8
02___PRT_ALL_AXES
100
AcDbCircle
 62
7
  6
CONTINUOUS
 10
338.5211427539
 20
346.8466993184
 40
14.8408617617
100
AcDbArc
 50
239.4394535728
 51
280.3797984428
  0
ARC
  5
455
100
AcDbEntity
  8
02___PRT_ALL_AXES
100
AcDbCircle
 62
7
  6
CONTINUOUS
 10
308.2244209925
 20
405.0360150576
 40
6.4230032971
100
AcDbArc
 50
94.5874557381
 51
179.9800906306
  0
ARC
  5
456
100
AcDbEntity
  8
02___PRT_ALL_AXES
100
AcDbCircle
 62
7
  6
CONTINUOUS
 10
308.2375308917
 20
405.0359459878
 40
5.3619640947
100
AcDbArc
 50
94.6908548671
 51
179.9829933654
  0
ARC
  5
457
100
AcDbEntity
  8
02___PRT_ALL_AXES
100
AcDbCircle
 62
7
  6
CONTINUOUS
 10
308.2188376978
 20
405.0368934242
 40
4.9154388799
100
AcDbArc
 50
94.4257376742
 51
179.9924922122
  0
ARC
  5
458
100
AcDbEntity
  8
02___PRT_ALL_AXES
100
AcDbCircle
 62
7
  6
CONTINUOUS
 10
308.2173985385
 20
379.0024494596
 40
4.9136371312
100
AcDbArc
 50
179.9873050796
 51
277.4092120023
  0
ARC
  5
459
100
AcDbEntity
  8
02___PRT_ALL_AXES
100
AcDbCircle
 62
7
  6
CONTINUOUS
 10
308.2171429395
 20
452.783509765
 40
4.9135430585
100
AcDbArc
 50
91.4486609919
 51
180.0106977412
  0
ARC
  5
45A
100
AcDbEntity
  8
0
100
AcDbCircle
 62
7
  6
CONTINUOUS
 10
244.8578669675
 20
225.5879652605
 40
0.45
100
AcDbArc
 50
19.4712206345
 51
70.5287793665
  0
ARC
  5
45B
100
AcDbEntity
  8
02___PRT_ALL_AXES
100
AcDbCircle
 62
7
  6
CONTINUOUS
 10
637.8706021633
 20
-575.0596822697
 40
852.1164496838
100
AcDbArc
 50
89.999993198
 51
90.4582031785
  0
ARC
  5
45C
100
AcDbEntity
  8
02___PRT_ALL_AXES
100
AcDbCircle
 62
7
  6
CONTINUOUS
 10
469.8904297118
 20
42.468223574
 40
346.0280227898
100
AcDbArc
 50
66.819842518
 51
67.0625445113
  0
ARC
  5
45D
100
AcDbEntity
  8
02___PRT_ALL_AXES
100
AcDbCircle
 62
7
  6
CONTINUOUS
 10
679.1137769027
 20
445.0200281155
 40
184.3693227935
100
AcDbArc
 50
112.8612219496
 51
113.1863655931
  0
ARC
  5
45E
100
AcDbEntity
  8
02___PRT_ALL_AXES
100
AcDbCircle
 62
7
  6
CONTINUOUS
 10
678.9572626125
 20
324.5872434281
 40
124.5503959494
100
AcDbArc
 50
179.4073751226
 51
179.8961357638
  0
ARC
  5
45F
100
AcDbEntity
  8
02___PRT_ALL_AXES
100
AcDbCircle
 62
7
  6
CONTINUOUS
 10
748.2983705338
 20
425.1855151219
 40
107.6363811819
100
AcDbArc
 50
187.1521653049
 51
260.7825110163
  0
ARC
  5
460
100
AcDbEntity
  8
02___PRT_ALL_AXES
100
AcDbCircle
 62
7
  6
CONTINUOUS
 10
748.2983705338
 20
425.1855151219
 40
99.0387352396
100
AcDbArc
 50
187.1521653049
 51
260.7825110163
  0
ARC
  5
461
100
AcDbEntity
  8
02___PRT_ALL_AXES
100
AcDbCircle
 62
7
  6
CONTINUOUS
 10
748.2509298452
 20
425.1309110219
 40
96.036310563
100
AcDbArc
 50
187.1200208157
 51
260.8087896122
  0
ARC
  5
462
100
AcDbEntity
  8
02___PRT_ALL_AXES
100
AcDbCircle
 62
7
  6
CONTINUOUS
 10
472.1852499122
 20
318.7951311177
 40
82.2362471348
100
AcDbArc
 50
359.3881336571
 51
359.8688831503
  0
ARC
  5
463
100
AcDbEntity
  8
02___PRT_ALL_AXES
100
AcDbCircle
 62
7
  6
CONTINUOUS
 10
679.6857587685
 20
440.225346795
 40
74.791612404
100
AcDbArc
 50
184.3615384121
 51
185.1748974341
  0
ARC
  5
464
100
AcDbEntity
  8
02___PRT_ALL_AXES
100
AcDbCircle
 62
7
  6
CONTINUOUS
 10
509.7826751797
 20
352.2396822083
 40
71.9331914017
100
AcDbArc
 50
190.170578486
 51
191.0173370179
  0
ARC
  5
465
100
AcDbEntity
  8
02___PRT_ALL_AXES
100
AcDbCircle
 62
7
  6
CONTINUOUS
 10
554.4068037938
 20
382.4390491217
 40
65.0010838698
100
AcDbArc
 50
270.0009337319
 51
359.9990447821
  0
ARC
  5
466
100
AcDbEntity
  8
02___PRT_ALL_AXES
100
AcDbCircle
 62
7
  6
CONTINUOUS
 10
554.4217887998
 20
382.4380363895
 40
63.5168314316
100
AcDbArc
 50
269.9999358176
 51
359.9999358376
  0
ARC
  5
467
100
AcDbEntity
  8
02___PRT_ALL_AXES
100
AcDbCircle
 62
7
  6
CONTINUOUS
 10
747.6602891277
 20
424.4498351354
 40
41.7509978542
100
AcDbArc
 50
187.333880397
 51
260.6498303616
  0
ARC
  5
468
100
AcDbEntity
  8
02___PRT_ALL_AXES
100
AcDbCircle
 62
7
  6
CONTINUOUS
 10
605.6195373842
 20
385.1665620475
 40
6.424069817
100
AcDbArc
 50
280.1544902015
 51
359.9739612803
  0
ARC
  5
469
100
AcDbEntity
  8
02___PRT_ALL_AXES
100
AcDbCircle
 62
7
  6
CONTINUOUS
 10
605.6204078259
 20
417.5042004971
 40
6.4232433344
100
AcDbArc
 50
277.2309450691
 51
359.9790992706
  0
ARC
  5
46A
100
AcDbEntity
  8
02___PRT_ALL_AXES
100
AcDbCircle
 62
7
  6
CONTINUOUS
 10
605.6336145777
 20
417.5043507816
 40
5.3627172017
100
AcDbArc
 50
277.1648248401
 51
359.9808667036
  0
ARC
  5
46B
100
AcDbEntity
  8
02___PRT_ALL_AXES
100
AcDbCircle
 62
7
  6
CONTINUOUS
 10
605.6338905251
 20
385.1652950617
 40
5.3623681839
100
AcDbArc
 50
280.0601574625
 51
359.9896629866
  0
ARC
  5
46C
100
AcDbEntity
  8
02___PRT_ALL_AXES
100
AcDbCircle
 62
7
  6
CONTINUOUS
 10
601.584248
 20
362.477742313
 40
5.3606605752
100
AcDbArc
 50
336.973130817
 51
100.4914988961
  0
ARC
  5
46D
100
AcDbEntity
  8
02___PRT_ALL_AXES
100
AcDbCircle
 62
7
  6
CONTINUOUS
 10
601.5662467172
 20
362.4761862783
 40
4.9167030045
100
AcDbArc
 50
337.0934602735
 51
100.2315905811
  0
ARC
  5
46E
100
AcDbEntity
  8
02___PRT_ALL_AXES
100
AcDbCircle
 62
7
  6
CONTINUOUS
 10
605.6168847987
 20
385.1650796123
 40
4.9163302122
100
AcDbArc
 50
280.3078389546
 51
359.991236232
  0
ARC
  5
46F
100
AcDbEntity
  8
02___PRT_ALL_AXES
100
AcDbCircle
 62
7
  6
CONTINUOUS
 10
605.6171442575
 20
417.5034960268
 40
4.9161220563
100
AcDbArc
 50
277.4091055705
 51
359.9890906204
  0
ARC
  5
470
100
AcDbEntity
  8
02___PRT_ALL_AXES
100
AcDbCircle
 62
7
  6
CONTINUOUS
 10
605.6176233604
 20
460.4817017987
 40
4.915414291
100
AcDbArc
 50
0.0106246647
 51
91.4537206828
  0
ARC
  5
471
100
AcDbEntity
  8
02___PRT_ALL_AXES
100
AcDbCircle
 62
7
  6
CONTINUOUS
 10
605.6191485404
 20
395.7233390658
 40
4.9138078788
100
AcDbArc
 50
359.9881976602
 51
97.3663431624
  0
ARC
  5
472
100
AcDbEntity
  8
02___PRT_ALL_AXES
100
AcDbCircle
 62
7
  6
CONTINUOUS
 10
601.5852846592
 20
362.4749542172
 40
3.4331122532
100
AcDbArc
 50
337.0465403934
 51
100.3768658937
  0
ARC
  5
473
100
AcDbEntity
  8
02___PRT_ALL_AXES
100
AcDbCircle
 62
7
  6
CONTINUOUS
 10
433.5315240641
 20
487.4379652605
 40
618.4933944042
100
AcDbArc
 50
356.6137217877
 51
3.3862782123
  0
ARC
  5
474
100
AcDbEntity
  8
02___PRT_ALL_AXES
100
AcDbCircle
 62
7
  6
CONTINUOUS
 10
444.4078669675
 20
487.4379652605
 40
607.6363811819
100
AcDbArc
 50
352.8478346951
 51
356.553144618
  0
ARC
  5
475
100
AcDbEntity
  8
02___PRT_ALL_AXES
100
AcDbCircle
 62
7
  6
CONTINUOUS
 10
444.4078669675
 20
487.4379652605
 40
607.6363811819
100
AcDbArc
 50
3.446855382
 51
7.1521653049
  0
ARC
  5
476
100
AcDbEntity
  8
02___PRT_ALL_AXES
100
AcDbCircle
 62
7
  6
CONTINUOUS
 10
444.4078669675
 20
487.4379652605
 40
599.0387352396
100
AcDbArc
 50
352.8478346951
 51
7.1521653049
  0
ARC
  5
477
100
AcDbEntity
  8
02___PRT_ALL_AXES
100
AcDbCircle
 62
7
  6
CONTINUOUS
 10
448.1694743782
 20
488.0066619959
 40
538.8170260625
100
AcDbArc
 50
352.654777066
 51
7.1443717283
  0
ARC
  5
478
100
AcDbEntity
  8
02___PRT_ALL_AXES
100
AcDbCircle
 62
7
  6
CONTINUOUS
 10
186.5813636363
 20
586.0579402582
 40
261.3976782506
100
AcDbArc
 50
298.1978506362
 51
298.5269365413
  0
ARC
  5
479
100
AcDbEntity
  8
02___PRT_ALL_AXES
100
AcDbCircle
 62
7
  6
CONTINUOUS
 10
381.7059769331
 20
755.1342306754
 40
153.6466649667
100
AcDbArc
 50
241.6597817909
 51
242.0597202512
  0
ARC
  5
47A
100
AcDbEntity
  8
02___PRT_ALL_AXES
100
AcDbCircle
 62
7
  6
CONTINUOUS
 10
245.8741778175
 20
655.9543528948
 40
113.5475398316
100
AcDbArc
 50
0.0001880474
 51
0.1587654162
  0
ARC
  5
47B
100
AcDbEntity
  8
02___PRT_ALL_AXES
100
AcDbCircle
 62
7
  6
CONTINUOUS
 10
440.8931957786
 20
655.9550054138
 40
113.5285218703
100
AcDbArc
 50
359.9998587645
 51
0.1584640216
  0
ARC
  5
47C
100
AcDbEntity
  8
02___PRT_ALL_AXES
100
AcDbCircle
 62
7
  6
CONTINUOUS
 10
404.5724465792
 20
685.8074111159
 40
86.2626735192
100
AcDbArc
 50
210.4439688342
 51
211.1534617179
  0
ARC
  5
47D
100
AcDbEntity
  8
02___PRT_ALL_AXES
100
AcDbCircle
 62
7
  6
CONTINUOUS
 10
277.2234829151
 20
656.0810130314
 40
82.1980137483
100
AcDbArc
 50
0.1310289262
 51
0.6124389557
  0
ARC
  5
47E
100
AcDbEntity
  8
02___PRT_ALL_AXES
100
AcDbCircle
 62
7
  6
CONTINUOUS
 10
419.4825482455
 20
629.8951221623
 40
79.3153920636
100
AcDbArc
 50
169.6738144648
 51
170.4381044634
  0
ARC
  5
47F
100
AcDbEntity
  8
02___PRT_ALL_AXES
100
AcDbCircle
 62
7
  6
CONTINUOUS
 10
359.4089296191
 20
592.4368819093
 40
65.00108336
100
AcDbArc
 50
90.0009400761
 51
179.9990449187
  0
ARC
  5
480
100
AcDbEntity
  8
02___PRT_ALL_AXES
100
AcDbCircle
 62
7
  6
CONTINUOUS
 10
359.4216465351
 20
592.4378940939
 40
63.5168314693
100
AcDbArc
 50
89.9999358516
 51
179.9999358036
  0
ARC
  5
481
100
AcDbEntity
  8
02___PRT_ALL_AXES
100
AcDbCircle
 62
7
  6
CONTINUOUS
 10
299.4078669675
 20
672.4379652605
 40
32.3671361037
100
AcDbArc
 50
90.0
 51
180.0
  0
ARC
  5
482
100
AcDbEntity
  8
02___PRT_ALL_AXES
100
AcDbCircle
 62
7
  6
CONTINUOUS
 10
299.4078669675
 20
672.4379652605
 40
28.8164319482
100
AcDbArc
 50
90.0
 51
180.0
  0
ARC
  5
483
100
AcDbEntity
  8
02___PRT_ALL_AXES
100
AcDbCircle
 62
7
  6
CONTINUOUS
 10
299.2386095497
 20
672.4373635406
 40
28.0619027566
100
AcDbArc
 50
89.6544142221
 51
179.9987714299
  0
ARC
  5
484
100
AcDbEntity
  8
02___PRT_ALL_AXES
100
AcDbCircle
 62
7
  6
CONTINUOUS
 10
299.129015243
 20
672.4362572599
 40
21.1350516353
100
AcDbArc
 50
89.5444305429
 51
179.995369688
  0
ARC
  5
485
100
AcDbEntity
  8
02___PRT_ALL_AXES
100
AcDbCircle
 62
7
  6
CONTINUOUS
 10
338.5374529525
 20
628.0383927138
 40
15.2776479245
100
AcDbArc
 50
79.7003244236
 51
120.6471677798
  0
ARC
  5
486
100
AcDbEntity
  8
02___PRT_ALL_AXES
100
AcDbCircle
 62
7
  6
CONTINUOUS
 10
338.5213929591
 20
628.0298299506
 40
14.8403303243
100
AcDbArc
 50
79.6207339849
 51
120.5625534211
  0
ARC
  5
487
100
AcDbEntity
  8
02___PRT_ALL_AXES
100
AcDbCircle
 62
7
  6
CONTINUOUS
 10
308.2247164054
 20
569.8400509002
 40
6.4231688628
100
AcDbArc
 50
180.0190533631
 51
265.387947863
  0
ARC
  5
488
100
AcDbEntity
  8
02___PRT_ALL_AXES
100
AcDbCircle
 62
7
  6
CONTINUOUS
 10
314.4153094543
 20
616.8481122817
 40
6.4184954667
100
AcDbArc
 50
151.6692615686
 51
262.4889375532
  0
ARC
  5
489
100
AcDbEntity
  8
02___PRT_ALL_AXES
100
AcDbCircle
 62
7
  6
CONTINUOUS
 10
308.238454182
 20
569.8402257181
 40
5.3626734961
100
AcDbArc
 50
180.0195805233
 51
265.299530791
  0
ARC
  5
48A
100
AcDbEntity
  8
02___PRT_ALL_AXES
100
AcDbCircle
 62
7
  6
CONTINUOUS
 10
308.2193648828
 20
569.8390933536
 40
4.9158131083
100
AcDbArc
 50
180.0081620643
 51
265.5681883014
  0
ARC
  5
48B
100
AcDbEntity
  8
02___PRT_ALL_AXES
100
AcDbCircle
 62
7
  6
CONTINUOUS
 10
308.2171749266
 20
595.8733846292
 40
4.9135621503
100
AcDbArc
 50
82.5883498935
 51
180.0115720259
  0
ARC
  5
48C
100
AcDbEntity
  8
02___PRT_ALL_AXES
100
AcDbCircle
 62
7
  6
CONTINUOUS
 10
308.2375336555
 20
569.8385646681
 40
3.4303561924
100
AcDbArc
 50
179.988663423
 51
265.4699185568
  0
ARC
  5
48D
100
AcDbEntity
  8
0
100
AcDbCircle
 62
7
  6
CONTINUOUS
 10
244.8578669675
 20
749.2879652605
 40
0.45
100
AcDbArc
 50
289.4712206351
 51
340.5287793655
  0
ARC
  5
48E
100
AcDbEntity
  8
02___PRT_ALL_AXES
100
AcDbCircle
 62
7
  6
CONTINUOUS
 10
483.975075154
 20
899.9047657351
 40
310.605704382
100
AcDbArc
 50
292.8814683229
 51
293.1525339307
  0
ARC
  5
48F
100
AcDbEntity
  8
02___PRT_ALL_AXES
100
AcDbCircle
 62
7
  6
CONTINUOUS
 10
680.4602561168
 20
532.3940472086
 40
187.2325538615
100
AcDbArc
 50
246.7388283201
 51
247.0596224581
  0
ARC
  5
490
100
AcDbEntity
  8
02___PRT_ALL_AXES
100
AcDbCircle
 62
7
  6
CONTINUOUS
 10
748.2983705338
 20
549.6904153992
 40
107.6363811819
100
AcDbArc
 50
99.2174889837
 51
172.8478346951
  0
ARC
  5
491
100
AcDbEntity
  8
02___PRT_ALL_AXES
100
AcDbCircle
 62
7
  6
CONTINUOUS
 10
748.2983705338
 20
549.6904153992
 40
99.0387352396
100
AcDbArc
 50
99.2174889837
 51
172.8478346951
  0
ARC
  5
492
100
AcDbEntity
  8
02___PRT_ALL_AXES
100
AcDbCircle
 62
7
  6
CONTINUOUS
 10
748.22560582
 20
549.7033972366
 40
95.9244490141
100
AcDbArc
 50
99.1726462517
 51
172.8501340022
  0
ARC
  5
493
100
AcDbEntity
  8
02___PRT_ALL_AXES
100
AcDbCircle
 62
7
  6
CONTINUOUS
 10
519.6298248938
 20
623.4796969018
 40
82.6112688509
100
AcDbArc
 50
348.8900630171
 51
349.9221646311
  0
ARC
  5
494
100
AcDbEntity
  8
02___PRT_ALL_AXES
100
AcDbCircle
 62
7
  6
CONTINUOUS
 10
472.1878004196
 20
656.0812326609
 40
82.2336973808
100
AcDbArc
 50
0.1308208724
 51
0.6115684465
  0
ARC
  5
495
100
AcDbEntity
  8
02___PRT_ALL_AXES
100
AcDbCircle
 62
7
  6
CONTINUOUS
 10
513.3568874906
 20
621.9677427793
 40
75.5692890476
100
AcDbArc
 50
169.0030346841
 51
169.8090498293
  0
ARC
  5
496
100
AcDbEntity
  8
02___PRT_ALL_AXES
100
AcDbCircle
 62
7
  6
CONTINUOUS
 10
554.4067828087
 20
592.436901964
 40
65.0010841675
100
AcDbArc
 50
0.000937392
 51
89.9990409404
  0
ARC
  5
497
100
AcDbEntity
  8
02___PRT_ALL_AXES
100
AcDbCircle
 62
7
  6
CONTINUOUS
 10
554.421788796
 20
592.4378941278
 40
63.5168314354
100
AcDbArc
 50
0.0000641658
 51
90.000064179
  0
ARC
  5
498
100
AcDbEntity
  8
02___PRT_ALL_AXES
100
AcDbCircle
 62
7
  6
CONTINUOUS
 10
601.5689721531
 20
612.401432286
 40
6.425138598
100
AcDbArc
 50
259.5664969565
 51
22.948444163
  0
ARC
  5
499
100
AcDbEntity
  8
02___PRT_ALL_AXES
100
AcDbCircle
 62
7
  6
CONTINUOUS
 10
605.6202221992
 20
557.3716945916
 40
6.4232982811
100
AcDbArc
 50
0.0190320151
 51
82.7541231047
  0
ARC
  5
49A
100
AcDbEntity
  8
02___PRT_ALL_AXES
100
AcDbCircle
 62
7
  6
CONTINUOUS
 10
605.6204074702
 20
525.072660273
 40
6.4231577767
100
AcDbArc
 50
0.0190093144
 51
85.7012967725
  0
ARC
  5
49B
100
AcDbEntity
  8
02___PRT_ALL_AXES
100
AcDbCircle
 62
7
  6
CONTINUOUS
 10
605.6218720396
 20
589.7114490629
 40
6.4216082475
100
AcDbArc
 50
0.0051780819
 51
79.8539263256
  0
ARC
  5
49C
100
AcDbEntity
  8
02___PRT_ALL_AXES
100
AcDbCircle
 62
7
  6
CONTINUOUS
 10
605.633054399
 20
557.3715057901
 40
5.363062185
100
AcDbArc
 50
0.0199217316
 51
82.8293335848
  0
ARC
  5
49D
100
AcDbEntity
  8
02___PRT_ALL_AXES
100
AcDbCircle
 62
7
  6
CONTINUOUS
 10
605.6335613396
 20
525.0725072229
 40
5.3626290035
100
AcDbArc
 50
0.0193290326
 51
85.7693890459
  0
ARC
  5
49E
100
AcDbEntity
  8
02___PRT_ALL_AXES
100
AcDbCircle
 62
7
  6
CONTINUOUS
 10
601.5832314207
 20
612.4003530497
 40
5.3626181751
100
AcDbArc
 50
259.5233908187
 51
23.0014646725
  0
ARC
  5
49F
100
AcDbEntity
  8
02___PRT_ALL_AXES
100
AcDbCircle
 62
7
  6
CONTINUOUS
 10
601.5660860269
 20
612.3996911076
 40
4.9167075623
100
AcDbArc
 50
259.770155704
 51
22.906439092
  0
ARC
  5
4A0
100
AcDbEntity
  8
02___PRT_ALL_AXES
100
AcDbCircle
 62
7
  6
CONTINUOUS
 10
605.617359205
 20
525.0736217642
 40
4.9158070257
100
AcDbArc
 50
0.0080953419
 51
85.527240711
  0
ARC
  5
4A1
100
AcDbEntity
  8
02___PRT_ALL_AXES
100
AcDbCircle
 62
7
  6
CONTINUOUS
 10
605.6177312729
 20
557.3732491397
 40
4.9153830425
100
AcDbArc
 50
0.0014147484
 51
82.5964549941
  0
ARC
  5
4A2
100
AcDbEntity
  8
02___PRT_ALL_AXES
100
AcDbCircle
 62
7
  6
CONTINUOUS
 10
605.6192984764
 20
579.1527223668
 40
4.9138066576
100
AcDbArc
 50
262.6321098203
 51
0.0102772403
  0
ARC
  5
4A3
100
AcDbEntity
  8
02___PRT_ALL_AXES
100
AcDbCircle
 62
7
  6
CONTINUOUS
 10
605.6367930193
 20
525.0741506726
 40
3.4303522772
100
AcDbArc
 50
359.9887269795
 51
85.6687595168
  0
ARC
  5
4A4
100
AcDbEntity
  8
02___PRT_ALL_AXES
100
AcDbCircle
 62
7
  6
CONTINUOUS
 10
637.8706021633
 20
1549.9356127909
 40
852.1164496839
100
AcDbArc
 50
269.5417968215
 51
270.000006802
  0
ARC
  5
4A5
100
AcDbEntity
  8
02___PRT_ALL_AXES
100
AcDbCircle
 62
7
  6
CONTINUOUS
 10
1050.9451317738
 20
-575.0596817462
 40
852.1164491603
100
AcDbArc
 50
89.5417968213
 51
90.0000068021
  0
ARC
  5
4A6
100
AcDbEntity
  8
02___PRT_ALL_AXES
100
AcDbCircle
 62
7
  6
CONTINUOUS
 10
844.3128329049
 20
-51.0083690697
 40
704.272169127
100
AcDbArc
 50
89.992268542
 51
99.0993522479
  0
ARC
  5
4A7
100
AcDbEntity
  8
02___PRT_ALL_AXES
100
AcDbCircle
 62
7
  6
CONTINUOUS
 10
844.5030707726
 20
-51.0062563455
 40
704.2700564258
100
AcDbArc
 50
80.9006897069
 51
90.0077452906
  0
ARC
  5
4A8
100
AcDbEntity
  8
02___PRT_ALL_AXES
100
AcDbCircle
 62
7
  6
CONTINUOUS
 10
844.4078669675
 20
-42.5620347395
 40
707.6363811819
100
AcDbArc
 50
80.7825110163
 51
99.2174889837
  0
ARC
  5
4A9
100
AcDbEntity
  8
02___PRT_ALL_AXES
100
AcDbCircle
 62
7
  6
CONTINUOUS
 10
844.4078669675
 20
-42.5620347395
 40
699.0387352396
100
AcDbArc
 50
80.7825110163
 51
99.2174889837
  0
ARC
  5
4AA
100
AcDbEntity
  8
02___PRT_ALL_AXES
100
AcDbCircle
 62
7
  6
CONTINUOUS
 10
1007.0492027958
 20
441.0754968205
 40
188.7082695272
100
AcDbArc
 50
66.7843413109
 51
67.1032957324
  0
ARC
  5
4AB
100
AcDbEntity
  8
02___PRT_ALL_AXES
100
AcDbCircle
 62
7
  6
CONTINUOUS
 10
940.5173634012
 20
425.1855151219
 40
107.6363811819
100
AcDbArc
 50
279.2174889837
 51
352.8478346951
  0
ARC
  5
4AC
100
AcDbEntity
  8
02___PRT_ALL_AXES
100
AcDbCircle
 62
7
  6
CONTINUOUS
 10
940.5173634012
 20
425.1855151219
 40
99.0387352396
100
AcDbArc
 50
279.2174889837
 51
352.8478346951
  0
ARC
  5
4AD
100
AcDbEntity
  8
02___PRT_ALL_AXES
100
AcDbCircle
 62
7
  6
CONTINUOUS
 10
940.5648033446
 20
425.1309118171
 40
96.0363114335
100
AcDbArc
 50
279.1916106674
 51
352.8803833683
  0
ARC
  5
4AE
100
AcDbEntity
  8
02___PRT_ALL_AXES
100
AcDbCircle
 62
7
  6
CONTINUOUS
 10
987.790353896
 20
441.957137718
 40
95.3503072582
100
AcDbArc
 50
354.9035082222
 51
355.5413981154
  0
ARC
  5
4AF
100
AcDbEntity
  8
02___PRT_ALL_AXES
100
AcDbCircle
 62
7
  6
CONTINUOUS
 10
1015.840006703
 20
410.6637200571
 40
67.8825326933
100
AcDbArc
 50
351.8526734621
 51
352.7493944695
  0
ARC
  5
4B0
100
AcDbEntity
  8
02___PRT_ALL_AXES
100
AcDbCircle
 62
7
  6
CONTINUOUS
 10
1134.4089517722
 20
382.4390288316
 40
65.0010848134
100
AcDbArc
 50
180.0009376366
 51
269.9990403697
  0
ARC
  5
4B1
100
AcDbEntity
  8
02___PRT_ALL_AXES
100
AcDbCircle
 62
7
  6
CONTINUOUS
 10
1134.3939451348
 20
382.4380363891
 40
63.5168314312
100
AcDbArc
 50
180.000064162
 51
270.0000641828
  0
ARC
  5
4B2
100
AcDbEntity
  8
02___PRT_ALL_AXES
100
AcDbCircle
 62
7
  6
CONTINUOUS
 10
1027.1666156754
 20
379.5534655132
 40
61.335031014
100
AcDbArc
 50
348.9113369358
 51
349.9044109826
  0
ARC
  5
4B3
100
AcDbEntity
  8
02___PRT_ALL_AXES
100
AcDbCircle
 62
7
  6
CONTINUOUS
 10
941.1554444395
 20
424.4498354905
 40
41.7509982643
100
AcDbArc
 50
279.3501700572
 51
352.6661191842
  0
ARC
  5
4B4
100
AcDbEntity
  8
02___PRT_ALL_AXES
100
AcDbCircle
 62
7
  6
CONTINUOUS
 10
1168.0729186378
 20
318.2651806965
 40
33.6757976274
100
AcDbArc
 50
180.5924683069
 51
181.1574216875
  0
ARC
  5
4B5
100
AcDbEntity
  8
02___PRT_ALL_AXES
100
AcDbCircle
 62
7
  6
CONTINUOUS
 10
1082.3415755838
 20
449.810899661
 40
6.4231573906
100
AcDbArc
 50
180.0208444564
 51
265.703140808
  0
ARC
  5
4B6
100
AcDbEntity
  8
02___PRT_ALL_AXES
100
AcDbCircle
 62
7
  6
CONTINUOUS
 10
1082.3284215168
 20
449.8110526987
 40
5.3626284315
100
AcDbArc
 50
180.0211664973
 51
265.7712293939
  0
ARC
  5
4B7
100
AcDbEntity
  8
02___PRT_ALL_AXES
100
AcDbCircle
 62
7
  6
CONTINUOUS
 10
1086.3804067326
 20
362.4852528444
 40
5.3607385254
100
AcDbArc
 50
79.5095169106
 51
203.0267099829
  0
ARC
  5
4B8
100
AcDbEntity
  8
02___PRT_ALL_AXES
100
AcDbCircle
 62
7
  6
CONTINUOUS
 10
1082.3455273579
 20
428.1429130357
 40
4.9158365615
100
AcDbArc
 50
85.5962454999
 51
179.9869498232
  0
ARC
  5
4B9
100
AcDbEntity
  8
02___PRT_ALL_AXES
100
AcDbCircle
 62
7
  6
CONTINUOUS
 10
1082.3446239904
 20
449.8099383479
 40
4.9158067518
100
AcDbArc
 50
180.0099268801
 51
265.5290777478
  0
ARC
  5
4BA
100
AcDbEntity
  8
02___PRT_ALL_AXES
100
AcDbCircle
 62
7
  6
CONTINUOUS
 10
1086.3975380953
 20
362.4857575842
 40
4.9149918281
100
AcDbArc
 50
79.7550922728
 51
202.9321149355
  0
ARC
  5
4BB
100
AcDbEntity
  8
02___PRT_ALL_AXES
100
AcDbCircle
 62
7
  6
CONTINUOUS
 10
1082.3415109102
 20
482.0964168086
 40
4.9135908637
100
AcDbArc
 50
179.9902918185
 51
268.5104959484
  0
ARC
  5
4BC
100
AcDbEntity
  8
02___PRT_ALL_AXES
100
AcDbCircle
 62
7
  6
CONTINUOUS
 10
1082.3251904184
 20
449.8094095116
 40
3.4303522261
100
AcDbArc
 50
179.9905644456
 51
265.670646049
  0
ARC
  5
4BD
100
AcDbEntity
  8
02___PRT_ALL_AXES
100
AcDbCircle
 62
7
  6
CONTINUOUS
 10
1246.969253208
 20
487.0681886868
 40
598.5858506025
100
AcDbArc
 50
172.8432434757
 51
187.0859816443
  0
ARC
  5
4BE
100
AcDbEntity
  8
02___PRT_ALL_AXES
100
AcDbCircle
 62
7
  6
CONTINUOUS
 10
1205.5110531369
 20
71.116555299
 40
314.7547718122
100
AcDbArc
 50
112.863954624
 51
113.1310899077
  0
ARC
  5
4BF
100
AcDbEntity
  8
02___PRT_ALL_AXES
100
AcDbCircle
 62
7
  6
CONTINUOUS
 10
1499.3789628463
 20
392.5177696956
 40
257.2091035084
100
AcDbArc
 50
118.1934284847
 51
118.5276895331
  0
ARC
  5
4C0
100
AcDbEntity
  8
02___PRT_ALL_AXES
100
AcDbCircle
 62
7
  6
CONTINUOUS
 10
1305.6327506991
 20
218.9205325843
 40
154.6807385787
100
AcDbArc
 50
61.6028880909
 51
62.0001636033
  0
ARC
  5
4C1
100
AcDbEntity
  8
02___PRT_ALL_AXES
100
AcDbCircle
 62
7
  6
CONTINUOUS
 10
1224.3213826325
 20
318.8583122787
 40
89.9273883388
100
AcDbArc
 50
179.9599289444
 51
180.5997773276
  0
ARC
  5
4C2
100
AcDbEntity
  8
02___PRT_ALL_AXES
100
AcDbCircle
 62
7
  6
CONTINUOUS
 10
1419.2570729303
 20
318.8583590294
 40
89.8630786196
100
AcDbArc
 50
179.9599300757
 51
180.6006494132
  0
ARC
  5
4C3
100
AcDbEntity
  8
02___PRT_ALL_AXES
100
AcDbCircle
 62
7
  6
CONTINUOUS
 10
1283.4922486081
 20
289.121929968
 40
86.1588655554
100
AcDbArc
 50
30.456032731
 51
31.1664806305
  0
ARC
  5
4C4
100
AcDbEntity
  8
02___PRT_ALL_AXES
100
AcDbCircle
 62
7
  6
CONTINUOUS
 10
1269.6157063959
 20
344.7967804852
 40
78.1653768377
100
AcDbArc
 50
349.6695347725
 51
350.4449689065
  0
ARC
  5
4C5
100
AcDbEntity
  8
02___PRT_ALL_AXES
100
AcDbCircle
 62
7
  6
CONTINUOUS
 10
1329.4068040616
 20
382.4390492342
 40
65.0010839824
100
AcDbArc
 50
270.0009403013
 51
359.9990443703
  0
ARC
  5
4C6
100
AcDbEntity
  8
02___PRT_ALL_AXES
100
AcDbCircle
 62
7
  6
CONTINUOUS
 10
1329.3940874041
 20
382.438036423
 40
63.5168314651
100
AcDbArc
 50
269.9999358478
 51
359.9999358074
  0
ARC
  5
4C7
100
AcDbEntity
  8
02___PRT_ALL_AXES
100
AcDbCircle
 62
7
  6
CONTINUOUS
 10
1363.0343812164
 20
318.2647789348
 40
33.6372539953
100
AcDbArc
 50
180.5935662792
 51
181.1580585353
  0
ARC
  5
4C8
100
AcDbEntity
  8
02___PRT_ALL_AXES
100
AcDbCircle
 62
7
  6
CONTINUOUS
 10
1389.4078669675
 20
302.4379652605
 40
32.3671361037
100
AcDbArc
 50
270.0
 51
360.0
  0
ARC
  5
4C9
100
AcDbEntity
  8
02___PRT_ALL_AXES
100
AcDbCircle
 62
7
  6
CONTINUOUS
 10
1389.4078669675
 20
302.4379652605
 40
28.8164319482
100
AcDbArc
 50
270.0
 51
360.0
  0
ARC
  5
4CA
100
AcDbEntity
  8
02___PRT_ALL_AXES
100
AcDbCircle
 62
7
  6
CONTINUOUS
 10
1389.5771243853
 20
302.4385669805
 40
28.0619027566
100
AcDbArc
 50
269.6544142221
 51
359.9987714299
  0
ARC
  5
4CB
100
AcDbEntity
  8
02___PRT_ALL_AXES
100
AcDbCircle
 62
7
  6
CONTINUOUS
 10
1389.6867150155
 20
302.4396740803
 40
21.1350537393
100
AcDbArc
 50
269.5444405269
 51
359.9953674684
  0
ARC
  5
4CC
100
AcDbEntity
  8
02___PRT_ALL_AXES
100
AcDbCircle
 62
7
  6
CONTINUOUS
 10
1349.4295106476
 20
346.8506846866
 40
15.2745232543
100
AcDbArc
 50
259.6939139079
 51
300.6493540439
  0
ARC
  5
4CD
100
AcDbEntity
  8
02___PRT_ALL_AXES
100
AcDbCircle
 62
7
  6
CONTINUOUS
 10
1349.4454696185
 20
346.8590598955
 40
14.8370541847
100
AcDbArc
 50
259.6143178127
 51
300.5654349705
  0
ARC
  5
4CE
100
AcDbEntity
  8
02___PRT_ALL_AXES
100
AcDbCircle
 62
7
  6
CONTINUOUS
 10
1247.6477418974
 20
332.2510404363
 40
7.4213524374
100
AcDbArc
 50
270.1574242248
 51
79.6329943727
  0
ARC
  5
4CF
100
AcDbEntity
  8
02___PRT_ALL_AXES
100
AcDbCircle
 62
7
  6
CONTINUOUS
 10
1373.5344644881
 20
358.0426153899
 40
5.3598844431
100
AcDbArc
 50
331.6291613069
 51
82.3966597511
  0
ARC
  5
4D0
100
AcDbEntity
  8
02___PRT_ALL_AXES
100
AcDbCircle
 62
7
  6
CONTINUOUS
 10
1379.7421164811
 20
474.4081808573
 40
4.9154149757
100
AcDbArc
 50
268.5068903051
 51
359.9909629714
  0
ARC
  5
4D1
100
AcDbEntity
  8
02___PRT_ALL_AXES
100
AcDbCircle
 62
7
  6
CONTINUOUS
 10
1373.5520835284
 20
358.0425444083
 40
4.9144842867
100
AcDbArc
 50
331.5087497539
 51
82.6505602287
  0
ARC
  5
4D2
100
AcDbEntity
  8
0
100
AcDbCircle
 62
7
  6
CONTINUOUS
 10
1443.9578669675
 20
225.5879652605
 40
0.45
100
AcDbArc
 50
109.4712206339
 51
160.5287793655
  0
ARC
  5
4D3
100
AcDbEntity
  8
02___PRT_ALL_AXES
100
AcDbCircle
 62
7
  6
CONTINUOUS
 10
844.4078669675
 20
1017.4379652605
 40
707.6363811819
100
AcDbArc
 50
260.7825110163
 51
279.2174889837
  0
ARC
  5
4D4
100
AcDbEntity
  8
02___PRT_ALL_AXES
100
AcDbCircle
 62
7
  6
CONTINUOUS
 10
844.4078669675
 20
1017.4379652605
 40
699.0387352396
100
AcDbArc
 50
260.7825110163
 51
279.2174889837
  0
ARC
  5
4D5
100
AcDbEntity
  8
02___PRT_ALL_AXES
100
AcDbCircle
 62
7
  6
CONTINUOUS
 10
844.1714632146
 20
1013.862844017
 40
639.0897522024
100
AcDbArc
 50
270.0211941086
 51
279.344320486
  0
ARC
  5
4D6
100
AcDbEntity
  8
02___PRT_ALL_AXES
100
AcDbCircle
 62
7
  6
CONTINUOUS
 10
844.6442702715
 20
1013.8628385373
 40
639.0897467226
100
AcDbArc
 50
260.6556794739
 51
269.9788059315
  0
ARC
  5
4D7
100
AcDbEntity
  8
02___PRT_ALL_AXES
100
AcDbCircle
 62
7
  6
CONTINUOUS
 10
1007.5763669542
 20
533.0540382388
 40
187.8038184422
100
AcDbArc
 50
292.8401883765
 51
293.1599719631
  0
ARC
  5
4D8
100
AcDbEntity
  8
02___PRT_ALL_AXES
100
AcDbCircle
 62
7
  6
CONTINUOUS
 10
996.5593366146
 20
650.3760493329
 40
136.9896098134
100
AcDbArc
 50
359.4285417704
 51
359.8729364933
  0
ARC
  5
4D9
100
AcDbEntity
  8
02___PRT_ALL_AXES
100
AcDbCircle
 62
7
  6
CONTINUOUS
 10
940.5173634012
 20
549.6904153992
 40
107.6363811819
100
AcDbArc
 50
7.1521653049
 51
80.7825110163
  0
ARC
  5
4DA
100
AcDbEntity
  8
02___PRT_ALL_AXES
100
AcDbCircle
 62
7
  6
CONTINUOUS
 10
979.137961677
 20
577.6248456833
 40
103.7144950101
100
AcDbArc
 50
9.6429210107
 51
10.2275229858
  0
ARC
  5
4DB
100
AcDbEntity
  8
02___PRT_ALL_AXES
100
AcDbCircle
 62
7
  6
CONTINUOUS
 10
940.5173634012
 20
549.6904153992
 40
99.0387352396
100
AcDbArc
 50
7.1521653049
 51
80.7825110163
  0
ARC
  5
4DC
100
AcDbEntity
  8
02___PRT_ALL_AXES
100
AcDbCircle
 62
7
  6
CONTINUOUS
 10
940.590133719
 20
549.7033986502
 40
95.9244484929
100
AcDbArc
 50
7.146611212
 51
80.8277622291
  0
ARC
  5
4DD
100
AcDbEntity
  8
02___PRT_ALL_AXES
100
AcDbCircle
 62
7
  6
CONTINUOUS
 10
1009.9456138516
 20
554.3643343948
 40
72.1931312476
100
AcDbArc
 50
6.6304266475
 51
7.4708673406
  0
ARC
  5
4DE
100
AcDbEntity
  8
02___PRT_ALL_AXES
100
AcDbCircle
 62
7
  6
CONTINUOUS
 10
1134.4089304029
 20
592.4368807697
 40
65.0010844995
100
AcDbArc
 50
90.0009339668
 51
179.9990442273
  0
ARC
  5
4DF
100
AcDbEntity
  8
02___PRT_ALL_AXES
100
AcDbCircle
 62
7
  6
CONTINUOUS
 10
1134.3939451394
 20
592.4378941273
 40
63.5168314358
100
AcDbArc
 50
89.9999358214
 51
179.9999358338
  0
ARC
  5
4E0
100
AcDbEntity
  8
02___PRT_ALL_AXES
100
AcDbCircle
 62
7
  6
CONTINUOUS
 10
1021.8100448862
 20
497.464551316
 40
60.4016103331
100
AcDbArc
 50
0.6531944253
 51
1.6590151177
  0
CIRCLE
  5
4E1
100
AcDbEntity
  8
02___PRT_ALL_AXES
100
AcDbCircle
 62
7
  6
CONTINUOUS
 10
844.4078669675
 20
535.4379652605
 40
58.0
  0
CIRCLE
  5
4E2
100
AcDbEntity
  8
02___PRT_ALL_AXES
100
AcDbCircle
 62
7
  6
CONTINUOUS
 10
844.4078669675
 20
535.4379652605
 40
47.4549812845
  0
CIRCLE
  5
4E3
100
AcDbEntity
  8
02___PRT_ALL_AXES
100
AcDbCircle
 62
7
  6
CONTINUOUS
 10
844.4078669675
 20
535.4379652605
 40
46.3716927562
  0
CIRCLE
  5
4E4
100
AcDbEntity
  8
02___PRT_ALL_AXES
100
AcDbCircle
 62
7
  6
CONTINUOUS
 10
844.4078669675
 20
535.4379652605
 40
46.2284846718
  0
CIRCLE
  5
4E5
100
AcDbEntity
  8
02___PRT_ALL_AXES
100
AcDbCircle
 62
7
  6
CONTINUOUS
 10
844.4078669675
 20
535.4379652605
 40
44.776507256
  0
CIRCLE
  5
4E6
100
AcDbEntity
  8
02___PRT_ALL_AXES
100
AcDbCircle
 62
7
  6
CONTINUOUS
 10
844.4078669675
 20
535.4379652605
 40
34.8447085729
  0
ARC
  5
4E7
100
AcDbEntity
  8
02___PRT_ALL_AXES
100
AcDbCircle
 62
7
  6
CONTINUOUS
 10
1168.0588344509
 20
656.6107254536
 40
33.6617108189
100
AcDbArc
 50
178.8420574705
 51
179.4072066787
  0
ARC
  5
4E8
100
AcDbEntity
  8
02___PRT_ALL_AXES
100
AcDbCircle
 62
7
  6
CONTINUOUS
 10
1086.3881268823
 20
612.4097668523
 40
6.4257096922
100
AcDbArc
 50
157.055737263
 51
280.4492861168
  0
ARC
  5
4E9
100
AcDbEntity
  8
02___PRT_ALL_AXES
100
AcDbCircle
 62
7
  6
CONTINUOUS
 10
1082.3355955494
 20
589.7195983213
 40
6.4209475907
100
AcDbArc
 50
100.1462025205
 51
180.0094798123
  0
ARC
  5
4EA
100
AcDbEntity
  8
02___PRT_ALL_AXES
100
AcDbCircle
 62
7
  6
CONTINUOUS
 10
1086.3740031884
 20
612.4082281733
 40
5.3629959987
100
AcDbArc
 50
157.0033846421
 51
280.4734246126
  0
ARC
  5
4EB
100
AcDbEntity
  8
02___PRT_ALL_AXES
100
AcDbCircle
 62
7
  6
CONTINUOUS
 10
1082.3242364208
 20
589.7184073448
 40
5.3617556211
100
AcDbArc
 50
100.0687793486
 51
179.9930086459
  0
ARC
  5
4EC
100
AcDbEntity
  8
02___PRT_ALL_AXES
100
AcDbCircle
 62
7
  6
CONTINUOUS
 10
1086.3907426128
 20
612.4077322685
 40
4.9170377099
100
AcDbArc
 50
157.09859361
 51
280.2305220638
  0
ARC
  5
4ED
100
AcDbEntity
  8
02___PRT_ALL_AXES
100
AcDbCircle
 62
7
  6
CONTINUOUS
 10
1082.3422927008
 20
514.4018584157
 40
4.9154142903
100
AcDbArc
 50
180.0124578776
 51
271.4555546055
  0
ARC
  5
4EE
100
AcDbEntity
  8
02___PRT_ALL_AXES
100
AcDbCircle
 62
7
  6
CONTINUOUS
 10
1082.3408848135
 20
546.7476543536
 40
4.9150560587
100
AcDbArc
 50
180.009447283
 51
274.4177792856
  0
ARC
  5
4EF
100
AcDbEntity
  8
02___PRT_ALL_AXES
100
AcDbCircle
 62
7
  6
CONTINUOUS
 10
1082.3395164063
 20
589.719864152
 40
4.9143563569
100
AcDbArc
 50
100.2998807065
 51
180.0091811671
  0
ARC
  5
4F0
100
AcDbEntity
  8
02___PRT_ALL_AXES
100
AcDbCircle
 62
7
  6
CONTINUOUS
 10
1082.3412799854
 20
492.7945261201
 40
4.913790445
100
AcDbArc
 50
91.4944500831
 51
180.0113719797
  0
ARC
  5
4F1
100
AcDbEntity
  8
02___PRT_ALL_AXES
100
AcDbCircle
 62
7
  6
CONTINUOUS
 10
1050.9451317737
 20
1549.9356122816
 40
852.1164491745
100
AcDbArc
 50
269.9999931979
 51
270.4582031787
  0
ARC
  5
4F2
100
AcDbEntity
  8
02___PRT_ALL_AXES
100
AcDbCircle
 62
7
  6
CONTINUOUS
 10
844.3418037408
 20
1022.3378089787
 40
700.945276064
100
AcDbArc
 50
270.0054000565
 51
279.1582283793
  0
ARC
  5
4F3
100
AcDbEntity
  8
02___PRT_ALL_AXES
100
AcDbCircle
 62
7
  6
CONTINUOUS
 10
844.4737601501
 20
1022.3356968544
 40
700.9431639237
100
AcDbArc
 50
260.8418129507
 51
269.9946138268
  0
ARC
  5
4F4
100
AcDbEntity
  8
02___PRT_ALL_AXES
100
AcDbCircle
 62
7
  6
CONTINUOUS
 10
1255.337653005
 20
487.4379652605
 40
618.5467442348
100
AcDbArc
 50
176.6140141955
 51
183.3859858045
  0
ARC
  5
4F5
100
AcDbEntity
  8
02___PRT_ALL_AXES
100
AcDbCircle
 62
7
  6
CONTINUOUS
 10
1244.4078669675
 20
487.4379652605
 40
607.6363811819
100
AcDbArc
 50
183.4468553821
 51
187.1521653049
  0
ARC
  5
4F6
100
AcDbEntity
  8
02___PRT_ALL_AXES
100
AcDbCircle
 62
7
  6
CONTINUOUS
 10
1244.4078669675
 20
487.4379652605
 40
607.6363811819
100
AcDbArc
 50
172.8478346951
 51
176.5531446179
  0
ARC
  5
4F7
100
AcDbEntity
  8
02___PRT_ALL_AXES
100
AcDbCircle
 62
7
  6
CONTINUOUS
 10
1244.4078669675
 20
487.4379652605
 40
599.0387352396
100
AcDbArc
 50
172.8478346951
 51
187.1521653049
  0
ARC
  5
4F8
100
AcDbEntity
  8
02___PRT_ALL_AXES
100
AcDbCircle
 62
7
  6
CONTINUOUS
 10
1243.3060862761
 20
488.0113240317
 40
541.4557257532
100
AcDbArc
 50
172.8911226381
 51
187.3097285676
  0
ARC
  5
4F9
100
AcDbEntity
  8
02___PRT_ALL_AXES
100
AcDbCircle
 62
7
  6
CONTINUOUS
 10
1201.7061008969
 20
894.249163211
 40
304.5037009235
100
AcDbArc
 50
246.8228344559
 51
247.0985709906
  0
ARC
  5
4FA
100
AcDbEntity
  8
02___PRT_ALL_AXES
100
AcDbCircle
 62
7
  6
CONTINUOUS
 10
1501.2801744202
 20
587.2048680665
 40
262.3453135389
100
AcDbArc
 50
241.6114199489
 51
241.9393484963
  0
ARC
  5
4FB
100
AcDbEntity
  8
02___PRT_ALL_AXES
100
AcDbCircle
 62
7
  6
CONTINUOUS
 10
1305.8012801302
 20
754.7645095859
 40
153.5168374678
100
AcDbArc
 50
298.1552704393
 51
298.5558915159
  0
ARC
  5
4FC
100
AcDbEntity
  8
02___PRT_ALL_AXES
100
AcDbCircle
 62
7
  6
CONTINUOUS
 10
1224.293713379
 20
656.0174289392
 40
89.8997189598
100
AcDbArc
 50
179.3999040866
 51
180.0399627401
  0
ARC
  5
4FD
100
AcDbEntity
  8
02___PRT_ALL_AXES
100
AcDbCircle
 62
7
  6
CONTINUOUS
 10
1419.2847434097
 20
656.0177597711
 40
89.890749224
100
AcDbArc
 50
179.3996686816
 51
180.0401775979
  0
ARC
  5
4FE
100
AcDbEntity
  8
02___PRT_ALL_AXES
100
AcDbCircle
 62
7
  6
CONTINUOUS
 10
1282.936869867
 20
686.1171404107
 40
86.7961332692
100
AcDbArc
 50
328.833758852
 51
329.5380260306
  0
ARC
  5
4FF
100
AcDbEntity
  8
02___PRT_ALL_AXES
100
AcDbCircle
 62
7
  6
CONTINUOUS
 10
1442.9393049943
 20
622.0443042228
 40
69.4971988877
100
AcDbArc
 50
187.0895027703
 51
188.3157428459
  0
ARC
  5
500
100
AcDbEntity
  8
02___PRT_ALL_AXES
100
AcDbCircle
 62
7
  6
CONTINUOUS
 10
1329.4067833501
 20
592.4369024957
 40
65.0010836261
100
AcDbArc
 50
0.0009366158
 51
89.9990482763
  0
ARC
  5
501
100
AcDbEntity
  8
02___PRT_ALL_AXES
100
AcDbCircle
 62
7
  6
CONTINUOUS
 10
1329.3940873994
 20
592.4378940934
 40
63.5168314698
100
AcDbArc
 50
0.0000641968
 51
90.000064148
  0
ARC
  5
502
100
AcDbEntity
  8
02___PRT_ALL_AXES
100
AcDbCircle
 62
7
  6
CONTINUOUS
 10
1363.0486467093
 20
656.6111736073
 40
33.6515221155
100
AcDbArc
 50
178.8424650617
 51
179.4067580982
  0
ARC
  5
503
100
AcDbEntity
  8
02___PRT_ALL_AXES
100
AcDbCircle
 62
7
  6
CONTINUOUS
 10
1389.4078669675
 20
672.4379652605
 40
32.3671361037
100
AcDbArc
 50
0.0
 51
90.0
  0
ARC
  5
504
100
AcDbEntity
  8
02___PRT_ALL_AXES
100
AcDbCircle
 62
7
  6
CONTINUOUS
 10
1389.4078669675
 20
672.4379652605
 40
28.8164319482
100
AcDbArc
 50
0.0
 51
90.0
  0
ARC
  5
505
100
AcDbEntity
  8
02___PRT_ALL_AXES
100
AcDbCircle
 62
7
  6
CONTINUOUS
 10
1389.5771247774
 20
672.437363935
 40
28.0619023645
100
AcDbArc
 50
0.0012277648
 51
90.3455865833
  0
ARC
  5
506
100
AcDbEntity
  8
02___PRT_ALL_AXES
100
AcDbCircle
 62
7
  6
CONTINUOUS
 10
1389.6867167281
 20
672.4362589346
 40
21.1350517075
100
AcDbArc
 50
0.0046257715
 51
90.4555641693
  0
ARC
  5
507
100
AcDbEntity
  8
02___PRT_ALL_AXES
100
AcDbCircle
 62
7
  6
CONTINUOUS
 10
1349.4231446261
 20
628.0177255907
 40
16.3734345181
100
AcDbArc
 50
59.4232974125
 51
100.2706061396
  0
ARC
  5
508
100
AcDbEntity
  8
02___PRT_ALL_AXES
100
AcDbCircle
 62
7
  6
CONTINUOUS
 10
1349.4346344627
 20
628.0509563328
 40
14.8356792066
100
AcDbArc
 50
59.4287296766
 51
100.3835916657
  0
ARC
  5
509
100
AcDbEntity
  8
02___PRT_ALL_AXES
100
AcDbCircle
 62
7
  6
CONTINUOUS
 10
1373.5407753791
 20
616.8653975697
 40
6.4188990196
100
AcDbArc
 50
277.5150855767
 51
28.4449131194
  0
ARC
  5
50A
100
AcDbEntity
  8
02___PRT_ALL_AXES
100
AcDbCircle
 62
7
  6
CONTINUOUS
 10
1373.5263444028
 20
616.866524613
 40
5.3594478115
100
AcDbArc
 50
277.6062380032
 51
28.3818754483
  0
ARC
  5
50B
100
AcDbEntity
  8
02___PRT_ALL_AXES
100
AcDbCircle
 62
7
  6
CONTINUOUS
 10
1379.7410457358
 20
500.5022442462
 40
4.9156351652
100
AcDbArc
 50
0.0135339536
 51
91.4940427298
  0
ARC
  5
50C
100
AcDbEntity
  8
02___PRT_ALL_AXES
100
AcDbCircle
 62
7
  6
CONTINUOUS
 10
1373.5420513549
 20
616.8676161205
 40
4.9151714157
100
AcDbArc
 50
277.3728111062
 51
28.4819092642
  0
ARC
  5
50D
100
AcDbEntity
  8
02___PRT_ALL_AXES
100
AcDbCircle
 62
7
  6
CONTINUOUS
 10
1379.7425265784
 20
522.1095694546
 40
4.9135430511
100
AcDbArc
 50
271.4504948217
 51
0.0125323636
  0
ARC
  5
50E
100
AcDbEntity
  8
02___PRT_ALL_AXES
100
AcDbCircle
 62
7
  6
CONTINUOUS
 10
1373.5254186198
 20
616.8658728944
 40
3.4282855466
100
AcDbArc
 50
277.4624872391
 51
28.433150268
  0
ARC
  5
50F
100
AcDbEntity
  8
0
100
AcDbCircle
 62
7
  6
CONTINUOUS
 10
1443.9578669675
 20
749.2879652605
 40
0.45
100
AcDbArc
 50
199.4712206345
 51
250.5287793644
  0
ARC
  5
510
100
AcDbEntity
  8
02___PRT_ALL_AXES
100
AcDbCircle
 62
3
  6
CONTINUOUS
 10
1775.8355772954
 20
-7434.3791363075
 40
7996.5087445242
100
AcDbArc
 50
90.2312885524
 51
90.5819710166
  0
ARC
  5
511
100
AcDbEntity
  8
02___PRT_ALL_AXES
100
AcDbCircle
 62
3
  6
CONTINUOUS
 10
1776.007828053
 20
-365.6547675365
 40
1013.9672149056
100
AcDbArc
 50
91.834067198
 51
94.6386715597
  0
ARC
  5
512
100
AcDbEntity
  8
02___PRT_ALL_AXES
100
AcDbCircle
 62
3
  6
CONTINUOUS
 10
1776.0141084701
 20
-343.3620347395
 40
1000.7124936726
100
AcDbArc
 50
91.8592963709
 51
94.7856902531
  0
ARC
  5
513
100
AcDbEntity
  8
02___PRT_ALL_AXES
100
AcDbCircle
 62
3
  6
CONTINUOUS
 10
741.9547670495
 20
394.2959251171
 40
956.0692234644
100
AcDbArc
 50
355.8012635888
 51
356.1281551111
  0
ARC
  5
514
100
AcDbEntity
  8
02___PRT_ALL_AXES
100
AcDbCircle
 62
3
  6
CONTINUOUS
 10
1699.6836349417
 20
376.2128679503
 40
55.5999999865
100
AcDbArc
 50
181.5000002515
 51
265.3675537475
  0
ARC
  5
515
100
AcDbEntity
  8
0
100
AcDbCircle
 62
7
  6
CONTINUOUS
 10
1771.5759259486
 20
227.8331729787
 40
2.3934638729
100
AcDbArc
 50
275.7111696802
 51
280.4073467888
  0
ARC
  5
516
100
AcDbEntity
  8
0
100
AcDbCircle
 62
7
  6
CONTINUOUS
 10
1771.8141084701
 20
225.7379652605
 40
1.2
100
AcDbArc
 50
270.0
 51
360.0
  0
ARC
  5
517
100
AcDbEntity
  8
0
100
AcDbCircle
 62
7
  6
CONTINUOUS
 10
1744.7565862662
 20
225.7379652605
 40
1.2
100
AcDbArc
 50
180.0
 51
270.0
  0
ARC
  5
518
100
AcDbEntity
  8
0
100
AcDbCircle
 62
7
  6
CONTINUOUS
 10
1771.6337940601
 20
226.6379652605
 40
1.2
100
AcDbArc
 50
270.0
 51
278.6421106274
  0
ARC
  5
519
100
AcDbEntity
  8
0
100
AcDbCircle
 62
3
  6
CONTINUOUS
 10
1771.8141084701
 20
225.7379652605
 40
0.6
100
AcDbArc
 50
270.0
 51
323.9902915105
  0
ARC
  5
51A
100
AcDbEntity
  8
0
100
AcDbCircle
 62
3
  6
CONTINUOUS
 10
1744.7565862662
 20
225.7379652605
 40
0.6
100
AcDbArc
 50
180.0
 51
270.0
  0
ARC
  5
51B
100
AcDbEntity
  8
02___PRT_ALL_AXES
100
AcDbCircle
 62
3
  6
CONTINUOUS
 10
1461.40932349
 20
568.1214142509
 40
183.0057722464
100
AcDbArc
 50
7.1749109845
 51
8.3441836388
  0
ARC
  5
51C
100
AcDbEntity
  8
02___PRT_ALL_AXES
100
AcDbCircle
 62
3
  6
CONTINUOUS
 10
1512.798444291
 20
575.5343779284
 40
131.0849418817
100
AcDbArc
 50
8.3979710887
 51
9.2322208055
  0
ARC
  5
51D
100
AcDbEntity
  8
02___PRT_ALL_AXES
100
AcDbCircle
 62
3
  6
CONTINUOUS
 10
1640.6402444152
 20
491.1790960948
 40
2.6
100
AcDbArc
 50
194.9999999366
 51
259.9999999483
  0
ARC
  5
51E
100
AcDbEntity
  8
02___PRT_ALL_AXES
100
AcDbCircle
 62
3
  6
CONTINUOUS
 10
1640.9141084701
 20
487.982983976
 40
0.5
100
AcDbArc
 50
0.0000000779
 51
79.9999992409
  0
ARC
  5
51F
100
AcDbEntity
  8
02___PRT_ALL_AXES
100
AcDbCircle
 62
3
  6
CONTINUOUS
 10
1640.6402444152
 20
579.6968344263
 40
2.6
100
AcDbArc
 50
100.0000000517
 51
165.0000000634
  0
ARC
  5
520
100
AcDbEntity
  8
02___PRT_ALL_AXES
100
AcDbCircle
 62
3
  6
CONTINUOUS
 10
1640.9141084701
 20
582.8929465451
 40
0.5
100
AcDbArc
 50
280.0000007591
 51
359.9999999221
  0
ARC
  5
521
100
AcDbEntity
  8
02___PRT_ALL_AXES
100
AcDbCircle
 62
3
  6
CONTINUOUS
 10
1697.1643524884
 20
598.4555387578
 40
55.5999999524
100
AcDbArc
 50
94.785690926
 51
178.5000001119
  0
ARC
  5
522
100
AcDbEntity
  8
0
100
AcDbCircle
 62
7
  6
CONTINUOUS
 10
1771.6337196428
 20
748.2380554745
 40
1.2
100
AcDbArc
 50
81.3542953841
 51
90.7025650482
  0
ARC
  5
523
100
AcDbEntity
  8
0
100
AcDbCircle
 62
3
  6
CONTINUOUS
 10
1773.6141084701
 20
749.1379652605
 40
1.2
100
AcDbArc
 50
90.0
 51
180.0
  0
ARC
  5
524
100
AcDbEntity
  8
0
100
AcDbCircle
 62
7
  6
CONTINUOUS
 10
1799.8918224549
 20
750.6379652605
 40
0.9
100
AcDbArc
 50
270.0
 51
92.0
  0
ARC
  5
525
100
AcDbEntity
  8
0
100
AcDbCircle
 62
7
  6
CONTINUOUS
 10
1773.6141084701
 20
749.1379652605
 40
0.6
100
AcDbArc
 50
90.0
 51
180.0
  0
ARC
  5
526
100
AcDbEntity
  8
0
100
AcDbCircle
 62
3
  6
CONTINUOUS
 10
1799.8918224549
 20
750.6379652605
 40
0.3
100
AcDbArc
 50
270.0
 51
91.9999999999
  0
ARC
  5
527
100
AcDbEntity
  8
02___PRT_ALL_AXES
100
AcDbCircle
 62
3
  6
CONTINUOUS
 10
1776.005815414
 20
1340.5545999756
 40
1013.9910329097
100
AcDbArc
 50
265.4655856257
 51
268.1660934967
  0
ARC
  5
528
100
AcDbEntity
  8
02___PRT_ALL_AXES
100
AcDbCircle
 62
3
  6
CONTINUOUS
 10
1776.0141084701
 20
1318.2379652605
 40
1000.7124936726
100
AcDbArc
 50
265.3675541566
 51
268.1407470771
  0
ARC
  5
529
100
AcDbEntity
  8
02___PRT_ALL_AXES
100
AcDbCircle
 62
3
  6
CONTINUOUS
 10
1776.3770758143
 20
8348.0339236953
 40
7935.2906142781
100
AcDbArc
 50
269.4178029705
 51
269.7630175684
  0
ARC
  5
52A
100
AcDbEntity
  8
02___PRT_ALL_AXES
100
AcDbCircle
 62
3
  6
CONTINUOUS
 10
12829.1844215793
 20
572.2686608932
 40
11134.5754685416
100
AcDbArc
 50
180.054295697
 51
180.8187979758
  0
ARC
  5
52B
100
AcDbEntity
  8
02___PRT_ALL_AXES
100
AcDbCircle
 62
3
  6
CONTINUOUS
 10
11457.6324862352
 20
564.2632185954
 40
9814.0812060002
100
AcDbArc
 50
180.0539542646
 51
180.8474518223
  0
SPLINE
  5
52C
100
AcDbEntity
  8
0
100
AcDbSpline
 62
7
  6
CONTINUOUS
 70
0
 71
3
 72
9
 73
5
 74
0
 42
0.0000001
 43
0.0000001
 44
0.0000000001
 40
0.0
 40
0.0
 40
0.0
 40
0.0
 40
0.1827361033
 40
1.0
 40
1.0
 40
1.0
 40
1.0
 10
245.5257530006
 20
751.5379497951
 30
0.0
 10
245.4668968482
 20
751.5378660087
 30
0.0
 10
245.1473426652
 20
751.4308829802
 30
0.0
 10
244.9849300753
 20
751.1115272557
 30
0.0
 10
244.8472238389
 20
750.8871940414
 30
0.0
  0
SPLINE
  5
52D
100
AcDbEntity
  8
0
100
AcDbSpline
 62
7
  6
CONTINUOUS
 70
0
 71
3
 72
9
 73
5
 74
0
 42
0.0000001
 43
0.0000001
 44
0.0000000001
 40
0.0
 40
0.0
 40
0.0
 40
0.0
 40
0.4976506247
 40
1.0
 40
1.0
 40
1.0
 40
1.0
 10
244.8472238389
 20
750.8871940414
 30
0.0
 10
244.8236239697
 20
750.8487481828
 30
0.0
 10
244.7768399758
 20
750.7711011614
 30
0.0
 10
244.7308639618
 20
750.6929762004
 30
0.0
 10
244.7078669675
 20
750.6536724263
 30
0.0
  0
SPLINE
  5
52E
100
AcDbEntity
  8
0
100
AcDbSpline
 62
7
  6
CONTINUOUS
 70
0
 71
3
 72
9
 73
5
 74
0
 42
0.0000001
 43
0.0000001
 44
0.0000000001
 40
0.0
 40
0.0
 40
0.0
 40
0.0
 40
0.5130784134
 40
1.0
 40
1.0
 40
1.0
 40
1.0
 10
1443.5164648607
 20
749.2442723644
 30
0.0
 10
1443.5205335781
 20
749.2953343623
 30
0.0
 10
1443.5556726746
 20
749.3926196707
 30
0.0
 10
1443.6281310607
 20
749.4687638004
 30
0.0
 10
1443.6715033311
 20
749.4907186572
 30
0.0
  0
SPLINE
  5
52F
100
AcDbEntity
  8
0
100
AcDbSpline
 62
7
  6
CONTINUOUS
 70
0
 71
3
 72
9
 73
5
 74
0
 42
0.0000001
 43
0.0000001
 44
0.0000000001
 40
0.0
 40
0.0
 40
0.0
 40
0.0
 40
0.489577417
 40
1.0
 40
1.0
 40
1.0
 40
1.0
 10
245.2821310362
 20
225.7379652605
 30
0.0
 10
245.2902115552
 20
225.7032918361
 30
0.0
 10
245.3058919088
 20
225.6322734496
 30
0.0
 10
245.3173725319
 20
225.5603579596
 30
0.0
 10
245.3212710535
 20
225.523444832
 30
0.0
  0
SPLINE
  5
530
100
AcDbEntity
  8
0
100
AcDbSpline
 62
7
  6
CONTINUOUS
 70
0
 71
3
 72
9
 73
5
 74
0
 42
0.0000001
 43
0.0000001
 44
0.0000000001
 40
0.0
 40
0.0
 40
0.0
 40
0.0
 40
0.476315785
 40
1.0
 40
1.0
 40
1.0
 40
1.0
 10
1444.0346140293
 20
748.8588368855
 30
0.0
 10
1444.0152515415
 20
748.8670468605
 30
0.0
 10
1443.9761830405
 20
748.8881964163
 30
0.0
 10
1443.9414259116
 20
748.9157873461
 30
0.0
 10
1443.9244232485
 20
748.931457912
 30
0.0
  0
SPLINE
  5
531
100
AcDbEntity
  8
0
100
AcDbSpline
 62
7
  6
CONTINUOUS
 70
0
 71
3
 72
9
 73
5
 74
0
 42
0.0000001
 43
0.0000001
 44
0.0000000001
 40
0.0
 40
0.0
 40
0.0
 40
0.0
 40
0.4763538665
 40
1.0
 40
1.0
 40
1.0
 40
1.0
 10
244.7812596117
 20
226.0172691249
 30
0.0
 10
244.8006715285
 20
226.0090681664
 30
0.0
 10
244.8398406444
 20
225.9879235747
 30
0.0
 10
244.8746872295
 20
225.9603067412
 30
0.0
 10
244.891730745
 20
225.9446175807
 30
0.0
  0
SPLINE
  5
532
100
AcDbEntity
  8
0
100
AcDbSpline
 62
7
  6
CONTINUOUS
 70
0
 71
3
 72
9
 73
5
 74
0
 42
0.0000001
 43
0.0000001
 44
0.0000000001
 40
0.0
 40
0.0
 40
0.0
 40
0.0
 40
0.4895756283
 40
1.0
 40
1.0
 40
1.0
 40
1.0
 10
245.0078669675
 20
748.8637011918
 30
0.0
 10
244.9731940529
 20
748.8556207917
 30
0.0
 10
244.9021765011
 20
748.8399404049
 30
0.0
 10
244.83026192
 20
748.8284592959
 30
0.0
 10
244.7933491196
 20
748.824560343
 30
0.0
  0
SPLINE
  5
533
100
AcDbEntity
  8
0
100
AcDbSpline
 62
7
  6
CONTINUOUS
 70
0
 71
3
 72
9
 73
5
 74
0
 42
0.0000001
 43
0.0000001
 44
0.0000000001
 40
0.0
 40
0.0
 40
0.0
 40
0.0
 40
0.4763131992
 40
1.0
 40
1.0
 40
1.0
 40
1.0
 10
1443.5287394306
 20
225.5112150464
 30
0.0
 10
1443.5369495173
 20
225.5305769933
 30
0.0
 10
1443.5580994185
 20
225.5696445007
 30
0.0
 10
1443.5856905585
 20
225.6044005446
 30
0.0
 10
1443.6013612495
 20
225.6214027388
 30
0.0
  0
SPLINE
  5
534
100
AcDbEntity
  8
0
100
AcDbSpline
 62
7
  6
CONTINUOUS
 70
0
 71
3
 72
9
 73
5
 74
0
 42
0.0000001
 43
0.0000001
 44
0.0000000001
 40
0.0
 40
0.0
 40
0.0
 40
0.0
 40
0.4895813367
 40
1.0
 40
1.0
 40
1.0
 40
1.0
 10
1443.8078669675
 20
226.0122293293
 30
0.0
 10
1443.8425410144
 20
226.0203099933
 30
0.0
 10
1443.9135613659
 20
226.0359853772
 30
0.0
 10
1443.9854788592
 20
226.0474578484
 30
0.0
 10
1444.0223924162
 20
226.0513531041
 30
0.0
  0
SPLINE
  5
535
100
AcDbEntity
  8
0
100
AcDbSpline
 62
7
  6
CONTINUOUS
 70
0
 71
3
 72
9
 73
5
 74
0
 42
0.0000001
 43
0.0000001
 44
0.0000000001
 40
0.0
 40
0.0
 40
0.0
 40
0.0
 40
0.4869215866
 40
1.0
 40
1.0
 40
1.0
 40
1.0
 10
245.1442306038
 20
749.4907186572
 30
0.0
 10
245.1876028743
 20
749.4687638004
 30
0.0
 10
245.2600612604
 20
749.3926196707
 30
0.0
 10
245.2952003568
 20
749.2953343623
 30
0.0
 10
245.2992690743
 20
749.2442723644
 30
0.0
  0
SPLINE
  5
536
100
AcDbEntity
  8
0
100
AcDbSpline
 62
7
  6
CONTINUOUS
 70
0
 71
3
 72
8
 73
4
 74
0
 42
0.0000001
 43
0.0000001
 44
0.0000000001
 40
0.0
 40
0.0
 40
0.0
 40
0.0
 40
1.0
 40
1.0
 40
1.0
 40
1.0
 10
1444.1078669675
 20
750.6536724263
 30
0.0
 10
1443.9795994641
 20
750.8728922475
 30
0.0
 10
1443.8528974153
 20
751.0960109569
 30
0.0
 10
1443.6897460005
 20
751.2906683439
 30
0.0
  0
SPLINE
  5
537
100
AcDbEntity
  8
0
100
AcDbSpline
 62
7
  6
CONTINUOUS
 70
0
 71
3
 72
8
 73
4
 74
0
 42
0.0000001
 43
0.0000001
 44
0.0000000001
 40
0.0
 40
0.0
 40
0.0
 40
0.0
 40
1.0
 40
1.0
 40
1.0
 40
1.0
 10
1443.6897460005
 20
751.2906683439
 30
0.0
 10
1443.6132162653
 20
751.3819766436
 30
0.0
 10
1443.5222088249
 20
751.4716653752
 30
0.0
 10
1443.4109819049
 20
751.5143570398
 30
0.0
  0
SPLINE
  5
538
100
AcDbEntity
  8
0
100
AcDbSpline
 62
7
  6
CONTINUOUS
 70
0
 71
3
 72
9
 73
5
 74
0
 42
0.0000001
 43
0.0000001
 44
0.0000000001
 40
0.0
 40
0.0
 40
0.0
 40
0.0
 40
0.5104732172
 40
1.0
 40
1.0
 40
1.0
 40
1.0
 10
1443.4109819049
 20
751.5143570398
 30
0.0
 10
1443.3913153053
 20
751.521905571
 30
0.0
 10
1443.3515273454
 20
751.5336841356
 30
0.0
 10
1443.3101820294
 20
751.5379210372
 30
0.0
 10
1443.2899809344
 20
751.5379497951
 30
0.0
  0
SPLINE
  5
539
100
AcDbEntity
  8
02___PRT_ALL_AXES
100
AcDbSpline
 62
7
  6
CONTINUOUS
 70
0
 71
3
 72
9
 73
5
 74
0
 42
0.0000001
 43
0.0000001
 44
0.0000000001
 40
0.0
 40
0.0
 40
0.0
 40
0.0
 40
0.2758231476
 40
1.0
 40
1.0
 40
1.0
 40
1.0
 10
1082.2428022459
 20
496.2225736911
 30
0.0
 10
1082.2393046785
 20
496.3590356498
 30
0.0
 10
1082.2273380092
 20
496.8537965564
 30
0.0
 10
1082.2174655478
 20
497.3486192201
 30
0.0
 10
1082.2132090854
 20
497.7069940501
 30
0.0
  0
SPLINE
  5
53A
100
AcDbEntity
  8
02___PRT_ALL_AXES
100
AcDbSpline
 62
7
  6
CONTINUOUS
 70
0
 71
3
 72
9
 73
5
 74
0
 42
0.0000001
 43
0.0000001
 44
0.0000000001
 40
0.0
 40
0.0
 40
0.0
 40
0.0
 40
0.2758213164
 40
1.0
 40
1.0
 40
1.0
 40
1.0
 10
1379.6424093746
 20
503.93212825
 30
0.0
 10
1379.6388899911
 20
504.0685829209
 30
0.0
 10
1379.6268523846
 20
504.5633209994
 30
0.0
 10
1379.6169344575
 20
505.0581218463
 30
0.0
 10
1379.6126596272
 20
505.4164820865
 30
0.0
  0
SPLINE
  5
53B
100
AcDbEntity
  8
0
100
AcDbSpline
 62
7
  6
CONTINUOUS
 70
0
 71
3
 72
8
 73
4
 74
0
 42
0.0000001
 43
0.0000001
 44
0.0000000001
 40
0.0
 40
0.0
 40
0.0
 40
0.0
 40
1.0
 40
1.0
 40
1.0
 40
1.0
 10
244.3023601741
 20
225.8743288969
 30
0.0
 10
244.420881735
 20
225.9913997854
 30
0.0
 10
244.6278002878
 20
226.0821011327
 30
0.0
 10
244.7812596117
 20
226.0172691249
 30
0.0
  0
SPLINE
  5
53C
100
AcDbEntity
  8
0
100
AcDbSpline
 62
7
  6
CONTINUOUS
 70
0
 71
3
 72
9
 73
5
 74
0
 42
0.0000001
 43
0.0000001
 44
0.0000000001
 40
0.0
 40
0.0
 40
0.0
 40
0.0
 40
0.3442949255
 40
1.0
 40
1.0
 40
1.0
 40
1.0
 10
244.3023601741
 20
225.8743288969
 30
0.0
 10
244.2516680087
 20
225.8242571901
 30
0.0
 10
244.0981933641
 20
225.6852448056
 30
0.0
 10
243.9141608222
 20
225.5803435821
 30
0.0
 10
243.8238226296
 20
225.4790856182
 30
0.0
  0
SPLINE
  5
53D
100
AcDbEntity
  8
0
100
AcDbSpline
 62
7
  6
CONTINUOUS
 70
0
 71
3
 72
8
 73
4
 74
0
 42
0.0000001
 43
0.0000001
 44
0.0000000001
 40
0.0
 40
0.0
 40
0.0
 40
0.0
 40
1.0
 40
1.0
 40
1.0
 40
1.0
 10
1444.0223924162
 20
226.0513531041
 30
0.0
 10
1444.1627637156
 20
226.0661656055
 30
0.0
 10
1444.3750694264
 20
225.9856588113
 30
0.0
 10
1444.3924897224
 20
225.8455872396
 30
0.0
  0
SPLINE
  5
53E
100
AcDbEntity
  8
0
100
AcDbSpline
 62
7
  6
CONTINUOUS
 70
0
 71
3
 72
9
 73
5
 74
0
 42
0.0000001
 43
0.0000001
 44
0.0000000001
 40
0.0
 40
0.0
 40
0.0
 40
0.0
 40
0.3011485244
 40
1.0
 40
1.0
 40
1.0
 40
1.0
 10
244.7214915153
 20
224.5379652605
 30
0.0
 10
244.7694649485
 20
224.5379652605
 30
0.0
 10
244.8573130662
 20
224.7189992919
 30
0.0
 10
244.9567703237
 20
224.8180021729
 30
0.0
 10
245.0279762904
 20
224.9035805853
 30
0.0
  0
SPLINE
  5
53F
100
AcDbEntity
  8
0
100
AcDbSpline
 62
7
  6
CONTINUOUS
 70
0
 71
3
 72
9
 73
5
 74
0
 42
0.0000001
 43
0.0000001
 44
0.0000000001
 40
0.0
 40
0.0
 40
0.0
 40
0.0
 40
0.4880603225
 40
1.0
 40
1.0
 40
1.0
 40
1.0
 10
245.0279762904
 20
224.9035805853
 30
0.0
 10
245.0460406655
 20
224.9252911332
 30
0.0
 10
245.083801697
 20
224.969159209
 30
0.0
 10
245.1234120239
 20
225.0113819158
 30
0.0
 10
245.1442306039
 20
225.0324584672
 30
0.0
  0
SPLINE
  5
540
100
AcDbEntity
  8
0
100
AcDbSpline
 62
7
  6
CONTINUOUS
 70
0
 71
3
 72
8
 73
4
 74
0
 42
0.0000001
 43
0.0000001
 44
0.0000000001
 40
0.0
 40
0.0
 40
0.0
 40
0.0
 40
1.0
 40
1.0
 40
1.0
 40
1.0
 10
244.7933491196
 20
748.824560343
 30
0.0
 10
244.6530494992
 20
748.80974105
 30
0.0
 10
244.4408435605
 20
748.8903576283
 30
0.0
 10
244.4235183664
 20
749.030369887
 30
0.0
  0
SPLINE
  5
541
100
AcDbEntity
  8
0
100
AcDbSpline
 62
7
  6
CONTINUOUS
 70
0
 71
3
 72
9
 73
5
 74
0
 42
0.0000001
 43
0.0000001
 44
0.0000000001
 40
0.0
 40
0.0
 40
0.0
 40
0.0
 40
0.5065690694
 40
1.0
 40
1.0
 40
1.0
 40
1.0
 10
245.2992690743
 20
749.2442723644
 30
0.0
 10
245.3007254059
 20
749.2259955482
 30
0.0
 10
245.2999057657
 20
749.1894641778
 30
0.0
 10
245.2896758155
 20
749.154152546
 30
0.0
 10
245.2821310362
 20
749.1379652605
 30
0.0
  0
SPLINE
  5
542
100
AcDbEntity
  8
0
100
AcDbSpline
 62
7
  6
CONTINUOUS
 70
0
 71
3
 72
8
 73
4
 74
0
 42
0.0000001
 43
0.0000001
 44
0.0000000001
 40
0.0
 40
0.0
 40
0.0
 40
0.0
 40
1.0
 40
1.0
 40
1.0
 40
1.0
 10
1443.6715033311
 20
225.0324584672
 30
0.0
 10
1443.5544763182
 20
225.1509356088
 30
0.0
 10
1443.4637285961
 20
225.3578992083
 30
0.0
 10
1443.5287394306
 20
225.5112150464
 30
0.0
  0
SPLINE
  5
543
100
AcDbEntity
  8
0
100
AcDbSpline
 62
7
  6
CONTINUOUS
 70
0
 71
3
 72
9
 73
5
 74
0
 42
0.0000001
 43
0.0000001
 44
0.0000000001
 40
0.0
 40
0.0
 40
0.0
 40
0.0
 40
0.3442949255
 40
1.0
 40
1.0
 40
1.0
 40
1.0
 10
1443.6715033311
 20
225.0324584672
 30
0.0
 10
1443.7215750379
 20
224.9817663017
 30
0.0
 10
1443.8605874224
 20
224.8282916571
 30
0.0
 10
1443.9654886459
 20
224.6442591152
 30
0.0
 10
1444.0667466098
 20
224.5539209226
 30
0.0
  0
SPLINE
  5
544
100
AcDbEntity
  8
0
100
AcDbSpline
 62
7
  6
CONTINUOUS
 70
0
 71
3
 72
8
 73
4
 74
0
 42
0.0000001
 43
0.0000001
 44
0.0000000001
 40
0.0
 40
0.0
 40
0.0
 40
0.0
 40
1.0
 40
1.0
 40
1.0
 40
1.0
 10
245.3212710535
 20
225.523444832
 30
0.0
 10
245.3360879953
 20
225.3831507086
 30
0.0
 10
245.2554877388
 20
225.1709591724
 30
0.0
 10
245.1154827345
 20
225.1536218837
 30
0.0
  0
SPLINE
  5
545
100
AcDbEntity
  8
0
100
AcDbSpline
 62
7
  6
CONTINUOUS
 70
0
 71
3
 72
9
 73
5
 74
0
 42
0.0000001
 43
0.0000001
 44
0.0000000001
 40
0.0
 40
0.0
 40
0.0
 40
0.0
 40
0.3011485244
 40
1.0
 40
1.0
 40
1.0
 40
1.0
 10
1445.0078669675
 20
225.4515898084
 30
0.0
 10
1445.0078669675
 20
225.4995632415
 30
0.0
 10
1444.8268329362
 20
225.5874113593
 30
0.0
 10
1444.7278300552
 20
225.6868686168
 30
0.0
 10
1444.6422516427
 20
225.7580745834
 30
0.0
  0
SPLINE
  5
546
100
AcDbEntity
  8
0
100
AcDbSpline
 62
7
  6
CONTINUOUS
 70
0
 71
3
 72
9
 73
5
 74
0
 42
0.0000001
 43
0.0000001
 44
0.0000000001
 40
0.0
 40
0.0
 40
0.0
 40
0.0
 40
0.4880603225
 40
1.0
 40
1.0
 40
1.0
 40
1.0
 10
1444.6422516427
 20
225.7580745834
 30
0.0
 10
1444.6205410948
 20
225.7761389586
 30
0.0
 10
1444.576673019
 20
225.8138999901
 30
0.0
 10
1444.5344503122
 20
225.8535103169
 30
0.0
 10
1444.5133737609
 20
225.8743288969
 30
0.0
  0
SPLINE
  5
547
100
AcDbEntity
  8
02___PRT_ALL_AXES
100
AcDbSpline
 62
7
  6
CONTINUOUS
 70
0
 71
3
 72
14
 73
10
 74
0
 42
0.0000001
 43
0.0000001
 44
0.0000000001
 40
0.0
 40
0.0
 40
0.0
 40
0.0
 40
0.3657242862
 40
0.5322481039
 40
0.6802627632
 40
0.8047488941
 40
0.9015151204
 40
0.9673142527
 40
1.0
 40
1.0
 40
1.0
 40
1.0
 10
740.4395556562
 20
590.9712137034
 30
0.0
 10
739.3989660467
 20
597.4675825463
 30
0.0
 10
737.9177949058
 20
606.9274670379
 30
0.0
 10
736.1066358669
 20
619.0299486145
 30
0.0
 10
734.9749829181
 20
626.8471400824
 30
0.0
 10
734.0794905528
 20
633.4271815534
 30
0.0
 10
733.4056179167
 20
638.5527850263
 30
0.0
 10
733.0687076501
 20
642.0385627701
 30
0.0
 10
732.8767728063
 20
643.8144359409
 30
0.0
 10
732.9290791954
 20
644.4001037209
 30
0.0
  0
SPLINE
  5
548
100
AcDbEntity
  8
02___PRT_ALL_AXES
100
AcDbSpline
 62
7
  6
CONTINUOUS
 70
0
 71
3
 72
9
 73
5
 74
0
 42
0.0000001
 43
0.0000001
 44
0.0000000001
 40
0.0
 40
0.0
 40
0.0
 40
0.0
 40
0.2758132363
 40
1.0
 40
1.0
 40
1.0
 40
1.0
 10
1379.6438758881
 20
470.9780233761
 30
0.0
 10
1379.6389526802
 20
470.8416521161
 30
0.0
 10
1379.6230668873
 20
470.3471408003
 30
0.0
 10
1379.6171149206
 20
469.8523765347
 30
0.0
 10
1379.6140231554
 20
469.4940945347
 30
0.0
  0
SPLINE
  5
549
100
AcDbEntity
  8
02___PRT_ALL_AXES
100
AcDbSpline
 62
7
  6
CONTINUOUS
 70
0
 71
3
 72
9
 73
5
 74
0
 42
0.0000001
 43
0.0000001
 44
0.0000000001
 40
0.0
 40
0.0
 40
0.0
 40
0.0
 40
0.2757936231
 40
1.0
 40
1.0
 40
1.0
 40
1.0
 10
1082.4201618091
 20
510.9721675501
 30
0.0
 10
1082.4237005101
 20
510.8356549985
 30
0.0
 10
1082.4372532431
 20
510.3406946728
 30
0.0
 10
1082.4529313499
 20
509.8457815895
 30
0.0
 10
1082.4671652408
 20
509.4874755241
 30
0.0
  0
SPLINE
  5
54A
100
AcDbEntity
  8
02___PRT_ALL_AXES
100
AcDbSpline
 62
7
  6
CONTINUOUS
 70
0
 71
3
 72
9
 73
5
 74
0
 42
0.0000001
 43
0.0000001
 44
0.0000000001
 40
0.0
 40
0.0
 40
0.0
 40
0.0
 40
0.2758666903
 40
1.0
 40
1.0
 40
1.0
 40
1.0
 10
1082.0651384185
 20
528.5024468658
 30
0.0
 10
1082.0557372546
 20
528.6385265428
 30
0.0
 10
1082.0213434714
 20
529.1317856163
 30
0.0
 10
1081.9825283354
 20
529.6247330015
 30
0.0
 10
1081.9587036531
 20
529.9819917838
 30
0.0
  0
SPLINE
  5
54B
100
AcDbEntity
  8
02___PRT_ALL_AXES
100
AcDbSpline
 62
7
  6
CONTINUOUS
 70
0
 71
3
 72
9
 73
5
 74
0
 42
0.0000001
 43
0.0000001
 44
0.0000000001
 40
0.0
 40
0.0
 40
0.0
 40
0.0
 40
0.2758567849
 40
1.0
 40
1.0
 40
1.0
 40
1.0
 10
1379.4640094712
 20
551.6105739197
 30
0.0
 10
1379.4534595657
 20
551.7465966315
 30
0.0
 10
1379.4159331772
 20
552.2397422612
 30
0.0
 10
1379.3805093424
 20
552.7330591107
 30
0.0
 10
1379.3577565792
 20
553.0904770711
 30
0.0
  0
SPLINE
  5
54C
100
AcDbEntity
  8
02___PRT_ALL_AXES
100
AcDbSpline
 62
7
  6
CONTINUOUS
 70
0
 71
3
 72
9
 73
5
 74
0
 42
0.0000001
 43
0.0000001
 44
0.0000000001
 40
0.0
 40
0.0
 40
0.0
 40
0.0
 40
0.2757762622
 40
1.0
 40
1.0
 40
1.0
 40
1.0
 10
1379.8199151589
 20
518.6817085311
 30
0.0
 10
1379.8221513068
 20
518.5451962849
 30
0.0
 10
1379.8321417032
 20
518.0502101668
 30
0.0
 10
1379.8515367432
 20
517.5554715443
 30
0.0
 10
1379.8669081386
 20
517.1972544799
 30
0.0
  0
SPLINE
  5
54D
100
AcDbEntity
  8
02___PRT_ALL_AXES
100
AcDbSpline
 62
7
  6
CONTINUOUS
 70
0
 71
3
 72
9
 73
5
 74
0
 42
0.0000001
 43
0.0000001
 44
0.0000000001
 40
0.0
 40
0.0
 40
0.0
 40
0.0
 40
0.2757566877
 40
1.0
 40
1.0
 40
1.0
 40
1.0
 10
1082.5959280218
 20
543.3278159047
 30
0.0
 10
1082.6065110839
 20
543.1915972079
 30
0.0
 10
1082.6456077632
 20
542.6976733068
 30
0.0
 10
1082.6868244009
 20
542.2039063442
 30
0.0
 10
1082.7195329164
 20
541.8465592644
 30
0.0
  0
SPLINE
  5
54E
100
AcDbEntity
  8
02___PRT_ALL_AXES
100
AcDbSpline
 62
7
  6
CONTINUOUS
 70
0
 71
3
 72
9
 73
5
 74
0
 42
0.0000001
 43
0.0000001
 44
0.0000000001
 40
0.0
 40
0.0
 40
0.0
 40
0.0
 40
0.2759004239
 40
1.0
 40
1.0
 40
1.0
 40
1.0
 10
1081.8892613754
 20
560.7838365537
 30
0.0
 10
1081.8720968089
 20
560.9190864727
 30
0.0
 10
1081.810293022
 20
561.409349096
 30
0.0
 10
1081.7486490815
 20
561.8996462722
 30
0.0
 10
1081.7072970555
 20
562.2550587209
 30
0.0
  0
SPLINE
  5
54F
100
AcDbEntity
  8
0
100
AcDbSpline
 62
7
  6
CONTINUOUS
 70
0
 71
3
 72
9
 73
5
 74
0
 42
0.0000001
 43
0.0000001
 44
0.0000000001
 40
0.0
 40
0.0
 40
0.0
 40
0.0
 40
0.4934309305
 40
1.0
 40
1.0
 40
1.0
 40
1.0
 10
1443.5336028988
 20
749.1379652605
 30
0.0
 10
1443.5260581195
 20
749.154152546
 30
0.0
 10
1443.5158281692
 20
749.1894641778
 30
0.0
 10
1443.515008529
 20
749.2259955482
 30
0.0
 10
1443.5164648607
 20
749.2442723644
 30
0.0
  0
SPLINE
  5
550
100
AcDbEntity
  8
02___PRT_ALL_AXES
100
AcDbSpline
 62
7
  6
CONTINUOUS
 70
0
 71
3
 72
9
 73
5
 74
0
 42
0.0000001
 43
0.0000001
 44
0.0000000001
 40
0.0
 40
0.0
 40
0.0
 40
0.0
 40
0.2758917994
 40
1.0
 40
1.0
 40
1.0
 40
1.0
 10
1379.2876515421
 20
599.2918893604
 30
0.0
 10
1379.270161721
 20
599.4271262999
 30
0.0
 10
1379.2074778383
 20
599.9173973658
 30
0.0
 10
1379.1468664634
 20
600.4079446807
 30
0.0
 10
1379.1058574697
 20
600.7634876118
 30
0.0
  0
SPLINE
  5
551
100
AcDbEntity
  8
02___PRT_ALL_AXES
100
AcDbSpline
 62
7
  6
CONTINUOUS
 70
0
 71
3
 72
9
 73
5
 74
0
 42
0.0000001
 43
0.0000001
 44
0.0000000001
 40
0.0
 40
0.0
 40
0.0
 40
0.0
 40
0.2757421863
 40
1.0
 40
1.0
 40
1.0
 40
1.0
 10
1379.9951885853
 20
566.4363567817
 30
0.0
 10
1380.0031780138
 20
566.299971334
 30
0.0
 10
1380.0351785618
 20
565.8055118543
 30
0.0
 10
1380.0837963011
 20
565.3123427145
 30
0.0
 10
1380.1187823716
 20
564.9552114498
 30
0.0
  0
SPLINE
  5
552
100
AcDbEntity
  8
02___PRT_ALL_AXES
100
AcDbSpline
 62
7
  6
CONTINUOUS
 70
0
 71
3
 72
9
 73
5
 74
0
 42
0.0000001
 43
0.0000001
 44
0.0000000001
 40
0.0
 40
0.0
 40
0.0
 40
0.0
 40
0.2757201929
 40
1.0
 40
1.0
 40
1.0
 40
1.0
 10
1082.7695551022
 20
575.7605667059
 30
0.0
 10
1082.7871064093
 20
575.6249990546
 30
0.0
 10
1082.8514738462
 20
575.1334072629
 30
0.0
 10
1082.9179467351
 20
574.6420804351
 30
0.0
 10
1082.9689087383
 20
574.286625039
 30
0.0
  0
SPLINE
  5
553
100
AcDbEntity
  8
02___PRT_ALL_AXES
100
AcDbSpline
 62
7
  6
CONTINUOUS
 70
0
 71
3
 72
9
 73
5
 74
0
 42
0.0000001
 43
0.0000001
 44
0.0000000001
 40
0.0
 40
0.0
 40
0.0
 40
0.0
 40
0.2759372148
 40
1.0
 40
1.0
 40
1.0
 40
1.0
 10
1081.716752923
 20
593.0957412184
 30
0.0
 10
1081.6924552176
 20
593.2298425515
 30
0.0
 10
1081.6050975261
 20
593.7159520881
 30
0.0
 10
1081.5197734324
 20
594.2024381669
 30
0.0
 10
1081.4608186753
 20
594.5551582157
 30
0.0
  0
SPLINE
  5
554
100
AcDbEntity
  8
02___PRT_ALL_AXES
100
AcDbSpline
 62
7
  6
CONTINUOUS
 70
0
 71
3
 72
9
 73
5
 74
0
 42
0.0000001
 43
0.0000001
 44
0.0000000001
 40
0.0
 40
0.0
 40
0.0
 40
0.0
 40
0.2759291132
 40
1.0
 40
1.0
 40
1.0
 40
1.0
 10
1347.0169532437
 20
641.184569418
 30
0.0
 10
1346.9926360872
 20
641.3186720095
 30
0.0
 10
1346.9052053146
 20
641.8048004916
 30
0.0
 10
1346.8198057728
 20
642.2913052644
 30
0.0
 10
1346.7607823551
 20
642.6440410579
 30
0.0
  0
SPLINE
  5
555
100
AcDbEntity
  8
02___PRT_ALL_AXES
100
AcDbSpline
 62
7
  6
CONTINUOUS
 70
0
 71
3
 72
9
 73
5
 74
0
 42
0.0000001
 43
0.0000001
 44
0.0000000001
 40
0.0
 40
0.0
 40
0.0
 40
0.0
 40
0.2754139159
 40
1.0
 40
1.0
 40
1.0
 40
1.0
 10
1356.2148289041
 20
639.5399294505
 30
0.0
 10
1356.2845302695
 20
639.6581778385
 30
0.0
 10
1356.538147871
 20
640.0872065036
 30
0.0
 10
1356.7933446936
 20
640.5153109931
 30
0.0
 10
1356.9803814126
 20
640.8242242205
 30
0.0
  0
SPLINE
  5
556
100
AcDbEntity
  8
02___PRT_ALL_AXES
100
AcDbSpline
 62
7
  6
CONTINUOUS
 70
0
 71
3
 72
9
 73
5
 74
0
 42
0.0000001
 43
0.0000001
 44
0.0000000001
 40
0.0
 40
0.0
 40
0.0
 40
0.0
 40
0.2756844237
 40
1.0
 40
1.0
 40
1.0
 40
1.0
 10
1086.9904070799
 20
609.031671876
 30
0.0
 10
1087.0147965098
 20
608.8970965603
 30
0.0
 10
1087.1039661871
 20
608.4090754748
 30
0.0
 10
1087.1952080286
 20
607.9214223179
 30
0.0
 10
1087.2640744011
 20
607.5687489062
 30
0.0
  0
SPLINE
  5
557
100
AcDbEntity
  8
02___PRT_ALL_AXES
100
AcDbSpline
 62
7
  6
CONTINUOUS
 70
0
 71
3
 72
9
 73
5
 74
0
 42
0.0000001
 43
0.0000001
 44
0.0000000001
 40
0.0
 40
0.0
 40
0.0
 40
0.0
 40
0.2759238748
 40
1.0
 40
1.0
 40
1.0
 40
1.0
 10
1133.5258259919
 20
647.081053444
 30
0.0
 10
1133.5260024615
 20
647.2174564749
 30
0.0
 10
1133.5273381044
 20
647.7118040279
 30
0.0
 10
1133.5307571848
 20
648.2061570325
 30
0.0
 10
1133.5361174254
 20
648.5640643941
 30
0.0
  0
SPLINE
  5
558
100
AcDbEntity
  8
02___PRT_ALL_AXES
100
AcDbSpline
 62
7
  6
CONTINUOUS
 70
0
 71
3
 72
9
 73
5
 74
0
 42
0.0000001
 43
0.0000001
 44
0.0000000001
 40
0.0
 40
0.0
 40
0.0
 40
0.0
 40
0.2758122086
 40
1.0
 40
1.0
 40
1.0
 40
1.0
 10
1247.6322118399
 20
647.0810375324
 30
0.0
 10
1247.6322076339
 20
647.2175602983
 30
0.0
 10
1247.6329149718
 20
647.7125430102
 30
0.0
 10
1247.6357383661
 20
648.2075338292
 30
0.0
 10
1247.6406835326
 20
648.565961443
 30
0.0
  0
SPLINE
  5
559
100
AcDbEntity
  8
02___PRT_ALL_AXES
100
AcDbSpline
 62
7
  6
CONTINUOUS
 70
0
 71
3
 72
9
 73
5
 74
0
 42
0.0000001
 43
0.0000001
 44
0.0000000001
 40
0.0
 40
0.0
 40
0.0
 40
0.0
 40
0.2756848669
 40
1.0
 40
1.0
 40
1.0
 40
1.0
 10
1248.4222582726
 20
638.293265741
 30
0.0
 10
1248.4473898279
 20
638.1588324896
 30
0.0
 10
1248.5385917081
 20
637.6712078787
 30
0.0
 10
1248.627673445
 20
637.1831769806
 30
0.0
 10
1248.6959150803
 20
636.8303973031
 30
0.0
  0
SPLINE
  5
55A
100
AcDbEntity
  8
02___PRT_ALL_AXES
100
AcDbSpline
 62
7
  6
CONTINUOUS
 70
0
 71
3
 72
9
 73
5
 74
0
 42
0.0000001
 43
0.0000001
 44
0.0000000001
 40
0.0
 40
0.0
 40
0.0
 40
0.0
 40
0.2759217041
 40
1.0
 40
1.0
 40
1.0
 40
1.0
 10
554.4296913543
 20
327.8042216937
 30
0.0
 10
554.4295333071
 20
327.6678161493
 30
0.0
 10
554.428260937
 20
327.1734555145
 30
0.0
 10
554.4249018133
 20
326.6790891384
 30
0.0
 10
554.4195804242
 20
326.3211707701
 30
0.0
  0
SPLINE
  5
55B
100
AcDbEntity
  8
02___PRT_ALL_AXES
100
AcDbSpline
 62
7
  6
CONTINUOUS
 70
0
 71
3
 72
9
 73
5
 74
0
 42
0.0000001
 43
0.0000001
 44
0.0000000001
 40
0.0
 40
0.0
 40
0.0
 40
0.0
 40
0.2758121963
 40
1.0
 40
1.0
 40
1.0
 40
1.0
 10
440.3234573196
 20
327.8078137418
 30
0.0
 10
440.3234568016
 20
327.6712909277
 30
0.0
 10
440.3227332699
 20
327.176308
 30
0.0
 10
440.3198754556
 20
326.6813173713
 30
0.0
 10
440.3149381014
 20
326.3228895013
 30
0.0
  0
SPLINE
  5
55C
100
AcDbEntity
  8
02___PRT_ALL_AXES
100
AcDbSpline
 62
7
  6
CONTINUOUS
 70
0
 71
3
 72
13
 73
9
 74
0
 42
0.0000001
 43
0.0000001
 44
0.0000000001
 40
0.0
 40
0.0
 40
0.0
 40
0.0
 40
0.3665532525
 40
0.6812458083
 40
0.8056208877
 40
0.9021826245
 40
0.9676981892
 40
1.0
 40
1.0
 40
1.0
 40
1.0
 10
706.2508506891
 20
419.1202735648
 30
0.0
 10
699.74827438
 20
418.3139709123
 30
0.0
 10
687.6594718251
 20
416.8475600341
 30
0.0
 10
673.353646393
 20
415.1842675878
 30
0.0
 10
663.8354386122
 20
414.159398689
 30
0.0
 10
658.7398126587
 20
413.6258935116
 30
0.0
 10
655.2814862239
 20
413.3499587852
 30
0.0
 10
653.5326567584
 20
413.1919768536
 30
0.0
 10
652.9560135958
 20
413.2218349977
 30
0.0
  0
SPLINE
  5
55D
100
AcDbEntity
  8
02___PRT_ALL_AXES
100
AcDbSpline
 62
7
  6
CONTINUOUS
 70
0
 71
3
 72
13
 73
9
 74
0
 42
0.0000001
 43
0.0000001
 44
0.0000000001
 40
0.0
 40
0.0
 40
0.0
 40
0.0
 40
0.3667143712
 40
0.6814112759
 40
0.8057571376
 40
0.9022809293
 40
0.9677542716
 40
1.0
 40
1.0
 40
1.0
 40
1.0
 10
740.8770934943
 20
383.2535495447
 30
0.0
 10
739.8364952332
 20
376.7939447821
 30
0.0
 10
737.9277080612
 20
364.7872245004
 30
0.0
 10
735.7251766689
 20
350.5799558075
 30
0.0
 10
734.323979886
 20
341.1286463981
 30
0.0
 10
733.5857707653
 20
336.0715209761
 30
0.0
 10
733.1522090322
 20
332.6363818188
 30
0.0
 10
732.9183846713
 20
330.9040567452
 30
0.0
 10
732.9052332918
 20
330.3288817163
 30
0.0
  0
SPLINE
  5
55E
100
AcDbEntity
  8
02___PRT_ALL_AXES
100
AcDbSpline
 62
7
  6
CONTINUOUS
 70
0
 71
3
 72
13
 73
9
 74
0
 42
0.0000001
 43
0.0000001
 44
0.0000000001
 40
0.0
 40
0.0
 40
0.0
 40
0.0
 40
0.3667138166
 40
0.6814106707
 40
0.8057566622
 40
0.9022806313
 40
0.9677541472
 40
1.0
 40
1.0
 40
1.0
 40
1.0
 10
947.9386407065
 20
383.2535479833
 30
0.0
 10
948.9792421331
 20
376.793923139
 30
0.0
 10
950.8880364378
 20
364.7871580512
 30
0.0
 10
953.0905770421
 20
350.5798321812
 30
0.0
 10
954.4917818028
 20
341.1284746809
 30
0.0
 10
955.2299959853
 20
336.0713175162
 30
0.0
 10
955.66356191
 20
332.6361541389
 30
0.0
 10
955.8973881726
 20
330.9038159138
 30
0.0
 10
955.910540552
 20
330.3286360282
 30
0.0
  0
SPLINE
  5
55F
100
AcDbEntity
  8
02___PRT_ALL_AXES
100
AcDbSpline
 62
7
  6
CONTINUOUS
 70
0
 71
3
 72
13
 73
9
 74
0
 42
0.0000001
 43
0.0000001
 44
0.0000000001
 40
0.0
 40
0.0
 40
0.0
 40
0.0
 40
0.3665537962
 40
0.6812464005
 40
0.8056213513
 40
0.9021829134
 40
0.9676983084
 40
1.0
 40
1.0
 40
1.0
 40
1.0
 10
982.5648817153
 20
419.1202737991
 30
0.0
 10
989.0674381704
 20
418.3139734871
 30
0.0
 10
1001.1561964065
 20
416.8475679705
 30
0.0
 10
1015.4619652835
 20
415.1842825581
 30
0.0
 10
1024.9801254505
 20
414.1594198549
 30
0.0
 10
1030.0757200164
 20
413.6259185316
 30
0.0
 10
1033.5340225005
 20
413.3499870994
 30
0.0
 10
1035.2828390691
 20
413.1920065439
 30
0.0
 10
1035.859477433
 20
413.2218655178
 30
0.0
  0
SPLINE
  5
560
100
AcDbEntity
  8
0
100
AcDbSpline
 62
7
  6
CONTINUOUS
 70
0
 71
3
 72
8
 73
4
 74
0
 42
0.0000001
 43
0.0000001
 44
0.0000000001
 40
0.0
 40
0.0
 40
0.0
 40
0.0
 40
1.0
 40
1.0
 40
1.0
 40
1.0
 10
1444.5133986675
 20
749.001626228
 30
0.0
 10
1444.3949229652
 20
748.8845815557
 30
0.0
 10
1444.1879413211
 20
748.7938238949
 30
0.0
 10
1444.0346140293
 20
748.8588368855
 30
0.0
  0
SPLINE
  5
561
100
AcDbEntity
  8
0
100
AcDbSpline
 62
7
  6
CONTINUOUS
 70
0
 71
3
 72
8
 73
4
 74
0
 42
0.0000001
 43
0.0000001
 44
0.0000000001
 40
0.0
 40
0.0
 40
0.0
 40
0.0
 40
1.0
 40
1.0
 40
1.0
 40
1.0
 10
1444.5133986675
 20
749.001626228
 30
0.0
 10
1444.6218056495
 20
749.1087237967
 30
0.0
 10
1444.7451887989
 20
749.1997775999
 30
0.0
 10
1444.8665285401
 20
749.2919656152
 30
0.0
  0
SPLINE
  5
562
100
AcDbEntity
  8
0
100
AcDbSpline
 62
7
  6
CONTINUOUS
 70
0
 71
3
 72
9
 73
5
 74
0
 42
0.0000001
 43
0.0000001
 44
0.0000000001
 40
0.0
 40
0.0
 40
0.0
 40
0.0
 40
0.5992647947
 40
1.0
 40
1.0
 40
1.0
 40
1.0
 10
1444.8665285401
 20
749.2919656152
 30
0.0
 10
1444.8925567994
 20
749.3117406168
 30
0.0
 10
1444.9357450287
 20
749.3449159377
 30
0.0
 10
1444.9773615557
 20
749.3806024428
 30
0.0
 10
1444.9919115474
 20
749.3969154301
 30
0.0
  0
SPLINE
  5
563
100
AcDbEntity
  8
02___PRT_ALL_AXES
100
AcDbSpline
 62
7
  6
CONTINUOUS
 70
0
 71
3
 72
14
 73
10
 74
0
 42
0.0000001
 43
0.0000001
 44
0.0000000001
 40
0.0
 40
0.0
 40
0.0
 40
0.0
 40
0.3657248322
 40
0.5322487335
 40
0.6802633545
 40
0.8047493551
 40
0.9015154056
 40
0.9673143689
 40
1.0
 40
1.0
 40
1.0
 40
1.0
 10
948.3761780147
 20
590.9712121435
 30
0.0
 10
949.4167642058
 20
597.467560833
 30
0.0
 10
950.8979299743
 20
606.9274130568
 30
0.0
 10
952.709081456
 20
619.0298495991
 30
0.0
 10
953.8407282956
 20
626.8470037142
 30
0.0
 10
954.736214734
 20
633.427008869
 30
0.0
 10
955.4100824284
 20
638.5525804934
 30
0.0
 10
955.7469887431
 20
642.0383339236
 30
0.0
 10
955.9389218616
 20
643.8141940947
 30
0.0
 10
955.8866146632
 20
644.3998569874
 30
0.0
  0
SPLINE
  5
564
100
AcDbEntity
  8
02___PRT_ALL_AXES
100
AcDbSpline
 62
7
  6
CONTINUOUS
 70
0
 71
3
 72
9
 73
5
 74
0
 42
0.0000001
 43
0.0000001
 44
0.0000000001
 40
0.0
 40
0.0
 40
0.0
 40
0.0
 40
0.2756910279
 40
1.0
 40
1.0
 40
1.0
 40
1.0
 10
439.5336924119
 20
336.595610912
 30
0.0
 10
439.5090816388
 20
336.7301591432
 30
0.0
 10
439.4193075891
 20
337.2181046724
 30
0.0
 10
439.328755977
 20
337.7059212764
 30
0.0
 10
439.2600512046
 20
338.0586489004
 30
0.0
  0
SPLINE
  5
565
100
AcDbEntity
  8
02___PRT_ALL_AXES
100
AcDbSpline
 62
7
  6
CONTINUOUS
 70
0
 71
3
 72
9
 73
5
 74
0
 42
0.0000001
 43
0.0000001
 44
0.0000000001
 40
0.0
 40
0.0
 40
0.0
 40
0.0
 40
0.2756787504
 40
1.0
 40
1.0
 40
1.0
 40
1.0
 10
600.9669056224
 20
365.8519154414
 30
0.0
 10
600.9425036429
 20
365.9864961785
 30
0.0
 10
600.8532850938
 20
366.4745465733
 30
0.0
 10
600.7620104971
 20
366.9622322609
 30
0.0
 10
600.6930709042
 20
367.3149220435
 30
0.0
  0
SPLINE
  5
566
100
AcDbEntity
  8
0
100
AcDbSpline
 62
7
  6
CONTINUOUS
 70
0
 71
3
 72
9
 73
5
 74
0
 42
0.0000001
 43
0.0000001
 44
0.0000000001
 40
0.0
 40
0.0
 40
0.0
 40
0.0
 40
0.3011649223
 40
1.0
 40
1.0
 40
1.0
 40
1.0
 10
243.8078669675
 20
749.4244196138
 30
0.0
 10
243.8078669675
 20
749.376441647
 30
0.0
 10
243.9888845616
 20
749.288566596
 30
0.0
 10
244.0878936666
 20
749.1891027139
 30
0.0
 10
244.1734681227
 20
749.1178891062
 30
0.0
  0
SPLINE
  5
567
100
AcDbEntity
  8
0
100
AcDbSpline
 62
7
  6
CONTINUOUS
 70
0
 71
3
 72
9
 73
5
 74
0
 42
0.0000001
 43
0.0000001
 44
0.0000000001
 40
0.0
 40
0.0
 40
0.0
 40
0.0
 40
0.4880609223
 40
1.0
 40
1.0
 40
1.0
 40
1.0
 10
244.1734681227
 20
749.1178891062
 30
0.0
 10
244.1951770546
 20
749.0998233021
 30
0.0
 10
244.239041686
 20
749.0620594068
 30
0.0
 10
244.2812607086
 20
749.022446234
 30
0.0
 10
244.3023352674
 20
749.001626228
 30
0.0
  0
SPLINE
  5
568
100
AcDbEntity
  8
02___PRT_ALL_AXES
100
AcDbSpline
 62
7
  6
CONTINUOUS
 70
0
 71
3
 72
9
 73
5
 74
0
 42
0.0000001
 43
0.0000001
 44
0.0000000001
 40
0.0
 40
0.0
 40
0.0
 40
0.0
 40
0.2759212287
 40
1.0
 40
1.0
 40
1.0
 40
1.0
 10
340.9390925115
 20
333.7077562309
 30
0.0
 10
340.9633974672
 20
333.5736427649
 30
0.0
 10
341.0507862028
 20
333.0874610064
 30
0.0
 10
341.1361419442
 20
332.6009027829
 30
0.0
 10
341.1951257111
 20
332.2481233679
 30
0.0
  0
SPLINE
  5
569
100
AcDbEntity
  8
02___PRT_ALL_AXES
100
AcDbSpline
 62
7
  6
CONTINUOUS
 70
0
 71
3
 72
9
 73
5
 74
0
 42
0.0000001
 43
0.0000001
 44
0.0000000001
 40
0.0
 40
0.0
 40
0.0
 40
0.0
 40
0.2754204466
 40
1.0
 40
1.0
 40
1.0
 40
1.0
 10
331.7408767928
 20
335.3515682306
 30
0.0
 10
331.6711727362
 20
335.2333333899
 30
0.0
 10
331.4175497447
 20
334.8043651243
 30
0.0
 10
331.162343989
 20
334.3763230925
 30
0.0
 10
330.9752838044
 20
334.0674695808
 30
0.0
  0
SPLINE
  5
56A
100
AcDbEntity
  8
02___PRT_ALL_AXES
100
AcDbSpline
 62
7
  6
CONTINUOUS
 70
0
 71
3
 72
9
 73
5
 74
0
 42
0.0000001
 43
0.0000001
 44
0.0000000001
 40
0.0
 40
0.0
 40
0.0
 40
0.0
 40
0.2757092899
 40
1.0
 40
1.0
 40
1.0
 40
1.0
 10
313.9833032273
 20
361.425912226
 30
0.0
 10
313.9668372594
 20
361.5616004477
 30
0.0
 10
313.9054409204
 20
362.0535436277
 30
0.0
 10
313.835945516
 20
362.5444363025
 30
0.0
 10
313.7840156739
 20
362.8997304757
 30
0.0
  0
SPLINE
  5
56B
100
AcDbEntity
  8
02___PRT_ALL_AXES
100
AcDbSpline
 62
7
  6
CONTINUOUS
 70
0
 71
3
 72
9
 73
5
 74
0
 42
0.0000001
 43
0.0000001
 44
0.0000000001
 40
0.0
 40
0.0
 40
0.0
 40
0.0
 40
0.2757121222
 40
1.0
 40
1.0
 40
1.0
 40
1.0
 10
605.1884937607
 20
399.1227303362
 30
0.0
 10
605.1709438319
 20
399.2583094286
 30
0.0
 10
605.106577865
 20
399.7499568453
 30
0.0
 10
605.0401297139
 20
400.2413428306
 30
0.0
 10
604.9891376235
 20
400.5968382152
 30
0.0
  0
SPLINE
  5
56C
100
AcDbEntity
  8
02___PRT_ALL_AXES
100
AcDbSpline
 62
7
  6
CONTINUOUS
 70
0
 71
3
 72
9
 73
5
 74
0
 42
0.0000001
 43
0.0000001
 44
0.0000000001
 40
0.0
 40
0.0
 40
0.0
 40
0.0
 40
0.2759414257
 40
1.0
 40
1.0
 40
1.0
 40
1.0
 10
606.2406245285
 20
381.7876635814
 30
0.0
 10
606.2659306461
 20
381.6537439818
 30
0.0
 10
606.3560572859
 20
381.1681225588
 30
0.0
 10
606.4384879981
 20
380.6811090279
 30
0.0
 10
606.4965693603
 20
380.3282389394
 30
0.0
  0
SPLINE
  5
56D
100
AcDbEntity
  8
02___PRT_ALL_AXES
100
AcDbSpline
 62
7
  6
CONTINUOUS
 70
0
 71
3
 72
9
 73
5
 74
0
 42
0.0000001
 43
0.0000001
 44
0.0000000001
 40
0.0
 40
0.0
 40
0.0
 40
0.0
 40
0.2759041904
 40
1.0
 40
1.0
 40
1.0
 40
1.0
 10
308.6691704492
 20
375.6006879048
 30
0.0
 10
308.6866706065
 20
375.46546939
 30
0.0
 10
308.7493912751
 20
374.9752872474
 30
0.0
 10
308.8100168052
 20
374.4848263504
 30
0.0
 10
308.8510994214
 20
374.1293590343
 30
0.0
  0
SPLINE
  5
56E
100
AcDbEntity
  8
02___PRT_ALL_AXES
100
AcDbSpline
 62
7
  6
CONTINUOUS
 70
0
 71
3
 72
9
 73
5
 74
0
 42
0.0000001
 43
0.0000001
 44
0.0000000001
 40
0.0
 40
0.0
 40
0.0
 40
0.0
 40
0.2757460308
 40
1.0
 40
1.0
 40
1.0
 40
1.0
 10
307.9630619136
 20
408.4567311368
 30
0.0
 10
307.9535092197
 20
408.5930106439
 30
0.0
 10
307.9172346248
 20
409.0871208175
 30
0.0
 10
307.8731429714
 20
409.5806220402
 30
0.0
 10
307.8395165319
 20
409.9378628211
 30
0.0
  0
SPLINE
  5
56F
100
AcDbEntity
  8
02___PRT_ALL_AXES
100
AcDbSpline
 62
7
  6
CONTINUOUS
 70
0
 71
3
 72
9
 73
5
 74
0
 42
0.0000001
 43
0.0000001
 44
0.0000000001
 40
0.0
 40
0.0
 40
0.0
 40
0.0
 40
0.2757567055
 40
1.0
 40
1.0
 40
1.0
 40
1.0
 10
605.3630617005
 20
431.5557531243
 30
0.0
 10
605.3524842723
 20
431.6919722155
 30
0.0
 10
605.3134052835
 20
432.1858972169
 30
0.0
 10
605.2722521608
 20
432.6796697954
 30
0.0
 10
605.2395042364
 20
433.0370131201
 30
0.0
  0
SPLINE
  5
570
100
AcDbEntity
  8
02___PRT_ALL_AXES
100
AcDbSpline
 62
7
  6
CONTINUOUS
 70
0
 71
3
 72
9
 73
5
 74
0
 42
0.0000001
 43
0.0000001
 44
0.0000000001
 40
0.0
 40
0.0
 40
0.0
 40
0.0
 40
0.2759003258
 40
1.0
 40
1.0
 40
1.0
 40
1.0
 10
606.0691701033
 20
414.0997097683
 30
0.0
 10
606.0874255808
 20
413.9645932477
 30
0.0
 10
606.1522172187
 20
413.4746764314
 30
0.0
 10
606.210702723
 20
412.983944012
 30
0.0
 10
606.251097332
 20
412.6283963676
 30
0.0
  0
SPLINE
  5
571
100
AcDbEntity
  8
02___PRT_ALL_AXES
100
AcDbSpline
 62
7
  6
CONTINUOUS
 70
0
 71
3
 72
9
 73
5
 74
0
 42
0.0000001
 43
0.0000001
 44
0.0000000001
 40
0.0
 40
0.0
 40
0.0
 40
0.0
 40
0.275856762
 40
1.0
 40
1.0
 40
1.0
 40
1.0
 10
308.4947157662
 20
423.2824970081
 30
0.0
 10
308.5052613221
 20
423.1464739151
 30
0.0
 10
308.5427719418
 20
422.6533268849
 30
0.0
 10
308.5781799958
 20
422.1600087019
 30
0.0
 10
308.6009213183
 20
421.8025898568
 30
0.0
  0
SPLINE
  5
572
100
AcDbEntity
  8
02___PRT_ALL_AXES
100
AcDbSpline
 62
7
  6
CONTINUOUS
 70
0
 71
3
 72
9
 73
5
 74
0
 42
0.0000001
 43
0.0000001
 44
0.0000000001
 40
0.0
 40
0.0
 40
0.0
 40
0.0
 40
0.2757762851
 40
1.0
 40
1.0
 40
1.0
 40
1.0
 10
308.1398640667
 20
456.2113737728
 30
0.0
 10
308.1376322889
 20
456.3478860464
 30
0.0
 10
308.1276577389
 20
456.8428722836
 30
0.0
 10
308.1082785353
 20
457.3376113262
 30
0.0
 10
308.0929186045
 20
457.6958287256
 30
0.0
  0
SPLINE
  5
573
100
AcDbEntity
  8
02___PRT_ALL_AXES
100
AcDbSpline
 62
7
  6
CONTINUOUS
 70
0
 71
3
 72
9
 73
5
 74
0
 42
0.0000001
 43
0.0000001
 44
0.0000000001
 40
0.0
 40
0.0
 40
0.0
 40
0.0
 40
0.2757936461
 40
1.0
 40
1.0
 40
1.0
 40
1.0
 10
605.5398640265
 20
463.9113957574
 30
0.0
 10
605.5363296952
 20
464.0479083782
 30
0.0
 10
605.5227928067
 20
464.5428689369
 30
0.0
 10
605.5071305425
 20
465.0377823212
 30
0.0
 10
605.4929081199
 20
465.3960886854
 30
0.0
  0
SPLINE
  5
574
100
AcDbEntity
  8
02___PRT_ALL_AXES
100
AcDbSpline
 62
7
  6
CONTINUOUS
 70
0
 71
3
 72
9
 73
5
 74
0
 42
0.0000001
 43
0.0000001
 44
0.0000000001
 40
0.0
 40
0.0
 40
0.0
 40
0.0
 40
0.2758666674
 40
1.0
 40
1.0
 40
1.0
 40
1.0
 10
605.8943262937
 20
446.3811050858
 30
0.0
 10
605.9037231079
 20
446.2450250643
 30
0.0
 10
605.938101124
 20
445.7517646911
 30
0.0
 10
605.976900487
 20
445.2588158635
 30
0.0
 10
606.0007137326
 20
444.9015561621
 30
0.0
  0
SPLINE
  5
575
100
AcDbEntity
  8
02___PRT_ALL_AXES
100
AcDbSpline
 62
7
  6
CONTINUOUS
 70
0
 71
3
 72
9
 73
5
 74
0
 42
0.0000001
 43
0.0000001
 44
0.0000000001
 40
0.0
 40
0.0
 40
0.0
 40
0.0
 40
0.2758307136
 40
1.0
 40
1.0
 40
1.0
 40
1.0
 10
309.1718584376
 20
470.9780234586
 30
0.0
 10
309.1753847586
 20
470.8415817309
 30
0.0
 10
309.1874493947
 20
470.3469073598
 30
0.0
 10
309.1973669976
 20
469.8521700893
 30
0.0
 10
309.2017129212
 20
469.4938610678
 30
0.0
  0
SPLINE
  5
576
100
AcDbEntity
  8
02___PRT_ALL_AXES
100
AcDbSpline
 62
7
  6
CONTINUOUS
 70
0
 71
3
 72
9
 73
5
 74
0
 42
0.0000001
 43
0.0000001
 44
0.0000000001
 40
0.0
 40
0.0
 40
0.0
 40
0.0
 40
0.2758190866
 40
1.0
 40
1.0
 40
1.0
 40
1.0
 10
309.172916623
 20
503.932468841
 30
0.0
 10
309.1789274221
 20
504.0688191987
 30
0.0
 10
309.197808218
 20
504.5633171625
 30
0.0
 10
309.2006826799
 20
505.0582290123
 30
0.0
 10
309.2028676949
 20
505.4165667526
 30
0.0
  0
SPLINE
  5
577
100
AcDbEntity
  8
02___PRT_ALL_AXES
100
AcDbSpline
 62
7
  6
CONTINUOUS
 70
0
 71
3
 72
9
 73
5
 74
0
 42
0.0000001
 43
0.0000001
 44
0.0000000001
 40
0.0
 40
0.0
 40
0.0
 40
0.0
 40
0.2758307453
 40
1.0
 40
1.0
 40
1.0
 40
1.0
 10
606.5726697224
 20
496.2229276986
 30
0.0
 10
606.5762062923
 20
496.3593690675
 30
0.0
 10
606.5883050871
 20
496.8540420871
 30
0.0
 10
606.598307685
 20
497.3487778012
 30
0.0
 10
606.6026209114
 20
497.7070869155
 30
0.0
  0
SPLINE
  5
578
100
AcDbEntity
  8
02___PRT_ALL_AXES
100
AcDbSpline
 62
7
  6
CONTINUOUS
 70
0
 71
3
 72
9
 73
5
 74
0
 42
0.0000001
 43
0.0000001
 44
0.0000000001
 40
0.0
 40
0.0
 40
0.0
 40
0.0
 40
0.2758283785
 40
1.0
 40
1.0
 40
1.0
 40
1.0
 10
606.5721038235
 20
478.6681806633
 30
0.0
 10
606.5747681911
 20
478.5317320822
 30
0.0
 10
606.5844717661
 20
478.0370475239
 30
0.0
 10
606.5968902065
 20
477.542408836
 30
0.0
 10
606.6019566348
 20
477.1841384278
 30
0.0
  0
SPLINE
  5
579
100
AcDbEntity
  8
02___PRT_ALL_AXES
100
AcDbSpline
 62
7
  6
CONTINUOUS
 70
0
 71
3
 72
9
 73
5
 74
0
 42
0.0000001
 43
0.0000001
 44
0.0000000001
 40
0.0
 40
0.0
 40
0.0
 40
0.0
 40
0.2757936578
 40
1.0
 40
1.0
 40
1.0
 40
1.0
 10
308.1398639821
 20
518.6645566776
 30
0.0
 10
308.1363289705
 20
518.5280440706
 30
0.0
 10
308.1227912791
 20
518.0330834686
 30
0.0
 10
308.1070973395
 20
517.5381714175
 30
0.0
 10
308.0929080746
 20
517.1798637496
 30
0.0
  0
SPLINE
  5
57A
100
AcDbEntity
  8
02___PRT_ALL_AXES
100
AcDbSpline
 62
7
  6
CONTINUOUS
 70
0
 71
3
 72
9
 73
5
 74
0
 42
0.0000001
 43
0.0000001
 44
0.0000000001
 40
0.0
 40
0.0
 40
0.0
 40
0.0
 40
0.2758451511
 40
1.0
 40
1.0
 40
1.0
 40
1.0
 10
308.494327227
 20
551.5938472253
 30
0.0
 10
308.5071755105
 20
551.7296265719
 30
0.0
 10
308.5510023495
 20
552.2221366245
 30
0.0
 10
308.5799054187
 20
552.7158035905
 30
0.0
 10
308.60070749
 20
553.0732420541
 30
0.0
  0
SPLINE
  5
57B
100
AcDbEntity
  8
02___PRT_ALL_AXES
100
AcDbSpline
 62
7
  6
CONTINUOUS
 70
0
 71
3
 72
9
 73
5
 74
0
 42
0.0000001
 43
0.0000001
 44
0.0000000001
 40
0.0
 40
0.0
 40
0.0
 40
0.0
 40
0.2758676808
 40
1.0
 40
1.0
 40
1.0
 40
1.0
 10
605.8943264275
 20
528.4948254513
 30
0.0
 10
605.9048877008
 20
528.6308323729
 30
0.0
 10
605.9424546728
 20
529.1239013186
 30
0.0
 10
605.9779164139
 20
529.6171416557
 30
0.0
 10
606.0007221429
 20
529.9744975721
 30
0.0
  0
SPLINE
  5
57C
100
AcDbEntity
  8
02___PRT_ALL_AXES
100
AcDbSpline
 62
7
  6
CONTINUOUS
 70
0
 71
3
 72
9
 73
5
 74
0
 42
0.0000001
 43
0.0000001
 44
0.0000000001
 40
0.0
 40
0.0
 40
0.0
 40
0.0
 40
0.2757802087
 40
1.0
 40
1.0
 40
1.0
 40
1.0
 10
605.5398635181
 20
510.9645348557
 30
0.0
 10
605.5356591916
 20
510.8280773362
 30
0.0
 10
605.5202909645
 20
510.3332774733
 30
0.0
 10
605.5065748843
 20
509.8384145366
 30
0.0
 10
605.4929194072
 20
509.4801568242
 30
0.0
  0
SPLINE
  5
57D
100
AcDbEntity
  8
02___PRT_ALL_AXES
100
AcDbSpline
 62
7
  6
CONTINUOUS
 70
0
 71
3
 72
9
 73
5
 74
0
 42
0.0000001
 43
0.0000001
 44
0.0000000001
 40
0.0
 40
0.0
 40
0.0
 40
0.0
 40
0.275756716
 40
1.0
 40
1.0
 40
1.0
 40
1.0
 10
307.9630617393
 20
566.4191993696
 30
0.0
 10
307.952483189
 20
566.2829803633
 30
0.0
 10
307.9134026553
 20
565.7890553894
 30
0.0
 10
307.8722040802
 20
565.295287092
 30
0.0
 10
307.8395042752
 20
564.9379393738
 30
0.0
  0
SPLINE
  5
57E
100
AcDbEntity
  8
02___PRT_ALL_AXES
100
AcDbSpline
 62
7
  6
CONTINUOUS
 70
0
 71
3
 72
9
 73
5
 74
0
 42
0.0000001
 43
0.0000001
 44
0.0000000001
 40
0.0
 40
0.0
 40
0.0
 40
0.0
 40
0.2758852776
 40
1.0
 40
1.0
 40
1.0
 40
1.0
 10
308.6691705009
 20
599.2752425432
 30
0.0
 10
308.6877636599
 20
599.4102818445
 30
0.0
 10
308.7534742155
 20
599.8999940897
 30
0.0
 10
308.8110113104
 20
600.3907622764
 30
0.0
 10
308.851068266
 20
600.7462936972
 30
0.0
  0
SPLINE
  5
57F
100
AcDbEntity
  8
02___PRT_ALL_AXES
100
AcDbSpline
 62
7
  6
CONTINUOUS
 70
0
 71
3
 72
9
 73
5
 74
0
 42
0.0000001
 43
0.0000001
 44
0.0000000001
 40
0.0
 40
0.0
 40
0.0
 40
0.0
 40
0.2759041921
 40
1.0
 40
1.0
 40
1.0
 40
1.0
 10
606.0691700213
 20
560.7762207608
 30
0.0
 10
606.086670387
 20
560.9114392501
 30
0.0
 10
606.1493914263
 20
561.4016213335
 30
0.0
 10
606.2100226201
 20
561.8920815934
 30
0.0
 10
606.2510989926
 20
562.2475496314
 30
0.0
  0
SPLINE
  5
580
100
AcDbEntity
  8
02___PRT_ALL_AXES
100
AcDbSpline
 62
7
  6
CONTINUOUS
 70
0
 71
3
 72
9
 73
5
 74
0
 42
0.0000001
 43
0.0000001
 44
0.0000000001
 40
0.0
 40
0.0
 40
0.0
 40
0.0
 40
0.275745638
 40
1.0
 40
1.0
 40
1.0
 40
1.0
 10
605.3630615587
 20
543.320177547
 30
0.0
 10
605.3516213542
 20
543.1840607219
 30
0.0
 10
605.3101855769
 20
542.6904255802
 30
0.0
 10
605.2714937267
 20
542.1965527368
 30
0.0
 10
605.2395294767
 20
541.8392039525
 30
0.0
  0
SPLINE
  5
581
100
AcDbEntity
  8
02___PRT_ALL_AXES
100
AcDbSpline
 62
7
  6
CONTINUOUS
 70
0
 71
3
 72
9
 73
5
 74
0
 42
0.0000001
 43
0.0000001
 44
0.0000000001
 40
0.0
 40
0.0
 40
0.0
 40
0.0
 40
0.2757202226
 40
1.0
 40
1.0
 40
1.0
 40
1.0
 10
313.9833030612
 20
613.4500182882
 30
0.0
 10
313.9657562947
 20
613.3144500891
 30
0.0
 10
313.9014050027
 20
612.8228563927
 30
0.0
 10
313.8349520763
 20
612.331527016
 30
0.0
 10
313.7839966376
 20
611.9760708379
 30
0.0
  0
SPLINE
  5
582
100
AcDbEntity
  8
02___PRT_ALL_AXES
100
AcDbSpline
 62
7
  6
CONTINUOUS
 70
0
 71
3
 72
9
 73
5
 74
0
 42
0.0000001
 43
0.0000001
 44
0.0000000001
 40
0.0
 40
0.0
 40
0.0
 40
0.0
 40
0.2754932602
 40
1.0
 40
1.0
 40
1.0
 40
1.0
 10
331.7408488874
 20
639.52416691
 30
0.0
 10
331.6712087637
 20
639.6423581787
 30
0.0
 10
331.417883531
 20
640.0710542582
 30
0.0
 10
331.1629723452
 20
640.4988229516
 30
0.0
 10
330.976122253
 20
640.8074344975
 30
0.0
  0
SPLINE
  5
583
100
AcDbEntity
  8
02___PRT_ALL_AXES
100
AcDbSpline
 62
7
  6
CONTINUOUS
 70
0
 71
3
 72
9
 73
5
 74
0
 42
0.0000001
 43
0.0000001
 44
0.0000000001
 40
0.0
 40
0.0
 40
0.0
 40
0.0
 40
0.2759246695
 40
1.0
 40
1.0
 40
1.0
 40
1.0
 10
340.9390503547
 20
641.1682551021
 30
0.0
 10
340.9633728724
 20
641.3023660318
 30
0.0
 10
341.0508203964
 20
641.788533301
 30
0.0
 10
341.1362293642
 20
642.2750783582
 30
0.0
 10
341.1952428506
 20
642.6278482528
 30
0.0
  0
SPLINE
  5
584
100
AcDbEntity
  8
02___PRT_ALL_AXES
100
AcDbSpline
 62
7
  6
CONTINUOUS
 70
0
 71
3
 72
9
 73
5
 74
0
 42
0.0000001
 43
0.0000001
 44
0.0000000001
 40
0.0
 40
0.0
 40
0.0
 40
0.0
 40
0.2759399894
 40
1.0
 40
1.0
 40
1.0
 40
1.0
 10
606.2406244666
 20
593.0882669454
 30
0.0
 10
606.2649208961
 20
593.2223610777
 30
0.0
 10
606.352274584
 20
593.7084394357
 30
0.0
 10
606.4375653694
 20
594.1948990674
 30
0.0
 10
606.4965525329
 20
594.5475892075
 30
0.0
  0
SPLINE
  5
585
100
AcDbEntity
  8
02___PRT_ALL_AXES
100
AcDbSpline
 62
7
  6
CONTINUOUS
 70
0
 71
3
 72
9
 73
5
 74
0
 42
0.0000001
 43
0.0000001
 44
0.0000000001
 40
0.0
 40
0.0
 40
0.0
 40
0.0
 40
0.2757109972
 40
1.0
 40
1.0
 40
1.0
 40
1.0
 10
605.1891204447
 20
575.7532380779
 30
0.0
 10
605.1714563448
 20
575.6176620577
 30
0.0
 10
605.1067141749
 20
575.1260192567
 30
0.0
 10
605.0399636752
 20
574.6346306584
 30
0.0
 10
604.9888703834
 20
574.2791168235
 30
0.0
  0
SPLINE
  5
586
100
AcDbEntity
  8
02___PRT_ALL_AXES
100
AcDbSpline
 62
7
  6
CONTINUOUS
 70
0
 71
3
 72
9
 73
5
 74
0
 42
0.0000001
 43
0.0000001
 44
0.0000000001
 40
0.0
 40
0.0
 40
0.0
 40
0.0
 40
0.27568444
 40
1.0
 40
1.0
 40
1.0
 40
1.0
 10
439.5336923992
 20
638.2803196002
 30
0.0
 10
439.5093081089
 20
638.145743398
 30
0.0
 10
439.4201552252
 20
637.6577195152
 30
0.0
 10
439.3289624742
 20
637.1700570114
 30
0.0
 10
439.2600719555
 20
636.8173884635
 30
0.0
  0
SPLINE
  5
587
100
AcDbEntity
  8
02___PRT_ALL_AXES
100
AcDbSpline
 62
7
  6
CONTINUOUS
 70
0
 71
3
 72
9
 73
5
 74
0
 42
0.0000001
 43
0.0000001
 44
0.0000000001
 40
0.0
 40
0.0
 40
0.0
 40
0.0
 40
0.2758015808
 40
1.0
 40
1.0
 40
1.0
 40
1.0
 10
440.3234575241
 20
647.0681167637
 30
0.0
 10
440.3247241673
 20
647.2046207712
 30
0.0
 10
440.3274697703
 20
647.6995791317
 30
0.0
 10
440.321015209
 20
648.1945343279
 30
0.0
 10
440.3149402565
 20
648.5529298197
 30
0.0
  0
SPLINE
  5
588
100
AcDbEntity
  8
02___PRT_ALL_AXES
100
AcDbSpline
 62
7
  6
CONTINUOUS
 70
0
 71
3
 72
9
 73
5
 74
0
 42
0.0000001
 43
0.0000001
 44
0.0000000001
 40
0.0
 40
0.0
 40
0.0
 40
0.0
 40
0.2759195143
 40
1.0
 40
1.0
 40
1.0
 40
1.0
 10
554.4298562918
 20
647.0715662984
 30
0.0
 10
554.4298029798
 20
647.207981714
 30
0.0
 10
554.4288867967
 20
647.7023824906
 30
0.0
 10
554.4258538041
 20
648.1967909479
 30
0.0
 10
554.4207059906
 20
648.5547414727
 30
0.0
  0
SPLINE
  5
589
100
AcDbEntity
  8
02___PRT_ALL_AXES
100
AcDbSpline
 62
7
  6
CONTINUOUS
 70
0
 71
3
 72
9
 73
5
 74
0
 42
0.0000001
 43
0.0000001
 44
0.0000000001
 40
0.0
 40
0.0
 40
0.0
 40
0.0
 40
0.7858277441
 40
1.0
 40
1.0
 40
1.0
 40
1.0
 10
1081.2109097154
 20
378.8509353422
 30
0.0
 10
1081.260325406
 20
379.1237055988
 30
0.0
 10
1081.3221062658
 20
379.4710226682
 30
0.0
 10
1081.3812346784
 20
379.8187952426
 30
0.0
 10
1081.3936821488
 20
379.8933146593
 30
0.0
  0
SPLINE
  5
58A
100
AcDbEntity
  8
02___PRT_ALL_AXES
100
AcDbSpline
 62
7
  6
CONTINUOUS
 70
0
 71
3
 72
9
 73
5
 74
0
 42
0.0000001
 43
0.0000001
 44
0.0000000001
 40
0.0
 40
0.0
 40
0.0
 40
0.0
 40
0.7856623869
 40
1.0
 40
1.0
 40
1.0
 40
1.0
 10
1374.3860244872
 20
364.4085278637
 30
0.0
 10
1374.3503204204
 20
364.1325976463
 30
0.0
 10
1374.3037362268
 20
363.7815327343
 30
0.0
 10
1374.2544736125
 20
363.430839611
 30
0.0
 10
1374.2436964807
 20
363.3557041264
 30
0.0
  0
SPLINE
  5
58B
100
AcDbEntity
  8
02___PRT_ALL_AXES
100
AcDbSpline
 62
7
  6
CONTINUOUS
 70
0
 71
3
 72
9
 73
5
 74
0
 42
0.0000001
 43
0.0000001
 44
0.0000000001
 40
0.0
 40
0.0
 40
0.0
 40
0.0
 40
0.7855653861
 40
1.0
 40
1.0
 40
1.0
 40
1.0
 10
1133.5585049062
 20
324.8217328703
 30
0.0
 10
1133.5584608444
 20
325.1000202051
 30
0.0
 10
1133.5572378714
 20
325.4542763365
 30
0.0
 10
1133.5532902977
 20
325.8085065492
 30
0.0
 10
1133.5522210523
 20
325.884462704
 30
0.0
  0
SPLINE
  5
58C
100
AcDbEntity
  8
02___PRT_ALL_AXES
100
AcDbSpline
 62
7
  6
CONTINUOUS
 70
0
 71
3
 72
9
 73
5
 74
0
 42
0.0000001
 43
0.0000001
 44
0.0000000001
 40
0.0
 40
0.0
 40
0.0
 40
0.0
 40
0.7856355654
 40
1.0
 40
1.0
 40
1.0
 40
1.0
 10
1248.985700432
 20
339.5507309814
 30
0.0
 10
1248.9360732593
 20
339.2767934178
 30
0.0
 10
1248.8717793865
 20
338.9283093926
 30
0.0
 10
1248.8048521915
 20
338.5803274388
 30
0.0
 10
1248.7902907421
 20
338.505774337
 30
0.0
  0
SPLINE
  5
58D
100
AcDbEntity
  8
02___PRT_ALL_AXES
100
AcDbSpline
 62
7
  6
CONTINUOUS
 70
0
 71
3
 72
9
 73
5
 74
0
 42
0.0000001
 43
0.0000001
 44
0.0000000001
 40
0.0
 40
0.0
 40
0.0
 40
0.0
 40
0.7857191612
 40
1.0
 40
1.0
 40
1.0
 40
1.0
 10
1247.663302527
 20
324.829566144
 30
0.0
 10
1247.6670180165
 20
325.107343312
 30
0.0
 10
1247.6637973017
 20
325.4609579068
 30
0.0
 10
1247.6585860597
 20
325.8144775432
 30
0.0
 10
1247.6571834255
 20
325.8902265503
 30
0.0
  0
SPLINE
  5
58E
100
AcDbEntity
  8
02___PRT_ALL_AXES
100
AcDbSpline
 62
7
  6
CONTINUOUS
 70
0
 71
3
 72
9
 73
5
 74
0
 42
0.0000001
 43
0.0000001
 44
0.0000000001
 40
0.0
 40
0.0
 40
0.0
 40
0.0
 40
0.785788832
 40
1.0
 40
1.0
 40
1.0
 40
1.0
 10
1378.932021759
 20
372.6506007829
 30
0.0
 10
1378.97163818
 20
372.9251322089
 30
0.0
 10
1379.0136051129
 20
373.2756922397
 30
0.0
 10
1379.0536473648
 20
373.6263961061
 30
0.0
 10
1379.0619374178
 20
373.7015545608
 30
0.0
  0
SPLINE
  5
58F
100
AcDbEntity
  8
02___PRT_ALL_AXES
100
AcDbSpline
 62
7
  6
CONTINUOUS
 70
0
 71
3
 72
9
 73
5
 74
0
 42
0.0000001
 43
0.0000001
 44
0.0000000001
 40
0.0
 40
0.0
 40
0.0
 40
0.0
 40
0.7858007586
 40
1.0
 40
1.0
 40
1.0
 40
1.0
 10
1081.5307897468
 20
411.1401044264
 30
0.0
 10
1081.5663840713
 20
411.4151877392
 30
0.0
 10
1081.6105575043
 20
411.7654059187
 30
0.0
 10
1081.652039389
 20
412.1159471572
 30
0.0
 10
1081.660705396
 20
412.1910582042
 30
0.0
  0
SPLINE
  5
590
100
AcDbEntity
  8
02___PRT_ALL_AXES
100
AcDbSpline
 62
7
  6
CONTINUOUS
 70
0
 71
3
 72
9
 73
5
 74
0
 42
0.0000001
 43
0.0000001
 44
0.0000000001
 40
0.0
 40
0.0
 40
0.0
 40
0.0
 40
0.7856898636
 40
1.0
 40
1.0
 40
1.0
 40
1.0
 10
1380.2524704237
 20
411.4556086857
 30
0.0
 10
1380.2309510582
 20
411.1783813618
 30
0.0
 10
1380.2024110036
 20
410.8256196703
 30
0.0
 10
1380.1711656908
 20
410.4730932867
 30
0.0
 10
1380.1642489591
 20
410.3975634359
 30
0.0
  0
SPLINE
  5
591
100
AcDbEntity
  8
02___PRT_ALL_AXES
100
AcDbSpline
 62
7
  6
CONTINUOUS
 70
0
 71
3
 72
9
 73
5
 74
0
 42
0.0000001
 43
0.0000001
 44
0.0000000001
 40
0.0
 40
0.0
 40
0.0
 40
0.0
 40
0.7857551012
 40
1.0
 40
1.0
 40
1.0
 40
1.0
 10
1379.2577583955
 20
420.316550172
 30
0.0
 10
1379.2847064424
 20
420.5927827586
 30
0.0
 10
1379.3079207887
 20
420.9453563731
 30
0.0
 10
1379.3294290295
 20
421.2979080751
 30
0.0
 10
1379.3337215254
 20
421.3734616899
 30
0.0
  0
SPLINE
  5
592
100
AcDbEntity
  8
02___PRT_ALL_AXES
100
AcDbSpline
 62
7
  6
CONTINUOUS
 70
0
 71
3
 72
9
 73
5
 74
0
 42
0.0000001
 43
0.0000001
 44
0.0000000001
 40
0.0
 40
0.0
 40
0.0
 40
0.0
 40
0.785773194
 40
1.0
 40
1.0
 40
1.0
 40
1.0
 10
1081.8570191965
 20
443.4060529841
 30
0.0
 10
1081.8784982245
 20
443.6827668278
 30
0.0
 10
1081.9046936461
 20
444.0350154456
 30
0.0
 10
1081.9281736317
 20
444.3874495134
 30
0.0
 10
1081.9329823285
 20
444.462964502
 30
0.0
  0
SPLINE
  5
593
100
AcDbEntity
  8
02___PRT_ALL_AXES
100
AcDbSpline
 62
7
  6
CONTINUOUS
 70
0
 71
3
 72
9
 73
5
 74
0
 42
0.0000001
 43
0.0000001
 44
0.0000000001
 40
0.0
 40
0.0
 40
0.0
 40
0.0
 40
0.7857213819
 40
1.0
 40
1.0
 40
1.0
 40
1.0
 10
1082.5197484113
 20
466.9090385178
 30
0.0
 10
1082.512050251
 20
466.6312542551
 30
0.0
 10
1082.5020219856
 20
466.2777155633
 30
0.0
 10
1082.4892009786
 20
465.9242703908
 30
0.0
 10
1082.4862424212
 20
465.848542926
 30
0.0
  0
SPLINE
  5
594
100
AcDbEntity
  8
02___PRT_ALL_AXES
100
AcDbSpline
 62
7
  6
CONTINUOUS
 70
0
 71
3
 72
9
 73
5
 74
0
 42
0.0000001
 43
0.0000001
 44
0.0000000001
 40
0.0
 40
0.0
 40
0.0
 40
0.0
 40
0.7857173884
 40
1.0
 40
1.0
 40
1.0
 40
1.0
 10
1379.9199947207
 20
459.2185357009
 30
0.0
 10
1379.9128119288
 20
458.9407387664
 30
0.0
 10
1379.9025495489
 20
458.5872039022
 30
0.0
 10
1379.8895088704
 20
458.2337666331
 30
0.0
 10
1379.8864887327
 20
458.158040109
 30
0.0
  0
SPLINE
  5
595
100
AcDbEntity
  8
02___PRT_ALL_AXES
100
AcDbSpline
 62
7
  6
CONTINUOUS
 70
0
 71
3
 72
9
 73
5
 74
0
 42
0.0000001
 43
0.0000001
 44
0.0000000001
 40
0.0
 40
0.0
 40
0.0
 40
0.0
 40
0.7857352871
 40
1.0
 40
1.0
 40
1.0
 40
1.0
 10
1379.5873434461
 20
467.9876942631
 30
0.0
 10
1379.5981919675
 20
468.2651989416
 30
0.0
 10
1379.6041622444
 20
468.6186605789
 30
0.0
 10
1379.6081074464
 20
468.9720808748
 30
0.0
 10
1379.6086680741
 20
469.0478102566
 30
0.0
  0
SPLINE
  5
596
100
AcDbEntity
  8
02___PRT_ALL_AXES
100
AcDbSpline
 62
7
  6
CONTINUOUS
 70
0
 71
3
 72
9
 73
5
 74
0
 42
0.0000001
 43
0.0000001
 44
0.0000000001
 40
0.0
 40
0.0
 40
0.0
 40
0.0
 40
0.7857453459
 40
1.0
 40
1.0
 40
1.0
 40
1.0
 10
1082.1870971509
 20
475.6778515989
 30
0.0
 10
1082.1942743485
 20
475.9554766366
 30
0.0
 10
1082.2022691583
 20
476.3088384641
 30
0.0
 10
1082.2075201664
 20
476.6622457151
 30
0.0
 10
1082.2084217794
 20
476.7379675923
 30
0.0
  0
SPLINE
  5
597
100
AcDbEntity
  8
02___PRT_ALL_AXES
100
AcDbSpline
 62
7
  6
CONTINUOUS
 70
0
 71
3
 72
9
 73
5
 74
0
 42
0.0000001
 43
0.0000001
 44
0.0000000001
 40
0.0
 40
0.0
 40
0.0
 40
0.0
 40
0.7857454496
 40
1.0
 40
1.0
 40
1.0
 40
1.0
 10
1379.5860897814
 20
506.9227932277
 30
0.0
 10
1379.5932851976
 20
506.6451688678
 30
0.0
 10
1379.6012886531
 20
506.2918075837
 30
0.0
 10
1379.6065730357
 20
505.93840117
 30
0.0
 10
1379.6074834847
 20
505.8626795013
 30
0.0
  0
SPLINE
  5
598
100
AcDbEntity
  8
02___PRT_ALL_AXES
100
AcDbSpline
 62
7
  6
CONTINUOUS
 70
0
 71
3
 72
9
 73
5
 74
0
 42
0.0000001
 43
0.0000001
 44
0.0000000001
 40
0.0
 40
0.0
 40
0.0
 40
0.0
 40
0.7857082496
 40
1.0
 40
1.0
 40
1.0
 40
1.0
 10
1379.9181871091
 20
515.6917038461
 30
0.0
 10
1379.9144668641
 20
515.9695679429
 30
0.0
 10
1379.9022392163
 20
516.3230954046
 30
0.0
 10
1379.8879553742
 20
516.6764812495
 30
0.0
 10
1379.884613227
 20
516.7521981504
 30
0.0
  0
SPLINE
  5
599
100
AcDbEntity
  8
02___PRT_ALL_AXES
100
AcDbSpline
 62
7
  6
CONTINUOUS
 70
0
 71
3
 72
9
 73
5
 74
0
 42
0.0000001
 43
0.0000001
 44
0.0000000001
 40
0.0
 40
0.0
 40
0.0
 40
0.0
 40
0.785717451
 40
1.0
 40
1.0
 40
1.0
 40
1.0
 10
1082.5184337194
 20
507.9821628632
 30
0.0
 10
1082.5112335099
 20
508.2599595749
 30
0.0
 10
1082.5009281802
 20
508.6134933978
 30
0.0
 10
1082.4878793548
 20
508.9669305847
 30
0.0
 10
1082.4848598374
 20
509.0426571675
 30
0.0
  0
SPLINE
  5
59A
100
AcDbEntity
  8
02___PRT_ALL_AXES
100
AcDbSpline
 62
7
  6
CONTINUOUS
 70
0
 71
3
 72
9
 73
5
 74
0
 42
0.0000001
 43
0.0000001
 44
0.0000000001
 40
0.0
 40
0.0
 40
0.0
 40
0.0
 40
0.7857773501
 40
1.0
 40
1.0
 40
1.0
 40
1.0
 10
1081.8541999705
 20
531.4851059786
 30
0.0
 10
1081.8741903657
 20
531.2082799968
 30
0.0
 10
1081.9012161996
 20
530.8560983697
 30
0.0
 10
1081.9252708512
 20
530.503703688
 30
0.0
 10
1081.9302307171
 20
530.4282001823
 30
0.0
  0
SPLINE
  5
59B
100
AcDbEntity
  8
02___PRT_ALL_AXES
100
AcDbSpline
 62
7
  6
CONTINUOUS
 70
0
 71
3
 72
9
 73
5
 74
0
 42
0.0000001
 43
0.0000001
 44
0.0000000001
 40
0.0
 40
0.0
 40
0.0
 40
0.0
 40
0.7857732698
 40
1.0
 40
1.0
 40
1.0
 40
1.0
 10
1379.2534604863
 20
554.5936468431
 30
0.0
 10
1379.274957401
 20
554.3169345932
 30
0.0
 10
1379.3011685115
 20
553.9646874547
 30
0.0
 10
1379.324675877
 20
553.6122555213
 30
0.0
 10
1379.3294912316
 20
553.5367410468
 30
0.0
  0
SPLINE
  5
59C
100
AcDbEntity
  8
02___PRT_ALL_AXES
100
AcDbSpline
 62
7
  6
CONTINUOUS
 70
0
 71
3
 72
9
 73
5
 74
0
 42
0.0000001
 43
0.0000001
 44
0.0000000001
 40
0.0
 40
0.0
 40
0.0
 40
0.0
 40
0.7856672786
 40
1.0
 40
1.0
 40
1.0
 40
1.0
 10
1380.2476053032
 20
563.454651037
 30
0.0
 10
1380.2321589848
 20
563.7322799251
 30
0.0
 10
1380.2002577856
 20
564.0848928732
 30
0.0
 10
1380.1668113441
 20
564.4372074647
 30
0.0
 10
1380.1593160913
 20
564.5126914944
 30
0.0
  0
SPLINE
  5
59D
100
AcDbEntity
  8
02___PRT_ALL_AXES
100
AcDbSpline
 62
7
  6
CONTINUOUS
 70
0
 71
3
 72
9
 73
5
 74
0
 42
0.0000001
 43
0.0000001
 44
0.0000000001
 40
0.0
 40
0.0
 40
0.0
 40
0.0
 40
0.7856896997
 40
1.0
 40
1.0
 40
1.0
 40
1.0
 10
1082.8483447875
 20
540.346110172
 30
0.0
 10
1082.8268075732
 20
540.6233362895
 30
0.0
 10
1082.7982586305
 20
540.9760976017
 30
0.0
 10
1082.7669808689
 20
541.32862144
 30
0.0
 10
1082.7600555741
 20
541.4041506293
 30
0.0
  0
SPLINE
  5
59E
100
AcDbEntity
  8
02___PRT_ALL_AXES
100
AcDbSpline
 62
7
  6
CONTINUOUS
 70
0
 71
3
 72
9
 73
5
 74
0
 42
0.0000001
 43
0.0000001
 44
0.0000000001
 40
0.0
 40
0.0
 40
0.0
 40
0.0
 40
0.7858007908
 40
1.0
 40
1.0
 40
1.0
 40
1.0
 10
1378.9246724888
 20
602.2595751703
 30
0.0
 10
1378.9602843149
 20
601.9844943457
 30
0.0
 10
1379.0044703404
 20
601.6342780811
 30
0.0
 10
1379.0459818395
 20
601.2837406675
 30
0.0
 10
1379.0546553567
 20
601.2086305627
 30
0.0
  0
SPLINE
  5
59F
100
AcDbEntity
  8
02___PRT_ALL_AXES
100
AcDbSpline
 62
7
  6
CONTINUOUS
 70
0
 71
3
 72
9
 73
5
 74
0
 42
0.0000001
 43
0.0000001
 44
0.0000000001
 40
0.0
 40
0.0
 40
0.0
 40
0.0
 40
0.7856561602
 40
1.0
 40
1.0
 40
1.0
 40
1.0
 10
1374.3781475533
 20
610.5013571206
 30
0.0
 10
1374.3446171843
 20
610.7775592003
 30
0.0
 10
1374.2967977086
 20
611.1284858
 30
0.0
 10
1374.2467377641
 20
611.4790646764
 30
0.0
 10
1374.2357520974
 20
611.554172597
 30
0.0
  0
SPLINE
  5
5A0
100
AcDbEntity
  8
02___PRT_ALL_AXES
100
AcDbSpline
 62
7
  6
CONTINUOUS
 70
0
 71
3
 72
9
 73
5
 74
0
 42
0.0000001
 43
0.0000001
 44
0.0000000001
 40
0.0
 40
0.0
 40
0.0
 40
0.0
 40
0.7856623073
 40
1.0
 40
1.0
 40
1.0
 40
1.0
 10
1083.1742608162
 20
572.7949409165
 30
0.0
 10
1083.1385388994
 20
573.0708690321
 30
0.0
 10
1083.0919447032
 20
573.4219329517
 30
0.0
 10
1083.0426506794
 20
573.7726219903
 30
0.0
 10
1083.031865358
 20
573.8477563929
 30
0.0
  0
SPLINE
  5
5A1
100
AcDbEntity
  8
02___PRT_ALL_AXES
100
AcDbSpline
 62
7
  6
CONTINUOUS
 70
0
 71
3
 72
9
 73
5
 74
0
 42
0.0000001
 43
0.0000001
 44
0.0000000001
 40
0.0
 40
0.0
 40
0.0
 40
0.0
 40
0.7858431246
 40
1.0
 40
1.0
 40
1.0
 40
1.0
 10
1346.503803179
 20
644.1288026323
 30
0.0
 10
1346.5532298588
 20
643.8560772089
 30
0.0
 10
1346.6150018166
 20
643.5088201194
 30
0.0
 10
1346.6741604879
 20
643.1611141571
 30
0.0
 10
1346.6866162402
 20
643.0866147718
 30
0.0
  0
SPLINE
  5
5A2
100
AcDbEntity
  8
02___PRT_ALL_AXES
100
AcDbSpline
 62
7
  6
CONTINUOUS
 70
0
 71
3
 72
9
 73
5
 74
0
 42
0.0000001
 43
0.0000001
 44
0.0000000001
 40
0.0
 40
0.0
 40
0.0
 40
0.0
 40
0.7856377633
 40
1.0
 40
1.0
 40
1.0
 40
1.0
 10
1248.976232445
 20
635.3511264584
 30
0.0
 10
1248.9257769706
 20
635.6249133127
 30
0.0
 10
1248.861893018
 20
635.9734693332
 30
0.0
 10
1248.7952421846
 20
636.3215045499
 30
0.0
 10
1248.7807557867
 20
636.3960714368
 30
0.0
  0
SPLINE
  5
5A3
100
AcDbEntity
  8
02___PRT_ALL_AXES
100
AcDbSpline
 62
7
  6
CONTINUOUS
 70
0
 71
3
 72
9
 73
5
 74
0
 42
0.0000001
 43
0.0000001
 44
0.0000000001
 40
0.0
 40
0.0
 40
0.0
 40
0.0
 40
0.7856354717
 40
1.0
 40
1.0
 40
1.0
 40
1.0
 10
1087.5443814993
 20
606.0895326411
 30
0.0
 10
1087.4947365881
 20
606.3634671945
 30
0.0
 10
1087.4304337144
 20
606.7119498975
 30
0.0
 10
1087.3634746726
 20
607.0599260567
 30
0.0
 10
1087.3489048404
 20
607.1344776195
 30
0.0
  0
SPLINE
  5
5A4
100
AcDbEntity
  8
02___PRT_ALL_AXES
100
AcDbSpline
 62
7
  6
CONTINUOUS
 70
0
 71
3
 72
9
 73
5
 74
0
 42
0.0000001
 43
0.0000001
 44
0.0000000001
 40
0.0
 40
0.0
 40
0.0
 40
0.0
 40
0.7857314991
 40
1.0
 40
1.0
 40
1.0
 40
1.0
 10
1247.6528923823
 20
650.0722065446
 30
0.0
 10
1247.6529011613
 20
649.7944028389
 30
0.0
 10
1247.6517565382
 20
649.4408368987
 30
0.0
 10
1247.647891249
 20
649.0872962317
 30
0.0
 10
1247.6468411705
 20
649.0115466085
 30
0.0
  0
SPLINE
  5
5A5
100
AcDbEntity
  8
02___PRT_ALL_AXES
100
AcDbSpline
 62
7
  6
CONTINUOUS
 70
0
 71
3
 72
9
 73
5
 74
0
 42
0.0000001
 43
0.0000001
 44
0.0000000001
 40
0.0
 40
0.0
 40
0.0
 40
0.0
 40
0.7856325354
 40
1.0
 40
1.0
 40
1.0
 40
1.0
 10
600.4125997922
 20
606.0817363076
 30
0.0
 10
600.4605526115
 20
606.3559719019
 30
0.0
 10
600.5257890876
 20
606.7042999525
 30
0.0
 10
600.5933230893
 20
607.0521637487
 30
0.0
 10
600.6080429673
 20
607.1266871195
 30
0.0
  0
SPLINE
  5
5A6
100
AcDbEntity
  8
02___PRT_ALL_AXES
100
AcDbSpline
 62
7
  6
CONTINUOUS
 70
0
 71
3
 72
9
 73
5
 74
0
 42
0.0000001
 43
0.0000001
 44
0.0000000001
 40
0.0
 40
0.0
 40
0.0
 40
0.0
 40
0.785721847
 40
1.0
 40
1.0
 40
1.0
 40
1.0
 10
440.3026813223
 20
650.0592855871
 30
0.0
 10
440.2993846834
 20
649.781502642
 30
0.0
 10
440.3023566032
 20
649.4278967648
 30
0.0
 10
440.3074063611
 20
649.0743741227
 30
0.0
 10
440.3087664784
 20
648.9986254153
 30
0.0
  0
SPLINE
  5
5A7
100
AcDbEntity
  8
02___PRT_ALL_AXES
100
AcDbSpline
 62
7
  6
CONTINUOUS
 70
0
 71
3
 72
9
 73
5
 74
0
 42
0.0000001
 43
0.0000001
 44
0.0000000001
 40
0.0
 40
0.0
 40
0.0
 40
0.0
 40
0.7855929566
 40
1.0
 40
1.0
 40
1.0
 40
1.0
 10
554.4069555159
 20
650.0627617768
 30
0.0
 10
554.4070543634
 20
649.7845556556
 30
0.0
 10
554.4083393508
 20
649.4304154513
 30
0.0
 10
554.4123799831
 20
649.0763020478
 30
0.0
 10
554.4134720966
 20
649.0003808157
 30
0.0
  0
SPLINE
  5
5A8
100
AcDbEntity
  8
02___PRT_ALL_AXES
100
AcDbSpline
 62
7
  6
CONTINUOUS
 70
0
 71
3
 72
9
 73
5
 74
0
 42
0.0000001
 43
0.0000001
 44
0.0000000001
 40
0.0
 40
0.0
 40
0.0
 40
0.0
 40
0.7856606654
 40
1.0
 40
1.0
 40
1.0
 40
1.0
 10
604.7837861602
 20
572.7872844157
 30
0.0
 10
604.8180102997
 20
573.0634024215
 30
0.0
 10
604.8654277178
 20
573.4143717862
 30
0.0
 10
604.9152301665
 20
573.7649879661
 30
0.0
 10
604.9261478933
 20
573.8401040231
 30
0.0
  0
SPLINE
  5
5A9
100
AcDbEntity
  8
02___PRT_ALL_AXES
100
AcDbSpline
 62
7
  6
CONTINUOUS
 70
0
 71
3
 72
9
 73
5
 74
0
 42
0.0000001
 43
0.0000001
 44
0.0000000001
 40
0.0
 40
0.0
 40
0.0
 40
0.0
 40
0.785662317
 40
1.0
 40
1.0
 40
1.0
 40
1.0
 10
313.5786926909
 20
610.4843799448
 30
0.0
 10
313.6144057799
 20
610.7603090929
 30
0.0
 10
313.6609899093
 20
611.1113742003
 30
0.0
 10
313.7102718333
 20
611.4620647919
 30
0.0
 10
313.7210544221
 20
611.5371995522
 30
0.0
  0
SPLINE
  5
5AA
100
AcDbEntity
  8
02___PRT_ALL_AXES
100
AcDbSpline
 62
7
  6
CONTINUOUS
 70
0
 71
3
 72
9
 73
5
 74
0
 42
0.0000001
 43
0.0000001
 44
0.0000000001
 40
0.0
 40
0.0
 40
0.0
 40
0.0
 40
0.7858276673
 40
1.0
 40
1.0
 40
1.0
 40
1.0
 10
606.7533451548
 20
596.0325892979
 30
0.0
 10
606.7039214318
 20
595.7598206269
 30
0.0
 10
606.6421187396
 20
595.4125075471
 30
0.0
 10
606.582986481
 20
595.0647357339
 30
0.0
 10
606.5705393937
 20
594.9902162536
 30
0.0
  0
SPLINE
  5
5AB
100
AcDbEntity
  8
02___PRT_ALL_AXES
100
AcDbSpline
 62
7
  6
CONTINUOUS
 70
0
 71
3
 72
9
 73
5
 74
0
 42
0.0000001
 43
0.0000001
 44
0.0000000001
 40
0.0
 40
0.0
 40
0.0
 40
0.0
 40
0.275807522
 40
1.0
 40
1.0
 40
1.0
 40
1.0
 10
1247.6424308064
 20
327.8207347694
 30
0.0
 10
1247.6409611158
 20
327.6842173788
 30
0.0
 10
1247.6376594076
 20
327.189214257
 30
0.0
 10
1247.6447279635
 20
326.6942150503
 30
0.0
 10
1247.6509979409
 20
326.335793093
 30
0.0
  0
SPLINE
  5
5AC
100
AcDbEntity
  8
02___PRT_ALL_AXES
100
AcDbSpline
 62
7
  6
CONTINUOUS
 70
0
 71
3
 72
9
 73
5
 74
0
 42
0.0000001
 43
0.0000001
 44
0.0000000001
 40
0.0
 40
0.0
 40
0.0
 40
0.0
 40
0.2759416561
 40
1.0
 40
1.0
 40
1.0
 40
1.0
 10
1133.5367767323
 20
327.8129343119
 30
0.0
 10
1133.5368042236
 20
327.6765407052
 30
0.0
 10
1133.5376258661
 20
327.18225847
 30
0.0
 10
1133.5405564369
 20
326.687968335
 30
0.0
 10
1133.5456064823
 20
326.3301133444
 30
0.0
  0
SPLINE
  5
5AD
100
AcDbEntity
  8
02___PRT_ALL_AXES
100
AcDbSpline
 62
7
  6
CONTINUOUS
 70
0
 71
3
 72
9
 73
5
 74
0
 42
0.0000001
 43
0.0000001
 44
0.0000000001
 40
0.0
 40
0.0
 40
0.0
 40
0.0
 40
0.2756800374
 40
1.0
 40
1.0
 40
1.0
 40
1.0
 10
1086.997858844
 20
365.8596799676
 30
0.0
 10
1087.0222842188
 20
365.9942597636
 30
0.0
 10
1087.1115776279
 20
366.4823061243
 30
0.0
 10
1087.2029086822
 20
366.9699905819
 30
0.0
 10
1087.2718581721
 20
367.3226847702
 30
0.0
  0
SPLINE
  5
5AE
100
AcDbEntity
  8
02___PRT_ALL_AXES
100
AcDbSpline
 62
7
  6
CONTINUOUS
 70
0
 71
3
 72
9
 73
5
 74
0
 42
0.0000001
 43
0.0000001
 44
0.0000000001
 40
0.0
 40
0.0
 40
0.0
 40
0.0
 40
0.7856941919
 40
1.0
 40
1.0
 40
1.0
 40
1.0
 10
605.1107408193
 20
540.3384641595
 30
0.0
 10
605.1331828905
 20
540.6156195489
 30
0.0
 10
605.1612496259
 20
540.9684154667
 30
0.0
 10
605.1921672781
 20
541.3209707894
 30
0.0
 10
605.1989961528
 20
541.3965070136
 30
0.0
  0
SPLINE
  5
5AF
100
AcDbEntity
  8
02___PRT_ALL_AXES
100
AcDbSpline
 62
7
  6
CONTINUOUS
 70
0
 71
3
 72
9
 73
5
 74
0
 42
0.0000001
 43
0.0000001
 44
0.0000000001
 40
0.0
 40
0.0
 40
0.0
 40
0.0
 40
0.785689728
 40
1.0
 40
1.0
 40
1.0
 40
1.0
 10
307.7107408075
 20
563.4374859845
 30
0.0
 10
307.732269152
 20
563.7147126841
 30
0.0
 10
307.7608113569
 20
564.0674743799
 30
0.0
 10
307.7920745123
 20
564.4199993551
 30
0.0
 10
307.798996139
 20
564.4955288386
 30
0.0
  0
SPLINE
  5
5B0
100
AcDbEntity
  8
02___PRT_ALL_AXES
100
AcDbSpline
 62
7
  6
CONTINUOUS
 70
0
 71
3
 72
9
 73
5
 74
0
 42
0.0000001
 43
0.0000001
 44
0.0000000001
 40
0.0
 40
0.0
 40
0.0
 40
0.0
 40
0.7857935839
 40
1.0
 40
1.0
 40
1.0
 40
1.0
 10
309.0324315836
 20
602.2424524954
 30
0.0
 10
308.9938041587
 20
601.9677794216
 30
0.0
 10
308.9512787007
 20
601.6173125869
 30
0.0
 10
308.9108682975
 20
601.2666491696
 30
0.0
 10
308.9024823204
 20
601.1915033022
 30
0.0
  0
SPLINE
  5
5B1
100
AcDbEntity
  8
02___PRT_ALL_AXES
100
AcDbSpline
 62
7
  6
CONTINUOUS
 70
0
 71
3
 72
9
 73
5
 74
0
 42
0.0000001
 43
0.0000001
 44
0.0000000001
 40
0.0
 40
0.0
 40
0.0
 40
0.0
 40
0.7858006914
 40
1.0
 40
1.0
 40
1.0
 40
1.0
 10
606.4324316018
 20
563.7434306606
 30
0.0
 10
606.3968289243
 20
563.4683485602
 30
0.0
 10
606.352638931
 20
563.1181325952
 30
0.0
 10
606.3111493904
 20
562.7675923882
 30
0.0
 10
606.3024823367
 20
562.6924814674
 30
0.0
  0
SPLINE
  5
5B2
100
AcDbEntity
  8
02___PRT_ALL_AXES
100
AcDbSpline
 62
7
  6
CONTINUOUS
 70
0
 71
3
 72
9
 73
5
 74
0
 42
0.0000001
 43
0.0000001
 44
0.0000000001
 40
0.0
 40
0.0
 40
0.0
 40
0.0
 40
0.7857213647
 40
1.0
 40
1.0
 40
1.0
 40
1.0
 10
605.4416877973
 20
507.9745274868
 30
0.0
 10
605.4493948529
 20
508.2523116092
 30
0.0
 10
605.459434434
 20
508.6058501232
 30
0.0
 10
605.4722667529
 20
508.9592950285
 30
0.0
 10
605.475227734
 20
509.0350224354
 30
0.0
  0
SPLINE
  5
5B3
100
AcDbEntity
  8
02___PRT_ALL_AXES
100
AcDbSpline
 62
7
  6
CONTINUOUS
 70
0
 71
3
 72
9
 73
5
 74
0
 42
0.0000001
 43
0.0000001
 44
0.0000000001
 40
0.0
 40
0.0
 40
0.0
 40
0.0
 40
0.7857173711
 40
1.0
 40
1.0
 40
1.0
 40
1.0
 10
308.0416877933
 20
515.6745493079
 30
0.0
 10
308.0488794778
 20
515.9523461188
 30
0.0
 10
308.059153175
 20
516.3058807976
 30
0.0
 10
308.0722051662
 20
516.6593177924
 30
0.0
 10
308.0752277278
 20
516.7350442565
 30
0.0
  0
SPLINE
  5
5B4
100
AcDbEntity
  8
02___PRT_ALL_AXES
100
AcDbSpline
 62
7
  6
CONTINUOUS
 70
0
 71
3
 72
9
 73
5
 74
0
 42
0.0000001
 43
0.0000001
 44
0.0000000001
 40
0.0
 40
0.0
 40
0.0
 40
0.0
 40
0.7857551185
 40
1.0
 40
1.0
 40
1.0
 40
1.0
 10
308.7051692677
 20
554.5765136189
 30
0.0
 10
308.6782123952
 20
554.3002820001
 30
0.0
 10
308.6549867694
 20
553.947709272
 30
0.0
 10
308.6334672448
 20
553.5951584019
 30
0.0
 10
308.6291723303
 20
553.5196049612
 30
0.0
  0
SPLINE
  5
5B5
100
AcDbEntity
  8
02___PRT_ALL_AXES
100
AcDbSpline
 62
7
  6
CONTINUOUS
 70
0
 71
3
 72
9
 73
5
 74
0
 42
0.0000001
 43
0.0000001
 44
0.0000000001
 40
0.0
 40
0.0
 40
0.0
 40
0.0
 40
0.7857732112
 40
1.0
 40
1.0
 40
1.0
 40
1.0
 10
606.1051692795
 20
531.4774917947
 30
0.0
 10
606.0836814047
 20
531.2007787444
 30
0.0
 10
606.0574747113
 20
530.8485311083
 30
0.0
 10
606.0339834518
 20
530.4960979351
 30
0.0
 10
606.02917234
 20
530.420583137
 30
0.0
  0
SPLINE
  5
5B6
100
AcDbEntity
  8
02___PRT_ALL_AXES
100
AcDbSpline
 62
7
  6
CONTINUOUS
 70
0
 71
3
 72
9
 73
5
 74
0
 42
0.0000001
 43
0.0000001
 44
0.0000000001
 40
0.0
 40
0.0
 40
0.0
 40
0.0
 40
0.2756789254
 40
1.0
 40
1.0
 40
1.0
 40
1.0
 10
1248.4310197654
 20
336.6085373509
 30
0.0
 10
1248.4554368316
 20
336.7431143478
 30
0.0
 10
1248.5447104417
 20
337.2311506919
 30
0.0
 10
1248.6360433286
 20
337.7188216406
 30
0.0
 10
1248.7050414295
 20
338.0714970165
 30
0.0
  0
SPLINE
  5
5B7
100
AcDbEntity
  8
02___PRT_ALL_AXES
100
AcDbSpline
 62
7
  6
CONTINUOUS
 70
0
 71
3
 72
9
 73
5
 74
0
 42
0.0000001
 43
0.0000001
 44
0.0000000001
 40
0.0
 40
0.0
 40
0.0
 40
0.0
 40
0.2759399347
 40
1.0
 40
1.0
 40
1.0
 40
1.0
 10
1081.723535012
 20
381.7952747306
 30
0.0
 10
1081.6992428626
 20
381.6611797945
 30
0.0
 10
1081.611904993
 20
381.1750984133
 30
0.0
 10
1081.5266200808
 20
380.6886374566
 30
0.0
 10
1081.4676535855
 20
380.3359436867
 30
0.0
  0
SPLINE
  5
5B8
100
AcDbEntity
  8
02___PRT_ALL_AXES
100
AcDbSpline
 62
7
  6
CONTINUOUS
 70
0
 71
3
 72
9
 73
5
 74
0
 42
0.0000001
 43
0.0000001
 44
0.0000000001
 40
0.0
 40
0.0
 40
0.0
 40
0.0
 40
0.2757096114
 40
1.0
 40
1.0
 40
1.0
 40
1.0
 10
1082.7752091044
 20
399.1306519146
 30
0.0
 10
1082.7929190234
 20
399.2661731062
 30
0.0
 10
1082.8577121654
 20
399.7576339898
 30
0.0
 10
1082.9236402196
 20
400.248958603
 30
0.0
 10
1082.9744374288
 20
400.6043888392
 30
0.0
  0
SPLINE
  5
5B9
100
AcDbEntity
  8
02___PRT_ALL_AXES
100
AcDbSpline
 62
7
  6
CONTINUOUS
 70
0
 71
3
 72
9
 73
5
 74
0
 42
0.0000001
 43
0.0000001
 44
0.0000000001
 40
0.0
 40
0.0
 40
0.0
 40
0.0
 40
0.2757159783
 40
1.0
 40
1.0
 40
1.0
 40
1.0
 10
1373.980795474
 20
361.4428282029
 30
0.0
 10
1373.9983669915
 20
361.5783986043
 30
0.0
 10
1374.0628103772
 20
362.0700074941
 30
0.0
 10
1374.1293479274
 20
362.5613530865
 30
0.0
 10
1374.1804118605
 20
362.9168156386
 30
0.0
  0
SPLINE
  5
5BA
100
AcDbEntity
  8
02___PRT_ALL_AXES
100
AcDbSpline
 62
7
  6
CONTINUOUS
 70
0
 71
3
 72
9
 73
5
 74
0
 42
0.0000001
 43
0.0000001
 44
0.0000000001
 40
0.0
 40
0.0
 40
0.0
 40
0.0
 40
0.7857484074
 40
1.0
 40
1.0
 40
1.0
 40
1.0
 10
606.6286367851
 20
475.6778515575
 30
0.0
 10
606.6223533424
 20
475.9554989245
 30
0.0
 10
606.6138988198
 20
476.3088461511
 30
0.0
 10
606.6083060266
 20
476.6622480248
 30
0.0
 10
606.6073121561
 20
476.7379675509
 30
0.0
  0
SPLINE
  5
5BB
100
AcDbEntity
  8
02___PRT_ALL_AXES
100
AcDbSpline
 62
7
  6
CONTINUOUS
 70
0
 71
3
 72
9
 73
5
 74
0
 42
0.0000001
 43
0.0000001
 44
0.0000000001
 40
0.0
 40
0.0
 40
0.0
 40
0.0
 40
0.785745291
 40
1.0
 40
1.0
 40
1.0
 40
1.0
 10
309.2283904869
 20
467.9876943421
 30
0.0
 10
309.2212135187
 20
468.2653193797
 30
0.0
 10
309.2132045602
 20
468.6186809416
 30
0.0
 10
309.2079636576
 20
468.9720883899
 30
0.0
 10
309.2070658599
 20
469.0478103356
 30
0.0
  0
SPLINE
  5
5BC
100
AcDbEntity
  8
02___PRT_ALL_AXES
100
AcDbSpline
 62
7
  6
CONTINUOUS
 70
0
 71
3
 72
9
 73
5
 74
0
 42
0.0000001
 43
0.0000001
 44
0.0000000001
 40
0.0
 40
0.0
 40
0.0
 40
0.0
 40
0.7857235598
 40
1.0
 40
1.0
 40
1.0
 40
1.0
 10
309.2296441558
 20
506.9227933135
 30
0.0
 10
309.2165676412
 20
506.6453869666
 30
0.0
 10
309.211776269
 20
506.2918372392
 30
0.0
 10
309.208604838
 20
505.9384148714
 30
0.0
 10
309.2082504514
 20
505.8626795871
 30
0.0
  0
SPLINE
  5
5BD
100
AcDbEntity
  8
02___PRT_ALL_AXES
100
AcDbSpline
 62
7
  6
CONTINUOUS
 70
0
 71
3
 72
9
 73
5
 74
0
 42
0.0000001
 43
0.0000001
 44
0.0000000001
 40
0.0
 40
0.0
 40
0.0
 40
0.0
 40
0.7857455219
 40
1.0
 40
1.0
 40
1.0
 40
1.0
 10
606.6293975413
 20
499.2132521475
 30
0.0
 10
606.6222020099
 20
498.9356277779
 30
0.0
 10
606.6142122652
 20
498.5822662364
 30
0.0
 10
606.6089180111
 20
498.2288600158
 30
0.0
 10
606.6080038395
 20
498.1531384211
 30
0.0
  0
SPLINE
  5
5BE
100
AcDbEntity
  8
02___PRT_ALL_AXES
100
AcDbSpline
 62
7
  6
CONTINUOUS
 70
0
 71
3
 72
9
 73
5
 74
0
 42
0.0000001
 43
0.0000001
 44
0.0000000001
 40
0.0
 40
0.0
 40
0.0
 40
0.0
 40
0.7857773328
 40
1.0
 40
1.0
 40
1.0
 40
1.0
 10
606.1051692773
 20
443.398438755
 30
0.0
 10
606.0851877283
 20
443.675265482
 30
0.0
 10
606.0581731596
 20
444.0274481168
 30
0.0
 10
606.0341297872
 20
444.3798437115
 30
0.0
 10
606.0291723382
 20
444.4553474127
 30
0.0
  0
SPLINE
  5
5BF
100
AcDbEntity
  8
02___PRT_ALL_AXES
100
AcDbSpline
 62
7
  6
CONTINUOUS
 70
0
 71
3
 72
9
 73
5
 74
0
 42
0.0000001
 43
0.0000001
 44
0.0000000001
 40
0.0
 40
0.0
 40
0.0
 40
0.0
 40
0.7857732526
 40
1.0
 40
1.0
 40
1.0
 40
1.0
 10
308.7051692696
 20
420.299416879
 30
0.0
 10
308.6836812019
 20
420.5761299226
 30
0.0
 10
308.6574813565
 20
420.9283780425
 30
0.0
 10
308.6339852695
 20
421.2808108713
 30
0.0
 10
308.6291723318
 20
421.3563255367
 30
0.0
  0
SPLINE
  5
5C0
100
AcDbEntity
  8
02___PRT_ALL_AXES
100
AcDbSpline
 62
7
  6
CONTINUOUS
 70
0
 71
3
 72
9
 73
5
 74
0
 42
0.0000001
 43
0.0000001
 44
0.0000000001
 40
0.0
 40
0.0
 40
0.0
 40
0.0
 40
0.7857082668
 40
1.0
 40
1.0
 40
1.0
 40
1.0
 10
308.0416877954
 20
459.2013811337
 30
0.0
 10
308.0453991434
 20
458.9235170244
 30
0.0
 10
308.0576154749
 20
458.5699893147
 30
0.0
 10
308.0718880071
 20
458.2166031562
 30
0.0
 10
308.075227731
 20
458.1408861851
 30
0.0
  0
SPLINE
  5
5C1
100
AcDbEntity
  8
02___PRT_ALL_AXES
100
AcDbSpline
 62
7
  6
CONTINUOUS
 70
0
 71
3
 72
9
 73
5
 74
0
 42
0.0000001
 43
0.0000001
 44
0.0000000001
 40
0.0
 40
0.0
 40
0.0
 40
0.0
 40
0.7857174682
 40
1.0
 40
1.0
 40
1.0
 40
1.0
 10
605.4416877951
 20
466.9014031203
 30
0.0
 10
605.448879112
 20
466.6236062847
 30
0.0
 10
605.4591731244
 20
466.2700722754
 30
0.0
 10
605.4722106371
 20
465.9166348143
 30
0.0
 10
605.4752277306
 20
465.8409081717
 30
0.0
  0
SPLINE
  5
5C2
100
AcDbEntity
  8
02___PRT_ALL_AXES
100
AcDbSpline
 62
7
  6
CONTINUOUS
 70
0
 71
3
 72
9
 73
5
 74
0
 42
0.0000001
 43
0.0000001
 44
0.0000000001
 40
0.0
 40
0.0
 40
0.0
 40
0.0
 40
0.7857938314
 40
1.0
 40
1.0
 40
1.0
 40
1.0
 10
606.4324316022
 20
411.1324998577
 30
0.0
 10
606.3944570254
 20
411.4072635365
 30
0.0
 10
606.3515828656
 20
411.7576739574
 30
0.0
 10
606.3109308444
 20
412.1083104126
 30
0.0
 10
606.302482337
 20
412.183449051
 30
0.0
  0
SPLINE
  5
5C3
100
AcDbEntity
  8
02___PRT_ALL_AXES
100
AcDbSpline
 62
7
  6
CONTINUOUS
 70
0
 71
3
 72
9
 73
5
 74
0
 42
0.0000001
 43
0.0000001
 44
0.0000000001
 40
0.0
 40
0.0
 40
0.0
 40
0.0
 40
0.7858006785
 40
1.0
 40
1.0
 40
1.0
 40
1.0
 10
309.0324315928
 20
372.6334779544
 30
0.0
 10
308.9968287712
 20
372.9085600354
 30
0.0
 10
308.9526349264
 20
373.2587755312
 30
0.0
 10
308.911148293
 20
373.6093160956
 30
0.0
 10
308.9024823286
 20
373.6844271477
 30
0.0
  0
SPLINE
  5
5C4
100
AcDbEntity
  8
02___PRT_ALL_AXES
100
AcDbSpline
 62
7
  6
CONTINUOUS
 70
0
 71
3
 72
9
 73
5
 74
0
 42
0.0000001
 43
0.0000001
 44
0.0000000001
 40
0.0
 40
0.0
 40
0.0
 40
0.0
 40
0.7856819101
 40
1.0
 40
1.0
 40
1.0
 40
1.0
 10
307.7107408099
 20
411.438444506
 30
0.0
 10
307.7293670237
 20
411.1610086813
 30
0.0
 10
307.7595128188
 20
410.808338831
 30
0.0
 10
307.7918048058
 20
410.4559092046
 30
0.0
 10
307.7989961418
 20
410.3804016518
 30
0.0
  0
SPLINE
  5
5C5
100
AcDbEntity
  8
02___PRT_ALL_AXES
100
AcDbSpline
 62
7
  6
CONTINUOUS
 70
0
 71
3
 72
9
 73
5
 74
0
 42
0.0000001
 43
0.0000001
 44
0.0000000001
 40
0.0
 40
0.0
 40
0.0
 40
0.0
 40
0.7858178823
 40
1.0
 40
1.0
 40
1.0
 40
1.0
 10
606.7533451558
 20
378.8433412174
 30
0.0
 10
606.7010408062
 20
379.1155704998
 30
0.0
 10
606.640836673
 20
379.4632064771
 30
0.0
 10
606.5827209921
 20
379.8111469322
 30
0.0
 10
606.5705393947
 20
379.8857142618
 30
0.0
  0
SPLINE
  5
5C6
100
AcDbEntity
  8
02___PRT_ALL_AXES
100
AcDbSpline
 62
7
  6
CONTINUOUS
 70
0
 71
3
 72
9
 73
5
 74
0
 42
0.0000001
 43
0.0000001
 44
0.0000000001
 40
0.0
 40
0.0
 40
0.0
 40
0.0
 40
0.7858537162
 40
1.0
 40
1.0
 40
1.0
 40
1.0
 10
341.4517609733
 20
330.7634435925
 30
0.0
 10
341.4023668896
 20
331.0361452168
 30
0.0
 10
341.3406358096
 20
331.383366994
 30
0.0
 10
341.2815259661
 20
331.7310387212
 30
0.0
 10
341.2690821102
 20
331.8055271997
 30
0.0
  0
SPLINE
  5
5C7
100
AcDbEntity
  8
02___PRT_ALL_AXES
100
AcDbSpline
 62
7
  6
CONTINUOUS
 70
0
 71
3
 72
9
 73
5
 74
0
 42
0.0000001
 43
0.0000001
 44
0.0000000001
 40
0.0
 40
0.0
 40
0.0
 40
0.0
 40
0.7856541756
 40
1.0
 40
1.0
 40
1.0
 40
1.0
 10
313.5786926948
 20
364.3915505459
 30
0.0
 10
313.6114044971
 20
364.1152505375
 30
0.0
 10
313.6596517813
 20
363.7643658803
 30
0.0
 10
313.7099939536
 20
363.4138287253
 30
0.0
 10
313.7210544264
 20
363.3387309385
 30
0.0
  0
SPLINE
  5
5C8
100
AcDbEntity
  8
02___PRT_ALL_AXES
100
AcDbSpline
 62
7
  6
CONTINUOUS
 70
0
 71
3
 72
9
 73
5
 74
0
 42
0.0000001
 43
0.0000001
 44
0.0000000001
 40
0.0
 40
0.0
 40
0.0
 40
0.0
 40
0.7856757818
 40
1.0
 40
1.0
 40
1.0
 40
1.0
 10
604.7833207779
 20
402.0882689912
 30
0.0
 10
604.8190899559
 20
401.8123792488
 30
0.0
 10
604.8657599187
 20
401.4613725619
 30
0.0
 10
604.9151204185
 20
401.110740126
 30
0.0
 10
604.9259195739
 20
401.0356226607
 30
0.0
  0
SPLINE
  5
5C9
100
AcDbEntity
  8
02___PRT_ALL_AXES
100
AcDbSpline
 62
7
  6
CONTINUOUS
 70
0
 71
3
 72
9
 73
5
 74
0
 42
0.0000001
 43
0.0000001
 44
0.0000000001
 40
0.0
 40
0.0
 40
0.0
 40
0.0
 40
0.7857314022
 40
1.0
 40
1.0
 40
1.0
 40
1.0
 10
440.3026813223
 20
324.8166449172
 30
0.0
 10
440.302681618
 20
325.0944487158
 30
0.0
 10
440.303822214
 20
325.4480148716
 30
0.0
 10
440.3077098229
 20
325.8015554883
 30
0.0
 10
440.3087664782
 20
325.877305089
 30
0.0
  0
SPLINE
  5
5CA
100
AcDbEntity
  8
02___PRT_ALL_AXES
100
AcDbSpline
 62
7
  6
CONTINUOUS
 70
0
 71
3
 72
9
 73
5
 74
0
 42
0.0000001
 43
0.0000001
 44
0.0000000001
 40
0.0
 40
0.0
 40
0.0
 40
0.0
 40
0.7856355534
 40
1.0
 40
1.0
 40
1.0
 40
1.0
 10
600.4125997858
 20
368.7941942489
 30
0.0
 10
600.4622357927
 20
368.5202581786
 30
0.0
 10
600.5265416574
 20
368.1717762267
 30
0.0
 10
600.5934793605
 20
367.8237961535
 30
0.0
 10
600.6080429604
 20
367.749243437
 30
0.0
  0
SPLINE
  5
5CB
100
AcDbEntity
  8
02___PRT_ALL_AXES
100
AcDbSpline
 62
7
  6
CONTINUOUS
 70
0
 71
3
 72
11
 73
7
 74
0
 42
0.0000001
 43
0.0000001
 44
0.0000000001
 40
0.0
 40
0.0
 40
0.0
 40
0.0
 40
0.2506180027
 40
0.5007495213
 40
0.7506368864
 40
1.0
 40
1.0
 40
1.0
 40
1.0
 10
1247.6571834732
 20
325.8901931593
 30
0.0
 10
1249.1918880387
 20
325.8985690497
 30
0.0
 10
1252.368567559
 20
327.1231029772
 30
0.0
 10
1254.5642223391
 20
331.6437628532
 30
0.0
 10
1253.1914484986
 20
336.4671313989
 30
0.0
 10
1250.2919680722
 20
338.2285986017
 30
0.0
 10
1248.7902162022
 20
338.5053673385
 30
0.0
  0
SPLINE
  5
5CC
100
AcDbEntity
  8
02___PRT_ALL_AXES
100
AcDbSpline
 62
7
  6
CONTINUOUS
 70
0
 71
3
 72
11
 73
7
 74
0
 42
0.0000001
 43
0.0000001
 44
0.0000000001
 40
0.0
 40
0.0
 40
0.0
 40
0.0
 40
0.2498482621
 40
0.5000240306
 40
0.7502407295
 40
1.0
 40
1.0
 40
1.0
 40
1.0
 10
1247.6509976039
 20
326.3357765275
 30
0.0
 10
1249.077384098
 20
326.3375202613
 30
0.0
 10
1252.0386564045
 20
327.4656100172
 30
0.0
 10
1254.1009866908
 20
331.6725762507
 30
0.0
 10
1252.8212596569
 20
336.1780353839
 30
0.0
 10
1250.1086615388
 20
337.8180401471
 30
0.0
 10
1248.705447621
 20
338.0712654719
 30
0.0
  0
SPLINE
  5
5CD
100
AcDbEntity
  8
02___PRT_ALL_AXES
100
AcDbSpline
 62
7
  6
CONTINUOUS
 70
0
 71
3
 72
9
 73
5
 74
0
 42
0.0000001
 43
0.0000001
 44
0.0000000001
 40
0.0
 40
0.0
 40
0.0
 40
0.0
 40
0.5002636765
 40
1.0
 40
1.0
 40
1.0
 40
1.0
 10
1081.4395632871
 20
360.3852799768
 30
0.0
 10
1085.6691456209
 20
350.3566425379
 30
0.0
 10
1100.4423599289
 20
332.4602931911
 30
0.0
 10
1122.6793830025
 20
325.8702479002
 30
0.0
 10
1133.5519729368
 20
325.8802433454
 30
0.0
  0
SPLINE
  5
5CE
100
AcDbEntity
  8
02___PRT_ALL_AXES
100
AcDbSpline
 62
7
  6
CONTINUOUS
 70
0
 71
3
 72
9
 73
5
 74
0
 42
0.0000001
 43
0.0000001
 44
0.0000000001
 40
0.0
 40
0.0
 40
0.0
 40
0.0
 40
0.4993107222
 40
1.0
 40
1.0
 40
1.0
 40
1.0
 10
1081.8627753991
 20
360.5671945908
 30
0.0
 10
1086.0495359645
 20
350.6378341251
 30
0.0
 10
1100.6802719884
 20
332.8756448991
 30
0.0
 10
1122.7401083139
 20
326.3187251036
 30
0.0
 10
1133.5458114491
 20
326.3242065165
 30
0.0
  0
SPLINE
  5
5CF
100
AcDbEntity
  8
02___PRT_ALL_AXES
100
AcDbSpline
 62
7
  6
CONTINUOUS
 70
0
 71
3
 72
9
 73
5
 74
0
 42
0.0000001
 43
0.0000001
 44
0.0000000001
 40
0.0
 40
0.0
 40
0.0
 40
0.0
 40
0.5009645788
 40
1.0
 40
1.0
 40
1.0
 40
1.0
 10
1076.9681604584
 20
385.1717859419
 30
0.0
 10
1076.9728724024
 20
383.9480045609
 30
0.0
 10
1077.8627589614
 20
381.4255739948
 30
0.0
 10
1080.1933336018
 20
380.1061667249
 30
0.0
 10
1081.3940335861
 20
379.8952872138
 30
0.0
  0
SPLINE
  5
5D0
100
AcDbEntity
  8
02___PRT_ALL_AXES
100
AcDbSpline
 62
7
  6
CONTINUOUS
 70
0
 71
3
 72
9
 73
5
 74
0
 42
0.0000001
 43
0.0000001
 44
0.0000000001
 40
0.0
 40
0.0
 40
0.0
 40
0.0
 40
0.5006035544
 40
1.0
 40
1.0
 40
1.0
 40
1.0
 10
1077.4310893499
 20
385.17180103
 30
0.0
 10
1077.4336686248
 20
384.0538197016
 30
0.0
 10
1078.2452679117
 20
381.7477131103
 30
0.0
 10
1080.3703934424
 20
380.5356599407
 30
0.0
 10
1081.4679064736
 20
380.3373329739
 30
0.0
  0
SPLINE
  5
5D1
100
AcDbEntity
  8
02___PRT_ALL_AXES
100
AcDbSpline
 62
7
  6
CONTINUOUS
 70
0
 71
3
 72
9
 73
5
 74
0
 42
0.0000001
 43
0.0000001
 44
0.0000000001
 40
0.0
 40
0.0
 40
0.0
 40
0.0
 40
0.5006248367
 40
1.0
 40
1.0
 40
1.0
 40
1.0
 10
1083.0372992792
 20
401.0427355217
 30
0.0
 10
1081.5717397263
 20
401.2354702163
 30
0.0
 10
1078.3218682476
 20
400.3039475195
 30
0.0
 10
1076.9661232009
 20
397.2042728425
 30
0.0
 10
1076.9678760045
 20
395.7297853257
 30
0.0
  0
SPLINE
  5
5D2
100
AcDbEntity
  8
02___PRT_ALL_AXES
100
AcDbSpline
 62
7
  6
CONTINUOUS
 70
0
 71
3
 72
9
 73
5
 74
0
 42
0.0000001
 43
0.0000001
 44
0.0000000001
 40
0.0
 40
0.0
 40
0.0
 40
0.0
 40
0.5001058018
 40
1.0
 40
1.0
 40
1.0
 40
1.0
 10
1082.9744015832
 20
400.6040779389
 30
0.0
 10
1081.6346467369
 20
400.7753656613
 30
0.0
 10
1078.6669857309
 20
399.9141647267
 30
0.0
 10
1077.4296979175
 20
397.0798884819
 30
0.0
 10
1077.4307960589
 20
395.7298003811
 30
0.0
  0
SPLINE
  5
5D3
100
AcDbEntity
  8
02___PRT_ALL_AXES
100
AcDbSpline
 62
7
  6
CONTINUOUS
 70
0
 71
3
 72
9
 73
5
 74
0
 42
0.0000001
 43
0.0000001
 44
0.0000000001
 40
0.0
 40
0.0
 40
0.0
 40
0.0
 40
0.4999969208
 40
1.0
 40
1.0
 40
1.0
 40
1.0
 10
1357.2154375111
 20
333.711287433
 30
0.0
 10
1361.60280827
 20
336.2994569783
 30
0.0
 10
1369.7323628125
 20
342.6722967122
 30
0.0
 10
1375.816688307
 20
351.0208481477
 30
0.0
 10
1378.2471291248
 20
355.4975925452
 30
0.0
  0
SPLINE
  5
5D4
100
AcDbEntity
  8
02___PRT_ALL_AXES
100
AcDbSpline
 62
7
  6
CONTINUOUS
 70
0
 71
3
 72
9
 73
5
 74
0
 42
0.0000001
 43
0.0000001
 44
0.0000000001
 40
0.0
 40
0.0
 40
0.0
 40
0.0
 40
0.5002982417
 40
1.0
 40
1.0
 40
1.0
 40
1.0
 10
1356.98946665
 20
334.0853049798
 30
0.0
 10
1361.3473544244
 20
336.653405636
 30
0.0
 10
1369.4167421974
 20
342.9764700983
 30
0.0
 10
1375.4568131948
 20
351.2602742133
 30
0.0
 10
1377.8675893806
 20
355.7002641342
 30
0.0
  0
SPLINE
  5
5D5
100
AcDbEntity
  8
02___PRT_ALL_AXES
100
AcDbSpline
 62
7
  6
CONTINUOUS
 70
0
 71
3
 72
9
 73
5
 74
0
 42
0.0000001
 43
0.0000001
 44
0.0000000001
 40
0.0
 40
0.0
 40
0.0
 40
0.0
 40
0.5005701998
 40
1.0
 40
1.0
 40
1.0
 40
1.0
 10
1379.0620319811
 20
373.7023058957
 30
0.0
 10
1380.5223503318
 20
373.522393281
 30
0.0
 10
1383.74746727
 20
374.4685882251
 30
0.0
 10
1385.0898178976
 20
377.5528504738
 30
0.0
 10
1385.088121103
 20
379.0208567558
 30
0.0
  0
SPLINE
  5
5D6
100
AcDbEntity
  8
02___PRT_ALL_AXES
100
AcDbSpline
 62
7
  6
CONTINUOUS
 70
0
 71
3
 72
9
 73
5
 74
0
 42
0.0000001
 43
0.0000001
 44
0.0000000001
 40
0.0
 40
0.0
 40
0.0
 40
0.0
 40
0.5001000983
 40
1.0
 40
1.0
 40
1.0
 40
1.0
 10
1379.1133738529
 20
374.1470091869
 30
0.0
 10
1380.4535217891
 20
373.9747332989
 30
0.0
 10
1383.4231357211
 20
374.8346969879
 30
0.0
 10
1384.661542581
 20
377.670208959
 30
0.0
 10
1384.6604499411
 20
379.0208432126
 30
0.0
  0
SPLINE
  5
5D7
100
AcDbEntity
  8
02___PRT_ALL_AXES
100
AcDbSpline
 62
7
  6
CONTINUOUS
 70
0
 71
3
 72
9
 73
5
 74
0
 42
0.0000001
 43
0.0000001
 44
0.0000000001
 40
0.0
 40
0.0
 40
0.0
 40
0.0
 40
0.500677654
 40
1.0
 40
1.0
 40
1.0
 40
1.0
 10
1076.9669984798
 20
417.5100182431
 30
0.0
 10
1076.9725044915
 20
416.2444494657
 30
0.0
 10
1077.928079004
 20
413.6273710605
 30
0.0
 10
1080.4084426796
 20
412.3487436642
 30
0.0
 10
1081.6609875554
 20
412.1932884893
 30
0.0
  0
SPLINE
  5
5D8
100
AcDbEntity
  8
02___PRT_ALL_AXES
100
AcDbSpline
 62
7
  6
CONTINUOUS
 70
0
 71
3
 72
9
 73
5
 74
0
 42
0.0000001
 43
0.0000001
 44
0.0000000001
 40
0.0
 40
0.0
 40
0.0
 40
0.0
 40
0.5004781474
 40
1.0
 40
1.0
 40
1.0
 40
1.0
 10
1077.4299630397
 20
417.5100333279
 30
0.0
 10
1077.4334625556
 20
416.353494133
 30
0.0
 10
1078.306316187
 20
413.9617286372
 30
0.0
 10
1080.5674142117
 20
412.7851255409
 30
0.0
 10
1081.7122783922
 20
412.637564047
 30
0.0
  0
SPLINE
  5
5D9
100
AcDbEntity
  8
02___PRT_ALL_AXES
100
AcDbSpline
 62
7
  6
CONTINUOUS
 70
0
 71
3
 72
9
 73
5
 74
0
 42
0.0000001
 43
0.0000001
 44
0.0000000001
 40
0.0
 40
0.0
 40
0.0
 40
0.0
 40
0.500740791
 40
1.0
 40
1.0
 40
1.0
 40
1.0
 10
1082.7634654135
 20
433.4864759028
 30
0.0
 10
1081.3313132097
 20
433.6010100533
 30
0.0
 10
1078.2358384895
 20
432.5798848322
 30
0.0
 10
1076.9650048954
 20
429.5764903982
 30
0.0
 10
1076.966742648
 20
428.1440176554
 30
0.0
  0
SPLINE
  5
5DA
100
AcDbEntity
  8
02___PRT_ALL_AXES
100
AcDbSpline
 62
7
  6
CONTINUOUS
 70
0
 71
3
 72
9
 73
5
 74
0
 42
0.0000001
 43
0.0000001
 44
0.0000000001
 40
0.0
 40
0.0
 40
0.0
 40
0.0
 40
0.5007729569
 40
1.0
 40
1.0
 40
1.0
 40
1.0
 10
1385.0876245707
 20
405.0548564238
 30
0.0
 10
1385.0813047372
 20
406.3566058577
 30
0.0
 10
1384.0660071684
 20
409.0539915435
 30
0.0
 10
1381.4575667197
 20
410.2903835058
 30
0.0
 10
1380.1640507497
 20
410.3950807735
 30
0.0
  0
SPLINE
  5
5DB
100
AcDbEntity
  8
02___PRT_ALL_AXES
100
AcDbSpline
 62
7
  6
CONTINUOUS
 70
0
 71
3
 72
9
 73
5
 74
0
 42
0.0000001
 43
0.0000001
 44
0.0000000001
 40
0.0
 40
0.0
 40
0.0
 40
0.0
 40
0.4997716757
 40
1.0
 40
1.0
 40
1.0
 40
1.0
 10
1384.6598679061
 20
405.0548428544
 30
0.0
 10
1384.6559979162
 20
406.24942272
 30
0.0
 10
1383.7183582881
 20
408.7295990052
 30
0.0
 10
1381.3157841186
 20
409.8617844956
 30
0.0
 10
1380.1236209547
 20
409.9533924705
 30
0.0
  0
SPLINE
  5
5DC
100
AcDbEntity
  8
02___PRT_ALL_AXES
100
AcDbSpline
 62
7
  6
CONTINUOUS
 70
0
 71
3
 72
9
 73
5
 74
0
 42
0.0000001
 43
0.0000001
 44
0.0000000001
 40
0.0
 40
0.0
 40
0.0
 40
0.0
 40
0.5001471306
 40
1.0
 40
1.0
 40
1.0
 40
1.0
 10
1379.3337949794
 20
421.3744636223
 30
0.0
 10
1380.7586540864
 20
421.2755478824
 30
0.0
 10
1383.8327654748
 20
422.3029548037
 30
0.0
 10
1385.0799184011
 20
425.2924826937
 30
0.0
 10
1385.0873010361
 20
426.7199116857
 30
0.0
  0
SPLINE
  5
5DD
100
AcDbEntity
  8
02___PRT_ALL_AXES
100
AcDbSpline
 62
7
  6
CONTINUOUS
 70
0
 71
3
 72
9
 73
5
 74
0
 42
0.0000001
 43
0.0000001
 44
0.0000000001
 40
0.0
 40
0.0
 40
0.0
 40
0.0
 40
0.4998376358
 40
1.0
 40
1.0
 40
1.0
 40
1.0
 10
1379.3622101656
 20
421.820237311
 30
0.0
 10
1380.6706904192
 20
421.7227048717
 30
0.0
 10
1383.5001620537
 20
422.658733065
 30
0.0
 10
1384.6549097328
 20
425.4069433749
 30
0.0
 10
1384.659439214
 20
426.7198981876
 30
0.0
  0
SPLINE
  5
5DE
100
AcDbEntity
  8
02___PRT_ALL_AXES
100
AcDbSpline
 62
7
  6
CONTINUOUS
 70
0
 71
3
 72
9
 73
5
 74
0
 42
0.0000001
 43
0.0000001
 44
0.0000000001
 40
0.0
 40
0.0
 40
0.0
 40
0.0
 40
0.5002443256
 40
1.0
 40
1.0
 40
1.0
 40
1.0
 10
1385.0853905574
 20
452.7999099788
 30
0.0
 10
1385.0814902763
 20
454.1431392206
 30
0.0
 10
1383.987918822
 20
456.9385298694
 30
0.0
 10
1381.2276127267
 20
458.1116940189
 30
0.0
 10
1379.8864757311
 20
458.1576108724
 30
0.0
  0
SPLINE
  5
5DF
100
AcDbEntity
  8
02___PRT_ALL_AXES
100
AcDbSpline
 62
7
  6
CONTINUOUS
 70
0
 71
3
 72
9
 73
5
 74
0
 42
0.0000001
 43
0.0000001
 44
0.0000000001
 40
0.0
 40
0.0
 40
0.0
 40
0.0
 40
0.4997893998
 40
1.0
 40
1.0
 40
1.0
 40
1.0
 10
1384.6578297051
 20
452.7998963701
 30
0.0
 10
1384.6546837144
 20
454.0338597478
 30
0.0
 10
1383.6471166034
 20
456.60391487
 30
0.0
 10
1381.1033445855
 20
457.6785743336
 30
0.0
 10
1379.8688153461
 20
457.7129347825
 30
0.0
  0
SPLINE
  5
5E0
100
AcDbEntity
  8
02___PRT_ALL_AXES
100
AcDbSpline
 62
7
  6
CONTINUOUS
 70
0
 71
3
 72
9
 73
5
 74
0
 42
0.0000001
 43
0.0000001
 44
0.0000000001
 40
0.0
 40
0.0
 40
0.0
 40
0.0
 40
0.5001823694
 40
1.0
 40
1.0
 40
1.0
 40
1.0
 10
1082.4862133738
 20
465.847458194
 30
0.0
 10
1081.0941438009
 20
465.8842259024
 30
0.0
 10
1078.1526362866
 20
464.7879092414
 30
0.0
 10
1076.9718525459
 20
461.8815949131
 30
0.0
 10
1076.9652823178
 20
460.4900708437
 30
0.0
  0
SPLINE
  5
5E1
100
AcDbEntity
  8
02___PRT_ALL_AXES
100
AcDbSpline
 62
7
  6
CONTINUOUS
 70
0
 71
3
 72
9
 73
5
 74
0
 42
0.0000001
 43
0.0000001
 44
0.0000000001
 40
0.0
 40
0.0
 40
0.0
 40
0.0
 40
0.4998561837
 40
1.0
 40
1.0
 40
1.0
 40
1.0
 10
1082.4685595364
 20
465.4029548095
 30
0.0
 10
1081.1961975982
 20
465.4316269383
 30
0.0
 10
1078.5122546744
 20
464.4208163923
 30
0.0
 10
1077.4322628563
 20
461.7634971216
 30
0.0
 10
1077.4283468094
 20
460.4900858468
 30
0.0
  0
SPLINE
  5
5E2
100
AcDbEntity
  8
02___PRT_ALL_AXES
100
AcDbSpline
 62
7
  6
CONTINUOUS
 70
0
 71
3
 72
9
 73
5
 74
0
 42
0.0000001
 43
0.0000001
 44
0.0000000001
 40
0.0
 40
0.0
 40
0.0
 40
0.0
 40
0.5007540011
 40
1.0
 40
1.0
 40
1.0
 40
1.0
 10
1379.6086866323
 20
469.0486317022
 30
0.0
 10
1380.99597701
 20
469.0206588383
 30
0.0
 10
1383.910905853
 20
470.1327510782
 30
0.0
 10
1385.0869434968
 20
473.02402639
 30
0.0
 10
1385.0852562703
 20
474.4074191047
 30
0.0
  0
SPLINE
  5
5E3
100
AcDbEntity
  8
02___PRT_ALL_AXES
100
AcDbSpline
 62
7
  6
CONTINUOUS
 70
0
 71
3
 72
9
 73
5
 74
0
 42
0.0000001
 43
0.0000001
 44
0.0000000001
 40
0.0
 40
0.0
 40
0.0
 40
0.0
 40
0.5007301938
 40
1.0
 40
1.0
 40
1.0
 40
1.0
 10
1076.9649545333
 20
482.0972343112
 30
0.0
 10
1076.9666950187
 20
480.7457206521
 30
0.0
 10
1078.0763741048
 20
477.9371267965
 30
0.0
 10
1080.8611497721
 20
476.766389847
 30
0.0
 10
1082.2084370298
 20
476.7386371524
 30
0.0
  0
SPLINE
  5
5E4
100
AcDbEntity
  8
02___PRT_ALL_AXES
100
AcDbSpline
 62
7
  6
CONTINUOUS
 70
0
 71
3
 72
9
 73
5
 74
0
 42
0.0000001
 43
0.0000001
 44
0.0000000001
 40
0.0
 40
0.0
 40
0.0
 40
0.0
 40
0.50068737
 40
1.0
 40
1.0
 40
1.0
 40
1.0
 10
1082.2077501212
 20
498.1523077057
 30
0.0
 10
1080.8567137482
 20
498.1211232676
 30
0.0
 10
1078.0729496984
 20
496.9508557158
 30
0.0
 10
1076.9628800251
 20
494.1412205209
 30
0.0
 10
1076.9644859992
 20
492.7935357909
 30
0.0
  0
SPLINE
  5
5E5
100
AcDbEntity
  8
02___PRT_ALL_AXES
100
AcDbSpline
 62
7
  6
CONTINUOUS
 70
0
 71
3
 72
9
 73
5
 74
0
 42
0.0000001
 43
0.0000001
 44
0.0000000001
 40
0.0
 40
0.0
 40
0.0
 40
0.0
 40
0.5007835687
 40
1.0
 40
1.0
 40
1.0
 40
1.0
 10
1385.0843987234
 20
500.5034189259
 30
0.0
 10
1385.0823196857
 20
501.8910722781
 30
0.0
 10
1383.9065452973
 20
504.781138558
 30
0.0
 10
1380.990451515
 20
505.8935941616
 30
0.0
 10
1379.6075024298
 20
505.8618910351
 30
0.0
  0
SPLINE
  5
5E6
100
AcDbEntity
  8
02___PRT_ALL_AXES
100
AcDbSpline
 62
7
  6
CONTINUOUS
 70
0
 71
3
 72
9
 73
5
 74
0
 42
0.0000001
 43
0.0000001
 44
0.0000000001
 40
0.0
 40
0.0
 40
0.0
 40
0.0
 40
0.5006755685
 40
1.0
 40
1.0
 40
1.0
 40
1.0
 10
1379.8845889695
 20
516.7530326566
 30
0.0
 10
1381.2284791122
 20
516.7952176196
 30
0.0
 10
1383.9875688921
 20
517.9753935998
 30
0.0
 10
1385.0853945372
 20
520.7697350227
 30
0.0
 10
1385.0838205678
 20
522.11065773
 30
0.0
  0
SPLINE
  5
5E7
100
AcDbEntity
  8
02___PRT_ALL_AXES
100
AcDbSpline
 62
7
  6
CONTINUOUS
 70
0
 71
3
 72
9
 73
5
 74
0
 42
0.0000001
 43
0.0000001
 44
0.0000000001
 40
0.0
 40
0.0
 40
0.0
 40
0.0
 40
0.5008039992
 40
1.0
 40
1.0
 40
1.0
 40
1.0
 10
1076.9639102354
 20
514.4007745933
 30
0.0
 10
1076.9660071941
 20
513.0062877248
 30
0.0
 10
1078.1545951687
 20
510.100871731
 30
0.0
 10
1081.0955031251
 20
509.0000644165
 30
0.0
 10
1082.4848368862
 20
509.0434488535
 30
0.0
  0
SPLINE
  5
5E8
100
AcDbEntity
  8
02___PRT_ALL_AXES
100
AcDbSpline
 62
7
  6
CONTINUOUS
 70
0
 71
3
 72
9
 73
5
 74
0
 42
0.0000001
 43
0.0000001
 44
0.0000000001
 40
0.0
 40
0.0
 40
0.0
 40
0.0
 40
0.500679565
 40
1.0
 40
1.0
 40
1.0
 40
1.0
 10
1081.9302642523
 20
530.4277662296
 30
0.0
 10
1080.6258894656
 20
530.325468862
 30
0.0
 10
1077.9962250873
 20
529.1021769586
 30
0.0
 10
1076.9636473807
 20
526.3866025568
 30
0.0
 10
1076.9648319093
 20
525.0817747421
 30
0.0
  0
SPLINE
  5
5E9
100
AcDbEntity
  8
02___PRT_ALL_AXES
100
AcDbSpline
 62
7
  6
CONTINUOUS
 70
0
 71
3
 72
9
 73
5
 74
0
 42
0.0000001
 43
0.0000001
 44
0.0000000001
 40
0.0
 40
0.0
 40
0.0
 40
0.0
 40
0.4997427913
 40
1.0
 40
1.0
 40
1.0
 40
1.0
 10
1081.9587202261
 20
529.9818114072
 30
0.0
 10
1080.7686466275
 20
529.8850964052
 30
0.0
 10
1078.3702306122
 20
528.7583099212
 30
0.0
 10
1077.4268693702
 20
526.2770158782
 30
0.0
 10
1077.4274278616
 20
525.0817898979
 30
0.0
  0
SPLINE
  5
5EA
100
AcDbEntity
  8
02___PRT_ALL_AXES
100
AcDbSpline
 62
7
  6
CONTINUOUS
 70
0
 71
3
 72
9
 73
5
 74
0
 42
0.0000001
 43
0.0000001
 44
0.0000000001
 40
0.0
 40
0.0
 40
0.0
 40
0.0
 40
0.5007326831
 40
1.0
 40
1.0
 40
1.0
 40
1.0
 10
1385.0828919941
 20
548.1906574099
 30
0.0
 10
1385.0803937281
 20
549.6206119815
 30
0.0
 10
1383.8235169746
 20
552.607226362
 30
0.0
 10
1380.7513752612
 20
553.6419815152
 30
0.0
 10
1379.3295603789
 20
553.5358286907
 30
0.0
  0
SPLINE
  5
5EB
100
AcDbEntity
  8
02___PRT_ALL_AXES
100
AcDbSpline
 62
7
  6
CONTINUOUS
 70
0
 71
3
 72
9
 73
5
 74
0
 42
0.0000001
 43
0.0000001
 44
0.0000000001
 40
0.0
 40
0.0
 40
0.0
 40
0.0
 40
0.4999312898
 40
1.0
 40
1.0
 40
1.0
 40
1.0
 10
1384.6551688077
 20
548.1906438574
 30
0.0
 10
1384.6538679477
 20
549.5029106623
 30
0.0
 10
1383.4946446249
 20
552.2472659663
 30
0.0
 10
1380.6665210569
 20
553.1938897274
 30
0.0
 10
1379.3579970485
 20
553.0901708035
 30
0.0
  0
SPLINE
  5
5EC
100
AcDbEntity
  8
02___PRT_ALL_AXES
100
AcDbSpline
 62
7
  6
CONTINUOUS
 70
0
 71
3
 72
9
 73
5
 74
0
 42
0.0000001
 43
0.0000001
 44
0.0000000001
 40
0.0
 40
0.0
 40
0.0
 40
0.0
 40
0.5006645824
 40
1.0
 40
1.0
 40
1.0
 40
1.0
 10
1380.1592792567
 20
564.5131378994
 30
0.0
 10
1381.4559482969
 20
564.6255791983
 30
0.0
 10
1384.061523107
 20
565.8571092719
 30
0.0
 10
1385.0819990397
 20
568.5576321782
 30
0.0
 10
1385.080931959
 20
569.855711534
 30
0.0
  0
SPLINE
  5
5ED
100
AcDbEntity
  8
02___PRT_ALL_AXES
100
AcDbSpline
 62
7
  6
CONTINUOUS
 70
0
 71
3
 72
9
 73
5
 74
0
 42
0.0000001
 43
0.0000001
 44
0.0000000001
 40
0.0
 40
0.0
 40
0.0
 40
0.0
 40
0.4997370651
 40
1.0
 40
1.0
 40
1.0
 40
1.0
 10
1380.1187708354
 20
564.9553921784
 30
0.0
 10
1381.3094386129
 20
565.0513748732
 30
0.0
 10
1383.709819958
 20
566.1773523624
 30
0.0
 10
1384.6541162154
 20
568.6599107951
 30
0.0
 10
1384.6535704205
 20
569.855697881
 30
0.0
  0
SPLINE
  5
5EE
100
AcDbEntity
  8
02___PRT_ALL_AXES
100
AcDbSpline
 62
7
  6
CONTINUOUS
 70
0
 71
3
 72
9
 73
5
 74
0
 42
0.0000001
 43
0.0000001
 44
0.0000000001
 40
0.0
 40
0.0
 40
0.0
 40
0.0
 40
0.50066969
 40
1.0
 40
1.0
 40
1.0
 40
1.0
 10
1076.9628551292
 20
546.7468288667
 30
0.0
 10
1076.9653459255
 20
545.3103364606
 30
0.0
 10
1078.2352613667
 20
542.3084497687
 30
0.0
 10
1081.3322393185
 20
541.2865641192
 30
0.0
 10
1082.7599817149
 20
541.4050652162
 30
0.0
  0
SPLINE
  5
5EF
100
AcDbEntity
  8
02___PRT_ALL_AXES
100
AcDbSpline
 62
7
  6
CONTINUOUS
 70
0
 71
3
 72
9
 73
5
 74
0
 42
0.0000001
 43
0.0000001
 44
0.0000000001
 40
0.0
 40
0.0
 40
0.0
 40
0.0
 40
0.5005816934
 40
1.0
 40
1.0
 40
1.0
 40
1.0
 10
1081.655931981
 20
562.6997446131
 30
0.0
 10
1080.4008183491
 20
562.53921079
 30
0.0
 10
1077.9240805763
 20
561.2615606363
 30
0.0
 10
1076.9622260952
 20
558.6432259721
 30
0.0
 10
1076.9636774149
 20
557.380829113
 30
0.0
  0
SPLINE
  5
5F0
100
AcDbEntity
  8
02___PRT_ALL_AXES
100
AcDbSpline
 62
7
  6
CONTINUOUS
 70
0
 71
3
 72
9
 73
5
 74
0
 42
0.0000001
 43
0.0000001
 44
0.0000000001
 40
0.0
 40
0.0
 40
0.0
 40
0.0
 40
0.4996444154
 40
1.0
 40
1.0
 40
1.0
 40
1.0
 10
1081.7073176742
 20
562.2549151369
 30
0.0
 10
1080.5626072954
 20
562.10383536
 30
0.0
 10
1078.3035528282
 20
560.9303940944
 30
0.0
 10
1077.4255474337
 20
558.5371245297
 30
0.0
 10
1077.4263090158
 20
557.3808441761
 30
0.0
  0
SPLINE
  5
5F1
100
AcDbEntity
  8
02___PRT_ALL_AXES
100
AcDbSpline
 62
7
  6
CONTINUOUS
 70
0
 71
3
 72
9
 73
5
 74
0
 42
0.0000001
 43
0.0000001
 44
0.0000000001
 40
0.0
 40
0.0
 40
0.0
 40
0.0
 40
0.5005749129
 40
1.0
 40
1.0
 40
1.0
 40
1.0
 10
1385.081207795
 20
595.8897115547
 30
0.0
 10
1385.0781649121
 20
597.3610519512
 30
0.0
 10
1383.738328894
 20
600.4435399053
 30
0.0
 10
1380.5111645626
 20
601.3916697813
 30
0.0
 10
1379.0547872523
 20
601.2075964278
 30
0.0
  0
SPLINE
  5
5F2
100
AcDbEntity
  8
02___PRT_ALL_AXES
100
AcDbSpline
 62
7
  6
CONTINUOUS
 70
0
 71
3
 72
9
 73
5
 74
0
 42
0.0000001
 43
0.0000001
 44
0.0000000001
 40
0.0
 40
0.0
 40
0.0
 40
0.0
 40
0.5001295394
 40
1.0
 40
1.0
 40
1.0
 40
1.0
 10
1384.6535307128
 20
595.8896980009
 30
0.0
 10
1384.6518757957
 20
597.2409520136
 30
0.0
 10
1383.4166197416
 20
600.0751160844
 30
0.0
 10
1380.4452908943
 20
600.9381994111
 30
0.0
 10
1379.1061281514
 20
600.763150628
 30
0.0
  0
SPLINE
  5
5F3
100
AcDbEntity
  8
02___PRT_ALL_AXES
100
AcDbSpline
 62
7
  6
CONTINUOUS
 70
0
 71
3
 72
9
 73
5
 74
0
 42
0.0000001
 43
0.0000001
 44
0.0000000001
 40
0.0
 40
0.0
 40
0.0
 40
0.0
 40
0.5006150662
 40
1.0
 40
1.0
 40
1.0
 40
1.0
 10
1076.9619765871
 20
579.1610613112
 30
0.0
 10
1076.9650343444
 20
577.6829490535
 30
0.0
 10
1078.3185971207
 20
574.5850854141
 30
0.0
 10
1081.5704562677
 20
573.651851134
 30
0.0
 10
1083.0317281798
 20
573.8487914748
 30
0.0
  0
SPLINE
  5
5F4
100
AcDbEntity
  8
02___PRT_ALL_AXES
100
AcDbSpline
 62
7
  6
CONTINUOUS
 70
0
 71
3
 72
9
 73
5
 74
0
 42
0.0000001
 43
0.0000001
 44
0.0000000001
 40
0.0
 40
0.0
 40
0.0
 40
0.0
 40
0.5001304935
 40
1.0
 40
1.0
 40
1.0
 40
1.0
 10
1077.4249027273
 20
579.1610763744
 30
0.0
 10
1077.4265677299
 20
577.8103639217
 30
0.0
 10
1078.6606666759
 20
574.9773954409
 30
0.0
 10
1081.6300750219
 20
574.1132910782
 30
0.0
 10
1082.96881535
 20
574.2873532035
 30
0.0
  0
SPLINE
  5
5F5
100
AcDbEntity
  8
02___PRT_ALL_AXES
100
AcDbSpline
 62
7
  6
CONTINUOUS
 70
0
 71
3
 72
9
 73
5
 74
0
 42
0.0000001
 43
0.0000001
 44
0.0000000001
 40
0.0
 40
0.0
 40
0.0
 40
0.0
 40
0.5002450181
 40
1.0
 40
1.0
 40
1.0
 40
1.0
 10
1357.2058979997
 20
641.1980450113
 30
0.0
 10
1355.6467178486
 20
642.1191715559
 30
0.0
 10
1352.1750730908
 20
643.4213879048
 30
0.0
 10
1348.4669881365
 20
643.4082070976
 30
0.0
 10
1346.6866989483
 20
643.0862362454
 30
0.0
  0
SPLINE
  5
5F6
100
AcDbEntity
  8
02___PRT_ALL_AXES
100
AcDbSpline
 62
7
  6
CONTINUOUS
 70
0
 71
3
 72
9
 73
5
 74
0
 42
0.0000001
 43
0.0000001
 44
0.0000000001
 40
0.0
 40
0.0
 40
0.0
 40
0.0
 40
0.5000111588
 40
1.0
 40
1.0
 40
1.0
 40
1.0
 10
1378.2400516293
 20
619.413272924
 30
0.0
 10
1375.8073347086
 20
623.8888915187
 30
0.0
 10
1369.7230115678
 20
632.2364914864
 30
0.0
 10
1361.5938387478
 20
638.6109419212
 30
0.0
 10
1357.2052123142
 20
641.196848928
 30
0.0
  0
SPLINE
  5
5F7
100
AcDbEntity
  8
02___PRT_ALL_AXES
100
AcDbSpline
 62
7
  6
CONTINUOUS
 70
0
 71
3
 72
9
 73
5
 74
0
 42
0.0000001
 43
0.0000001
 44
0.0000000001
 40
0.0
 40
0.0
 40
0.0
 40
0.0
 40
0.5002922851
 40
1.0
 40
1.0
 40
1.0
 40
1.0
 10
1377.8597441881
 20
619.2101608218
 30
0.0
 10
1375.443828873
 20
623.6541538039
 30
0.0
 10
1369.4034600234
 20
631.9372711571
 30
0.0
 10
1361.3333746062
 20
638.260062371
 30
0.0
 10
1356.9793091791
 20
640.8228885426
 30
0.0
  0
SPLINE
  5
5F8
100
AcDbEntity
  8
02___PRT_ALL_AXES
100
AcDbSpline
 62
7
  6
CONTINUOUS
 70
0
 71
3
 72
11
 73
7
 74
0
 42
0.0000001
 43
0.0000001
 44
0.0000000001
 40
0.0
 40
0.0
 40
0.0
 40
0.0
 40
0.2499794392
 40
0.5001413664
 40
0.7503296799
 40
1.0
 40
1.0
 40
1.0
 40
1.0
 10
1248.7807241845
 20
636.3962452397
 30
0.0
 10
1250.286904224
 20
636.6689060902
 30
0.0
 10
1253.1875100523
 20
638.4474761088
 30
0.0
 10
1254.5531617463
 20
643.2763310966
 30
0.0
 10
1252.3464806945
 20
647.7871989169
 30
0.0
 10
1249.1755998965
 20
649.005857577
 30
0.0
 10
1247.6468393107
 20
649.0106002412
 30
0.0
  0
SPLINE
  5
5F9
100
AcDbEntity
  8
02___PRT_ALL_AXES
100
AcDbSpline
 62
7
  6
CONTINUOUS
 70
0
 71
3
 72
11
 73
7
 74
0
 42
0.0000001
 43
0.0000001
 44
0.0000000001
 40
0.0
 40
0.0
 40
0.0
 40
0.0
 40
0.2498079666
 40
0.4997710789
 40
0.7501117862
 40
1.0
 40
1.0
 40
1.0
 40
1.0
 10
1248.6959025803
 20
636.8304720402
 30
0.0
 10
1250.09987102
 20
637.0803257334
 30
0.0
 10
1252.8091376426
 20
638.7263793495
 30
0.0
 10
1254.090642094
 20
643.2275089534
 30
0.0
 10
1252.0296528392
 20
647.4347074672
 30
0.0
 10
1249.0671699275
 20
648.5660803588
 30
0.0
 10
1247.6406846412
 20
648.565252434
 30
0.0
  0
SPLINE
  5
5FA
100
AcDbEntity
  8
02___PRT_ALL_AXES
100
AcDbSpline
 62
7
  6
CONTINUOUS
 70
0
 71
3
 72
9
 73
5
 74
0
 42
0.0000001
 43
0.0000001
 44
0.0000000001
 40
0.0
 40
0.0
 40
0.0
 40
0.0
 40
0.5002373091
 40
1.0
 40
1.0
 40
1.0
 40
1.0
 10
1133.541636814
 20
649.0134916307
 30
0.0
 10
1122.6582602932
 20
649.0338953944
 30
0.0
 10
1100.4145576335
 20
642.4212041801
 30
0.0
 10
1085.6675460488
 20
624.5197870838
 30
0.0
 10
1081.4325797074
 20
614.5053623228
 30
0.0
  0
SPLINE
  5
5FB
100
AcDbEntity
  8
02___PRT_ALL_AXES
100
AcDbSpline
 62
7
  6
CONTINUOUS
 70
0
 71
3
 72
9
 73
5
 74
0
 42
0.0000001
 43
0.0000001
 44
0.0000000001
 40
0.0
 40
0.0
 40
0.0
 40
0.0
 40
0.5002169884
 40
1.0
 40
1.0
 40
1.0
 40
1.0
 10
1133.5354793054
 20
648.5677392682
 30
0.0
 10
1122.7405514048
 20
648.5834894055
 30
0.0
 10
1100.6795736416
 20
642.0171815749
 30
0.0
 10
1086.0562710317
 20
624.2574884433
 30
0.0
 10
1081.8569824629
 20
614.3229738151
 30
0.0
  0
SPLINE
  5
5FC
100
AcDbEntity
  8
02___PRT_ALL_AXES
100
AcDbSpline
 62
7
  6
CONTINUOUS
 70
0
 71
3
 72
9
 73
5
 74
0
 42
0.0000001
 43
0.0000001
 44
0.0000000001
 40
0.0
 40
0.0
 40
0.0
 40
0.0
 40
0.5002149816
 40
1.0
 40
1.0
 40
1.0
 40
1.0
 10
606.5233487069
 20
614.4974286689
 30
0.0
 10
602.2923350266
 20
624.5244000422
 30
0.0
 10
587.5289859864
 20
642.4231499509
 30
0.0
 10
565.2876847681
 20
649.0244296878
 30
0.0
 10
554.4139695503
 20
649.0038888976
 30
0.0
  0
SPLINE
  5
5FD
100
AcDbEntity
  8
02___PRT_ALL_AXES
100
AcDbSpline
 62
7
  6
CONTINUOUS
 70
0
 71
3
 72
9
 73
5
 74
0
 42
0.0000001
 43
0.0000001
 44
0.0000000001
 40
0.0
 40
0.0
 40
0.0
 40
0.0
 40
0.5002547153
 40
1.0
 40
1.0
 40
1.0
 40
1.0
 10
606.0989769689
 20
614.315036276
 30
0.0
 10
601.9038455053
 20
624.2623046788
 30
0.0
 10
587.2609201792
 20
642.015688464
 30
0.0
 10
565.2048429459
 20
648.5735627926
 30
0.0
 10
554.4201412892
 20
648.5581474931
 30
0.0
  0
SPLINE
  5
5FE
100
AcDbEntity
  8
02___PRT_ALL_AXES
100
AcDbSpline
 62
7
  6
CONTINUOUS
 70
0
 71
3
 72
11
 73
7
 74
0
 42
0.0000001
 43
0.0000001
 44
0.0000000001
 40
0.0
 40
0.0
 40
0.0
 40
0.0
 40
0.2503493868
 40
0.5006450086
 40
0.7506700216
 40
1.0
 40
1.0
 40
1.0
 40
1.0
 10
440.3087675488
 20
648.998264706
 30
0.0
 10
438.7756036702
 20
648.9905151235
 30
0.0
 10
435.5990779403
 20
647.7690372398
 30
0.0
 10
433.3994708975
 20
643.2475007039
 30
0.0
 10
434.7745668071
 20
638.4246364112
 30
0.0
 10
437.6728896787
 20
636.655957787
 30
0.0
 10
439.1752841182
 20
636.3832711152
 30
0.0
  0
SPLINE
  5
5FF
100
AcDbEntity
  8
02___PRT_ALL_AXES
100
AcDbSpline
 62
7
  6
CONTINUOUS
 70
0
 71
3
 72
11
 73
7
 74
0
 42
0.0000001
 43
0.0000001
 44
0.0000000001
 40
0.0
 40
0.0
 40
0.0
 40
0.0
 40
0.2499348318
 40
0.5001903721
 40
0.7502426527
 40
1.0
 40
1.0
 40
1.0
 40
1.0
 10
440.3149380922
 20
648.5527767727
 30
0.0
 10
438.8881339516
 20
648.551056595
 30
0.0
 10
435.9258918526
 20
647.4224991392
 30
0.0
 10
433.865196469
 20
643.2139688482
 30
0.0
 10
435.146147353
 20
638.712332256
 30
0.0
 10
437.8564253219
 20
637.0677060602
 30
0.0
 10
439.2600928619
 20
636.8175057805
 30
0.0
  0
SPLINE
  5
600
100
AcDbEntity
  8
02___PRT_ALL_AXES
100
AcDbSpline
 62
7
  6
CONTINUOUS
 70
0
 71
3
 72
9
 73
5
 74
0
 42
0.0000001
 43
0.0000001
 44
0.0000000001
 40
0.0
 40
0.0
 40
0.0
 40
0.0
 40
0.5009346012
 40
1.0
 40
1.0
 40
1.0
 40
1.0
 10
604.9262741415
 20
573.8410642563
 30
0.0
 10
606.3925689884
 20
573.6467093843
 30
0.0
 10
609.6455022457
 20
574.5810768417
 30
0.0
 10
610.9933237266
 20
577.6800061216
 30
0.0
 10
610.9961020211
 20
579.1536037375
 30
0.0
  0
SPLINE
  5
601
100
AcDbEntity
  8
02___PRT_ALL_AXES
100
AcDbSpline
 62
7
  6
CONTINUOUS
 70
0
 71
3
 72
9
 73
5
 74
0
 42
0.0000001
 43
0.0000001
 44
0.0000000001
 40
0.0
 40
0.0
 40
0.0
 40
0.0
 40
0.5002185272
 40
1.0
 40
1.0
 40
1.0
 40
1.0
 10
610.9960505668
 20
589.7116029171
 30
0.0
 10
610.9948751241
 20
590.9338048427
 30
0.0
 10
610.1016756519
 20
593.4558553486
 30
0.0
 10
607.7734049797
 20
594.779771627
 30
0.0
 10
606.5706085898
 20
594.9906047439
 30
0.0
  0
SPLINE
  5
602
100
AcDbEntity
  8
02___PRT_ALL_AXES
100
AcDbSpline
 62
7
  6
CONTINUOUS
 70
0
 71
3
 72
9
 73
5
 74
0
 42
0.0000001
 43
0.0000001
 44
0.0000000001
 40
0.0
 40
0.0
 40
0.0
 40
0.0
 40
0.5004852433
 40
1.0
 40
1.0
 40
1.0
 40
1.0
 10
610.5330680176
 20
589.711602901
 30
0.0
 10
610.5322210279
 20
590.829425056
 30
0.0
 10
609.7176319668
 20
593.1347204751
 30
0.0
 10
607.5945619685
 20
594.3499473382
 30
0.0
 10
606.4966038232
 20
594.5478710676
 30
0.0
  0
SPLINE
  5
603
100
AcDbEntity
  8
02___PRT_ALL_AXES
100
AcDbSpline
 62
7
  6
CONTINUOUS
 70
0
 71
3
 72
9
 73
5
 74
0
 42
0.0000001
 43
0.0000001
 44
0.0000000001
 40
0.0
 40
0.0
 40
0.0
 40
0.0
 40
0.4999937466
 40
1.0
 40
1.0
 40
1.0
 40
1.0
 10
330.7502363817
 20
641.1811197909
 30
0.0
 10
326.3624402331
 20
638.5937025947
 30
0.0
 10
318.2331398627
 20
632.2199318625
 30
0.0
 10
312.1492063719
 20
623.8717490682
 30
0.0
 10
309.7169029714
 20
619.3959607508
 30
0.0
  0
SPLINE
  5
604
100
AcDbEntity
  8
02___PRT_ALL_AXES
100
AcDbSpline
 62
7
  6
CONTINUOUS
 70
0
 71
3
 72
9
 73
5
 74
0
 42
0.0000001
 43
0.0000001
 44
0.0000000001
 40
0.0
 40
0.0
 40
0.0
 40
0.0
 40
0.4999421335
 40
1.0
 40
1.0
 40
1.0
 40
1.0
 10
330.9760938778
 20
640.8072622855
 30
0.0
 10
326.6208166767
 20
638.2417856875
 30
0.0
 10
318.5514993344
 20
631.9184004742
 30
0.0
 10
312.5108421731
 20
623.635414832
 30
0.0
 10
310.096451102
 20
619.1932693902
 30
0.0
  0
SPLINE
  5
605
100
AcDbEntity
  8
02___PRT_ALL_AXES
100
AcDbSpline
 62
7
  6
CONTINUOUS
 70
0
 71
3
 72
9
 73
5
 74
0
 42
0.0000001
 43
0.0000001
 44
0.0000000001
 40
0.0
 40
0.0
 40
0.0
 40
0.0
 40
0.5006434797
 40
1.0
 40
1.0
 40
1.0
 40
1.0
 10
309.7147284827
 20
619.3971390836
 30
0.0
 10
308.927317866
 20
617.9326777961
 30
0.0
 10
308.8102232442
 20
613.9810865782
 30
0.0
 10
312.0773842619
 20
611.758142728
 30
0.0
 10
313.7210677137
 20
611.537299839
 30
0.0
  0
SPLINE
  5
606
100
AcDbEntity
  8
02___PRT_ALL_AXES
100
AcDbSpline
 62
7
  6
CONTINUOUS
 70
0
 71
3
 72
9
 73
5
 74
0
 42
0.0000001
 43
0.0000001
 44
0.0000000001
 40
0.0
 40
0.0
 40
0.0
 40
0.0
 40
0.500038248
 40
1.0
 40
1.0
 40
1.0
 40
1.0
 10
310.0938337009
 20
619.1946852447
 30
0.0
 10
309.367533603
 20
617.8509789346
 30
0.0
 10
309.2554504155
 20
614.2143676331
 30
0.0
 10
312.269425388
 20
612.1720785382
 30
0.0
 10
313.784005172
 20
611.9761377589
 30
0.0
  0
SPLINE
  5
607
100
AcDbEntity
  8
02___PRT_ALL_AXES
100
AcDbSpline
 62
7
  6
CONTINUOUS
 70
0
 71
3
 72
9
 73
5
 74
0
 42
0.0000001
 43
0.0000001
 44
0.0000000001
 40
0.0
 40
0.0
 40
0.0
 40
0.0
 40
0.5001474224
 40
1.0
 40
1.0
 40
1.0
 40
1.0
 10
605.1990736891
 20
541.3974964832
 30
0.0
 10
606.629764226
 20
541.2863279656
 30
0.0
 10
609.7286688098
 20
542.3003646767
 30
0.0
 10
610.9890452815
 20
545.3052334838
 30
0.0
 10
610.996554708
 20
546.7393709506
 30
0.0
  0
SPLINE
  5
608
100
AcDbEntity
  8
02___PRT_ALL_AXES
100
AcDbSpline
 62
7
  6
CONTINUOUS
 70
0
 71
3
 72
9
 73
5
 74
0
 42
0.0000001
 43
0.0000001
 44
0.0000000001
 40
0.0
 40
0.0
 40
0.0
 40
0.0
 40
0.4998393482
 40
1.0
 40
1.0
 40
1.0
 40
1.0
 10
605.2395558415
 20
541.8396171425
 30
0.0
 10
606.5475691202
 20
541.7429963344
 30
0.0
 10
609.375104003
 20
542.6800259323
 30
0.0
 10
610.5288519066
 20
545.4269588248
 30
0.0
 10
610.5334347068
 20
546.7393709576
 30
0.0
  0
SPLINE
  5
609
100
AcDbEntity
  8
02___PRT_ALL_AXES
100
AcDbSpline
 62
7
  6
CONTINUOUS
 70
0
 71
3
 72
9
 73
5
 74
0
 42
0.0000001
 43
0.0000001
 44
0.0000000001
 40
0.0
 40
0.0
 40
0.0
 40
0.0
 40
0.5009283392
 40
1.0
 40
1.0
 40
1.0
 40
1.0
 10
308.9023602307
 20
601.1905381196
 30
0.0
 10
307.4411434542
 20
601.3720854686
 30
0.0
 10
304.2128762719
 20
600.4229990633
 30
0.0
 10
302.8786194546
 20
597.3393837542
 30
0.0
 10
302.8758677907
 20
595.8723922743
 30
0.0
  0
SPLINE
  5
60A
100
AcDbEntity
  8
02___PRT_ALL_AXES
100
AcDbSpline
 62
7
  6
CONTINUOUS
 70
0
 71
3
 72
9
 73
5
 74
0
 42
0.0000001
 43
0.0000001
 44
0.0000000001
 40
0.0
 40
0.0
 40
0.0
 40
0.0
 40
0.5001823731
 40
1.0
 40
1.0
 40
1.0
 40
1.0
 10
605.4752568161
 20
509.0361071662
 30
0.0
 10
606.8673251097
 20
508.9992949065
 30
0.0
 10
609.8088674599
 20
510.0955172255
 30
0.0
 10
610.9897443645
 20
513.001793354
 30
0.0
 10
610.9963593171
 20
514.3933170888
 30
0.0
  0
SPLINE
  5
60B
100
AcDbEntity
  8
02___PRT_ALL_AXES
100
AcDbSpline
 62
7
  6
CONTINUOUS
 70
0
 71
3
 72
9
 73
5
 74
0
 42
0.0000001
 43
0.0000001
 44
0.0000000001
 40
0.0
 40
0.0
 40
0.0
 40
0.0
 40
0.4998561843
 40
1.0
 40
1.0
 40
1.0
 40
1.0
 10
605.4929248507
 20
509.480609422
 30
0.0
 10
606.7652858809
 20
509.4518965681
 30
0.0
 10
609.449261178
 20
510.4626212261
 30
0.0
 10
610.5293380324
 20
513.119905959
 30
0.0
 10
610.5332948257
 20
514.3933171153
 30
0.0
  0
SPLINE
  5
60C
100
AcDbEntity
  8
02___PRT_ALL_AXES
100
AcDbSpline
 62
7
  6
CONTINUOUS
 70
0
 71
3
 72
9
 73
5
 74
0
 42
0.0000001
 43
0.0000001
 44
0.0000000001
 40
0.0
 40
0.0
 40
0.0
 40
0.0
 40
0.5001471348
 40
1.0
 40
1.0
 40
1.0
 40
1.0
 10
308.6290988442
 20
553.518603031
 30
0.0
 10
307.2042427809
 20
553.6175644015
 30
0.0
 10
304.1300982289
 20
552.5902556704
 30
0.0
 10
302.8828497891
 20
549.6007672896
 30
0.0
 10
302.8754216516
 20
548.1733384333
 30
0.0
  0
SPLINE
  5
60D
100
AcDbEntity
  8
02___PRT_ALL_AXES
100
AcDbSpline
 62
7
  6
CONTINUOUS
 70
0
 71
3
 72
9
 73
5
 74
0
 42
0.0000001
 43
0.0000001
 44
0.0000000001
 40
0.0
 40
0.0
 40
0.0
 40
0.0
 40
0.4998376365
 40
1.0
 40
1.0
 40
1.0
 40
1.0
 10
308.6006693417
 20
553.072829692
 30
0.0
 10
307.2921922178
 20
553.1704040103
 30
0.0
 10
304.4626906484
 20
552.234466392
 30
0.0
 10
303.3078549959
 20
549.4862930797
 30
0.0
 10
303.3032834743
 20
548.1733384237
 30
0.0
  0
SPLINE
  5
60E
100
AcDbEntity
  8
02___PRT_ALL_AXES
100
AcDbSpline
 62
7
  6
CONTINUOUS
 70
0
 71
3
 72
9
 73
5
 74
0
 42
0.0000001
 43
0.0000001
 44
0.0000000001
 40
0.0
 40
0.0
 40
0.0
 40
0.0
 40
0.5002443216
 40
1.0
 40
1.0
 40
1.0
 40
1.0
 10
302.8764973777
 20
522.0933400925
 30
0.0
 10
302.8803548481
 20
520.750110843
 30
0.0
 10
303.9738370053
 20
517.9546855905
 30
0.0
 10
306.7341053123
 20
516.781433263
 30
0.0
 10
308.0752407432
 20
516.7354734926
 30
0.0
  0
SPLINE
  5
60F
100
AcDbEntity
  8
02___PRT_ALL_AXES
100
AcDbSpline
 62
7
  6
CONTINUOUS
 70
0
 71
3
 72
9
 73
5
 74
0
 42
0.0000001
 43
0.0000001
 44
0.0000000001
 40
0.0
 40
0.0
 40
0.0
 40
0.0
 40
0.4997894007
 40
1.0
 40
1.0
 40
1.0
 40
1.0
 10
303.30405823
 20
522.093340203
 30
0.0
 10
303.3071647113
 20
520.8593767146
 30
0.0
 10
304.3146495464
 20
518.2892893119
 30
0.0
 10
306.8583871855
 20
517.214548417
 30
0.0
 10
308.0929153308
 20
517.1801484536
 30
0.0
  0
SPLINE
  5
610
100
AcDbEntity
  8
02___PRT_ALL_AXES
100
AcDbSpline
 62
7
  6
CONTINUOUS
 70
0
 71
3
 72
9
 73
5
 74
0
 42
0.0000001
 43
0.0000001
 44
0.0000000001
 40
0.0
 40
0.0
 40
0.0
 40
0.0
 40
0.5000740548
 40
1.0
 40
1.0
 40
1.0
 40
1.0
 10
606.6073016439
 20
476.7383859523
 30
0.0
 10
607.9563754768
 20
476.773373192
 30
0.0
 10
610.7411606207
 20
477.9380738912
 30
0.0
 10
611.8458312211
 20
480.7481147946
 30
0.0
 10
611.850247948
 20
482.0972353089
 30
0.0
  0
SPLINE
  5
611
100
AcDbEntity
  8
02___PRT_ALL_AXES
100
AcDbSpline
 62
7
  6
CONTINUOUS
 70
0
 71
3
 72
9
 73
5
 74
0
 42
0.0000001
 43
0.0000001
 44
0.0000000001
 40
0.0
 40
0.0
 40
0.0
 40
0.0
 40
0.499789374
 40
1.0
 40
1.0
 40
1.0
 40
1.0
 10
606.6019495958
 20
477.1843127377
 30
0.0
 10
607.8348547637
 20
477.2206725493
 30
0.0
 10
610.3761642526
 20
478.2930105275
 30
0.0
 10
611.3854483596
 20
480.8627712078
 30
0.0
 10
611.3874432758
 20
482.0972504111
 30
0.0
  0
SPLINE
  5
612
100
AcDbEntity
  8
02___PRT_ALL_AXES
100
AcDbSpline
 62
7
  6
CONTINUOUS
 70
0
 71
3
 72
9
 73
5
 74
0
 42
0.0000001
 43
0.0000001
 44
0.0000000001
 40
0.0
 40
0.0
 40
0.0
 40
0.0
 40
0.5001195874
 40
1.0
 40
1.0
 40
1.0
 40
1.0
 10
611.8513237696
 20
492.7935346971
 30
0.0
 10
611.8456601461
 20
494.1431739922
 30
0.0
 10
610.7418919863
 20
496.9526679747
 30
0.0
 10
607.9565592496
 20
498.1182561968
 30
0.0
 10
606.6079753716
 20
498.1519901167
 30
0.0
  0
SPLINE
  5
613
100
AcDbEntity
  8
02___PRT_ALL_AXES
100
AcDbSpline
 62
7
  6
CONTINUOUS
 70
0
 71
3
 72
9
 73
5
 74
0
 42
0.0000001
 43
0.0000001
 44
0.0000000001
 40
0.0
 40
0.0
 40
0.0
 40
0.0
 40
0.4998071202
 40
1.0
 40
1.0
 40
1.0
 40
1.0
 10
611.3883051566
 20
492.7935496868
 30
0.0
 10
611.3842740105
 20
494.0270273336
 30
0.0
 10
610.3789579898
 20
496.5955797111
 30
0.0
 10
607.836555731
 20
497.6719326125
 30
0.0
 10
606.6025972538
 20
497.7062743034
 30
0.0
  0
SPLINE
  5
614
100
AcDbEntity
  8
02___PRT_ALL_AXES
100
AcDbSpline
 62
7
  6
CONTINUOUS
 70
0
 71
3
 72
9
 73
5
 74
0
 42
0.0000001
 43
0.0000001
 44
0.0000000001
 40
0.0
 40
0.0
 40
0.0
 40
0.0
 40
0.5000604552
 40
1.0
 40
1.0
 40
1.0
 40
1.0
 10
309.2082447753
 20
505.8624102451
 30
0.0
 10
307.8227982675
 20
505.8859818785
 30
0.0
 10
304.9050400242
 20
504.7824389521
 30
0.0
 10
303.7370052059
 20
501.8887200891
 30
0.0
 10
303.7318082777
 20
500.5034178607
 30
0.0
  0
SPLINE
  5
615
100
AcDbEntity
  8
02___PRT_ALL_AXES
100
AcDbSpline
 62
7
  6
CONTINUOUS
 70
0
 71
3
 72
9
 73
5
 74
0
 42
0.0000001
 43
0.0000001
 44
0.0000000001
 40
0.0
 40
0.0
 40
0.0
 40
0.0
 40
0.4998772087
 40
1.0
 40
1.0
 40
1.0
 40
1.0
 10
309.2028633343
 20
505.4164598907
 30
0.0
 10
307.9298989767
 20
505.4450973303
 30
0.0
 10
305.2445271989
 20
504.4364076837
 30
0.0
 10
304.1621731493
 20
501.7773131792
 30
0.0
 10
304.1593853502
 20
500.5034042415
 30
0.0
  0
SPLINE
  5
616
100
AcDbEntity
  8
02___PRT_ALL_AXES
100
AcDbSpline
 62
7
  6
CONTINUOUS
 70
0
 71
3
 72
9
 73
5
 74
0
 42
0.0000001
 43
0.0000001
 44
0.0000000001
 40
0.0
 40
0.0
 40
0.0
 40
0.0
 40
0.5001006095
 40
1.0
 40
1.0
 40
1.0
 40
1.0
 10
303.7301519658
 20
474.4074200628
 30
0.0
 10
303.7366811964
 20
473.0216810474
 30
0.0
 10
304.9036917679
 20
470.1286052472
 30
0.0
 10
307.8220688635
 20
469.0240121468
 30
0.0
 10
309.2070419993
 20
469.0489053124
 30
0.0
  0
SPLINE
  5
617
100
AcDbEntity
  8
02___PRT_ALL_AXES
100
AcDbSpline
 62
7
  6
CONTINUOUS
 70
0
 71
3
 72
9
 73
5
 74
0
 42
0.0000001
 43
0.0000001
 44
0.0000000001
 40
0.0
 40
0.0
 40
0.0
 40
0.0
 40
0.499898718
 40
1.0
 40
1.0
 40
1.0
 40
1.0
 10
304.1579608618
 20
474.4074065933
 30
0.0
 10
304.1626916906
 20
473.1340752659
 30
0.0
 10
305.2416609529
 20
470.4760649106
 30
0.0
 10
307.9282042024
 20
469.4640367594
 30
0.0
 10
309.2016931108
 20
469.4946198787
 30
0.0
  0
SPLINE
  5
618
100
AcDbEntity
  8
02___PRT_ALL_AXES
100
AcDbSpline
 62
7
  6
CONTINUOUS
 70
0
 71
3
 72
9
 73
5
 74
0
 42
0.0000001
 43
0.0000001
 44
0.0000000001
 40
0.0
 40
0.0
 40
0.0
 40
0.0
 40
0.5006795663
 40
1.0
 40
1.0
 40
1.0
 40
1.0
 10
606.0291388169
 20
444.4557813663
 30
0.0
 10
607.3335167783
 20
444.5580369614
 30
0.0
 10
609.9632201079
 20
445.7812444819
 30
0.0
 10
610.9958848996
 20
448.4967854634
 30
0.0
 10
610.9947423135
 20
449.801613209
 30
0.0
  0
SPLINE
  5
619
100
AcDbEntity
  8
02___PRT_ALL_AXES
100
AcDbSpline
 62
7
  6
CONTINUOUS
 70
0
 71
3
 72
9
 73
5
 74
0
 42
0.0000001
 43
0.0000001
 44
0.0000000001
 40
0.0
 40
0.0
 40
0.0
 40
0.0
 40
0.4997427914
 40
1.0
 40
1.0
 40
1.0
 40
1.0
 10
606.0006971653
 20
444.9017365392
 30
0.0
 10
607.1907738672
 20
444.9984134517
 30
0.0
 10
609.5892259606
 20
446.1251231868
 30
0.0
 10
610.5326666128
 20
448.6063870623
 30
0.0
 10
610.5321463609
 20
449.8016130677
 30
0.0
  0
SPLINE
  5
61A
100
AcDbEntity
  8
02___PRT_ALL_AXES
100
AcDbSpline
 62
7
  6
CONTINUOUS
 70
0
 71
3
 72
9
 73
5
 74
0
 42
0.0000001
 43
0.0000001
 44
0.0000000001
 40
0.0
 40
0.0
 40
0.0
 40
0.0
 40
0.5007326901
 40
1.0
 40
1.0
 40
1.0
 40
1.0
 10
302.8759427313
 20
426.7025926301
 30
0.0
 10
302.8783954099
 20
425.2726380716
 30
0.0
 10
304.1351767507
 20
422.2859838697
 30
0.0
 10
307.2072850647
 20
421.2511305981
 30
0.0
 10
308.6291032137
 20
421.3572378947
 30
0.0
  0
SPLINE
  5
61B
100
AcDbEntity
  8
02___PRT_ALL_AXES
100
AcDbSpline
 62
7
  6
CONTINUOUS
 70
0
 71
3
 72
9
 73
5
 74
0
 42
0.0000001
 43
0.0000001
 44
0.0000000001
 40
0.0
 40
0.0
 40
0.0
 40
0.0
 40
0.49993129
 40
1.0
 40
1.0
 40
1.0
 40
1.0
 10
303.3036659179
 20
426.7025926793
 30
0.0
 10
303.304924765
 20
425.3903258239
 30
0.0
 10
304.4640602271
 20
422.6459333828
 30
0.0
 10
307.2921535207
 20
421.699219088
 30
0.0
 10
308.6006808568
 20
421.8028961319
 30
0.0
  0
SPLINE
  5
61C
100
AcDbEntity
  8
02___PRT_ALL_AXES
100
AcDbSpline
 62
7
  6
CONTINUOUS
 70
0
 71
3
 72
9
 73
5
 74
0
 42
0.0000001
 43
0.0000001
 44
0.0000000001
 40
0.0
 40
0.0
 40
0.0
 40
0.0
 40
0.5006755694
 40
1.0
 40
1.0
 40
1.0
 40
1.0
 10
308.0752519618
 20
458.1400516779
 30
0.0
 10
306.7313603638
 20
458.0979097205
 30
0.0
 10
303.9722325894
 20
456.9178218447
 30
0.0
 10
302.8743176798
 20
454.1235151841
 30
0.0
 10
302.8758489105
 20
452.7825923264
 30
0.0
  0
SPLINE
  5
61D
100
AcDbEntity
  8
02___PRT_ALL_AXES
100
AcDbSpline
 62
7
  6
CONTINUOUS
 70
0
 71
3
 72
9
 73
5
 74
0
 42
0.0000001
 43
0.0000001
 44
0.0000000001
 40
0.0
 40
0.0
 40
0.0
 40
0.0
 40
0.5008039987
 40
1.0
 40
1.0
 40
1.0
 40
1.0
 10
610.9960058585
 20
460.4826133229
 30
0.0
 10
610.9939537155
 20
461.8771003704
 30
0.0
 10
609.8054589115
 20
464.7825548211
 30
0.0
 10
606.8645859202
 20
465.8834564622
 30
0.0
 10
605.4752506565
 20
465.8401164848
 30
0.0
  0
SPLINE
  5
61E
100
AcDbEntity
  8
02___PRT_ALL_AXES
100
AcDbSpline
 62
7
  6
CONTINUOUS
 70
0
 71
3
 72
9
 73
5
 74
0
 42
0.0000001
 43
0.0000001
 44
0.0000000001
 40
0.0
 40
0.0
 40
0.0
 40
0.0
 40
0.5002142076
 40
1.0
 40
1.0
 40
1.0
 40
1.0
 10
610.9956190342
 20
428.1365579852
 30
0.0
 10
610.9898203216
 20
429.5717340261
 30
0.0
 10
609.7262667412
 20
432.5776394773
 30
0.0
 10
606.628778751
 20
433.5887815844
 30
0.0
 10
605.199000974
 20
433.4793618085
 30
0.0
  0
SPLINE
  5
61F
100
AcDbEntity
  8
02___PRT_ALL_AXES
100
AcDbSpline
 62
7
  6
CONTINUOUS
 70
0
 71
3
 72
9
 73
5
 74
0
 42
0.0000001
 43
0.0000001
 44
0.0000000001
 40
0.0
 40
0.0
 40
0.0
 40
0.0
 40
0.4998575872
 40
1.0
 40
1.0
 40
1.0
 40
1.0
 10
610.5327718729
 20
428.1365578949
 30
0.0
 10
610.5282760957
 20
429.448174819
 30
0.0
 10
609.37600251
 20
432.1950684366
 30
0.0
 10
606.5483189646
 20
433.1335745899
 30
0.0
 10
605.2395070981
 20
433.0369733887
 30
0.0
  0
SPLINE
  5
620
100
AcDbEntity
  8
02___PRT_ALL_AXES
100
AcDbSpline
 62
7
  6
CONTINUOUS
 70
0
 71
3
 72
9
 73
5
 74
0
 42
0.0000001
 43
0.0000001
 44
0.0000000001
 40
0.0
 40
0.0
 40
0.0
 40
0.0
 40
0.5009786399
 40
1.0
 40
1.0
 40
1.0
 40
1.0
 10
302.8760751031
 20
379.003538136
 30
0.0
 10
302.8775450334
 20
377.530933537
 30
0.0
 10
304.2210981854
 20
374.4457506475
 30
0.0
 10
307.4465929838
 20
373.5054108195
 30
0.0
 10
308.9023953663
 20
373.6851166619
 30
0.0
  0
SPLINE
  5
621
100
AcDbEntity
  8
02___PRT_ALL_AXES
100
AcDbSpline
 62
7
  6
CONTINUOUS
 70
0
 71
3
 72
9
 73
5
 74
0
 42
0.0000001
 43
0.0000001
 44
0.0000000001
 40
0.0
 40
0.0
 40
0.0
 40
0.0
 40
0.5009865927
 40
1.0
 40
1.0
 40
1.0
 40
1.0
 10
610.995891806
 20
395.7223268934
 30
0.0
 10
610.994418312
 20
397.2016164158
 30
0.0
 10
609.6370585694
 20
400.3020495392
 30
0.0
 10
606.3870483525
 20
401.2278135041
 30
0.0
 10
604.9262131619
 20
401.035312897
 30
0.0
  0
SPLINE
  5
622
100
AcDbEntity
  8
02___PRT_ALL_AXES
100
AcDbSpline
 62
7
  6
CONTINUOUS
 70
0
 71
3
 72
9
 73
5
 74
0
 42
0.0000001
 43
0.0000001
 44
0.0000000001
 40
0.0
 40
0.0
 40
0.0
 40
0.0
 40
0.5007198806
 40
1.0
 40
1.0
 40
1.0
 40
1.0
 10
313.7211147965
 20
363.3382749264
 30
0.0
 10
312.0729616707
 20
363.1169277952
 30
0.0
 10
308.805543848
 20
360.8857350009
 30
0.0
 10
308.9309517585
 20
356.9400244006
 30
0.0
 10
309.714285536
 20
355.4785487251
 30
0.0
  0
SPLINE
  5
623
100
AcDbEntity
  8
02___PRT_ALL_AXES
100
AcDbSpline
 62
7
  6
CONTINUOUS
 70
0
 71
3
 72
9
 73
5
 74
0
 42
0.0000001
 43
0.0000001
 44
0.0000000001
 40
0.0
 40
0.0
 40
0.0
 40
0.0
 40
0.5000325714
 40
1.0
 40
1.0
 40
1.0
 40
1.0
 10
313.7840375774
 20
362.8995411429
 30
0.0
 10
312.2693414513
 20
362.7028370025
 30
0.0
 10
309.255104238
 20
360.6612733678
 30
0.0
 10
309.3677639607
 20
357.0248239962
 30
0.0
 10
310.0935157668
 20
355.6810705381
 30
0.0
  0
SPLINE
  5
624
100
AcDbEntity
  8
02___PRT_ALL_AXES
100
AcDbSpline
 62
7
  6
CONTINUOUS
 70
0
 71
3
 72
9
 73
5
 74
0
 42
0.0000001
 43
0.0000001
 44
0.0000000001
 40
0.0
 40
0.0
 40
0.0
 40
0.0
 40
0.5000069877
 40
1.0
 40
1.0
 40
1.0
 40
1.0
 10
309.7170518935
 20
355.4800465517
 30
0.0
 10
312.1490094492
 20
351.0040626679
 30
0.0
 10
318.2332251097
 20
342.6559224794
 30
0.0
 10
326.3625569234
 20
336.2824101326
 30
0.0
 10
330.7501529618
 20
333.6946698556
 30
0.0
  0
SPLINE
  5
625
100
AcDbEntity
  8
02___PRT_ALL_AXES
100
AcDbSpline
 62
7
  6
CONTINUOUS
 70
0
 71
3
 72
9
 73
5
 74
0
 42
0.0000001
 43
0.0000001
 44
0.0000000001
 40
0.0
 40
0.0
 40
0.0
 40
0.0
 40
0.4999361653
 40
1.0
 40
1.0
 40
1.0
 40
1.0
 10
310.0965970384
 20
355.6827373293
 30
0.0
 10
312.5099798421
 20
351.2414449082
 30
0.0
 10
318.5506706963
 20
342.9583880799
 30
0.0
 10
326.6199163738
 20
336.6350400135
 30
0.0
 10
330.9760102818
 20
334.0685264875
 30
0.0
  0
SPLINE
  5
626
100
AcDbEntity
  8
02___PRT_ALL_AXES
100
AcDbSpline
 62
7
  6
CONTINUOUS
 70
0
 71
3
 72
9
 73
5
 74
0
 42
0.0000001
 43
0.0000001
 44
0.0000000001
 40
0.0
 40
0.0
 40
0.0
 40
0.0
 40
0.5001885718
 40
1.0
 40
1.0
 40
1.0
 40
1.0
 10
554.4139710638
 20
325.8718237103
 30
0.0
 10
565.2965592755
 20
325.8533428439
 30
0.0
 10
587.5375524674
 20
332.4593966249
 30
0.0
 10
602.2990613524
 20
350.3581158062
 30
0.0
 10
606.5248713274
 20
360.3778498546
 30
0.0
  0
SPLINE
  5
627
100
AcDbEntity
  8
02___PRT_ALL_AXES
100
AcDbSpline
 62
7
  6
CONTINUOUS
 70
0
 71
3
 72
9
 73
5
 74
0
 42
0.0000001
 43
0.0000001
 44
0.0000000001
 40
0.0
 40
0.0
 40
0.0
 40
0.0
 40
0.5002319161
 40
1.0
 40
1.0
 40
1.0
 40
1.0
 10
554.4201430382
 20
326.3175721151
 30
0.0
 10
565.2153469786
 20
326.3034342845
 30
0.0
 10
587.2721447195
 20
332.8676878696
 30
0.0
 10
601.9089527116
 20
350.6228753172
 30
0.0
 10
606.0987502743
 20
360.5609944067
 30
0.0
  0
SPLINE
  5
628
100
AcDbEntity
  8
02___PRT_ALL_AXES
100
AcDbSpline
 62
7
  6
CONTINUOUS
 70
0
 71
3
 72
11
 73
7
 74
0
 42
0.0000001
 43
0.0000001
 44
0.0000000001
 40
0.0
 40
0.0
 40
0.0
 40
0.0
 40
0.2499267961
 40
0.4999010849
 40
0.7502856927
 40
1.0
 40
1.0
 40
1.0
 40
1.0
 10
439.1751948919
 20
338.4931490217
 30
0.0
 10
437.6693923218
 20
338.2185776082
 30
0.0
 10
434.7687037408
 20
336.444874164
 30
0.0
 10
433.399309651
 20
331.6156852051
 30
0.0
 10
435.6074254306
 20
327.101511756
 30
0.0
 10
438.7794614751
 20
325.8859363729
 30
0.0
 10
440.3087664153
 20
325.8772665757
 30
0.0
  0
SPLINE
  5
629
100
AcDbEntity
  8
02___PRT_ALL_AXES
100
AcDbSpline
 62
7
  6
CONTINUOUS
 70
0
 71
3
 72
11
 73
7
 74
0
 42
0.0000001
 43
0.0000001
 44
0.0000000001
 40
0.0
 40
0.0
 40
0.0
 40
0.0
 40
0.2497511992
 40
0.4995694447
 40
0.7499748271
 40
1.0
 40
1.0
 40
1.0
 40
1.0
 10
439.2600272624
 20
338.0587920862
 30
0.0
 10
437.8565326912
 20
337.8075599795
 30
0.0
 10
435.1469004279
 20
336.1654568107
 30
0.0
 10
433.8654216597
 20
331.6646369583
 30
0.0
 10
435.9237865754
 20
327.4547816057
 30
0.0
 10
438.8875715199
 20
326.3242551146
 30
0.0
 10
440.3149380535
 20
326.322852398
 30
0.0
  0
SPLINE
  5
62A
100
AcDbEntity
  8
02___PRT_ALL_AXES
100
AcDbSpline
 62
7
  6
CONTINUOUS
 70
0
 71
3
 72
9
 73
5
 74
0
 42
0.0000001
 43
0.0000001
 44
0.0000000001
 40
0.0
 40
0.0
 40
0.0
 40
0.0
 40
0.2755019691
 40
1.0
 40
1.0
 40
1.0
 40
1.0
 10
1356.2245672062
 20
335.3678735394
 30
0.0
 10
1356.2942287114
 20
335.2497055496
 30
0.0
 10
1356.5476235561
 20
334.8211076901
 30
0.0
 10
1356.8026050418
 20
334.3934380582
 30
0.0
 10
1356.9895070323
 20
334.0849046253
 30
0.0
  0
SPLINE
  5
62B
100
AcDbEntity
  8
02___PRT_ALL_AXES
100
AcDbSpline
 62
7
  6
CONTINUOUS
 70
0
 71
3
 72
9
 73
5
 74
0
 42
0.0000001
 43
0.0000001
 44
0.0000000001
 40
0.0
 40
0.0
 40
0.0
 40
0.0
 40
0.275916844
 40
1.0
 40
1.0
 40
1.0
 40
1.0
 10
1347.0267366882
 20
333.7240430643
 30
0.0
 10
1347.0024107762
 20
333.5899217922
 30
0.0
 10
1346.9149493809
 20
333.1037030783
 30
0.0
 10
1346.8295278085
 20
332.617106326
 30
0.0
 10
1346.7705053347
 20
332.2642950417
 30
0.0
  0
SPLINE
  5
62C
100
AcDbEntity
  8
02___PRT_ALL_AXES
100
AcDbSpline
 62
7
  6
CONTINUOUS
 70
0
 71
3
 72
8
 73
4
 74
0
 42
0.0000001
 43
0.0000001
 44
0.0000000001
 40
0.0
 40
0.0
 40
0.0
 40
0.0
 40
1.0
 40
1.0
 40
1.0
 40
1.0
 10
554.4078630967
 20
317.4379652605
 30
0.0
 10
554.4133284928
 20
317.5975578424
 30
0.0
 10
554.415024051
 20
317.7572639868
 30
0.0
 10
554.4168078657
 20
317.9169401614
 30
0.0
  0
SPLINE
  5
62D
100
AcDbEntity
  8
02___PRT_ALL_AXES
100
AcDbSpline
 62
7
  6
CONTINUOUS
 70
0
 71
3
 72
8
 73
4
 74
0
 42
0.0000001
 43
0.0000001
 44
0.0000000001
 40
0.0
 40
0.0
 40
0.0
 40
0.0
 40
1.0
 40
1.0
 40
1.0
 40
1.0
 10
359.4078707699
 20
317.4379623794
 30
0.0
 10
359.4133283732
 20
317.5973541564
 30
0.0
 10
359.4150237973
 20
317.7568592628
 30
0.0
 10
359.4168063536
 20
317.916334485
 30
0.0
  0
SPLINE
  5
62E
100
AcDbEntity
  8
02___PRT_ALL_AXES
100
AcDbSpline
 62
7
  6
CONTINUOUS
 70
0
 71
3
 72
8
 73
4
 74
0
 42
0.0000001
 43
0.0000001
 44
0.0000000001
 40
0.0
 40
0.0
 40
0.0
 40
0.0
 40
1.0
 40
1.0
 40
1.0
 40
1.0
 10
359.4078631188
 20
657.4379652605
 30
0.0
 10
359.4133213765
 20
657.2785814894
 30
0.0
 10
359.4150175693
 20
657.1190843707
 30
0.0
 10
359.4168008856
 20
656.9596171363
 30
0.0
  0
SPLINE
  5
62F
100
AcDbEntity
  8
02___PRT_ALL_AXES
100
AcDbSpline
 62
7
  6
CONTINUOUS
 70
0
 71
3
 72
8
 73
4
 74
0
 42
0.0000001
 43
0.0000001
 44
0.0000000001
 40
0.0
 40
0.0
 40
0.0
 40
0.0
 40
1.0
 40
1.0
 40
1.0
 40
1.0
 10
554.407870745
 20
657.4379681942
 30
0.0
 10
554.4133354861
 20
657.278367455
 30
0.0
 10
554.4150302744
 20
657.1186531714
 30
0.0
 10
554.4168133292
 20
656.9589688576
 30
0.0
  0
SPLINE
  5
630
100
AcDbEntity
  8
02___PRT_ALL_AXES
100
AcDbSpline
 62
7
  6
CONTINUOUS
 70
0
 71
3
 72
9
 73
5
 74
0
 42
0.0000001
 43
0.0000001
 44
0.0000000001
 40
0.0
 40
0.0
 40
0.0
 40
0.0
 40
0.5479771874
 40
1.0
 40
1.0
 40
1.0
 40
1.0
 10
1329.4039918444
 20
657.2909821931
 30
0.0
 10
1329.4045565058
 20
657.3178340276
 30
0.0
 10
1329.4056852441
 20
657.3668337559
 30
0.0
 10
1329.4071051285
 20
657.4158263646
 30
0.0
 10
1329.4078631649
 20
657.4379681928
 30
0.0
  0
SPLINE
  5
631
100
AcDbEntity
  8
02___PRT_ALL_AXES
100
AcDbSpline
 62
7
  6
CONTINUOUS
 70
0
 71
3
 72
9
 73
5
 74
0
 42
0.0000001
 43
0.0000001
 44
0.0000000001
 40
0.0
 40
0.0
 40
0.0
 40
0.0
 40
0.5479762966
 40
1.0
 40
1.0
 40
1.0
 40
1.0
 10
1134.4039978001
 20
657.2909792799
 30
0.0
 10
1134.404562713
 20
657.3178310702
 30
0.0
 10
1134.4056919525
 20
657.366830796
 30
0.0
 10
1134.4071124626
 20
657.4158233961
 30
0.0
 10
1134.4078708335
 20
657.4379652605
 30
0.0
  0
SPLINE
  5
632
100
AcDbEntity
  8
02___PRT_ALL_AXES
100
AcDbSpline
 62
7
  6
CONTINUOUS
 70
0
 71
3
 72
9
 73
5
 74
0
 42
0.0000001
 43
0.0000001
 44
0.0000000001
 40
0.0
 40
0.0
 40
0.0
 40
0.0
 40
0.5479772001
 40
1.0
 40
1.0
 40
1.0
 40
1.0
 10
1134.4039918703
 20
317.5849482608
 30
0.0
 10
1134.4045565318
 20
317.5580964282
 30
0.0
 10
1134.4056852702
 20
317.5090967045
 30
0.0
 10
1134.4071051542
 20
317.4601041002
 30
0.0
 10
1134.4078631902
 20
317.4379622747
 30
0.0
  0
SPLINE
  5
633
100
AcDbEntity
  8
02___PRT_ALL_AXES
100
AcDbSpline
 62
7
  6
CONTINUOUS
 70
0
 71
3
 72
9
 73
5
 74
0
 42
0.0000001
 43
0.0000001
 44
0.0000000001
 40
0.0
 40
0.0
 40
0.0
 40
0.0
 40
0.5479762989
 40
1.0
 40
1.0
 40
1.0
 40
1.0
 10
1329.4039977713
 20
317.5849512542
 30
0.0
 10
1329.4045626855
 20
317.5580994613
 30
0.0
 10
1329.4056919281
 20
317.5090997312
 30
0.0
 10
1329.4071124434
 20
317.4601071268
 30
0.0
 10
1329.4078708174
 20
317.4379652605
 30
0.0
  0
SPLINE
  5
634
100
AcDbEntity
  8
02___PRT_ALL_AXES
100
AcDbSpline
 62
7
  6
CONTINUOUS
 70
0
 71
3
 72
11
 73
7
 74
0
 42
0.0000001
 43
0.0000001
 44
0.0000000001
 40
0.0
 40
0.0
 40
0.0
 40
0.0
 40
0.2503017407
 40
0.5005671359
 40
0.7506139338
 40
1.0
 40
1.0
 40
1.0
 40
1.0
 10
440.3005955263
 20
650.0592855235
 30
0.0
 10
438.5103648531
 20
650.0515431949
 30
0.0
 10
434.7997022877
 20
648.6288807776
 30
0.0
 10
432.2278756499
 20
643.3487278876
 30
0.0
 10
433.8383770931
 20
637.7149991428
 30
0.0
 10
437.2271172712
 20
635.6548547617
 30
0.0
 10
438.9823919653
 20
635.3376955593
 30
0.0
  0
SPLINE
  5
635
100
AcDbEntity
  8
02___PRT_ALL_AXES
100
AcDbSpline
 62
7
  6
CONTINUOUS
 70
0
 71
3
 72
9
 73
5
 74
0
 42
0.0000001
 43
0.0000001
 44
0.0000000001
 40
0.0
 40
0.0
 40
0.0
 40
0.0
 40
0.5002124298
 40
1.0
 40
1.0
 40
1.0
 40
1.0
 10
607.4862216938
 20
614.9068742864
 30
0.0
 10
603.1768537832
 20
625.1214730159
 30
0.0
 10
588.1414923814
 20
643.3586011628
 30
0.0
 10
565.4839412392
 20
650.0819118088
 30
0.0
 10
554.4069554601
 20
650.0627617861
 30
0.0
  0
SPLINE
  5
636
100
AcDbEntity
  8
02___PRT_ALL_AXES
100
AcDbSpline
 62
7
  6
CONTINUOUS
 70
0
 71
3
 72
9
 73
5
 74
0
 42
0.0000001
 43
0.0000001
 44
0.0000000001
 40
0.0
 40
0.0
 40
0.0
 40
0.0
 40
0.500649729
 40
1.0
 40
1.0
 40
1.0
 40
1.0
 10
604.7759550356
 20
572.7882981708
 30
0.0
 10
606.5312546589
 20
572.5597217923
 30
0.0
 10
610.4231736682
 20
573.6763897912
 30
0.0
 10
612.0407859847
 20
577.387293791
 30
0.0
 10
612.0435115472
 20
579.152817015
 30
0.0
  0
SPLINE
  5
637
100
AcDbEntity
  8
02___PRT_ALL_AXES
100
AcDbSpline
 62
7
  6
CONTINUOUS
 70
0
 71
3
 72
9
 73
5
 74
0
 42
0.0000001
 43
0.0000001
 44
0.0000000001
 40
0.0
 40
0.0
 40
0.0
 40
0.0
 40
0.499992417
 40
1.0
 40
1.0
 40
1.0
 40
1.0
 10
330.2032317454
 20
642.0985018705
 30
0.0
 10
325.7308819573
 20
639.4616295706
 30
0.0
 10
317.4457537936
 20
632.9644574028
 30
0.0
 10
311.2448109533
 20
624.4558933273
 30
0.0
 10
308.7656028589
 20
619.8940767337
 30
0.0
  0
SPLINE
  5
638
100
AcDbEntity
  8
02___PRT_ALL_AXES
100
AcDbSpline
 62
7
  6
CONTINUOUS
 70
0
 71
3
 72
8
 73
4
 74
0
 42
0.0000001
 43
0.0000001
 44
0.0000000001
 40
0.0
 40
0.0
 40
0.0
 40
0.0
 40
1.0
 40
1.0
 40
1.0
 40
1.0
 10
341.4518102699
 20
644.1125533445
 30
0.0
 10
337.7036478483
 20
644.7914763736
 30
0.0
 10
333.483887275
 20
644.0342077661
 30
0.0
 10
330.2032317454
 20
642.0985018705
 30
0.0
  0
SPLINE
  5
639
100
AcDbEntity
  8
02___PRT_ALL_AXES
100
AcDbSpline
 62
7
  6
CONTINUOUS
 70
0
 71
3
 72
9
 73
5
 74
0
 42
0.0000001
 43
0.0000001
 44
0.0000000001
 40
0.0
 40
0.0
 40
0.0
 40
0.0
 40
0.5001708577
 40
1.0
 40
1.0
 40
1.0
 40
1.0
 10
605.1031637464
 20
540.3390526698
 30
0.0
 10
606.8159458812
 20
540.2070522976
 30
0.0
 10
610.5223447709
 20
541.4233503536
 30
0.0
 10
612.0369015918
 20
545.0186220945
 30
0.0
 10
612.0438277737
 20
546.7352955784
 30
0.0
  0
SPLINE
  5
63A
100
AcDbEntity
  8
02___PRT_ALL_AXES
100
AcDbSpline
 62
7
  6
CONTINUOUS
 70
0
 71
3
 72
9
 73
5
 74
0
 42
0.0000001
 43
0.0000001
 44
0.0000000001
 40
0.0
 40
0.0
 40
0.0
 40
0.0
 40
0.5006441038
 40
1.0
 40
1.0
 40
1.0
 40
1.0
 10
309.0344020979
 20
602.2421974084
 30
0.0
 10
307.2831950868
 20
602.4605669278
 30
0.0
 10
303.4110106236
 20
601.3320147895
 30
0.0
 10
301.8043030187
 20
597.6334106846
 30
0.0
 10
301.8016005156
 20
595.8731842298
 30
0.0
  0
SPLINE
  5
63B
100
AcDbEntity
  8
02___PRT_ALL_AXES
100
AcDbSpline
 62
7
  6
CONTINUOUS
 70
0
 71
3
 72
9
 73
5
 74
0
 42
0.0000001
 43
0.0000001
 44
0.0000000001
 40
0.0
 40
0.0
 40
0.0
 40
0.0
 40
0.500237736
 40
1.0
 40
1.0
 40
1.0
 40
1.0
 10
605.4334274436
 20
507.9747413566
 30
0.0
 10
607.1006485545
 20
507.931860916
 30
0.0
 10
610.6214877719
 20
509.245390094
 30
0.0
 10
612.037772935
 20
512.7257028058
 30
0.0
 10
612.0438276812
 20
514.3918790561
 30
0.0
  0
SPLINE
  5
63C
100
AcDbEntity
  8
02___PRT_ALL_AXES
100
AcDbSpline
 62
7
  6
CONTINUOUS
 70
0
 71
3
 72
9
 73
5
 74
0
 42
0.0000001
 43
0.0000001
 44
0.0000000001
 40
0.0
 40
0.0
 40
0.0
 40
0.0
 40
0.5003047426
 40
1.0
 40
1.0
 40
1.0
 40
1.0
 10
301.8012889117
 20
522.0997495008
 30
0.0
 10
301.8045653826
 20
520.4877863327
 30
0.0
 10
303.1158525033
 20
517.1326706121
 30
0.0
 10
306.4306632903
 20
515.7251746991
 30
0.0
 10
308.0398713881
 20
515.6745963367
 30
0.0
  0
SPLINE
  5
63D
100
AcDbEntity
  8
02___PRT_ALL_AXES
100
AcDbSpline
 62
7
  6
CONTINUOUS
 70
0
 71
3
 72
9
 73
5
 74
0
 42
0.0000001
 43
0.0000001
 44
0.0000000001
 40
0.0
 40
0.0
 40
0.0
 40
0.0
 40
0.5001684097
 40
1.0
 40
1.0
 40
1.0
 40
1.0
 10
308.7067580359
 20
554.5763902195
 30
0.0
 10
306.9986762649
 20
554.6985619624
 30
0.0
 10
303.3122376738
 20
553.4716092948
 30
0.0
 10
301.8081358235
 20
549.8887448335
 30
0.0
 10
301.8012887152
 20
548.1774663059
 30
0.0
  0
SPLINE
  5
63E
100
AcDbEntity
  8
02___PRT_ALL_AXES
100
AcDbSpline
 62
7
  6
CONTINUOUS
 70
0
 71
3
 72
9
 73
5
 74
0
 42
0.0000001
 43
0.0000001
 44
0.0000000001
 40
0.0
 40
0.0
 40
0.0
 40
0.0
 40
0.5000742888
 40
1.0
 40
1.0
 40
1.0
 40
1.0
 10
606.6260360149
 20
475.6777843069
 30
0.0
 10
608.2424361486
 20
475.7212501538
 30
0.0
 10
611.5784621782
 20
477.1213722259
 30
0.0
 10
612.8945474118
 20
480.4906001159
 30
0.0
 10
612.8986116507
 20
482.1070990207
 30
0.0
  0
SPLINE
  5
63F
100
AcDbEntity
  8
02___PRT_ALL_AXES
100
AcDbSpline
 62
7
  6
CONTINUOUS
 70
0
 71
3
 72
9
 73
5
 74
0
 42
0.0000001
 43
0.0000001
 44
0.0000000001
 40
0.0
 40
0.0
 40
0.0
 40
0.0
 40
0.5000667084
 40
1.0
 40
1.0
 40
1.0
 40
1.0
 10
302.6558262596
 20
474.4054033434
 30
0.0
 10
302.6629675945
 20
472.7430224033
 30
0.0
 10
304.0690805963
 20
469.2728072254
 30
0.0
 10
307.5732037187
 20
467.9534465797
 30
0.0
 10
309.2348001411
 20
467.9878600826
 30
0.0
  0
SPLINE
  5
640
100
AcDbEntity
  8
02___PRT_ALL_AXES
100
AcDbSpline
 62
7
  6
CONTINUOUS
 70
0
 71
3
 72
9
 73
5
 74
0
 42
0.0000001
 43
0.0000001
 44
0.0000000001
 40
0.0
 40
0.0
 40
0.0
 40
0.0
 40
0.5000317237
 40
1.0
 40
1.0
 40
1.0
 40
1.0
 10
309.2248092242
 20
506.9229186587
 30
0.0
 10
307.5627783129
 20
506.9542259569
 30
0.0
 10
304.0604723571
 20
505.6289540104
 30
0.0
 10
302.6614208656
 20
502.1561051308
 30
0.0
 10
302.6566614537
 20
500.4939971226
 30
0.0
  0
SPLINE
  5
641
100
AcDbEntity
  8
02___PRT_ALL_AXES
100
AcDbSpline
 62
7
  6
CONTINUOUS
 70
0
 71
3
 72
9
 73
5
 74
0
 42
0.0000001
 43
0.0000001
 44
0.0000000001
 40
0.0
 40
0.0
 40
0.0
 40
0.0
 40
0.5001215118
 40
1.0
 40
1.0
 40
1.0
 40
1.0
 10
612.8989538874
 20
492.7937949962
 30
0.0
 10
612.8928975171
 20
494.408899514
 30
0.0
 10
611.5740328566
 20
497.770890303
 30
0.0
 10
608.2432546095
 20
499.1706055862
 30
0.0
 10
606.6294731919
 20
499.2127273847
 30
0.0
  0
SPLINE
  5
642
100
AcDbEntity
  8
02___PRT_ALL_AXES
100
AcDbSpline
 62
7
  6
CONTINUOUS
 70
0
 71
3
 72
9
 73
5
 74
0
 42
0.0000001
 43
0.0000001
 44
0.0000000001
 40
0.0
 40
0.0
 40
0.0
 40
0.0
 40
0.5006560501
 40
1.0
 40
1.0
 40
1.0
 40
1.0
 10
606.1042729485
 20
443.3983691372
 30
0.0
 10
607.6649507779
 20
443.5229396824
 30
0.0
 10
610.8083463485
 20
444.9919833998
 30
0.0
 10
612.0440914592
 20
448.2403808638
 30
0.0
 10
612.0426860395
 20
449.8019184945
 30
0.0
  0
SPLINE
  5
643
100
AcDbEntity
  8
02___PRT_ALL_AXES
100
AcDbSpline
 62
7
  6
CONTINUOUS
 70
0
 71
3
 72
9
 73
5
 74
0
 42
0.0000001
 43
0.0000001
 44
0.0000000001
 40
0.0
 40
0.0
 40
0.0
 40
0.0
 40
0.5007184701
 40
1.0
 40
1.0
 40
1.0
 40
1.0
 10
301.8016460073
 20
426.7016888152
 30
0.0
 10
301.8045089102
 20
424.9858990211
 30
0.0
 10
303.3172010704
 20
421.4006164425
 30
0.0
 10
307.0069997644
 20
420.1709381576
 30
0.0
 10
308.7129912641
 20
420.3000244123
 30
0.0
  0
SPLINE
  5
644
100
AcDbEntity
  8
02___PRT_ALL_AXES
100
AcDbSpline
 62
7
  6
CONTINUOUS
 70
0
 71
3
 72
9
 73
5
 74
0
 42
0.0000001
 43
0.0000001
 44
0.0000000001
 40
0.0
 40
0.0
 40
0.0
 40
0.0
 40
0.5006785925
 40
1.0
 40
1.0
 40
1.0
 40
1.0
 10
308.0423609115
 20
459.2013985615
 30
0.0
 10
306.4304068138
 20
459.1529131579
 30
0.0
 10
303.1179632817
 20
457.742313962
 30
0.0
 10
301.8009052707
 20
454.3903129613
 30
0.0
 10
301.8015889946
 20
452.7820014718
 30
0.0
  0
SPLINE
  5
645
100
AcDbEntity
  8
02___PRT_ALL_AXES
100
AcDbSpline
 62
7
  6
CONTINUOUS
 70
0
 71
3
 72
9
 73
5
 74
0
 42
0.0000001
 43
0.0000001
 44
0.0000000001
 40
0.0
 40
0.0
 40
0.0
 40
0.0
 40
0.50077475
 40
1.0
 40
1.0
 40
1.0
 40
1.0
 10
612.0434533557
 20
460.483397538
 30
0.0
 10
612.0410340027
 20
462.1539159001
 30
0.0
 10
610.6156855766
 20
465.6363577589
 30
0.0
 10
607.0930376518
 20
466.9485773993
 30
0.0
 10
605.4283645669
 20
466.9010581668
 30
0.0
  0
SPLINE
  5
646
100
AcDbEntity
  8
02___PRT_ALL_AXES
100
AcDbSpline
 62
7
  6
CONTINUOUS
 70
0
 71
3
 72
9
 73
5
 74
0
 42
0.0000001
 43
0.0000001
 44
0.0000000001
 40
0.0
 40
0.0
 40
0.0
 40
0.0
 40
0.5006681444
 40
1.0
 40
1.0
 40
1.0
 40
1.0
 10
301.8017263678
 20
379.0030946551
 30
0.0
 10
301.8050430787
 20
377.2379596266
 30
0.0
 10
303.4170196233
 20
373.5383584606
 30
0.0
 10
307.2892731244
 20
372.4143977871
 30
0.0
 10
309.0359576393
 20
372.6339344082
 30
0.0
  0
SPLINE
  5
647
100
AcDbEntity
  8
02___PRT_ALL_AXES
100
AcDbSpline
 62
7
  6
CONTINUOUS
 70
0
 71
3
 72
9
 73
5
 74
0
 42
0.0000001
 43
0.0000001
 44
0.0000000001
 40
0.0
 40
0.0
 40
0.0
 40
0.0
 40
0.500230132
 40
1.0
 40
1.0
 40
1.0
 40
1.0
 10
612.0438274228
 20
428.1319970967
 30
0.0
 10
612.0382153971
 20
429.850012454
 30
0.0
 10
610.5283765673
 20
433.4472976007
 30
0.0
 10
606.8235695962
 20
434.6675149233
 30
0.0
 10
605.112051828
 20
434.5375683392
 30
0.0
  0
SPLINE
  5
648
100
AcDbEntity
  8
02___PRT_ALL_AXES
100
AcDbSpline
 62
7
  6
CONTINUOUS
 70
0
 71
3
 72
9
 73
5
 74
0
 42
0.0000001
 43
0.0000001
 44
0.0000000001
 40
0.0
 40
0.0
 40
0.0
 40
0.0
 40
0.5000081062
 40
1.0
 40
1.0
 40
1.0
 40
1.0
 10
308.7617173673
 20
354.9880100747
 30
0.0
 10
311.2415054505
 20
350.425137404
 30
0.0
 10
317.4427692497
 20
341.913815808
 30
0.0
 10
325.7298826018
 20
335.4151324075
 30
0.0
 10
330.2030752332
 20
332.777338869
 30
0.0
  0
SPLINE
  5
649
100
AcDbEntity
  8
02___PRT_ALL_AXES
100
AcDbSpline
 62
7
  6
CONTINUOUS
 70
0
 71
3
 72
9
 73
5
 74
0
 42
0.0000001
 43
0.0000001
 44
0.0000000001
 40
0.0
 40
0.0
 40
0.0
 40
0.0
 40
0.500740648
 40
1.0
 40
1.0
 40
1.0
 40
1.0
 10
313.5777248022
 20
364.3914252513
 30
0.0
 10
311.6037592889
 20
364.1280200974
 30
0.0
 10
307.6894352783
 20
361.4674705657
 30
0.0
 10
307.8207791382
 20
356.7364745484
 30
0.0
 10
308.7617173673
 20
354.9880100747
 30
0.0
  0
SPLINE
  5
64A
100
AcDbEntity
  8
02___PRT_ALL_AXES
100
AcDbSpline
 62
7
  6
CONTINUOUS
 70
0
 71
3
 72
9
 73
5
 74
0
 42
0.0000001
 43
0.0000001
 44
0.0000000001
 40
0.0
 40
0.0
 40
0.0
 40
0.0
 40
0.5006766521
 40
1.0
 40
1.0
 40
1.0
 40
1.0
 10
612.0433839544
 20
395.7227674441
 30
0.0
 10
612.0400841557
 20
397.4918785084
 30
0.0
 10
610.4200123528
 20
401.2002322949
 30
0.0
 10
606.5328426037
 20
402.3163959159
 30
0.0
 10
604.7833207774
 20
402.0882689912
 30
0.0
  0
SPLINE
  5
64B
100
AcDbEntity
  8
02___PRT_ALL_AXES
100
AcDbSpline
 62
7
  6
CONTINUOUS
 70
0
 71
3
 72
9
 73
5
 74
0
 42
0.0000001
 43
0.0000001
 44
0.0000000001
 40
0.0
 40
0.0
 40
0.0
 40
0.0
 40
0.5001879113
 40
1.0
 40
1.0
 40
1.0
 40
1.0
 10
554.4070712479
 20
324.8130248761
 30
0.0
 10
565.4857024558
 20
324.7954892956
 30
0.0
 10
588.1236183145
 20
331.5165311186
 30
0.0
 10
603.1679038946
 20
349.7261341521
 30
0.0
 10
607.4697666012
 20
359.9264275004
 30
0.0
  0
SPLINE
  5
64C
100
AcDbEntity
  8
02___PRT_ALL_AXES
100
AcDbSpline
 62
7
  6
CONTINUOUS
 70
0
 71
3
 72
11
 73
7
 74
0
 42
0.0000001
 43
0.0000001
 44
0.0000000001
 40
0.0
 40
0.0
 40
0.0
 40
0.0
 40
0.2499571058
 40
0.4999258308
 40
0.7502653798
 40
1.0
 40
1.0
 40
1.0
 40
1.0
 10
438.9770020928
 20
339.5372581444
 30
0.0
 10
437.218536172
 20
339.2182206453
 30
0.0
 10
433.8286744952
 20
337.1516678364
 30
0.0
 10
432.2294946715
 20
331.5123850121
 30
0.0
 10
434.8078774473
 20
326.2439611543
 30
0.0
 10
438.5121365875
 20
324.8233671643
 30
0.0
 10
440.2977061766
 20
324.8166450751
 30
0.0
  0
SPLINE
  5
64D
100
AcDbEntity
  8
02___PRT_ALL_AXES
100
AcDbSpline
 62
7
  6
CONTINUOUS
 70
0
 71
3
 72
11
 73
7
 74
0
 42
0.0000001
 43
0.0000001
 44
0.0000000001
 40
0.0
 40
0.0
 40
0.0
 40
0.0
 40
0.2502175378
 40
0.5001095787
 40
0.7502397686
 40
1.0
 40
1.0
 40
1.0
 40
1.0
 10
607.4697666012
 20
359.9264275004
 30
0.0
 10
607.9161401578
 20
360.979508894
 30
0.0
 10
608.2587856147
 20
363.371280359
 30
0.0
 10
606.8416723283
 20
366.6776311888
 30
0.0
 10
603.9376523233
 20
368.7946330696
 30
0.0
 10
601.5291924082
 20
368.9979488742
 30
0.0
 10
600.4060490246
 20
368.7930070559
 30
0.0
  0
SPLINE
  5
64E
100
AcDbEntity
  8
02___PRT_ALL_AXES
100
AcDbSpline
 62
7
  6
CONTINUOUS
 70
0
 71
3
 72
9
 73
5
 74
0
 42
0.0000001
 43
0.0000001
 44
0.0000000001
 40
0.0
 40
0.0
 40
0.0
 40
0.0
 40
0.499995598
 40
1.0
 40
1.0
 40
1.0
 40
1.0
 10
1357.7627742527
 20
332.7938791637
 30
0.0
 10
1362.2361295926
 20
335.4323230206
 30
0.0
 10
1370.5237412641
 20
341.9314399721
 30
0.0
 10
1376.7257597664
 20
350.4438070888
 30
0.0
 10
1379.2040226166
 20
355.0079562001
 30
0.0
  0
SPLINE
  5
64F
100
AcDbEntity
  8
02___PRT_ALL_AXES
100
AcDbSpline
 62
7
  6
CONTINUOUS
 70
0
 71
3
 72
8
 73
4
 74
0
 42
0.0000001
 43
0.0000001
 44
0.0000000001
 40
0.0
 40
0.0
 40
0.0
 40
0.0
 40
1.0
 40
1.0
 40
1.0
 40
1.0
 10
1346.5140089091
 20
330.7797477296
 30
0.0
 10
1350.2622835139
 20
330.1010738121
 30
0.0
 10
1354.4827227452
 20
330.8570201325
 30
0.0
 10
1357.7627742527
 20
332.7938791637
 30
0.0
  0
SPLINE
  5
650
100
AcDbEntity
  8
02___PRT_ALL_AXES
100
AcDbSpline
 62
7
  6
CONTINUOUS
 70
0
 71
3
 72
9
 73
5
 74
0
 42
0.0000001
 43
0.0000001
 44
0.0000000001
 40
0.0
 40
0.0
 40
0.0
 40
0.0
 40
0.5008464327
 40
1.0
 40
1.0
 40
1.0
 40
1.0
 10
1075.9202248128
 20
385.1723346645
 30
0.0
 10
1075.9260523821
 20
383.7040990793
 30
0.0
 10
1076.994215258
 20
380.6740279587
 30
0.0
 10
1079.7955565376
 20
379.1022550729
 30
0.0
 10
1081.2362880641
 20
378.8463369513
 30
0.0
  0
SPLINE
  5
651
100
AcDbEntity
  8
02___PRT_ALL_AXES
100
AcDbSpline
 62
7
  6
CONTINUOUS
 70
0
 71
3
 72
9
 73
5
 74
0
 42
0.0000001
 43
0.0000001
 44
0.0000000001
 40
0.0
 40
0.0
 40
0.0
 40
0.0
 40
0.5007628351
 40
1.0
 40
1.0
 40
1.0
 40
1.0
 10
1083.184625695
 20
402.0956684301
 30
0.0
 10
1081.4290959321
 20
402.3241287878
 30
0.0
 10
1077.5389918963
 20
401.2051203888
 30
0.0
 10
1075.9196375414
 20
397.4941156876
 30
0.0
 10
1075.9203631307
 20
395.7291765101
 30
0.0
  0
SPLINE
  5
652
100
AcDbEntity
  8
02___PRT_ALL_AXES
100
AcDbSpline
 62
7
  6
CONTINUOUS
 70
0
 71
3
 72
9
 73
5
 74
0
 42
0.0000001
 43
0.0000001
 44
0.0000000001
 40
0.0
 40
0.0
 40
0.0
 40
0.0
 40
0.499880281
 40
1.0
 40
1.0
 40
1.0
 40
1.0
 10
1379.2040226166
 20
355.0079562001
 30
0.0
 10
1380.1480478861
 20
356.7573938839
 30
0.0
 10
1380.2701325108
 20
361.4914845693
 30
0.0
 10
1376.3565169753
 20
364.1485951593
 30
0.0
 10
1374.3847533145
 20
364.4086923783
 30
0.0
  0
SPLINE
  5
653
100
AcDbEntity
  8
02___PRT_ALL_AXES
100
AcDbSpline
 62
7
  6
CONTINUOUS
 70
0
 71
3
 72
9
 73
5
 74
0
 42
0.0000001
 43
0.0000001
 44
0.0000000001
 40
0.0
 40
0.0
 40
0.0
 40
0.0
 40
0.5002571897
 40
1.0
 40
1.0
 40
1.0
 40
1.0
 10
1080.4967683282
 20
359.933935548
 30
0.0
 10
1084.8016954303
 20
349.7244633461
 30
0.0
 10
1099.8536938637
 20
331.51241478
 30
0.0
 10
1122.4899318284
 20
324.8130553573
 30
0.0
 10
1133.5585049869
 20
324.8217328541
 30
0.0
  0
SPLINE
  5
654
100
AcDbEntity
  8
02___PRT_ALL_AXES
100
AcDbSpline
 62
7
  6
CONTINUOUS
 70
0
 71
3
 72
11
 73
7
 74
0
 42
0.0000001
 43
0.0000001
 44
0.0000000001
 40
0.0
 40
0.0
 40
0.0
 40
0.0
 40
0.2500887536
 40
0.4998234798
 40
0.7499410073
 40
1.0
 40
1.0
 40
1.0
 40
1.0
 10
1087.5571528176
 20
368.8010528301
 30
0.0
 10
1086.4326446591
 20
369.00647336
 30
0.0
 10
1084.0240787883
 20
368.8014930233
 30
0.0
 10
1081.1218840463
 20
366.6828976684
 30
0.0
 10
1079.7049907268
 20
363.3776300085
 30
0.0
 10
1080.0503369386
 20
360.9861257513
 30
0.0
 10
1080.4967683282
 20
359.933935548
 30
0.0
  0
SPLINE
  5
655
100
AcDbEntity
  8
02___PRT_ALL_AXES
100
AcDbSpline
 62
7
  6
CONTINUOUS
 70
0
 71
3
 72
9
 73
5
 74
0
 42
0.0000001
 43
0.0000001
 44
0.0000000001
 40
0.0
 40
0.0
 40
0.0
 40
0.0
 40
0.5007076333
 40
1.0
 40
1.0
 40
1.0
 40
1.0
 10
1378.9328278022
 20
372.6504964652
 30
0.0
 10
1380.6841169049
 20
372.4323684048
 30
0.0
 10
1384.5544472836
 20
373.5628843939
 30
0.0
 10
1386.1631098769
 20
377.2616371452
 30
0.0
 10
1386.1624908467
 20
379.021469771
 30
0.0
  0
SPLINE
  5
656
100
AcDbEntity
  8
02___PRT_ALL_AXES
100
AcDbSpline
 62
7
  6
CONTINUOUS
 70
0
 71
3
 72
9
 73
5
 74
0
 42
0.0000001
 43
0.0000001
 44
0.0000000001
 40
0.0
 40
0.0
 40
0.0
 40
0.0
 40
0.5006178461
 40
1.0
 40
1.0
 40
1.0
 40
1.0
 10
1075.9191897135
 20
417.5096815184
 30
0.0
 10
1075.925899146
 20
415.990504991
 30
0.0
 10
1077.0772038319
 20
412.8459534535
 30
0.0
 10
1080.0592969825
 20
411.3254480354
 30
0.0
 10
1081.5628446479
 20
411.1359558987
 30
0.0
  0
SPLINE
  5
657
100
AcDbEntity
  8
02___PRT_ALL_AXES
100
AcDbSpline
 62
7
  6
CONTINUOUS
 70
0
 71
3
 72
9
 73
5
 74
0
 42
0.0000001
 43
0.0000001
 44
0.0000000001
 40
0.0
 40
0.0
 40
0.0
 40
0.0
 40
0.5007376015
 40
1.0
 40
1.0
 40
1.0
 40
1.0
 10
1082.8521085102
 20
434.5447221868
 30
0.0
 10
1081.137972613
 20
434.679261634
 30
0.0
 10
1077.4354920694
 20
433.4513870635
 30
0.0
 10
1075.9184994863
 20
429.8577370786
 30
0.0
 10
1075.9192674591
 20
428.1433950585
 30
0.0
  0
SPLINE
  5
658
100
AcDbEntity
  8
02___PRT_ALL_AXES
100
AcDbSpline
 62
7
  6
CONTINUOUS
 70
0
 71
3
 72
9
 73
5
 74
0
 42
0.0000001
 43
0.0000001
 44
0.0000000001
 40
0.0
 40
0.0
 40
0.0
 40
0.0
 40
0.5007097611
 40
1.0
 40
1.0
 40
1.0
 40
1.0
 10
1386.1621273575
 20
405.0569642021
 30
0.0
 10
1386.1545217012
 20
406.6219306625
 30
0.0
 10
1384.9254837139
 20
409.8672056429
 30
0.0
 10
1381.7814476052
 20
411.3346900939
 30
0.0
 10
1380.2257537431
 20
411.4576828744
 30
0.0
  0
SPLINE
  5
659
100
AcDbEntity
  8
02___PRT_ALL_AXES
100
AcDbSpline
 62
7
  6
CONTINUOUS
 70
0
 71
3
 72
9
 73
5
 74
0
 42
0.0000001
 43
0.0000001
 44
0.0000000001
 40
0.0
 40
0.0
 40
0.0
 40
0.0
 40
0.5001684054
 40
1.0
 40
1.0
 40
1.0
 40
1.0
 10
1379.2561696193
 20
420.3166735209
 30
0.0
 10
1380.9642552004
 20
420.1945564777
 30
0.0
 10
1384.6506542835
 20
421.4216269582
 30
0.0
 10
1386.1546416459
 20
425.0045392401
 30
0.0
 10
1386.1614341042
 20
426.7158179132
 30
0.0
  0
SPLINE
  5
65A
100
AcDbEntity
  8
02___PRT_ALL_AXES
100
AcDbSpline
 62
7
  6
CONTINUOUS
 70
0
 71
3
 72
9
 73
5
 74
0
 42
0.0000001
 43
0.0000001
 44
0.0000000001
 40
0.0
 40
0.0
 40
0.0
 40
0.0
 40
0.5002377318
 40
1.0
 40
1.0
 40
1.0
 40
1.0
 10
1082.5280087882
 20
466.9088249119
 30
0.0
 10
1080.8607862256
 20
466.9516519864
 30
0.0
 10
1077.3399888163
 20
465.6380100084
 30
0.0
 10
1075.9238152
 20
462.1576516157
 30
0.0
 10
1075.9178139084
 20
460.4914750638
 30
0.0
  0
SPLINE
  5
65B
100
AcDbEntity
  8
02___PRT_ALL_AXES
100
AcDbSpline
 62
7
  6
CONTINUOUS
 70
0
 71
3
 72
9
 73
5
 74
0
 42
0.0000001
 43
0.0000001
 44
0.0000000001
 40
0.0
 40
0.0
 40
0.0
 40
0.0
 40
0.5003047467
 40
1.0
 40
1.0
 40
1.0
 40
1.0
 10
1386.160599228
 20
452.7935347098
 30
0.0
 10
1386.157271311
 20
454.4054978681
 30
0.0
 10
1384.8458769199
 20
457.7605719243
 30
0.0
 10
1381.5310209049
 20
459.1679618684
 30
0.0
 10
1379.9218111203
 20
459.2184887304
 30
0.0
  0
SPLINE
  5
65C
100
AcDbEntity
  8
02___PRT_ALL_AXES
100
AcDbSpline
 62
7
  6
CONTINUOUS
 70
0
 71
3
 72
9
 73
5
 74
0
 42
0.0000001
 43
0.0000001
 44
0.0000000001
 40
0.0
 40
0.0
 40
0.0
 40
0.0
 40
0.5007539195
 40
1.0
 40
1.0
 40
1.0
 40
1.0
 10
1379.5871895258
 20
467.9876982432
 30
0.0
 10
1381.2509227061
 20
467.9519136497
 30
0.0
 10
1384.7497232644
 20
469.2810959065
 30
0.0
 10
1386.1603651082
 20
472.7489432576
 30
0.0
 10
1386.1595520079
 20
474.4080501443
 30
0.0
  0
SPLINE
  5
65D
100
AcDbEntity
  8
02___PRT_ALL_AXES
100
AcDbSpline
 62
7
  6
CONTINUOUS
 70
0
 71
3
 72
9
 73
5
 74
0
 42
0.0000001
 43
0.0000001
 44
0.0000000001
 40
0.0
 40
0.0
 40
0.0
 40
0.0
 40
0.500705302
 40
1.0
 40
1.0
 40
1.0
 40
1.0
 10
1075.9175030531
 20
482.0965258396
 30
0.0
 10
1075.9196695004
 20
480.4776474057
 30
0.0
 10
1077.2498348655
 20
477.1117566804
 30
0.0
 10
1080.5853130248
 20
475.715023987
 30
0.0
 10
1082.1991968732
 20
475.677538725
 30
0.0
  0
SPLINE
  5
65E
100
AcDbEntity
  8
02___PRT_ALL_AXES
100
AcDbSpline
 62
7
  6
CONTINUOUS
 70
0
 71
3
 72
9
 73
5
 74
0
 42
0.0000001
 43
0.0000001
 44
0.0000000001
 40
0.0
 40
0.0
 40
0.0
 40
0.0
 40
0.5006913742
 40
1.0
 40
1.0
 40
1.0
 40
1.0
 10
1082.1929272497
 20
499.2134231006
 30
0.0
 10
1080.5752352538
 20
499.1736177482
 30
0.0
 10
1077.2430879132
 20
497.7709566603
 30
0.0
 10
1075.9162973536
 20
494.4066276216
 30
0.0
 10
1075.9170844762
 20
492.7929150582
 30
0.0
  0
SPLINE
  5
65F
100
AcDbEntity
  8
02___PRT_ALL_AXES
100
AcDbSpline
 62
7
  6
CONTINUOUS
 70
0
 71
3
 72
9
 73
5
 74
0
 42
0.0000001
 43
0.0000001
 44
0.0000000001
 40
0.0
 40
0.0
 40
0.0
 40
0.0
 40
0.500763099
 40
1.0
 40
1.0
 40
1.0
 40
1.0
 10
1386.1587031308
 20
500.5042425114
 30
0.0
 10
1386.1562389157
 20
502.1692075407
 30
0.0
 10
1384.7412727642
 20
505.638243342
 30
0.0
 10
1381.238638165
 20
506.9624702172
 30
0.0
 10
1379.5792242446
 20
506.9226152513
 30
0.0
  0
SPLINE
  5
660
100
AcDbEntity
  8
02___PRT_ALL_AXES
100
AcDbSpline
 62
7
  6
CONTINUOUS
 70
0
 71
3
 72
9
 73
5
 74
0
 42
0.0000001
 43
0.0000001
 44
0.0000000001
 40
0.0
 40
0.0
 40
0.0
 40
0.0
 40
0.5006785917
 40
1.0
 40
1.0
 40
1.0
 40
1.0
 10
1379.91751399
 20
515.6916863967
 30
0.0
 10
1381.5294664596
 20
515.7402233879
 30
0.0
 10
1384.8418646836
 20
517.1509284525
 30
0.0
 10
1386.1588155402
 20
520.5029713395
 30
0.0
 10
1386.1580804642
 20
522.1112827358
 30
0.0
  0
SPLINE
  5
661
100
AcDbEntity
  8
02___PRT_ALL_AXES
100
AcDbSpline
 62
7
  6
CONTINUOUS
 70
0
 71
3
 72
9
 73
5
 74
0
 42
0.0000001
 43
0.0000001
 44
0.0000000001
 40
0.0
 40
0.0
 40
0.0
 40
0.0
 40
0.5007747505
 40
1.0
 40
1.0
 40
1.0
 40
1.0
 10
1075.9164627638
 20
514.3999566116
 30
0.0
 10
1075.9189357217
 20
512.7294384113
 30
0.0
 10
1077.3443957338
 20
509.2470424843
 30
0.0
 10
1080.867085456
 20
507.9349357357
 30
0.0
 10
1082.5317569329
 20
507.982508243
 30
0.0
  0
SPLINE
  5
662
100
AcDbEntity
  8
02___PRT_ALL_AXES
100
AcDbSpline
 62
7
  6
CONTINUOUS
 70
0
 71
3
 72
9
 73
5
 74
0
 42
0.0000001
 43
0.0000001
 44
0.0000000001
 40
0.0
 40
0.0
 40
0.0
 40
0.0
 40
0.5006560489
 40
1.0
 40
1.0
 40
1.0
 40
1.0
 10
1081.8550962948
 20
531.4851756249
 30
0.0
 10
1080.2944223816
 20
531.3605551041
 30
0.0
 10
1077.1510736779
 20
529.8914106315
 30
0.0
 10
1075.9154326684
 20
526.6429733398
 30
0.0
 10
1075.9168881935
 20
525.0814356742
 30
0.0
  0
SPLINE
  5
663
100
AcDbEntity
  8
02___PRT_ALL_AXES
100
AcDbSpline
 62
7
  6
CONTINUOUS
 70
0
 71
3
 72
9
 73
5
 74
0
 42
0.0000001
 43
0.0000001
 44
0.0000000001
 40
0.0
 40
0.0
 40
0.0
 40
0.0
 40
0.5007184637
 40
1.0
 40
1.0
 40
1.0
 40
1.0
 10
1386.1571886886
 20
548.1915953772
 30
0.0
 10
1386.1542709949
 20
549.907385136
 30
0.0
 10
1384.6414642303
 20
553.492619588
 30
0.0
 10
1380.9516259795
 20
554.7221799247
 30
0.0
 10
1379.2456385117
 20
554.5930390595
 30
0.0
  0
SPLINE
  5
664
100
AcDbEntity
  8
02___PRT_ALL_AXES
100
AcDbSpline
 62
7
  6
CONTINUOUS
 70
0
 71
3
 72
9
 73
5
 74
0
 42
0.0000001
 43
0.0000001
 44
0.0000000001
 40
0.0
 40
0.0
 40
0.0
 40
0.0
 40
0.5006443101
 40
1.0
 40
1.0
 40
1.0
 40
1.0
 10
1380.252403785
 20
563.455023889
 30
0.0
 10
1381.807013397
 20
563.5874652372
 30
0.0
 10
1384.9317459412
 20
565.062962884
 30
0.0
 10
1386.1570482713
 20
568.2998285927
 30
0.0
 10
1386.1557265423
 20
569.8560530193
 30
0.0
  0
SPLINE
  5
665
100
AcDbEntity
  8
02___PRT_ALL_AXES
100
AcDbSpline
 62
7
  6
CONTINUOUS
 70
0
 71
3
 72
9
 73
5
 74
0
 42
0.0000001
 43
0.0000001
 44
0.0000000001
 40
0.0
 40
0.0
 40
0.0
 40
0.0
 40
0.500759271
 40
1.0
 40
1.0
 40
1.0
 40
1.0
 10
1075.9154153841
 20
546.7458972594
 30
0.0
 10
1075.9183125385
 20
545.0244817138
 30
0.0
 10
1077.4422005779
 20
541.4257984559
 30
0.0
 10
1081.1519752784
 20
540.2098555373
 30
0.0
 10
1082.8626666974
 20
540.3472230141
 30
0.0
  0
SPLINE
  5
666
100
AcDbEntity
  8
02___PRT_ALL_AXES
100
AcDbSpline
 62
7
  6
CONTINUOUS
 70
0
 71
3
 72
9
 73
5
 74
0
 42
0.0000001
 43
0.0000001
 44
0.0000000001
 40
0.0
 40
0.0
 40
0.0
 40
0.0
 40
0.5005822878
 40
1.0
 40
1.0
 40
1.0
 40
1.0
 10
1081.5284276883
 20
563.7513610272
 30
0.0
 10
1080.0265016718
 20
563.557108429
 30
0.0
 10
1077.0650297827
 20
562.0243234515
 30
0.0
 10
1075.914043339
 20
558.8913052932
 30
0.0
 10
1075.9157811515
 20
557.3803937269
 30
0.0
  0
SPLINE
  5
667
100
AcDbEntity
  8
02___PRT_ALL_AXES
100
AcDbSpline
 62
7
  6
CONTINUOUS
 70
0
 71
3
 72
9
 73
5
 74
0
 42
0.0000001
 43
0.0000001
 44
0.0000000001
 40
0.0
 40
0.0
 40
0.0
 40
0.0
 40
0.5006992905
 40
1.0
 40
1.0
 40
1.0
 40
1.0
 10
1386.1560191801
 20
595.8876674621
 30
0.0
 10
1386.1522930505
 20
597.6541675349
 30
0.0
 10
1384.540636601
 20
601.3566201117
 30
0.0
 10
1380.6633993834
 20
602.4810699373
 30
0.0
 10
1378.9159536739
 20
602.2584462186
 30
0.0
  0
SPLINE
  5
668
100
AcDbEntity
  8
02___PRT_ALL_AXES
100
AcDbSpline
 62
7
  6
CONTINUOUS
 70
0
 71
3
 72
9
 73
5
 74
0
 42
0.0000001
 43
0.0000001
 44
0.0000000001
 40
0.0
 40
0.0
 40
0.0
 40
0.0
 40
0.5007292072
 40
1.0
 40
1.0
 40
1.0
 40
1.0
 10
1075.9140158458
 20
579.1631342598
 30
0.0
 10
1075.9177155241
 20
577.3910981635
 30
0.0
 10
1077.5408214517
 20
573.6752027358
 30
0.0
 10
1081.4377356239
 20
572.5656483687
 30
0.0
 10
1083.1894153093
 20
572.7969031898
 30
0.0
  0
SPLINE
  5
669
100
AcDbEntity
  8
02___PRT_ALL_AXES
100
AcDbSpline
 62
7
  6
CONTINUOUS
 70
0
 71
3
 72
9
 73
5
 74
0
 42
0.0000001
 43
0.0000001
 44
0.0000000001
 40
0.0
 40
0.0
 40
0.0
 40
0.0
 40
0.5000114177
 40
1.0
 40
1.0
 40
1.0
 40
1.0
 10
1379.1847558281
 20
619.9228064915
 30
0.0
 10
1376.7058675349
 20
624.4823804051
 30
0.0
 10
1370.504945404
 20
632.9852742946
 30
0.0
 10
1362.2234826738
 20
639.4801233927
 30
0.0
 10
1357.7521696546
 20
642.1144166916
 30
0.0
  0
SPLINE
  5
66A
100
AcDbEntity
  8
02___PRT_ALL_AXES
100
AcDbSpline
 62
7
  6
CONTINUOUS
 70
0
 71
3
 72
11
 73
7
 74
0
 42
0.0000001
 43
0.0000001
 44
0.0000000001
 40
0.0
 40
0.0
 40
0.0
 40
0.0
 40
0.2500417365
 40
0.5001944613
 40
0.7503668205
 40
1.0
 40
1.0
 40
1.0
 40
1.0
 10
1248.9738233698
 20
635.3506897826
 30
0.0
 10
1250.7346012849
 20
635.668035569
 30
0.0
 10
1254.1287723349
 20
637.740120374
 30
0.0
 10
1255.7259628573
 20
643.3861247649
 30
0.0
 10
1253.1382444618
 20
648.6547738442
 30
0.0
 10
1249.430034151
 20
650.0694453458
 30
0.0
 10
1247.6438126076
 20
650.0722065481
 30
0.0
  0
SPLINE
  5
66B
100
AcDbEntity
  8
02___PRT_ALL_AXES
100
AcDbSpline
 62
7
  6
CONTINUOUS
 70
0
 71
3
 72
9
 73
5
 74
0
 42
0.0000001
 43
0.0000001
 44
0.0000000001
 40
0.0
 40
0.0
 40
0.0
 40
0.0
 40
0.500237455
 40
1.0
 40
1.0
 40
1.0
 40
1.0
 10
1133.5486096276
 20
650.0722509477
 30
0.0
 10
1122.4616719527
 20
650.0917797862
 30
0.0
 10
1099.7991252166
 20
643.3606654733
 30
0.0
 10
1084.783745128
 20
625.1169770623
 30
0.0
 10
1080.4701106444
 20
614.9150241739
 30
0.0
  0
SPLINE
  5
66C
100
AcDbEntity
  8
02___PRT_ALL_AXES
100
AcDbSpline
 62
7
  6
CONTINUOUS
 70
0
 71
3
 72
9
 73
5
 74
0
 42
0.0000001
 43
0.0000001
 44
0.0000000001
 40
0.0
 40
0.0
 40
0.0
 40
0.0
 40
0.5000869932
 40
1.0
 40
1.0
 40
1.0
 40
1.0
 10
706.0126523727
 20
555.0192999403
 30
0.0
 10
707.1031431818
 20
563.6922988402
 30
0.0
 10
715.0798484322
 20
580.78740024
 30
0.0
 10
731.8202884474
 20
589.5341493041
 30
0.0
 10
740.4395556618
 20
590.971213695
 30
0.0
  0
SPLINE
  5
66D
100
AcDbEntity
  8
02___PRT_ALL_AXES
100
AcDbSpline
 62
7
  6
CONTINUOUS
 70
0
 71
3
 72
9
 73
5
 74
0
 42
0.0000001
 43
0.0000001
 44
0.0000000001
 40
0.0
 40
0.0
 40
0.0
 40
0.0
 40
0.4999851329
 40
1.0
 40
1.0
 40
1.0
 40
1.0
 10
740.4395556618
 20
590.971213695
 30
0.0
 10
757.6084713159
 20
593.8316769608
 30
0.0
 10
792.1792883856
 20
598.2230906953
 30
0.0
 10
827.0012604826
 20
599.8952665688
 30
0.0
 10
844.4078669675
 20
599.895270823
 30
0.0
  0
SPLINE
  5
66E
100
AcDbEntity
  8
02___PRT_ALL_AXES
100
AcDbSpline
 62
7
  6
CONTINUOUS
 70
0
 71
3
 72
9
 73
5
 74
0
 42
0.0000001
 43
0.0000001
 44
0.0000000001
 40
0.0
 40
0.0
 40
0.0
 40
0.0
 40
0.4999129694
 40
1.0
 40
1.0
 40
1.0
 40
1.0
 10
948.3761782732
 20
590.971213695
 30
0.0
 10
956.9954353885
 20
589.5340926253
 30
0.0
 10
973.735862636
 20
580.7874260859
 30
0.0
 10
981.712644982
 20
563.6923063324
 30
0.0
 10
982.8030815622
 20
555.0192999403
 30
0.0
  0
SPLINE
  5
66F
100
AcDbEntity
  8
02___PRT_ALL_AXES
100
AcDbSpline
 62
7
  6
CONTINUOUS
 70
0
 71
3
 72
9
 73
5
 74
0
 42
0.0000001
 43
0.0000001
 44
0.0000000001
 40
0.0
 40
0.0
 40
0.0
 40
0.0
 40
0.5000149333
 40
1.0
 40
1.0
 40
1.0
 40
1.0
 10
844.4078669675
 20
599.895270823
 30
0.0
 10
861.8144757541
 20
599.8952663876
 30
0.0
 10
896.6364478903
 20
598.2230905624
 30
0.0
 10
931.2072647631
 20
593.8316757884
 30
0.0
 10
948.3761782732
 20
590.971213695
 30
0.0
  0
SPLINE
  5
670
100
AcDbEntity
  8
02___PRT_ALL_AXES
100
AcDbSpline
 62
7
  6
CONTINUOUS
 70
0
 71
3
 72
9
 73
5
 74
0
 42
0.0000001
 43
0.0000001
 44
0.0000000001
 40
0.0
 40
0.0
 40
0.0
 40
0.0
 40
0.1834880813
 40
1.0
 40
1.0
 40
1.0
 40
1.0
 10
1057.7595657019
 20
697.8464112914
 30
0.0
 10
1057.7731162772
 20
697.4228214095
 30
0.0
 10
1057.8291186954
 20
695.1137363921
 30
0.0
 10
1057.855291985
 20
692.8040638024
 30
0.0
 10
1057.8703711506
 20
690.9182080611
 30
0.0
  0
SPLINE
  5
671
100
AcDbEntity
  8
02___PRT_ALL_AXES
100
AcDbSpline
 62
7
  6
CONTINUOUS
 70
0
 71
3
 72
9
 73
5
 74
0
 42
0.0000001
 43
0.0000001
 44
0.0000000001
 40
0.0
 40
0.0
 40
0.0
 40
0.0
 40
0.1834880813
 40
1.0
 40
1.0
 40
1.0
 40
1.0
 10
631.056168233
 20
697.8464112914
 30
0.0
 10
631.0426176578
 20
697.4228214095
 30
0.0
 10
630.9866152396
 20
695.1137363921
 30
0.0
 10
630.9604419499
 20
692.8040638024
 30
0.0
 10
630.9453627844
 20
690.9182080611
 30
0.0
  0
SPLINE
  5
672
100
AcDbEntity
  8
02___PRT_ALL_AXES
100
AcDbSpline
 62
7
  6
CONTINUOUS
 70
0
 71
3
 72
9
 73
5
 74
0
 42
0.0000001
 43
0.0000001
 44
0.0000000001
 40
0.0
 40
0.0
 40
0.0
 40
0.0
 40
0.1834881185
 40
1.0
 40
1.0
 40
1.0
 40
1.0
 10
299.4078669675
 20
700.4987558483
 30
0.0
 10
299.394316452
 20
700.0751658785
 30
0.0
 10
299.3383141945
 20
697.7660808586
 30
0.0
 10
299.3121407317
 20
695.4564082725
 30
0.0
 10
299.2970615189
 20
693.570552618
 30
0.0
  0
SPLINE
  5
673
100
AcDbEntity
  8
02___PRT_ALL_AXES
100
AcDbSpline
 62
7
  6
CONTINUOUS
 70
0
 71
3
 72
9
 73
5
 74
0
 42
0.0000001
 43
0.0000001
 44
0.0000000001
 40
0.0
 40
0.0
 40
0.0
 40
0.0
 40
0.1834880812
 40
1.0
 40
1.0
 40
1.0
 40
1.0
 10
299.4078669675
 20
274.3771746728
 30
0.0
 10
299.3943164124
 20
274.8007645552
 30
0.0
 10
299.3383140412
 20
277.1098495733
 30
0.0
 10
299.312140685
 20
279.4195221618
 30
0.0
 10
299.2970615189
 20
281.3053779031
 30
0.0
  0
SPLINE
  5
674
100
AcDbEntity
  8
02___PRT_ALL_AXES
100
AcDbSpline
 62
7
  6
CONTINUOUS
 70
0
 71
3
 72
9
 73
5
 74
0
 42
0.0000001
 43
0.0000001
 44
0.0000000001
 40
0.0
 40
0.0
 40
0.0
 40
0.0
 40
0.1834880813
 40
1.0
 40
1.0
 40
1.0
 40
1.0
 10
631.056168233
 20
277.0295192297
 30
0.0
 10
631.0426176578
 20
277.4531091116
 30
0.0
 10
630.9866152396
 20
279.762194129
 30
0.0
 10
630.9604419499
 20
282.0718667187
 30
0.0
 10
630.9453627844
 20
283.95772246
 30
0.0
  0
SPLINE
  5
675
100
AcDbEntity
  8
02___PRT_ALL_AXES
100
AcDbSpline
 62
7
  6
CONTINUOUS
 70
0
 71
3
 72
9
 73
5
 74
0
 42
0.0000001
 43
0.0000001
 44
0.0000000001
 40
0.0
 40
0.0
 40
0.0
 40
0.0
 40
0.1834880813
 40
1.0
 40
1.0
 40
1.0
 40
1.0
 10
1057.7595657019
 20
277.0295192297
 30
0.0
 10
1057.7731162772
 20
277.4531091116
 30
0.0
 10
1057.8291186954
 20
279.762194129
 30
0.0
 10
1057.855291985
 20
282.0718667187
 30
0.0
 10
1057.8703711506
 20
283.95772246
 30
0.0
  0
SPLINE
  5
676
100
AcDbEntity
  8
02___PRT_ALL_AXES
100
AcDbSpline
 62
7
  6
CONTINUOUS
 70
0
 71
3
 72
9
 73
5
 74
0
 42
0.0000001
 43
0.0000001
 44
0.0000000001
 40
0.0
 40
0.0
 40
0.0
 40
0.0
 40
0.1834881185
 40
1.0
 40
1.0
 40
1.0
 40
1.0
 10
1389.4078669675
 20
274.3771746728
 30
0.0
 10
1389.421417483
 20
274.8007646426
 30
0.0
 10
1389.4774197404
 20
277.1098496625
 30
0.0
 10
1389.5035932033
 20
279.4195222486
 30
0.0
 10
1389.5186724161
 20
281.3053779031
 30
0.0
  0
SPLINE
  5
677
100
AcDbEntity
  8
02___PRT_ALL_AXES
100
AcDbSpline
 62
7
  6
CONTINUOUS
 70
0
 71
3
 72
9
 73
5
 74
0
 42
0.0000001
 43
0.0000001
 44
0.0000000001
 40
0.0
 40
0.0
 40
0.0
 40
0.0
 40
0.1834880812
 40
1.0
 40
1.0
 40
1.0
 40
1.0
 10
1389.4078669675
 20
700.4987558483
 30
0.0
 10
1389.4214175226
 20
700.0751659659
 30
0.0
 10
1389.4774198938
 20
697.7660809478
 30
0.0
 10
1389.5035932499
 20
695.4564083593
 30
0.0
 10
1389.5186724161
 20
693.570552618
 30
0.0
  0
SPLINE
  5
678
100
AcDbEntity
  8
02___PRT_ALL_AXES
100
AcDbSpline
 62
7
  6
CONTINUOUS
 70
0
 71
3
 72
9
 73
5
 74
0
 42
0.0000001
 43
0.0000001
 44
0.0000000001
 40
0.0
 40
0.0
 40
0.0
 40
0.0
 40
0.2759041289
 40
1.0
 40
1.0
 40
1.0
 40
1.0
 10
1081.8939552881
 20
414.1073264925
 30
0.0
 10
1081.8764593232
 20
413.9721074097
 30
0.0
 10
1081.813754264
 20
413.4819230883
 30
0.0
 10
1081.7531352125
 20
412.9914610953
 30
0.0
 10
1081.7120733542
 20
412.6359912034
 30
0.0
  0
SPLINE
  5
679
100
AcDbEntity
  8
02___PRT_ALL_AXES
100
AcDbSpline
 62
7
  6
CONTINUOUS
 70
0
 71
3
 72
9
 73
5
 74
0
 42
0.0000001
 43
0.0000001
 44
0.0000000001
 40
0.0
 40
0.0
 40
0.0
 40
0.0
 40
0.275749953
 40
1.0
 40
1.0
 40
1.0
 40
1.0
 10
1082.5996093206
 20
431.5630533603
 30
0.0
 10
1082.6101700023
 20
431.6992923061
 30
0.0
 10
1082.6491874203
 20
432.1933017154
 30
0.0
 10
1082.6902998148
 20
432.6871568124
 30
0.0
 10
1082.7229621379
 20
433.0445689464
 30
0.0
  0
SPLINE
  5
67A
100
AcDbEntity
  8
02___PRT_ALL_AXES
100
AcDbSpline
 62
7
  6
CONTINUOUS
 70
0
 71
3
 72
9
 73
5
 74
0
 42
0.0000001
 43
0.0000001
 44
0.0000000001
 40
0.0
 40
0.0
 40
0.0
 40
0.0
 40
0.500215515
 40
1.0
 40
1.0
 40
1.0
 40
1.0
 10
1133.5258259476
 20
647.0810534496
 30
0.0
 10
1123.0158763889
 20
647.098632812
 30
0.0
 10
1101.5331842125
 20
640.7143151817
 30
0.0
 10
1087.2985357649
 20
623.4197859529
 30
0.0
 10
1083.209421891
 20
613.747753312
 30
0.0
  0
SPLINE
  5
67B
100
AcDbEntity
  8
02___PRT_ALL_AXES
100
AcDbSpline
 62
7
  6
CONTINUOUS
 70
0
 71
3
 72
9
 73
5
 74
0
 42
0.0000001
 43
0.0000001
 44
0.0000000001
 40
0.0
 40
0.0
 40
0.0
 40
0.0
 40
0.4994683324
 40
1.0
 40
1.0
 40
1.0
 40
1.0
 10
1083.209421891
 20
613.747753312
 30
0.0
 10
1082.7533840045
 20
612.6682414857
 30
0.0
 10
1083.0889745456
 20
609.7830495735
 30
0.0
 10
1085.8354604485
 20
608.8178920087
 30
0.0
 10
1086.9902254485
 20
609.031638953
 30
0.0
  0
SPLINE
  5
67C
100
AcDbEntity
  8
02___PRT_ALL_AXES
100
AcDbSpline
 62
7
  6
CONTINUOUS
 70
0
 71
3
 72
11
 73
7
 74
0
 42
0.0000001
 43
0.0000001
 44
0.0000000001
 40
0.0
 40
0.0
 40
0.0
 40
0.0
 40
0.2498425929
 40
0.4998022351
 40
0.7501221814
 40
1.0
 40
1.0
 40
1.0
 40
1.0
 10
1248.4233957261
 20
638.293471919
 30
0.0
 10
1249.47405129
 20
638.4819790711
 30
0.0
 10
1251.498547577
 20
639.7201173448
 30
0.0
 10
1252.4519727351
 20
643.0890558554
 30
0.0
 10
1250.9063566501
 20
646.2370386997
 30
0.0
 10
1248.6894023017
 20
647.0794078023
 30
0.0
 10
1247.621820585
 20
647.0810375339
 30
0.0
  0
SPLINE
  5
67D
100
AcDbEntity
  8
02___PRT_ALL_AXES
100
AcDbSpline
 62
7
  6
CONTINUOUS
 70
0
 71
3
 72
9
 73
5
 74
0
 42
0.0000001
 43
0.0000001
 44
0.0000000001
 40
0.0
 40
0.0
 40
0.0
 40
0.0
 40
0.5000103623
 40
1.0
 40
1.0
 40
1.0
 40
1.0
 10
1376.540161183
 20
618.4981930428
 30
0.0
 10
1374.1892444538
 20
622.821708584
 30
0.0
 10
1368.3092491493
 20
630.8848586493
 30
0.0
 10
1360.4551005343
 20
637.0423936886
 30
0.0
 10
1356.214828899
 20
639.5399294503
 30
0.0
  0
SPLINE
  5
67E
100
AcDbEntity
  8
02___PRT_ALL_AXES
100
AcDbSpline
 62
7
  6
CONTINUOUS
 70
0
 71
3
 72
8
 73
4
 74
0
 42
0.0000001
 43
0.0000001
 44
0.0000000001
 40
0.0
 40
0.0
 40
0.0
 40
0.0
 40
1.0
 40
1.0
 40
1.0
 40
1.0
 10
1356.214828899
 20
639.5399294503
 30
0.0
 10
1353.5319917328
 20
641.1220243997
 30
0.0
 10
1350.0813476369
 20
641.7414596131
 30
0.0
 10
1347.0169532432
 20
641.184569418
 30
0.0
  0
SPLINE
  5
67F
100
AcDbEntity
  8
02___PRT_ALL_AXES
100
AcDbSpline
 62
7
  6
CONTINUOUS
 70
0
 71
3
 72
9
 73
5
 74
0
 42
0.0000001
 43
0.0000001
 44
0.0000000001
 40
0.0
 40
0.0
 40
0.0
 40
0.0
 40
0.4996841667
 40
1.0
 40
1.0
 40
1.0
 40
1.0
 10
1081.716752923
 20
593.0957412184
 30
0.0
 10
1080.9491014578
 20
592.956649476
 30
0.0
 10
1079.4624817506
 20
592.1143163705
 30
0.0
 10
1078.8900368758
 20
590.5011292204
 30
0.0
 10
1078.8910052431
 20
589.7199927983
 30
0.0
  0
SPLINE
  5
680
100
AcDbEntity
  8
02___PRT_ALL_AXES
100
AcDbSpline
 62
7
  6
CONTINUOUS
 70
0
 71
3
 72
9
 73
5
 74
0
 42
0.0000001
 43
0.0000001
 44
0.0000000001
 40
0.0
 40
0.0
 40
0.0
 40
0.0
 40
0.500186468
 40
1.0
 40
1.0
 40
1.0
 40
1.0
 10
1078.8904593998
 20
579.1705550855
 30
0.0
 10
1078.8925069322
 20
578.2239672658
 30
0.0
 10
1079.7518441639
 20
576.2357398194
 30
0.0
 10
1081.8377738261
 20
575.6359570106
 30
0.0
 10
1082.7753147799
 20
575.7613124955
 30
0.0
  0
SPLINE
  5
681
100
AcDbEntity
  8
02___PRT_ALL_AXES
100
AcDbSpline
 62
7
  6
CONTINUOUS
 70
0
 71
3
 72
9
 73
5
 74
0
 42
0.0000001
 43
0.0000001
 44
0.0000000001
 40
0.0
 40
0.0
 40
0.0
 40
0.0
 40
0.5002025851
 40
1.0
 40
1.0
 40
1.0
 40
1.0
 10
1383.1503688786
 20
595.8801827103
 30
0.0
 10
1383.1483335995
 20
596.8233935096
 30
0.0
 10
1382.2961563977
 20
598.8031574617
 30
0.0
 10
1380.2223745353
 20
599.4123177907
 30
0.0
 10
1379.2876515415
 20
599.2918893604
 30
0.0
  0
SPLINE
  5
682
100
AcDbEntity
  8
02___PRT_ALL_AXES
100
AcDbSpline
 62
7
  6
CONTINUOUS
 70
0
 71
3
 72
9
 73
5
 74
0
 42
0.0000001
 43
0.0000001
 44
0.0000000001
 40
0.0
 40
0.0
 40
0.0
 40
0.0
 40
0.499651047
 40
1.0
 40
1.0
 40
1.0
 40
1.0
 10
1081.8945963992
 20
560.7845273489
 30
0.0
 10
1081.0933029096
 20
560.6801116604
 30
0.0
 10
1079.508426643
 20
559.8670715691
 30
0.0
 10
1078.8912931896
 20
558.1907967165
 30
0.0
 10
1078.8921298407
 20
557.3816004505
 30
0.0
  0
SPLINE
  5
683
100
AcDbEntity
  8
02___PRT_ALL_AXES
100
AcDbSpline
 62
7
  6
CONTINUOUS
 70
0
 71
3
 72
9
 73
5
 74
0
 42
0.0000001
 43
0.0000001
 44
0.0000000001
 40
0.0
 40
0.0
 40
0.0
 40
0.0
 40
0.4999109005
 40
1.0
 40
1.0
 40
1.0
 40
1.0
 10
1078.8918252667
 20
546.7484778479
 30
0.0
 10
1078.8938533861
 20
545.8308362895
 30
0.0
 10
1079.7027013928
 20
543.9105783776
 30
0.0
 10
1081.6838664098
 20
543.2530165574
 30
0.0
 10
1082.5987667282
 20
543.3280364781
 30
0.0
  0
SPLINE
  5
684
100
AcDbEntity
  8
02___PRT_ALL_AXES
100
AcDbSpline
 62
7
  6
CONTINUOUS
 70
0
 71
3
 72
9
 73
5
 74
0
 42
0.0000001
 43
0.0000001
 44
0.0000000001
 40
0.0
 40
0.0
 40
0.0
 40
0.0
 40
0.4997572039
 40
1.0
 40
1.0
 40
1.0
 40
1.0
 10
1379.9826043804
 20
566.4353789629
 30
0.0
 10
1380.8137159904
 20
566.5052311563
 30
0.0
 10
1382.4904002583
 20
567.2853456972
 30
0.0
 10
1383.1508467003
 20
569.0202532214
 30
0.0
 10
1383.1501644552
 20
569.8551052125
 30
0.0
  0
SPLINE
  5
685
100
AcDbEntity
  8
02___PRT_ALL_AXES
100
AcDbSpline
 62
7
  6
CONTINUOUS
 70
0
 71
3
 72
9
 73
5
 74
0
 42
0.0000001
 43
0.0000001
 44
0.0000000001
 40
0.0
 40
0.0
 40
0.0
 40
0.0
 40
0.4999230589
 40
1.0
 40
1.0
 40
1.0
 40
1.0
 10
1383.1515677491
 20
548.1889909726
 30
0.0
 10
1383.1495472175
 20
549.1036678321
 30
0.0
 10
1382.3466663662
 20
551.0168871629
 30
0.0
 10
1380.3762598531
 20
551.6809458812
 30
0.0
 10
1379.4640094708
 20
551.6105739197
 30
0.0
  0
SPLINE
  5
686
100
AcDbEntity
  8
02___PRT_ALL_AXES
100
AcDbSpline
 62
7
  6
CONTINUOUS
 70
0
 71
3
 72
9
 73
5
 74
0
 42
0.0000001
 43
0.0000001
 44
0.0000000001
 40
0.0
 40
0.0
 40
0.0
 40
0.0
 40
0.4997556945
 40
1.0
 40
1.0
 40
1.0
 40
1.0
 10
1082.072949406
 20
528.5030537857
 30
0.0
 10
1081.2397158632
 20
528.4359223877
 30
0.0
 10
1079.5562877694
 20
527.6583114819
 30
0.0
 10
1078.8925436638
 20
525.9191262462
 30
0.0
 10
1078.8932305434
 20
525.0823757692
 30
0.0
  0
SPLINE
  5
687
100
AcDbEntity
  8
02___PRT_ALL_AXES
100
AcDbSpline
 62
7
  6
CONTINUOUS
 70
0
 71
3
 72
9
 73
5
 74
0
 42
0.0000001
 43
0.0000001
 44
0.0000000001
 40
0.0
 40
0.0
 40
0.0
 40
0.0
 40
0.4999105177
 40
1.0
 40
1.0
 40
1.0
 40
1.0
 10
1078.8928718971
 20
514.4022229222
 30
0.0
 10
1078.8943402689
 20
513.51189444
 30
0.0
 10
1079.6507946385
 20
511.6538180137
 30
0.0
 10
1081.5312572013
 20
510.9454282745
 30
0.0
 10
1082.4215031043
 20
510.9722023207
 30
0.0
  0
SPLINE
  5
688
100
AcDbEntity
  8
02___PRT_ALL_AXES
100
AcDbSpline
 62
7
  6
CONTINUOUS
 70
0
 71
3
 72
9
 73
5
 74
0
 42
0.0000001
 43
0.0000001
 44
0.0000000001
 40
0.0
 40
0.0
 40
0.0
 40
0.0
 40
0.5000265865
 40
1.0
 40
1.0
 40
1.0
 40
1.0
 10
1379.8087397732
 20
518.6814188298
 30
0.0
 10
1380.6701014789
 20
518.706182057
 30
0.0
 10
1382.4442806656
 20
519.4534526035
 30
0.0
 10
1383.1536400311
 20
521.2479176875
 30
0.0
 10
1383.1524542942
 20
522.1095428267
 30
0.0
  0
SPLINE
  5
689
100
AcDbEntity
  8
02___PRT_ALL_AXES
100
AcDbSpline
 62
7
  6
CONTINUOUS
 70
0
 71
3
 72
9
 73
5
 74
0
 42
0.0000001
 43
0.0000001
 44
0.0000000001
 40
0.0
 40
0.0
 40
0.0
 40
0.0
 40
0.4999070528
 40
1.0
 40
1.0
 40
1.0
 40
1.0
 10
1383.1530828009
 20
500.5019554696
 30
0.0
 10
1383.1516160876
 20
501.3895014296
 30
0.0
 10
1382.4004815039
 20
503.2412399343
 30
0.0
 10
1380.5300041254
 20
503.9545225263
 30
0.0
 10
1379.6424093743
 20
503.93212825
 30
0.0
  0
SPLINE
  5
68A
100
AcDbEntity
  8
02___PRT_ALL_AXES
100
AcDbSpline
 62
7
  6
CONTINUOUS
 70
0
 71
3
 72
9
 73
5
 74
0
 42
0.0000001
 43
0.0000001
 44
0.0000000001
 40
0.0
 40
0.0
 40
0.0
 40
0.0
 40
0.4999996925
 40
1.0
 40
1.0
 40
1.0
 40
1.0
 10
1082.2428022455
 20
496.2225736911
 30
0.0
 10
1081.3805631378
 20
496.2008254882
 30
0.0
 10
1079.6031927313
 20
495.4528609733
 30
0.0
 10
1078.8923102045
 20
493.6571531332
 30
0.0
 10
1078.893500218
 20
492.7946395523
 30
0.0
  0
SPLINE
  5
68B
100
AcDbEntity
  8
02___PRT_ALL_AXES
100
AcDbSpline
 62
7
  6
CONTINUOUS
 70
0
 71
3
 72
9
 73
5
 74
0
 42
0.0000001
 43
0.0000001
 44
0.0000000001
 40
0.0
 40
0.0
 40
0.0
 40
0.0
 40
0.5000240156
 40
1.0
 40
1.0
 40
1.0
 40
1.0
 10
1078.8939118921
 20
482.0984892421
 30
0.0
 10
1078.8950997257
 20
481.2354204981
 30
0.0
 10
1079.6016057268
 20
479.4396058661
 30
0.0
 10
1081.3815554722
 20
478.6869039193
 30
0.0
 10
1082.2443385993
 20
478.6681623813
 30
0.0
  0
SPLINE
  5
68C
100
AcDbEntity
  8
02___PRT_ALL_AXES
100
AcDbSpline
 62
7
  6
CONTINUOUS
 70
0
 71
3
 72
9
 73
5
 74
0
 42
0.0000001
 43
0.0000001
 44
0.0000000001
 40
0.0
 40
0.0
 40
0.0
 40
0.0
 40
0.4999005076
 40
1.0
 40
1.0
 40
1.0
 40
1.0
 10
1379.6325385938
 20
470.9783165351
 30
0.0
 10
1380.5211628717
 20
470.9580630122
 30
0.0
 10
1382.3948495649
 20
471.6604679295
 30
0.0
 10
1383.1551654428
 20
473.5170859621
 30
0.0
 10
1383.1539301724
 20
474.406293969
 30
0.0
  0
SPLINE
  5
68D
100
AcDbEntity
  8
02___PRT_ALL_AXES
100
AcDbSpline
 62
7
  6
CONTINUOUS
 70
0
 71
3
 72
9
 73
5
 74
0
 42
0.0000001
 43
0.0000001
 44
0.0000000001
 40
0.0
 40
0.0
 40
0.0
 40
0.0
 40
0.499824752
 40
1.0
 40
1.0
 40
1.0
 40
1.0
 10
1383.1549492216
 20
452.7860903273
 30
0.0
 10
1383.1523534187
 20
453.6497176307
 30
0.0
 10
1382.4570904209
 20
455.4538395084
 30
0.0
 10
1380.6744263173
 20
456.1997760036
 30
0.0
 10
1379.8106775469
 20
456.2288162282
 30
0.0
  0
SPLINE
  5
68E
100
AcDbEntity
  8
02___PRT_ALL_AXES
100
AcDbSpline
 62
7
  6
CONTINUOUS
 70
0
 71
3
 72
9
 73
5
 74
0
 42
0.0000001
 43
0.0000001
 44
0.0000000001
 40
0.0
 40
0.0
 40
0.0
 40
0.0
 40
0.4998567573
 40
1.0
 40
1.0
 40
1.0
 40
1.0
 10
1082.4341072137
 20
463.9187068185
 30
0.0
 10
1081.5414171799
 20
463.9402819947
 30
0.0
 10
1079.6506579245
 20
463.2443679756
 30
0.0
 10
1078.8996998949
 20
461.37519496
 30
0.0
 10
1078.8942576451
 20
460.481749036
 30
0.0
  0
SPLINE
  5
68F
100
AcDbEntity
  8
02___PRT_ALL_AXES
100
AcDbSpline
 62
7
  6
CONTINUOUS
 70
0
 71
3
 72
9
 73
5
 74
0
 42
0.0000001
 43
0.0000001
 44
0.0000000001
 40
0.0
 40
0.0
 40
0.0
 40
0.0
 40
0.4998486203
 40
1.0
 40
1.0
 40
1.0
 40
1.0
 10
1379.4519686071
 20
423.3005076254
 30
0.0
 10
1380.3675036839
 20
423.2346117991
 30
0.0
 10
1382.3503418662
 20
423.8825803208
 30
0.0
 10
1383.1495677706
 20
425.8088388658
 30
0.0
 10
1383.1557834773
 20
426.7272772555
 30
0.0
  0
SPLINE
  5
690
100
AcDbEntity
  8
02___PRT_ALL_AXES
100
AcDbSpline
 62
7
  6
CONTINUOUS
 70
0
 71
3
 72
9
 73
5
 74
0
 42
0.0000001
 43
0.0000001
 44
0.0000000001
 40
0.0
 40
0.0
 40
0.0
 40
0.0
 40
0.4997505051
 40
1.0
 40
1.0
 40
1.0
 40
1.0
 10
1383.1564772899
 20
405.0445139997
 30
0.0
 10
1383.1526274638
 20
405.8816316736
 30
0.0
 10
1382.5025131769
 20
407.6239353726
 30
0.0
 10
1380.8143360231
 20
408.4094074203
 30
0.0
 10
1379.9789871889
 20
408.4755381502
 30
0.0
  0
SPLINE
  5
691
100
AcDbEntity
  8
02___PRT_ALL_AXES
100
AcDbSpline
 62
7
  6
CONTINUOUS
 70
0
 71
3
 72
9
 73
5
 74
0
 42
0.0000001
 43
0.0000001
 44
0.0000000001
 40
0.0
 40
0.0
 40
0.0
 40
0.0
 40
0.4998932979
 40
1.0
 40
1.0
 40
1.0
 40
1.0
 10
1082.5996093202
 20
431.5630533603
 30
0.0
 10
1081.685580914
 20
431.6338874426
 30
0.0
 10
1079.7093870565
 20
430.9819341746
 30
0.0
 10
1078.894276421
 20
429.0622830155
 30
0.0
 10
1078.8956731686
 20
428.1451237135
 30
0.0
  0
SPLINE
  5
692
100
AcDbEntity
  8
02___PRT_ALL_AXES
100
AcDbSpline
 62
7
  6
CONTINUOUS
 70
0
 71
3
 72
9
 73
5
 74
0
 42
0.0000001
 43
0.0000001
 44
0.0000000001
 40
0.0
 40
0.0
 40
0.0
 40
0.0
 40
0.5006311928
 40
1.0
 40
1.0
 40
1.0
 40
1.0
 10
1078.8956329507
 20
417.5206186103
 30
0.0
 10
1078.8989910505
 20
416.7061077664
 30
0.0
 10
1079.5102237141
 20
415.0170084384
 30
0.0
 10
1081.1125350125
 20
414.2054678757
 30
0.0
 10
1081.9186542332
 20
414.1041299686
 30
0.0
  0
SPLINE
  5
693
100
AcDbEntity
  8
02___PRT_ALL_AXES
100
AcDbSpline
 62
7
  6
CONTINUOUS
 70
0
 71
3
 72
9
 73
5
 74
0
 42
0.0000001
 43
0.0000001
 44
0.0000000001
 40
0.0
 40
0.0
 40
0.0
 40
0.0
 40
0.5001713974
 40
1.0
 40
1.0
 40
1.0
 40
1.0
 10
1379.2834614486
 20
375.6193404608
 30
0.0
 10
1380.2194067088
 20
375.5018735671
 30
0.0
 10
1382.2914734895
 20
376.0966471022
 30
0.0
 10
1383.1582282242
 20
378.0771243081
 30
0.0
 10
1383.1568779022
 20
379.0197647221
 30
0.0
  0
SPLINE
  5
694
100
AcDbEntity
  8
02___PRT_ALL_AXES
100
AcDbSpline
 62
7
  6
CONTINUOUS
 70
0
 71
3
 72
9
 73
5
 74
0
 42
0.0000001
 43
0.0000001
 44
0.0000000001
 40
0.0
 40
0.0
 40
0.0
 40
0.0
 40
0.4999968547
 40
1.0
 40
1.0
 40
1.0
 40
1.0
 10
1356.2245671977
 20
335.367873539
 30
0.0
 10
1360.4669085255
 20
337.8694542796
 30
0.0
 10
1368.3275571888
 20
344.0308834452
 30
0.0
 10
1374.2080528991
 20
352.1037680652
 30
0.0
 10
1376.5588050861
 20
356.4315782077
 30
0.0
  0
SPLINE
  5
695
100
AcDbEntity
  8
02___PRT_ALL_AXES
100
AcDbSpline
 62
7
  6
CONTINUOUS
 70
0
 71
3
 72
9
 73
5
 74
0
 42
0.0000001
 43
0.0000001
 44
0.0000000001
 40
0.0
 40
0.0
 40
0.0
 40
0.0
 40
0.4992249645
 40
1.0
 40
1.0
 40
1.0
 40
1.0
 10
1376.5588050861
 20
356.4315782077
 30
0.0
 10
1377.0619432495
 20
357.363046435
 30
0.0
 10
1377.1187369109
 20
359.8868375574
 30
0.0
 10
1375.0338250109
 20
361.3054214391
 30
0.0
 10
1373.9807954739
 20
361.4428282029
 30
0.0
  0
SPLINE
  5
696
100
AcDbEntity
  8
02___PRT_ALL_AXES
100
AcDbSpline
 62
7
  6
CONTINUOUS
 70
0
 71
3
 72
9
 73
5
 74
0
 42
0.0000001
 43
0.0000001
 44
0.0000000001
 40
0.0
 40
0.0
 40
0.0
 40
0.0
 40
0.5001703509
 40
1.0
 40
1.0
 40
1.0
 40
1.0
 10
1082.782198433
 20
399.1297473558
 30
0.0
 10
1081.8448354107
 20
399.2506702608
 30
0.0
 10
1079.7659853242
 20
398.6601240298
 30
0.0
 10
1078.8954081394
 20
396.6753522794
 30
0.0
 10
1078.8967637369
 20
395.7308664836
 30
0.0
  0
SPLINE
  5
697
100
AcDbEntity
  8
02___PRT_ALL_AXES
100
AcDbSpline
 62
7
  6
CONTINUOUS
 70
0
 71
3
 72
9
 73
5
 74
0
 42
0.0000001
 43
0.0000001
 44
0.0000000001
 40
0.0
 40
0.0
 40
0.0
 40
0.0
 40
0.5005804878
 40
1.0
 40
1.0
 40
1.0
 40
1.0
 10
1078.8966680931
 20
385.1823412733
 30
0.0
 10
1078.8995103637
 20
384.3959465618
 30
0.0
 10
1079.4661623637
 20
382.7699422844
 30
0.0
 10
1080.9697623206
 20
381.9287218369
 30
0.0
 10
1081.7423111943
 20
381.7918726073
 30
0.0
  0
SPLINE
  5
698
100
AcDbEntity
  8
02___PRT_ALL_AXES
100
AcDbSpline
 62
7
  6
CONTINUOUS
 70
0
 71
3
 72
8
 73
4
 74
0
 42
0.0000001
 43
0.0000001
 44
0.0000000001
 40
0.0
 40
0.0
 40
0.0
 40
0.0
 40
1.0
 40
1.0
 40
1.0
 40
1.0
 10
1347.026736686
 20
333.7240430644
 30
0.0
 10
1350.0912578265
 20
333.1681997249
 30
0.0
 10
1353.542281662
 20
333.7849661052
 30
0.0
 10
1356.2245671977
 20
335.367873539
 30
0.0
  0
SPLINE
  5
699
100
AcDbEntity
  8
02___PRT_ALL_AXES
100
AcDbSpline
 62
7
  6
CONTINUOUS
 70
0
 71
3
 72
9
 73
5
 74
0
 42
0.0000001
 43
0.0000001
 44
0.0000000001
 40
0.0
 40
0.0
 40
0.0
 40
0.0
 40
0.4991805665
 40
1.0
 40
1.0
 40
1.0
 40
1.0
 10
1086.9978588439
 20
365.8596799676
 30
0.0
 10
1085.840183551
 20
366.0699596977
 30
0.0
 10
1083.0763222195
 20
365.1012296062
 30
0.0
 10
1082.7687335731
 20
362.1942921073
 30
0.0
 10
1083.2320344394
 20
361.1085263128
 30
0.0
  0
SPLINE
  5
69A
100
AcDbEntity
  8
02___PRT_ALL_AXES
100
AcDbSpline
 62
7
  6
CONTINUOUS
 70
0
 71
3
 72
9
 73
5
 74
0
 42
0.0000001
 43
0.0000001
 44
0.0000000001
 40
0.0
 40
0.0
 40
0.0
 40
0.0
 40
0.5002383044
 40
1.0
 40
1.0
 40
1.0
 40
1.0
 10
1083.2320344394
 20
361.1085263128
 30
0.0
 10
1087.313165377
 20
351.4291592851
 30
0.0
 10
1101.5814723875
 20
334.1611208575
 30
0.0
 10
1123.04222778
 20
327.8056818327
 30
0.0
 10
1133.5367766755
 20
327.8129343038
 30
0.0
  0
SPLINE
  5
69B
100
AcDbEntity
  8
02___PRT_ALL_AXES
100
AcDbSpline
 62
7
  6
CONTINUOUS
 70
0
 71
3
 72
11
 73
7
 74
0
 42
0.0000001
 43
0.0000001
 44
0.0000000001
 40
0.0
 40
0.0
 40
0.0
 40
0.0
 40
0.2498572217
 40
0.5000502684
 40
0.7503195014
 40
1.0
 40
1.0
 40
1.0
 40
1.0
 10
1247.637579842
 20
327.8207344378
 30
0.0
 10
1248.7047763534
 20
327.8246079517
 30
0.0
 10
1250.9190833522
 20
328.6685762767
 30
0.0
 10
1252.4622189464
 20
331.8164779673
 30
0.0
 10
1251.5067267258
 20
335.1868997342
 30
0.0
 10
1249.4801569892
 20
336.4171635262
 30
0.0
 10
1248.4310197653
 20
336.6085373509
 30
0.0
  0
SPLINE
  5
69C
100
AcDbEntity
  8
02___PRT_ALL_AXES
100
AcDbSpline
 62
7
  6
CONTINUOUS
 70
0
 71
3
 72
9
 73
5
 74
0
 42
0.0000001
 43
0.0000001
 44
0.0000000001
 40
0.0
 40
0.0
 40
0.0
 40
0.0
 40
0.5002523728
 40
1.0
 40
1.0
 40
1.0
 40
1.0
 10
604.7466434379
 20
613.7402467939
 30
0.0
 10
600.6617582324
 20
623.4246449357
 30
0.0
 10
586.407593336
 20
640.712541286
 30
0.0
 10
564.9298910425
 20
647.0890544761
 30
0.0
 10
554.429856331
 20
647.071566303
 30
0.0
  0
SPLINE
  5
69D
100
AcDbEntity
  8
02___PRT_ALL_AXES
100
AcDbSpline
 62
7
  6
CONTINUOUS
 70
0
 71
3
 72
11
 73
7
 74
0
 42
0.0000001
 43
0.0000001
 44
0.0000000001
 40
0.0
 40
0.0
 40
0.0
 40
0.0
 40
0.2499241831
 40
0.5001404153
 40
0.7502069871
 40
1.0
 40
1.0
 40
1.0
 40
1.0
 10
440.3311582243
 20
647.0681169965
 30
0.0
 10
439.2635318578
 20
647.064821837
 30
0.0
 10
437.0477471619
 20
646.2223915108
 30
0.0
 10
435.5037984517
 20
643.0739862635
 30
0.0
 10
436.4576548818
 20
639.7056493811
 30
0.0
 10
438.4826880771
 20
638.4686785059
 30
0.0
 10
439.53302481
 20
638.2804405872
 30
0.0
  0
SPLINE
  5
69E
100
AcDbEntity
  8
02___PRT_ALL_AXES
100
AcDbSpline
 62
7
  6
CONTINUOUS
 70
0
 71
3
 72
9
 73
5
 74
0
 42
0.0000001
 43
0.0000001
 44
0.0000000001
 40
0.0
 40
0.0
 40
0.0
 40
0.0
 40
0.4994142764
 40
1.0
 40
1.0
 40
1.0
 40
1.0
 10
600.9602291939
 20
609.0250256432
 30
0.0
 10
602.1139442632
 20
608.8147944011
 30
0.0
 10
604.8625287748
 20
609.7637473308
 30
0.0
 10
605.2044939482
 20
612.6576167422
 30
0.0
 10
604.7466434379
 20
613.7402467939
 30
0.0
  0
SPLINE
  5
69F
100
AcDbEntity
  8
02___PRT_ALL_AXES
100
AcDbSpline
 62
7
  6
CONTINUOUS
 70
0
 71
3
 72
9
 73
5
 74
0
 42
0.0000001
 43
0.0000001
 44
0.0000000001
 40
0.0
 40
0.0
 40
0.0
 40
0.0
 40
0.5004885631
 40
1.0
 40
1.0
 40
1.0
 40
1.0
 10
609.067067992
 20
589.7108483872
 30
0.0
 10
609.0662317245
 20
590.4910654528
 30
0.0
 10
608.4983144424
 20
592.098880352
 30
0.0
 10
607.0169127835
 20
592.9512593039
 30
0.0
 10
606.2500624628
 20
593.0865565193
 30
0.0
  0
SPLINE
  5
6A0
100
AcDbEntity
  8
02___PRT_ALL_AXES
100
AcDbSpline
 62
7
  6
CONTINUOUS
 70
0
 71
3
 72
8
 73
4
 74
0
 42
0.0000001
 43
0.0000001
 44
0.0000000001
 40
0.0
 40
0.0
 40
0.0
 40
0.0
 40
1.0
 40
1.0
 40
1.0
 40
1.0
 10
340.9390503557
 20
641.1682551021
 30
0.0
 10
337.8744785012
 20
641.7245853662
 30
0.0
 10
334.4237721866
 20
641.1062625507
 30
0.0
 10
331.7408488932
 20
639.5241669102
 30
0.0
  0
SPLINE
  5
6A1
100
AcDbEntity
  8
02___PRT_ALL_AXES
100
AcDbSpline
 62
7
  6
CONTINUOUS
 70
0
 71
3
 72
9
 73
5
 74
0
 42
0.0000001
 43
0.0000001
 44
0.0000000001
 40
0.0
 40
0.0
 40
0.0
 40
0.0
 40
0.4999935114
 40
1.0
 40
1.0
 40
1.0
 40
1.0
 10
331.7408488932
 20
639.5241669102
 30
0.0
 10
327.4998172071
 20
637.0242640365
 30
0.0
 10
319.6420186942
 20
630.8652911693
 30
0.0
 10
313.7633271042
 20
622.7965122217
 30
0.0
 10
311.4115924285
 20
618.4714149686
 30
0.0
  0
SPLINE
  5
6A2
100
AcDbEntity
  8
02___PRT_ALL_AXES
100
AcDbSpline
 62
7
  6
CONTINUOUS
 70
0
 71
3
 72
9
 73
5
 74
0
 42
0.0000001
 43
0.0000001
 44
0.0000000001
 40
0.0
 40
0.0
 40
0.0
 40
0.0
 40
0.4999787552
 40
1.0
 40
1.0
 40
1.0
 40
1.0
 10
311.4115924285
 20
618.4714149686
 30
0.0
 10
310.9075792123
 20
617.5359481917
 30
0.0
 10
310.8393553923
 20
615.0046414895
 30
0.0
 10
312.9341746173
 20
613.5894677815
 30
0.0
 10
313.9876059218
 20
613.4494612802
 30
0.0
  0
SPLINE
  5
6A3
100
AcDbEntity
  8
02___PRT_ALL_AXES
100
AcDbSpline
 62
7
  6
CONTINUOUS
 70
0
 71
3
 72
9
 73
5
 74
0
 42
0.0000001
 43
0.0000001
 44
0.0000000001
 40
0.0
 40
0.0
 40
0.0
 40
0.0
 40
0.4999784707
 40
1.0
 40
1.0
 40
1.0
 40
1.0
 10
605.1891204452
 20
575.7532380779
 30
0.0
 10
606.1251407534
 20
575.6311977815
 30
0.0
 10
608.2031190933
 20
576.2290131231
 30
0.0
 10
609.0652590357
 20
578.2109724388
 30
0.0
 10
609.0670972175
 20
579.1549946586
 30
0.0
  0
SPLINE
  5
6A4
100
AcDbEntity
  8
02___PRT_ALL_AXES
100
AcDbSpline
 62
7
  6
CONTINUOUS
 70
0
 71
3
 72
9
 73
5
 74
0
 42
0.0000001
 43
0.0000001
 44
0.0000000001
 40
0.0
 40
0.0
 40
0.0
 40
0.0
 40
0.5005442143
 40
1.0
 40
1.0
 40
1.0
 40
1.0
 10
609.0671043853
 20
557.3725606673
 30
0.0
 10
609.066167723
 20
558.180680489
 30
0.0
 10
608.4537714884
 20
559.8508932337
 30
0.0
 10
606.8745436751
 20
560.6748467354
 30
0.0
 10
606.0744911985
 20
560.7755319239
 30
0.0
  0
SPLINE
  5
6A5
100
AcDbEntity
  8
02___PRT_ALL_AXES
100
AcDbSpline
 62
7
  6
CONTINUOUS
 70
0
 71
3
 72
9
 73
5
 74
0
 42
0.0000001
 43
0.0000001
 44
0.0000000001
 40
0.0
 40
0.0
 40
0.0
 40
0.0
 40
0.4999978576
 40
1.0
 40
1.0
 40
1.0
 40
1.0
 10
308.6813397647
 20
599.2736672078
 30
0.0
 10
307.7454170252
 20
599.3922882528
 30
0.0
 10
305.670176062
 20
598.7959948848
 30
0.0
 10
304.8090608413
 20
596.8144014546
 30
0.0
 10
304.8072253961
 20
595.8709852091
 30
0.0
  0
SPLINE
  5
6A6
100
AcDbEntity
  8
02___PRT_ALL_AXES
100
AcDbSpline
 62
7
  6
CONTINUOUS
 70
0
 71
3
 72
9
 73
5
 74
0
 42
0.0000001
 43
0.0000001
 44
0.0000000001
 40
0.0
 40
0.0
 40
0.0
 40
0.0
 40
0.499847418
 40
1.0
 40
1.0
 40
1.0
 40
1.0
 10
605.3511245866
 20
543.3211046901
 30
0.0
 10
606.2682958947
 20
543.2518736091
 30
0.0
 10
608.2580350101
 20
543.8958210167
 30
0.0
 10
609.0611328992
 20
545.8264035376
 30
0.0
 10
609.0673842606
 20
546.7467243363
 30
0.0
  0
SPLINE
  5
6A7
100
AcDbEntity
  8
02___PRT_ALL_AXES
100
AcDbSpline
 62
7
  6
CONTINUOUS
 70
0
 71
3
 72
9
 73
5
 74
0
 42
0.0000001
 43
0.0000001
 44
0.0000000001
 40
0.0
 40
0.0
 40
0.0
 40
0.0
 40
0.4998486211
 40
1.0
 40
1.0
 40
1.0
 40
1.0
 10
308.5108635421
 20
551.5925628517
 30
0.0
 10
307.595330541
 20
551.6584879882
 30
0.0
 10
305.6124715476
 20
551.0105828797
 30
0.0
 10
304.8131840048
 20
549.0843497971
 30
0.0
 10
304.8069389739
 20
548.1659115748
 30
0.0
  0
SPLINE
  5
6A8
100
AcDbEntity
  8
02___PRT_ALL_AXES
100
AcDbSpline
 62
7
  6
CONTINUOUS
 70
0
 71
3
 72
9
 73
5
 74
0
 42
0.0000001
 43
0.0000001
 44
0.0000000001
 40
0.0
 40
0.0
 40
0.0
 40
0.0
 40
0.4998247529
 40
1.0
 40
1.0
 40
1.0
 40
1.0
 10
304.8069391548
 20
522.1070984848
 30
0.0
 10
304.8095073631
 20
521.2434711282
 30
0.0
 10
305.5047126696
 20
519.4393271073
 30
0.0
 10
307.2873528291
 20
518.6933336166
 30
0.0
 10
308.1511006371
 20
518.664265748
 30
0.0
  0
SPLINE
  5
6A9
100
AcDbEntity
  8
02___PRT_ALL_AXES
100
AcDbSpline
 62
7
  6
CONTINUOUS
 70
0
 71
3
 72
9
 73
5
 74
0
 42
0.0000001
 43
0.0000001
 44
0.0000000001
 40
0.0
 40
0.0
 40
0.0
 40
0.0
 40
0.4998567579
 40
1.0
 40
1.0
 40
1.0
 40
1.0
 10
605.5274246837
 20
510.9648569112
 30
0.0
 10
606.4201139977
 20
510.943253164
 30
0.0
 10
608.3108954653
 20
511.6391066149
 30
0.0
 10
609.0619133409
 20
513.5082554821
 30
0.0
 10
609.0673842573
 20
514.4017012004
 30
0.0
  0
SPLINE
  5
6AA
100
AcDbEntity
  8
02___PRT_ALL_AXES
100
AcDbSpline
 62
7
  6
CONTINUOUS
 70
0
 71
3
 72
9
 73
5
 74
0
 42
0.0000001
 43
0.0000001
 44
0.0000000001
 40
0.0
 40
0.0
 40
0.0
 40
0.0
 40
0.4998214233
 40
1.0
 40
1.0
 40
1.0
 40
1.0
 10
609.9225103941
 20
492.7846560744
 30
0.0
 10
609.9191583141
 20
493.6501308189
 30
0.0
 10
609.217670993
 20
495.4569794097
 30
0.0
 10
607.4274865353
 20
496.1995223693
 30
0.0
 10
606.5617108944
 20
496.223211786
 30
0.0
  0
SPLINE
  5
6AB
100
AcDbEntity
  8
02___PRT_ALL_AXES
100
AcDbSpline
 62
7
  6
CONTINUOUS
 70
0
 71
3
 72
9
 73
5
 74
0
 42
0.0000001
 43
0.0000001
 44
0.0000000001
 40
0.0
 40
0.0
 40
0.0
 40
0.0
 40
0.4998576634
 40
1.0
 40
1.0
 40
1.0
 40
1.0
 10
309.1837968384
 20
503.9321867915
 30
0.0
 10
308.2929412963
 20
503.9498492686
 30
0.0
 10
306.4101124165
 20
503.246135085
 30
0.0
 10
305.6666294242
 20
501.3804669384
 30
0.0
 10
305.6623115381
 20
500.4889393282
 30
0.0
  0
SPLINE
  5
6AC
100
AcDbEntity
  8
02___PRT_ALL_AXES
100
AcDbSpline
 62
7
  6
CONTINUOUS
 70
0
 71
3
 72
9
 73
5
 74
0
 42
0.0000001
 43
0.0000001
 44
0.0000000001
 40
0.0
 40
0.0
 40
0.0
 40
0.0
 40
0.4998840959
 40
1.0
 40
1.0
 40
1.0
 40
1.0
 10
305.6614768547
 20
474.4158897383
 30
0.0
 10
305.6653247394
 20
473.5248359843
 30
0.0
 10
306.4142354002
 20
471.6592583705
 30
0.0
 10
308.2972162525
 20
470.9618878519
 30
0.0
 10
309.1885375714
 20
470.9784547466
 30
0.0
  0
SPLINE
  5
6AD
100
AcDbEntity
  8
02___PRT_ALL_AXES
100
AcDbSpline
 62
7
  6
CONTINUOUS
 70
0
 71
3
 72
9
 73
5
 74
0
 42
0.0000001
 43
0.0000001
 44
0.0000000001
 40
0.0
 40
0.0
 40
0.0
 40
0.0
 40
0.4997903119
 40
1.0
 40
1.0
 40
1.0
 40
1.0
 10
606.5655810907
 20
478.6680119989
 30
0.0
 10
607.4306587427
 20
478.6922586586
 30
0.0
 10
609.2203378184
 20
479.4369124046
 30
0.0
 10
609.9187723279
 20
481.2444721887
 30
0.0
 10
609.9221685786
 20
482.1106090874
 30
0.0
  0
SPLINE
  5
6AE
100
AcDbEntity
  8
02___PRT_ALL_AXES
100
AcDbSpline
 62
7
  6
CONTINUOUS
 70
0
 71
3
 72
9
 73
5
 74
0
 42
0.0000001
 43
0.0000001
 44
0.0000000001
 40
0.0
 40
0.0
 40
0.0
 40
0.0
 40
0.4999105145
 40
1.0
 40
1.0
 40
1.0
 40
1.0
 10
609.0670441514
 20
460.4812272671
 30
0.0
 10
609.0656043319
 20
461.3715558237
 30
0.0
 10
608.3092095007
 20
463.2296565844
 30
0.0
 10
606.4287695331
 20
463.9381065826
 30
0.0
 10
605.5385227343
 20
463.9113610298
 30
0.0
  0
SPLINE
  5
6AF
100
AcDbEntity
  8
02___PRT_ALL_AXES
100
AcDbSpline
 62
7
  6
CONTINUOUS
 70
0
 71
3
 72
9
 73
5
 74
0
 42
0.0000001
 43
0.0000001
 44
0.0000000001
 40
0.0
 40
0.0
 40
0.0
 40
0.0
 40
0.5000265822
 40
1.0
 40
1.0
 40
1.0
 40
1.0
 10
308.1510394779
 20
456.2116631168
 30
0.0
 10
307.2896769502
 20
456.1869274545
 30
0.0
 10
305.5154737635
 20
455.4397136484
 30
0.0
 10
304.8060570043
 20
453.6452711359
 30
0.0
 10
304.8072152189
 20
452.7836459146
 30
0.0
  0
SPLINE
  5
6B0
100
AcDbEntity
  8
02___PRT_ALL_AXES
100
AcDbSpline
 62
7
  6
CONTINUOUS
 70
0
 71
3
 72
9
 73
5
 74
0
 42
0.0000001
 43
0.0000001
 44
0.0000000001
 40
0.0
 40
0.0
 40
0.0
 40
0.0
 40
0.4999230591
 40
1.0
 40
1.0
 40
1.0
 40
1.0
 10
304.8072670287
 20
426.7041977535
 30
0.0
 10
304.8092583439
 20
425.7895208679
 30
0.0
 10
305.6120780098
 20
423.8762759801
 30
0.0
 10
307.5824631707
 20
423.2121542534
 30
0.0
 10
308.4947157667
 20
423.2824970081
 30
0.0
  0
SPLINE
  5
6B1
100
AcDbEntity
  8
02___PRT_ALL_AXES
100
AcDbSpline
 62
7
  6
CONTINUOUS
 70
0
 71
3
 72
9
 73
5
 74
0
 42
0.0000001
 43
0.0000001
 44
0.0000000001
 40
0.0
 40
0.0
 40
0.0
 40
0.0
 40
0.4997556945
 40
1.0
 40
1.0
 40
1.0
 40
1.0
 10
605.8865152927
 20
446.3804984163
 30
0.0
 10
606.7197509529
 20
446.4476031382
 30
0.0
 10
608.4032038724
 20
447.2251600938
 30
0.0
 10
609.067003704
 20
448.9643239698
 30
0.0
 10
609.0663436612
 20
449.8010744371
 30
0.0
  0
SPLINE
  5
6B2
100
AcDbEntity
  8
02___PRT_ALL_AXES
100
AcDbSpline
 62
7
  6
CONTINUOUS
 70
0
 71
3
 72
9
 73
5
 74
0
 42
0.0000001
 43
0.0000001
 44
0.0000000001
 40
0.0
 40
0.0
 40
0.0
 40
0.0
 40
0.4998776922
 40
1.0
 40
1.0
 40
1.0
 40
1.0
 10
609.0673840956
 20
428.122286424
 30
0.0
 10
609.0637909564
 20
429.0420963712
 30
0.0
 10
608.2640645613
 20
430.974218038
 30
0.0
 10
606.2759554814
 20
431.6226468885
 30
0.0
 10
605.35815074
 20
431.5553716906
 30
0.0
  0
SPLINE
  5
6B3
100
AcDbEntity
  8
02___PRT_ALL_AXES
100
AcDbSpline
 62
7
  6
CONTINUOUS
 70
0
 71
3
 72
9
 73
5
 74
0
 42
0.0000001
 43
0.0000001
 44
0.0000000001
 40
0.0
 40
0.0
 40
0.0
 40
0.0
 40
0.5005871533
 40
1.0
 40
1.0
 40
1.0
 40
1.0
 10
307.970405163
 20
408.4573014861
 30
0.0
 10
307.1380906242
 20
408.3905813982
 30
0.0
 10
305.462776396
 20
407.6008910711
 30
0.0
 10
304.8084891894
 20
405.8693000402
 30
0.0
 10
304.8070574197
 20
405.0362755581
 30
0.0
  0
SPLINE
  5
6B4
100
AcDbEntity
  8
02___PRT_ALL_AXES
100
AcDbSpline
 62
7
  6
CONTINUOUS
 70
0
 71
3
 72
9
 73
5
 74
0
 42
0.0000001
 43
0.0000001
 44
0.0000000001
 40
0.0
 40
0.0
 40
0.0
 40
0.0
 40
0.4999979932
 40
1.0
 40
1.0
 40
1.0
 40
1.0
 10
304.8073421044
 20
379.0043259416
 30
0.0
 10
304.8083891305
 20
378.0612047371
 30
0.0
 10
305.6706772619
 20
376.0795552451
 30
0.0
 10
307.7442333566
 20
375.4854898068
 30
0.0
 10
308.6801252522
 20
375.6021060259
 30
0.0
  0
SPLINE
  5
6B5
100
AcDbEntity
  8
02___PRT_ALL_AXES
100
AcDbSpline
 62
7
  6
CONTINUOUS
 70
0
 71
3
 72
9
 73
5
 74
0
 42
0.0000001
 43
0.0000001
 44
0.0000000001
 40
0.0
 40
0.0
 40
0.0
 40
0.0
 40
0.4995607782
 40
1.0
 40
1.0
 40
1.0
 40
1.0
 10
606.0712271733
 20
414.0999760601
 30
0.0
 10
606.8718280974
 20
414.2021682521
 30
0.0
 10
608.4534022708
 20
415.0229170827
 30
0.0
 10
609.0658162828
 20
416.6952886905
 30
0.0
 10
609.0672239278
 20
417.50380339
 30
0.0
  0
SPLINE
  5
6B6
100
AcDbEntity
  8
02___PRT_ALL_AXES
100
AcDbSpline
 62
7
  6
CONTINUOUS
 70
0
 71
3
 72
9
 73
5
 74
0
 42
0.0000001
 43
0.0000001
 44
0.0000000001
 40
0.0
 40
0.0
 40
0.0
 40
0.0
 40
0.5000132021
 40
1.0
 40
1.0
 40
1.0
 40
1.0
 10
609.0669801982
 20
395.721548127
 30
0.0
 10
609.0659302715
 20
396.665556682
 30
0.0
 10
608.2020643156
 20
398.6478350542
 30
0.0
 10
606.1246294484
 20
399.2440114684
 30
0.0
 10
605.188493761
 20
399.1227303362
 30
0.0
  0
SPLINE
  5
6B7
100
AcDbEntity
  8
02___PRT_ALL_AXES
100
AcDbSpline
 62
7
  6
CONTINUOUS
 70
0
 71
3
 72
9
 73
5
 74
0
 42
0.0000001
 43
0.0000001
 44
0.0000000001
 40
0.0
 40
0.0
 40
0.0
 40
0.0
 40
0.5000990363
 40
1.0
 40
1.0
 40
1.0
 40
1.0
 10
313.9906554951
 20
361.4268639848
 30
0.0
 10
312.9369544464
 20
361.2876245206
 30
0.0
 10
310.8402486841
 20
359.8737215328
 30
0.0
 10
310.908503102
 20
357.3437258702
 30
0.0
 10
311.4100440525
 20
356.4071173454
 30
0.0
  0
SPLINE
  5
6B8
100
AcDbEntity
  8
02___PRT_ALL_AXES
100
AcDbSpline
 62
7
  6
CONTINUOUS
 70
0
 71
3
 72
9
 73
5
 74
0
 42
0.0000001
 43
0.0000001
 44
0.0000000001
 40
0.0
 40
0.0
 40
0.0
 40
0.0
 40
0.5000054255
 40
1.0
 40
1.0
 40
1.0
 40
1.0
 10
311.4100440525
 20
356.4071173454
 30
0.0
 10
313.7613133292
 20
352.0811825866
 30
0.0
 10
319.6411946468
 20
344.0117363976
 30
0.0
 10
327.499560055
 20
337.85203996
 30
0.0
 10
331.740876796
 20
335.3515682307
 30
0.0
  0
SPLINE
  5
6B9
100
AcDbEntity
  8
02___PRT_ALL_AXES
100
AcDbSpline
 62
7
  6
CONTINUOUS
 70
0
 71
3
 72
8
 73
4
 74
0
 42
0.0000001
 43
0.0000001
 44
0.0000000001
 40
0.0
 40
0.0
 40
0.0
 40
0.0
 40
1.0
 40
1.0
 40
1.0
 40
1.0
 10
331.740876796
 20
335.3515682307
 30
0.0
 10
334.4235622844
 20
333.7690920629
 30
0.0
 10
337.8744489946
 20
333.1518854205
 30
0.0
 10
340.9390925128
 20
333.7077562309
 30
0.0
  0
SPLINE
  5
6BA
100
AcDbEntity
  8
02___PRT_ALL_AXES
100
AcDbSpline
 62
7
  6
CONTINUOUS
 70
0
 71
3
 72
9
 73
5
 74
0
 42
0.0000001
 43
0.0000001
 44
0.0000000001
 40
0.0
 40
0.0
 40
0.0
 40
0.0
 40
0.4996488331
 40
1.0
 40
1.0
 40
1.0
 40
1.0
 10
606.2487842817
 20
381.7891423523
 30
0.0
 10
607.015800935
 20
381.9261856841
 30
0.0
 10
608.4984728262
 20
382.7761447724
 30
0.0
 10
609.0659033591
 20
384.3852823387
 30
0.0
 10
609.0671835917
 20
385.1655398059
 30
0.0
  0
SPLINE
  5
6BB
100
AcDbEntity
  8
02___PRT_ALL_AXES
100
AcDbSpline
 62
7
  6
CONTINUOUS
 70
0
 71
3
 72
11
 73
7
 74
0
 42
0.0000001
 43
0.0000001
 44
0.0000000001
 40
0.0
 40
0.0
 40
0.0
 40
0.0
 40
0.2496864489
 40
0.4994360905
 40
0.7499175781
 40
1.0
 40
1.0
 40
1.0
 40
1.0
 10
439.5301825907
 20
336.5949748323
 30
0.0
 10
438.4809896484
 20
336.4054494032
 30
0.0
 10
436.4596153756
 20
335.1700043798
 30
0.0
 10
435.503546621
 20
331.8057675801
 30
0.0
 10
437.0439437382
 20
328.6554312763
 30
0.0
 10
439.2603143541
 20
327.8125645406
 30
0.0
 10
440.3281680093
 20
327.8078135935
 30
0.0
  0
SPLINE
  5
6BC
100
AcDbEntity
  8
02___PRT_ALL_AXES
100
AcDbSpline
 62
7
  6
CONTINUOUS
 70
0
 71
3
 72
9
 73
5
 74
0
 42
0.0000001
 43
0.0000001
 44
0.0000000001
 40
0.0
 40
0.0
 40
0.0
 40
0.0
 40
0.5002306806
 40
1.0
 40
1.0
 40
1.0
 40
1.0
 10
554.4296913969
 20
327.8042216885
 30
0.0
 10
564.939957302
 20
327.78828255
 30
0.0
 10
586.4184457283
 20
334.1704446044
 30
0.0
 10
600.6671369152
 20
351.4603290768
 30
0.0
 10
604.7465697239
 20
361.1360978087
 30
0.0
  0
SPLINE
  5
6BD
100
AcDbEntity
  8
02___PRT_ALL_AXES
100
AcDbSpline
 62
7
  6
CONTINUOUS
 70
0
 71
3
 72
9
 73
5
 74
0
 42
0.0000001
 43
0.0000001
 44
0.0000000001
 40
0.0
 40
0.0
 40
0.0
 40
0.0
 40
0.2757566868
 40
1.0
 40
1.0
 40
1.0
 40
1.0
 10
1380.0002442351
 20
408.473887826
 30
0.0
 10
1380.0108181803
 20
408.6101071207
 30
0.0
 10
1380.0498825933
 20
409.1040331466
 30
0.0
 10
1380.0910545844
 20
409.5978035746
 30
0.0
 10
1380.1237542548
 20
409.9551511758
 30
0.0
  0
SPLINE
  5
6BE
100
AcDbEntity
  8
02___PRT_ALL_AXES
100
AcDbSpline
 62
7
  6
CONTINUOUS
 70
0
 71
3
 72
9
 73
5
 74
0
 42
0.0000001
 43
0.0000001
 44
0.0000000001
 40
0.0
 40
0.0
 40
0.0
 40
0.0
 40
0.2758870934
 40
1.0
 40
1.0
 40
1.0
 40
1.0
 10
1379.2951878423
 20
375.6178228374
 30
0.0
 10
1379.2761139003
 20
375.482842012
 30
0.0
 10
1379.2090870634
 20
374.9932733901
 30
0.0
 10
1379.1529776629
 20
374.5022957222
 30
0.0
 10
1379.11332929
 20
374.1466993037
 30
0.0
  0
SPLINE
  5
6BF
100
AcDbEntity
  8
02___PRT_ALL_AXES
100
AcDbSpline
 62
7
  6
CONTINUOUS
 70
0
 71
3
 72
9
 73
5
 74
0
 42
0.0000001
 43
0.0000001
 44
0.0000000001
 40
0.0
 40
0.0
 40
0.0
 40
0.0
 40
0.2758676579
 40
1.0
 40
1.0
 40
1.0
 40
1.0
 10
1082.0677665839
 20
446.3887265423
 30
0.0
 10
1082.0572096594
 20
446.2527192391
 30
0.0
 10
1082.0196584528
 20
445.7596488917
 30
0.0
 10
1081.9842124814
 20
445.2664072204
 30
0.0
 10
1081.9614181991
 20
444.9090504171
 30
0.0
  0
SPLINE
  5
6C0
100
AcDbEntity
  8
02___PRT_ALL_AXES
100
AcDbSpline
 62
7
  6
CONTINUOUS
 70
0
 71
3
 72
9
 73
5
 74
0
 42
0.0000001
 43
0.0000001
 44
0.0000000001
 40
0.0
 40
0.0
 40
0.0
 40
0.0
 40
0.2757802316
 40
1.0
 40
1.0
 40
1.0
 40
1.0
 10
1082.4216683695
 20
463.9190284758
 30
0.0
 10
1082.4258683275
 20
464.055486086
 30
0.0
 10
1082.4412207136
 20
464.55028624
 30
0.0
 10
1082.4549209546
 20
465.0451494149
 30
0.0
 10
1082.4685649654
 20
465.4034074075
 30
0.0
  0
SPLINE
  5
6C1
100
AcDbEntity
  8
02___PRT_ALL_AXES
100
AcDbSpline
 62
7
  6
CONTINUOUS
 70
0
 71
3
 72
9
 73
5
 74
0
 42
0.0000001
 43
0.0000001
 44
0.0000000001
 40
0.0
 40
0.0
 40
0.0
 40
0.0
 40
0.2757936807
 40
1.0
 40
1.0
 40
1.0
 40
1.0
 10
1379.8219142109
 20
456.2285256582
 30
0.0
 10
1379.8254448527
 20
456.3650383344
 30
0.0
 10
1379.8389666997
 20
456.8599991689
 30
0.0
 10
1379.8546447967
 20
457.3549115215
 30
0.0
 10
1379.8688225932
 20
457.7132194867
 30
0.0
  0
SPLINE
  5
6C2
100
AcDbEntity
  8
02___PRT_ALL_AXES
100
AcDbSpline
 62
7
  6
CONTINUOUS
 70
0
 71
3
 72
9
 73
5
 74
0
 42
0.0000001
 43
0.0000001
 44
0.0000000001
 40
0.0
 40
0.0
 40
0.0
 40
0.0
 40
0.2758451282
 40
1.0
 40
1.0
 40
1.0
 40
1.0
 10
1379.4685049717
 20
423.2992237804
 30
0.0
 10
1379.4556610276
 20
423.1634439791
 30
0.0
 10
1379.4118499302
 20
422.6709323249
 30
0.0
 10
1379.3829626594
 20
422.1772642336
 30
0.0
 10
1379.3621720304
 20
421.8198249477
 30
0.0
  0
SPLINE
  5
6C3
100
AcDbEntity
  8
02___PRT_ALL_AXES
100
AcDbSpline
 62
7
  6
CONTINUOUS
 70
0
 71
3
 72
9
 73
5
 74
0
 42
0.0000001
 43
0.0000001
 44
0.0000000001
 40
0.0
 40
0.0
 40
0.0
 40
0.0
 40
0.2758307131
 40
1.0
 40
1.0
 40
1.0
 40
1.0
 10
1082.2436297123
 20
478.6681807116
 30
0.0
 10
1082.2401028297
 20
478.5317389971
 30
0.0
 10
1082.2280374827
 20
478.0370646938
 30
0.0
 10
1082.2180953699
 20
477.5423276584
 30
0.0
 10
1082.2137752302
 20
477.1840183209
 30
0.0
  0
SPLINE
  5
6C4
100
AcDbEntity
  8
0
100
AcDbSpline
 62
3
  6
CONTINUOUS
 70
0
 71
3
 72
8
 73
4
 74
0
 42
0.0000001
 43
0.0000001
 44
0.0000000001
 40
0.0
 40
0.0
 40
0.0
 40
0.0
 40
1.0
 40
1.0
 40
1.0
 40
1.0
 10
1443.6715033311
 20
225.3852118639
 30
0.0
 10
1443.7847261699
 20
225.3278989496
 30
0.0
 10
1444.0751343657
 20
225.1001974334
 30
0.0
 10
1444.0085808116
 20
225.2082474486
 30
0.0
  0
SPLINE
  5
6C5
100
AcDbEntity
  8
0
100
AcDbSpline
 62
3
  6
CONTINUOUS
 70
0
 71
3
 72
9
 73
5
 74
0
 42
0.0000001
 43
0.0000001
 44
0.0000000001
 40
0.0
 40
0.0
 40
0.0
 40
0.0
 40
0.3147120009
 40
1.0
 40
1.0
 40
1.0
 40
1.0
 10
1444.4078669675
 20
225.4515898084
 30
0.0
 10
1444.4078669675
 20
225.4974500392
 30
0.0
 10
1444.2840111887
 20
225.6086522232
 30
0.0
 10
1444.2403543328
 20
225.745899055
 30
0.0
 10
1444.210521532
 20
225.8411997902
 30
0.0
  0
SPLINE
  5
6C6
100
AcDbEntity
  8
0
100
AcDbSpline
 62
3
  6
CONTINUOUS
 70
0
 71
3
 72
9
 73
5
 74
0
 42
0.0000001
 43
0.0000001
 44
0.0000000001
 40
0.0
 40
0.0
 40
0.0
 40
0.0
 40
0.3147043872
 40
1.0
 40
1.0
 40
1.0
 40
1.0
 10
244.7214915153
 20
225.1379652605
 30
0.0
 10
244.7673495663
 20
225.1379652605
 30
0.0
 10
244.878549571
 20
225.2618173828
 30
0.0
 10
245.0157937537
 20
225.3054717361
 30
0.0
 10
245.1110932414
 20
225.335304433
 30
0.0
  0
SPLINE
  5
6C7
100
AcDbEntity
  8
0
100
AcDbSpline
 62
3
  6
CONTINUOUS
 70
0
 71
3
 72
8
 73
4
 74
0
 42
0.0000001
 43
0.0000001
 44
0.0000000001
 40
0.0
 40
0.0
 40
0.0
 40
0.0
 40
1.0
 40
1.0
 40
1.0
 40
1.0
 10
244.6551135708
 20
225.8743288969
 30
0.0
 10
244.597801745
 20
225.7611082084
 30
0.0
 10
244.370106312
 20
225.4707036841
 30
0.0
 10
244.4781534376
 20
225.5372573341
 30
0.0
  0
SPLINE
  5
6C8
100
AcDbEntity
  8
0
100
AcDbSpline
 62
3
  6
CONTINUOUS
 70
0
 71
3
 72
9
 73
5
 74
0
 42
0.0000001
 43
0.0000001
 44
0.0000000001
 40
0.0
 40
0.0
 40
0.0
 40
0.0
 40
0.3147379463
 40
1.0
 40
1.0
 40
1.0
 40
1.0
 10
244.4078669675
 20
749.4244196138
 30
0.0
 10
244.4078669675
 20
749.3785520641
 30
0.0
 10
244.5317102457
 20
749.2673279079
 30
0.0
 10
244.5753700047
 20
749.1300703652
 30
0.0
 10
244.6051967237
 20
749.0347636165
 30
0.0
  0
SPLINE
  5
6C9
100
AcDbEntity
  8
0
100
AcDbSpline
 62
3
  6
CONTINUOUS
 70
0
 71
3
 72
8
 73
4
 74
0
 42
0.0000001
 43
0.0000001
 44
0.0000000001
 40
0.0
 40
0.0
 40
0.0
 40
0.0
 40
1.0
 40
1.0
 40
1.0
 40
1.0
 10
1444.1606328175
 20
749.001626228
 30
0.0
 10
1444.2179416849
 20
749.1148595319
 30
0.0
 10
1444.4456394462
 20
749.4052881515
 30
0.0
 10
1444.3375776251
 20
749.3387394458
 30
0.0
  0
SPLINE
  5
6CA
100
AcDbEntity
  8
0
100
AcDbSpline
 62
7
  6
CONTINUOUS
 70
0
 71
3
 72
8
 73
4
 74
0
 42
0.0000001
 43
0.0000001
 44
0.0000000001
 40
0.0
 40
0.0
 40
0.0
 40
0.0
 40
1.0
 40
1.0
 40
1.0
 40
1.0
 10
1771.8141084701
 20
749.4244196138
 30
0.0
 10
1772.0226185791
 20
749.4035215402
 30
0.0
 10
1772.2328518657
 20
749.3582029048
 30
0.0
 10
1772.4242165182
 20
749.2728052186
 30
0.0
  0
SPLINE
  5
6CB
100
AcDbEntity
  8
0
100
AcDbSpline
 62
7
  6
CONTINUOUS
 70
0
 71
3
 72
9
 73
5
 74
0
 42
0.0000001
 43
0.0000001
 44
0.0000000001
 40
0.0
 40
0.0
 40
0.0
 40
0.0
 40
0.5143934256
 40
1.0
 40
1.0
 40
1.0
 40
1.0
 10
1772.4242165182
 20
749.2728052186
 30
0.0
 10
1772.4706569589
 20
749.2520808783
 30
0.0
 10
1772.558820762
 20
749.2067463241
 30
0.0
 10
1772.6398174747
 20
749.1491782107
 30
0.0
 10
1772.6762295793
 20
749.1178891062
 30
0.0
  0
SPLINE
  5
6CC
100
AcDbEntity
  8
0
100
AcDbSpline
 62
7
  6
CONTINUOUS
 70
0
 71
3
 72
9
 73
5
 74
0
 42
0.0000001
 43
0.0000001
 44
0.0000000001
 40
0.0
 40
0.0
 40
0.0
 40
0.0
 40
0.5027830125
 40
1.0
 40
1.0
 40
1.0
 40
1.0
 10
1772.6762295793
 20
749.1178891062
 30
0.0
 10
1772.6964816134
 20
749.1004864315
 30
0.0
 10
1772.7350238902
 20
749.0637818935
 30
0.0
 10
1772.7691423401
 20
749.0228961882
 30
0.0
 10
1772.78479123
 20
749.001626228
 30
0.0
  0
SPLINE
  5
6CD
100
AcDbEntity
  8
0
100
AcDbSpline
 62
7
  6
CONTINUOUS
 70
0
 71
3
 72
9
 73
5
 74
0
 42
0.0000001
 43
0.0000001
 44
0.0000000001
 40
0.0
 40
0.0
 40
0.0
 40
0.0
 40
0.791103351
 40
1.0
 40
1.0
 40
1.0
 40
1.0
 10
1772.7848093327
 20
225.8743288969
 30
0.0
 10
1772.8241769892
 20
225.9278315516
 30
0.0
 10
1772.8248318984
 20
225.9972583781
 30
0.0
 10
1772.9834163842
 20
226.0334606047
 30
0.0
 10
1772.9766715723
 20
226.0172691249
 30
0.0
  0
SPLINE
  5
6CE
100
AcDbEntity
  8
0
100
AcDbSpline
 62
7
  6
CONTINUOUS
 70
0
 71
3
 72
8
 73
4
 74
0
 42
0.0000001
 43
0.0000001
 44
0.0000000001
 40
0.0
 40
0.0
 40
0.0
 40
0.0
 40
1.0
 40
1.0
 40
1.0
 40
1.0
 10
1772.7848093327
 20
225.8743288969
 30
0.0
 10
1772.6898588872
 20
225.7452863952
 30
0.0
 10
1772.5441465501
 20
225.6532422029
 30
0.0
 10
1772.3964580169
 20
225.5911483104
 30
0.0
  0
SPLINE
  5
6CF
100
AcDbEntity
  8
0
100
AcDbSpline
 62
7
  6
CONTINUOUS
 70
0
 71
3
 72
8
 73
4
 74
0
 42
0.0000001
 43
0.0000001
 44
0.0000000001
 40
0.0
 40
0.0
 40
0.0
 40
0.0
 40
1.0
 40
1.0
 40
1.0
 40
1.0
 10
1772.3964580169
 20
225.5911483104
 30
0.0
 10
1772.2723120686
 20
225.5389526186
 30
0.0
 10
1772.1407410279
 20
225.5034649984
 30
0.0
 10
1772.0082938591
 20
225.4790856182
 30
0.0
  0
SPLINE
  5
6D0
100
AcDbEntity
  8
0
100
AcDbSpline
 62
7
  6
CONTINUOUS
 70
0
 71
3
 72
9
 73
5
 74
0
 42
0.0000001
 43
0.0000001
 44
0.0000000001
 40
0.0
 40
0.0
 40
0.0
 40
0.0
 40
0.3036964393
 40
1.0
 40
1.0
 40
1.0
 40
1.0
 10
1744.7565862662
 20
749.4379652605
 30
0.0
 10
1744.6144400088
 20
749.3374881641
 30
0.0
 10
1744.1623542089
 20
749.0120214696
 30
0.0
 10
1743.6377773439
 20
748.6053915936
 30
0.0
 10
1743.5664041619
 20
748.2127188075
 30
0.0
  0
SPLINE
  5
6D1
100
AcDbEntity
  8
0
100
AcDbSpline
 62
7
  6
CONTINUOUS
 70
0
 71
3
 72
9
 73
5
 74
0
 42
0.0000001
 43
0.0000001
 44
0.0000000001
 40
0.0
 40
0.0
 40
0.0
 40
0.0
 40
0.5026686448
 40
1.0
 40
1.0
 40
1.0
 40
1.0
 10
1743.5664041619
 20
748.2127188075
 30
0.0
 10
1743.5631768114
 20
748.1949629404
 30
0.0
 10
1743.5582639475
 20
748.1593463506
 30
0.0
 10
1743.5565862662
 20
748.1234261194
 30
0.0
 10
1743.5565862662
 20
748.1055709491
 30
0.0
  0
SPLINE
  5
6D2
100
AcDbEntity
  8
0
100
AcDbSpline
 62
7
  6
CONTINUOUS
 70
0
 71
3
 72
9
 73
5
 74
0
 42
0.0000001
 43
0.0000001
 44
0.0000000001
 40
0.0
 40
0.0
 40
0.0
 40
0.0
 40
0.2056243227
 40
1.0
 40
1.0
 40
1.0
 40
1.0
 10
1743.5565862662
 20
226.770359572
 30
0.0
 10
1743.5565862662
 20
226.6952732918
 30
0.0
 10
1743.6342488446
 20
226.3287919566
 30
0.0
 10
1743.9318495354
 20
226.0651751437
 30
0.0
 10
1744.156567908
 20
225.8817471368
 30
0.0
  0
SPLINE
  5
6D3
100
AcDbEntity
  8
0
100
AcDbSpline
 62
7
  6
CONTINUOUS
 70
0
 71
3
 72
8
 73
4
 74
0
 42
0.0000001
 43
0.0000001
 44
0.0000000001
 40
0.0
 40
0.0
 40
0.0
 40
0.0
 40
1.0
 40
1.0
 40
1.0
 40
1.0
 10
1744.156567908
 20
225.8817471368
 30
0.0
 10
1744.2507071833
 20
225.8049052683
 30
0.0
 10
1744.3478015009
 20
225.7316799007
 30
0.0
 10
1744.4459050542
 20
225.6599681949
 30
0.0
  0
SPLINE
  5
6D4
100
AcDbEntity
  8
0
100
AcDbSpline
 62
7
  6
CONTINUOUS
 70
0
 71
3
 72
8
 73
4
 74
0
 42
0.0000001
 43
0.0000001
 44
0.0000000001
 40
0.0
 40
0.0
 40
0.0
 40
0.0
 40
1.0
 40
1.0
 40
1.0
 40
1.0
 10
1744.4459050542
 20
225.6599681949
 30
0.0
 10
1744.5486617244
 20
225.584855155
 30
0.0
 10
1744.6526480941
 20
225.5114346992
 30
0.0
 10
1744.7565862662
 20
225.4379652605
 30
0.0
  0
SPLINE
  5
6D5
100
AcDbEntity
  8
0
100
AcDbSpline
 62
7
  6
CONTINUOUS
 70
0
 71
3
 72
9
 73
5
 74
0
 42
0.0000001
 43
0.0000001
 44
0.0000000001
 40
0.0
 40
0.0
 40
0.0
 40
0.0
 40
0.2406741602
 40
1.0
 40
1.0
 40
1.0
 40
1.0
 10
1772.9975754214
 20
748.824560343
 30
0.0
 10
1772.9785855408
 20
748.8113297851
 30
0.0
 10
1772.8719202272
 20
748.8844575873
 30
0.0
 10
1772.844933567
 20
748.9651688753
 30
0.0
 10
1772.8120577814
 20
749.030369887
 30
0.0
  0
SPLINE
  5
6D6
100
AcDbEntity
  8
0
100
AcDbSpline
 62
7
  6
CONTINUOUS
 70
0
 71
3
 72
9
 73
5
 74
0
 42
0.0000001
 43
0.0000001
 44
0.0000000001
 40
0.0
 40
0.0
 40
0.0
 40
0.0
 40
0.3956404337
 40
1.0
 40
1.0
 40
1.0
 40
1.0
 10
1772.9766715723
 20
226.0172691249
 30
0.0
 10
1772.9723480526
 20
226.0068901575
 30
0.0
 10
1772.958250864
 20
225.9820601741
 30
0.0
 10
1772.9422576881
 20
225.9585861352
 30
0.0
 10
1772.9322647773
 20
225.9446175807
 30
0.0
  0
LINE
  5
6D7
100
AcDbEntity
  8
02___PRT_ALL_AXES
100
AcDbLine
 62
3
  6
CONTINUOUS
 10
1642.1853378349
 20
596.5651593493
 11
1641.5866461015
 21
599.894620784
  0
SPLINE
  5
6D8
100
AcDbEntity
  8
02___PRT_ALL_AXES
100
AcDbSpline
 62
3
  6
CONTINUOUS
 70
0
 71
3
 72
11
 73
7
 74
0
 42
0.0000001
 43
0.0000001
 44
0.0000000001
 40
0.0
 40
0.0
 40
0.0
 40
0.0
 40
0.3544656944
 40
0.6585615054
 40
0.8814048903
 40
1.0
 40
1.0
 40
1.0
 40
1.0
 10
1643.555631604
 20
555.0215002679
 30
0.0
 10
1643.5573707491
 20
559.2711869694
 30
0.0
 10
1643.5332871422
 20
567.1658132604
 30
0.0
 10
1643.4582323659
 20
577.7359089619
 30
0.0
 10
1643.2592889732
 20
585.4665464179
 30
0.0
 10
1643.1600131318
 20
589.5679566028
 30
0.0
 10
1642.9820668143
 20
590.9786134925
 30
0.0
  0
SPLINE
  5
6D9
100
AcDbEntity
  8
02___PRT_ALL_AXES
100
AcDbSpline
 62
3
  6
CONTINUOUS
 70
0
 71
3
 72
11
 73
7
 74
0
 42
0.0000001
 43
0.0000001
 44
0.0000000001
 40
0.0
 40
0.0
 40
0.0
 40
0.0
 40
0.1177875744
 40
0.3401264343
 40
0.6444590085
 40
1.0
 40
1.0
 40
1.0
 40
1.0
 10
1644.7153564736
 20
383.2405619351
 30
0.0
 10
1644.8106753225
 20
384.6457591543
 30
0.0
 10
1644.8250569887
 20
388.7163737679
 30
0.0
 10
1644.859506929
 20
396.4198745995
 30
0.0
 10
1644.7756169667
 20
406.9697697462
 30
0.0
 10
1644.6855453295
 20
414.8592669592
 30
0.0
 10
1644.624766532
 20
419.1101579596
 30
0.0
  0
SPLINE
  5
6DA
100
AcDbEntity
  8
02___PRT_ALL_AXES
100
AcDbSpline
 62
3
  6
CONTINUOUS
 70
0
 71
3
 72
9
 73
5
 74
0
 42
0.0000001
 43
0.0000001
 44
0.0000000001
 40
0.0
 40
0.0
 40
0.0
 40
0.0
 40
0.2915231171
 40
1.0
 40
1.0
 40
1.0
 40
1.0
 10
1694.0065382927
 20
644.9912148121
 30
0.0
 10
1693.9402295957
 20
645.5085171794
 30
0.0
 10
1693.7056570832
 20
647.2820483592
 30
0.0
 10
1693.443278301
 20
649.052113043
 30
0.0
 10
1693.2316827049
 20
650.3017910224
 30
0.0
  0
SPLINE
  5
6DB
100
AcDbEntity
  8
02___PRT_ALL_AXES
100
AcDbSpline
 62
3
  6
CONTINUOUS
 70
0
 71
3
 72
13
 73
9
 74
0
 42
0.0000001
 43
0.0000001
 44
0.0000000001
 40
0.0
 40
0.0
 40
0.0
 40
0.0
 40
0.4363976737
 40
0.7490311067
 40
0.8587138628
 40
0.9371650015
 40
0.9842845668
 40
1.0
 40
1.0
 40
1.0
 40
1.0
 10
1693.2316827049
 20
650.3017910224
 30
0.0
 10
1693.1435333159
 20
650.8223989763
 30
0.0
 10
1692.9811227283
 20
651.7103562719
 30
0.0
 10
1692.7853009838
 20
652.7411128828
 30
0.0
 10
1692.6440567551
 20
653.3171742508
 30
0.0
 10
1692.60013356
 20
653.6207860209
 30
0.0
 10
1692.5268789766
 20
653.7410965537
 30
0.0
 10
1692.5446820382
 20
653.8628420973
 30
0.0
 10
1692.5257014178
 20
653.8617018815
 30
0.0
  0
SPLINE
  5
6DC
100
AcDbEntity
  8
02___PRT_ALL_AXES
100
AcDbSpline
 62
3
  6
CONTINUOUS
 70
0
 71
3
 72
11
 73
7
 74
0
 42
0.0000001
 43
0.0000001
 44
0.0000000001
 40
0.0
 40
0.0
 40
0.0
 40
0.0
 40
0.3559882611
 40
0.6607111526
 40
0.8829686311
 40
1.0
 40
1.0
 40
1.0
 40
1.0
 10
1694.6139525622
 20
561.7171080438
 30
0.0
 10
1694.6156802913
 20
571.5992141444
 30
0.0
 10
1694.5898215364
 20
589.9398636767
 30
0.0
 10
1694.5118092394
 20
614.4523061663
 30
0.0
 10
1694.2978303936
 20
632.3253770633
 30
0.0
 10
1694.1974143075
 20
641.7480794384
 30
0.0
 10
1694.0065979769
 20
644.991219528
 30
0.0
  0
SPLINE
  5
6DD
100
AcDbEntity
  8
02___PRT_ALL_AXES
100
AcDbSpline
 62
3
  6
CONTINUOUS
 70
0
 71
3
 72
11
 73
7
 74
0
 42
0.0000001
 43
0.0000001
 44
0.0000000001
 40
0.0
 40
0.0
 40
0.0
 40
0.0
 40
0.1170881781
 40
0.3393758083
 40
0.6440830272
 40
1.0
 40
1.0
 40
1.0
 40
1.0
 10
1695.8418775258
 20
329.7373278817
 30
0.0
 10
1695.9436027667
 20
332.9914460056
 30
0.0
 10
1695.9574081715
 20
342.4297944888
 30
0.0
 10
1695.9948587862
 20
360.3376532894
 30
0.0
 10
1695.9055202211
 20
384.8880454735
 30
0.0
 10
1695.8100298182
 20
403.256690057
 30
0.0
 10
1695.7459514708
 20
413.1529696522
 30
0.0
  0
LINE
  5
6DE
100
AcDbEntity
  8
02___PRT_ALL_AXES
100
AcDbLine
 62
3
  6
CONTINUOUS
 10
1695.1931909197
 20
320.794496046
 11
1695.4579888308
 21
324.2961671997
  0
SPLINE
  5
6DF
100
AcDbEntity
  8
02___PRT_ALL_AXES
100
AcDbSpline
 62
3
  6
CONTINUOUS
 70
0
 71
3
 72
11
 73
7
 74
0
 42
0.0000001
 43
0.0000001
 44
0.0000000001
 40
0.0
 40
0.0
 40
0.0
 40
0.0
 40
0.248524104
 40
0.4980137144
 40
0.7486436717
 40
1.0
 40
1.0
 40
1.0
 40
1.0
 10
1642.9820659301
 20
590.9786135034
 30
0.0
 10
1643.0896334538
 20
597.686074156
 30
0.0
 10
1645.8607976449
 20
611.2166428603
 30
0.0
 10
1657.0878808117
 20
628.555597807
 30
0.0
 10
1673.8274344441
 20
640.7764118427
 30
0.0
 10
1687.2459816629
 20
644.4189101674
 30
0.0
 10
1694.006645556
 20
644.9903641415
 30
0.0
  0
SPLINE
  5
6E0
100
AcDbEntity
  8
02___PRT_ALL_AXES
100
AcDbSpline
 62
3
  6
CONTINUOUS
 70
0
 71
3
 72
11
 73
7
 74
0
 42
0.0000001
 43
0.0000001
 44
0.0000000001
 40
0.0
 40
0.0
 40
0.0
 40
0.0
 40
0.248550091
 40
0.4979904471
 40
0.7485834553
 40
1.0
 40
1.0
 40
1.0
 40
1.0
 10
1644.7153576624
 20
383.2405619608
 30
0.0
 10
1644.8757743889
 20
376.5638220618
 30
0.0
 10
1647.7313368456
 20
363.1178530465
 30
0.0
 10
1659.0120032259
 20
345.9301269845
 30
0.0
 10
1675.737392916
 20
333.8546517332
 30
0.0
 10
1689.1083535578
 20
330.2847828902
 30
0.0
 10
1695.8419229487
 20
329.738534122
 30
0.0
  0
SPLINE
  5
6E1
100
AcDbEntity
  8
02___PRT_ALL_AXES
100
AcDbSpline
 62
3
  6
CONTINUOUS
 70
0
 71
3
 72
13
 73
9
 74
0
 42
0.0000001
 43
0.0000001
 44
0.0000000001
 40
0.0
 40
0.0
 40
0.0
 40
0.0
 40
0.0324427677
 40
0.0939230897
 40
0.186596837
 40
0.3084341786
 40
0.6238481496
 40
1.0
 40
1.0
 40
1.0
 40
1.0
 10
1644.6247656061
 20
419.110157944
 30
0.0
 10
1644.7237308615
 20
418.555467526
 30
0.0
 10
1646.262756974
 20
417.468462278
 30
0.0
 10
1649.2311490111
 20
416.5267970942
 30
0.0
 10
1653.9859648872
 20
415.5057279914
 30
0.0
 10
1663.0789704234
 20
414.2839090874
 30
0.0
 10
1677.2074854231
 20
413.3244182084
 30
0.0
 10
1689.2132257553
 20
413.1197599192
 30
0.0
 10
1695.745984056
 20
413.1473727584
 30
0.0
  0
SPLINE
  5
6E2
100
AcDbEntity
  8
02___PRT_ALL_AXES
100
AcDbSpline
 62
3
  6
CONTINUOUS
 70
0
 71
3
 72
14
 73
10
 74
0
 42
0.0000001
 43
0.0000001
 44
0.0000000001
 40
0.0
 40
0.0
 40
0.0
 40
0.0
 40
0.0332022355
 40
0.0953601501
 40
0.1884216444
 40
0.3103451322
 40
0.457507928
 40
0.6251847495
 40
1.0
 40
1.0
 40
1.0
 40
1.0
 10
1643.5556333777
 20
555.0215002614
 30
0.0
 10
1643.6743885141
 20
555.585953547
 30
0.0
 10
1645.2213853121
 20
556.6785545992
 30
0.0
 10
1648.2122702619
 20
557.6824069212
 30
0.0
 10
1652.97133942
 20
558.766907757
 30
0.0
 10
1659.1731961746
 20
559.6949035003
 30
0.0
 10
1666.7279791723
 20
560.5014855268
 30
0.0
 10
1678.6761708662
 20
561.3630866379
 30
0.0
 10
1688.102752402
 20
561.6536280463
 30
0.0
 10
1694.6139729997
 20
561.7171050035
 30
0.0
  0
LINE
  5
6E3
100
AcDbEntity
  8
02___PRT_ALL_AXES
100
AcDbLine
 62
3
  6
CONTINUOUS
 10
1644.1026872542
 20
374.7574293693
 11
1644.1987267241
 21
376.016228271
  0
LINE
  5
6E4
100
AcDbEntity
  8
02___PRT_ALL_AXES
100
AcDbLine
 62
3
  6
CONTINUOUS
 10
1644.1987267241
 20
376.016228271
 11
1644.7153564736
 21
383.2405619351
  0
ENDSEC
  0
SECTION
  2
OBJECTS
  0
DICTIONARY
  5
C
100
AcDbDictionary
280
0
281
1
  3
ACAD_GROUP
350
D
  3
ACAD_MLINESTYLE
350
17
  3
ACAD_LAYOUT
350
1A
  3
ACAD_PLOTSETTINGS
350
19
  3
ACAD_PLOTSTYLENAME
350
E
  0
DICTIONARY
  5
D
102
{ACAD_REACTORS
330
C
102
}
100
AcDbDictionary
280
0
281
1
  0
ACDBDICTIONARYWDFLT
  5
E
102
{ACAD_REACTORS
330
C
102
}
100
AcDbDictionary
281
1
  3
Normal
350
F
100
AcDbDictionaryWithDefault
340
F
  0
DICTIONARY
  5
17
102
{ACAD_REACTORS
330
C
102
}
100
AcDbDictionary
280
0
281
1
  3
Standard
350
18
  0
DICTIONARY
  5
19
102
{ACAD_REACTORS
330
C
102
}
100
AcDbDictionary
281
1
  0
DICTIONARY
  5
1A
102
{ACAD_REACTORS
330
C
102
}
100
AcDbDictionary
281
1
  3
Model
350
6E5
  3
Layout1
350
6E6
  0
ACDBPLACEHOLDER
  5
F
102
{ACAD_REACTORS
330
E
102
}
  0
MLINESTYLE
  5
18
102
{ACAD_REACTORS
330
17
102
}
100
AcDbMlineStyle
  2
STANDARD
 70
0
  3

 62
256
 51
90.0
 52
90.0
 71
2
 49
0.5
 62
256
  6
BYLAYER
 49
-0.5
 62
256
  6
BYLAYER
  0
LAYOUT
  5
6E5
102
{ACAD_REACTORS
330
1A
102
}
100
AcDbPlotSettings
  1

  2
none_device
  4

  6

 40
0.0
 41
0.0
 42
0.0
 43
0.0
 44
2000.0
 45
1000.0
 46
0.0
 47
0.0
 48
0.0
 49
0.0
140
0.0
141
0.0
142
1.0
143
1.0
 70
1024
 72
1
 73
0
 74
0
  7

 75
0
147
1.0
148
0.0
149
0.0
100
AcDbLayout
  1
Model
 70
0
 71
0
 10
0.0
 20
0.0
 11
2000.0
 21
1000.0
 12
0.0
 22
0.0
 32
0.0
 14
0.0
 24
0.0
 34
0.0
 15
0.0
 25
0.0
 35
0.0
146
0.0
 13
0.0
 23
0.0
 33
0.0
 16
1.0
 26
0.0
 36
0.0
 17
0.0
 27
1.0
 37
0.0
 76
0
330
207
345
0
346
0
  0
LAYOUT
  5
6E6
102
{ACAD_REACTORS
330
1A
102
}
100
AcDbPlotSettings
  1

  2
none_device
  4

  6

 40
0.0
 41
0.0
 42
0.0
 43
0.0
 44
2000.0
 45
1000.0
 46
0.0
 47
0.0
 48
0.0
 49
0.0
140
0.0
141
0.0
142
1.0
143
1.0
 70
0
 72
1
 73
0
 74
0
  7

 75
0
147
1.0
148
0.0
149
0.0
100
AcDbLayout
  1
Layout1
 70
0
 71
1
 10
0.0
 20
0.0
 11
2000.0
 21
1000.0
 12
0.0
 22
0.0
 32
0.0
 14
0.0
 24
0.0
 34
0.0
 15
0.0
 25
0.0
 35
0.0
146
0.0
 13
0.0
 23
0.0
 33
0.0
 16
1.0
 26
0.0
 36
0.0
 17
0.0
 27
1.0
 37
0.0
 76
0
330
208
345
0
346
0
  0
ENDSEC
  0
EOF
