999
DXF file: S:\Engenharia\Wildfire\Engenharia\Produtos\Pias_Apoio\Aco_430\Serie_525\vistas_93040_527.dxf
999
Pro/ENGINEER 2013150 by Parametric Technology Corporation
  0
SECTION
  2
HEADER
  9
$ACADVER
  1
AC1021
  9
$DWGCODEPAGE
  3
ANSI_1252
  9
$EXTMAX
 10
1500.0
 20
1000.0
 30
0.0
  9
$EXTMIN
 10
0.0
 20
-0.0
 30
0.0
  9
$LIMMIN
 10
0.0
 20
-0.0
  9
$LIMMAX
 10
1500.0
 20
1000.0
  9
$VIEWCTR
 10
750.0
 20
500.0
  9
$VIEWSIZE
 40
1000.0
  9
$CLAYER
  8
0
  9
$LTSCALE
 40
82.5
  9
$CELTYPE
  6
BYLAYER
  9
$DIMSCALE
 40
1.0
  9
$DIMASZ
 40
3.0
  9
$DIMEXO
 40
0.5
  9
$DIMDLI
 40
57.0
  9
$DIMEXE
 40
0.5
  9
$DIMCEN
 40
13.5
  9
$DIMLFAC
 40
1.0
  9
$DIMBLK
  1
_FILLED
  9
$DIMTXT
 40
1.8
  9
$DIMTOL
 70
1
  9
$DIMLIM
 70
0
  9
$DIMTFAC
 40
1.0
  9
$DIMTP
 40
0.001
  9
$DIMTM
 40
0.001
  9
$DIMGAP
 40
0.625
  9
$DIMDSEP
 70
46
  9
$PDMODE
 70
3
  9
$PDSIZE
 40
1.0
  9
$HANDSEED
  5
715
  9
$TILEMODE
 70
1
  9
$MEASUREMENT
 70
1
  9
$INSUNITS
 70
4
  0
ENDSEC
  0
SECTION
  2
CLASSES
  0
CLASS
  1
ACDBDICTIONARYWDFLT
  2
AcDbDictionaryWithDefault
  3
AutoCAD 2000
 90
0
 91
1
280
0
281
0
  0
CLASS
  1
ACDBPLACEHOLDER
  2
AcDbPlaceHolder
  3
AutoCAD 2000
 90
0
 91
1
280
0
281
0
  0
CLASS
  1
LAYOUT
  2
AcDbLayout
  3
AutoCAD 2000
 90
0
 91
0
280
0
281
0
  0
ENDSEC
  0
SECTION
  2
TABLES
  0
TABLE
  2
VPORT
  5
8
100
AcDbSymbolTable
 70
2
  0
VPORT
  5
1F4
100
AcDbSymbolTableRecord
100
AcDbViewportTableRecord
  2
*ACTIVE
 70
0
 10
0.0
 20
0.0
 11
1.0
 21
1.0
 12
750.0
 22
500.0
 13
0.0
 23
0.0
 14
1.0
 24
1.0
 15
0.0
 25
0.0
 16
0.0
 26
0.0
 36
1.0
 17
0.0
 27
0.0
 37
0.0
 40
1000.0
 41
1.5
 42
50.0
 43
0.0
 44
0.0
 50
0.0
 51
0.0
 71
0
 72
100
 73
1
 74
1
 75
0
 76
0
 77
0
 78
0
  0
ENDTAB
  0
TABLE
  2
LTYPE
  5
5
100
AcDbSymbolTable
 70
6
  0
LTYPE
  5
14
100
AcDbSymbolTableRecord
100
AcDbLinetypeTableRecord
  2
BYBLOCK
 70
0
  3

 72
65
 73
0
 40
0.0
  0
LTYPE
  5
15
100
AcDbSymbolTableRecord
100
AcDbLinetypeTableRecord
  2
BYLAYER
 70
0
  3

 72
65
 73
0
 40
0.0
  0
LTYPE
  5
16
100
AcDbSymbolTableRecord
100
AcDbLinetypeTableRecord
  2
CONTINUOUS
 70
64
  3
Solid line
 72
65
 73
0
 40
0.0
  0
LTYPE
  5
1F5
100
AcDbSymbolTableRecord
100
AcDbLinetypeTableRecord
  2
CENTER
 70
64
  3
____ _ ____ _ ____ _ ____ _ ____ _ ____ _ ____
 72
65
 73
4
 40
0.6
 49
0.375
 74
0
 49
-0.075
 74
0
 49
0.075
 74
0
 49
-0.075
 74
0
  0
LTYPE
  5
1F6
100
AcDbSymbolTableRecord
100
AcDbLinetypeTableRecord
  2
HIDDEN
 70
64
  3
- - - - - - - - - - - - - - - - - - - -
 72
65
 73
2
 40
0.2
 49
0.1
 74
0
 49
-0.1
 74
0
  0
LTYPE
  5
1F7
100
AcDbSymbolTableRecord
100
AcDbLinetypeTableRecord
  2
PHANTOM
 70
64
  3
_____ _ _ _____ _ _ _____ _ _ _____
 72
65
 73
6
 40
0.8
 49
0.45
 74
0
 49
-0.05
 74
0
 49
0.1
 74
0
 49
-0.05
 74
0
 49
0.1
 74
0
 49
-0.05
 74
0
  0
LTYPE
  5
1F8
100
AcDbSymbolTableRecord
100
AcDbLinetypeTableRecord
  2
DOT
 70
64
  3
. . . . . . . . . . . . . . . . . . . .
 72
65
 73
2
 40
0.2
 49
0.1
 74
0
 49
-0.1
 74
0
  0
LTYPE
  5
1F9
100
AcDbSymbolTableRecord
100
AcDbLinetypeTableRecord
  2
DASHED
 70
64
  3
- - - - - - - - - - - - - - - - - - - -
 72
65
 73
2
 40
0.2
 49
0.1
 74
0
 49
-0.1
 74
0
  0
ENDTAB
  0
TABLE
  2
LAYER
  5
2
100
AcDbSymbolTable
 70
36
  0
LAYER
  5
10
100
AcDbSymbolTableRecord
100
AcDbLayerTableRecord
  2
0
 70
0
 62
7
  6
CONTINUOUS
370
-3
390
F
  0
LAYER
  5
1FA
100
AcDbSymbolTableRecord
100
AcDbLayerTableRecord
  2
DEFAULT_1
 70
0
 62
7
  6
CENTER
370
-3
390
F
  0
LAYER
  5
1FB
100
AcDbSymbolTableRecord
100
AcDbLayerTableRecord
  2
DEFAULT_2
 70
0
 62
8
  6
HIDDEN
370
-3
390
F
  0
LAYER
  5
1FC
100
AcDbSymbolTableRecord
100
AcDbLayerTableRecord
  2
DEFAULT_3
 70
0
 62
7
  6
PHANTOM
370
-3
390
F
  0
LAYER
  5
1FD
100
AcDbSymbolTableRecord
100
AcDbLayerTableRecord
  2
01___PRT_ALL_DTM_PLN
 70
0
 62
7
  6
CONTINUOUS
370
-3
390
F
  0
LAYER
  5
1FE
100
AcDbSymbolTableRecord
100
AcDbLayerTableRecord
  2
01___PRT_DEF_DTM_PLN
 70
0
 62
7
  6
CONTINUOUS
370
-3
390
F
  0
LAYER
  5
1FF
100
AcDbSymbolTableRecord
100
AcDbLayerTableRecord
  2
02___PRT_ALL_AXES
 70
0
 62
7
  6
CONTINUOUS
370
-3
390
F
  0
LAYER
  5
200
100
AcDbSymbolTableRecord
100
AcDbLayerTableRecord
  2
03___PRT_ALL_CURVES
 70
0
 62
7
  6
CONTINUOUS
370
-3
390
F
  0
LAYER
  5
201
100
AcDbSymbolTableRecord
100
AcDbLayerTableRecord
  2
04___PRT_ALL_DTM_PNT
 70
0
 62
7
  6
CONTINUOUS
370
-3
390
F
  0
LAYER
  5
202
100
AcDbSymbolTableRecord
100
AcDbLayerTableRecord
  2
05___PRT_ALL_DTM_CSYS
 70
0
 62
7
  6
CONTINUOUS
370
-3
390
F
  0
LAYER
  5
203
100
AcDbSymbolTableRecord
100
AcDbLayerTableRecord
  2
05___PRT_DEF_DTM_CSYS
 70
0
 62
7
  6
CONTINUOUS
370
-3
390
F
  0
LAYER
  5
204
100
AcDbSymbolTableRecord
100
AcDbLayerTableRecord
  2
06___PRT_ALL_SURFS
 70
0
 62
7
  6
CONTINUOUS
370
-3
390
F
  0
ENDTAB
  0
TABLE
  2
STYLE
  5
3
100
AcDbSymbolTable
 70
1
  0
STYLE
  5
11
100
AcDbSymbolTableRecord
100
AcDbTextStyleTableRecord
  2
STANDARD
 70
0
 40
0.0
 41
0.8
 50
0.0
 71
0
 42
0.2
  3
txt
  4

  0
STYLE
  5
205
100
AcDbSymbolTableRecord
100
AcDbTextStyleTableRecord
  2
TEXTSTYLE_1
 70
0
 40
0.0
 41
0.8
 50
0.0
 71
0
 42
0.2
  3
gdt
  4

  0
ENDTAB
  0
TABLE
  2
VIEW
  5
6
100
AcDbSymbolTable
 70
0
  0
ENDTAB
  0
TABLE
  2
UCS
  5
7
100
AcDbSymbolTable
 70
0
  0
ENDTAB
  0
TABLE
  2
APPID
  5
9
100
AcDbSymbolTable
 70
1
  0
APPID
  5
206
100
AcDbSymbolTableRecord
100
AcDbRegAppTableRecord
  2
ACAD
 70
0
  0
ENDTAB
  0
TABLE
  2
BLOCK_RECORD
  5
1
100
AcDbSymbolTable
 70
0
  0
BLOCK_RECORD
  5
207
100
AcDbSymbolTableRecord
100
AcDbBlockTableRecord
  2
*Model_Space
  0
BLOCK_RECORD
  5
208
100
AcDbSymbolTableRecord
100
AcDbBlockTableRecord
  2
*Paper_Space
  0
BLOCK_RECORD
  5
209
100
AcDbSymbolTableRecord
100
AcDbBlockTableRecord
  2
_FILLED
  0
BLOCK_RECORD
  5
20A
100
AcDbSymbolTableRecord
100
AcDbBlockTableRecord
  2
*D0
  0
BLOCK_RECORD
  5
20B
100
AcDbSymbolTableRecord
100
AcDbBlockTableRecord
  2
*D1
  0
BLOCK_RECORD
  5
20C
100
AcDbSymbolTableRecord
100
AcDbBlockTableRecord
  2
*D2
  0
BLOCK_RECORD
  5
20D
100
AcDbSymbolTableRecord
100
AcDbBlockTableRecord
  2
*D3
  0
ENDTAB
  0
TABLE
  2
DIMSTYLE
  5
A
100
AcDbSymbolTable
 70
1
100
AcDbDimStyleTable
 71
0
  0
DIMSTYLE
105
20E
100
AcDbSymbolTableRecord
100
AcDbDimStyleTableRecord
  2
STANDARD
 70
0
  3

  4

 40
1.0
 41
3.0
 42
0.5
 43
0.38
 44
0.5
 45
0.0
 46
0.0
 47
0.001
 48
0.001
140
1.8
141
0.09
142
0.0
143
25.4
144
1.0
145
0.0
146
1.0
147
0.625
 71
1.0
 72
0.0
 73
0
 74
0
 75
0
 76
0
 77
1
 78
8
170
0
171
2
172
0
173
0
174
0
175
0
176
0
177
0
178
0
270
2
271
3
272
3
273
2
274
2
275
0
280
0
281
0
282
0
283
1
284
8
285
0
286
0
287
3
288
0
340
11
278
46
341
209
342
209
343
209
344
209
  0
DIMSTYLE
105
20F
100
AcDbSymbolTableRecord
100
AcDbDimStyleTableRecord
  2
DIMSTYLE_1
 70
0
  3

  4

 40
1.0
 41
3.0
 42
0.5
 43
0.38
 44
0.5
 45
0.0
 46
0.0
 47
0.001
 48
0.001
140
10.0
141
0.09
142
0.0
143
25.4
144
1.0
145
0.0
146
1.0
147
2.5
 71
0.0
 72
0.0
 73
0
 74
0
 75
0
 76
0
 77
1
 78
8
170
0
171
2
172
0
173
0
174
0
175
0
176
0
177
0
178
0
270
2
271
3
272
3
273
2
274
2
275
0
280
0
281
0
282
0
283
1
284
8
285
0
286
0
287
3
288
0
340
11
278
46
341
209
342
209
343
209
344
209
  0
ENDTAB
  0
ENDSEC
  0
SECTION
  2
BLOCKS
  0
BLOCK
  5
20
100
AcDbEntity
  8
0
100
AcDbBlockBegin
  2
*Model_Space
 70
0
 10
0.0
 20
0.0
 30
0.0
  3
*Model_Space
  1

  0
ENDBLK
  5
21
100
AcDbEntity
  8
0
100
AcDbBlockEnd
  0
BLOCK
  5
1C
100
AcDbEntity
  8
0
100
AcDbBlockBegin
  2
*Paper_Space
 70
0
 10
0.0
 20
0.0
 30
0.0
  3
*Paper_Space
  1

  0
ENDBLK
  5
1D
100
AcDbEntity
  8
0
100
AcDbBlockEnd
  0
BLOCK
  5
210
100
AcDbEntity
  8
0
100
AcDbBlockBegin
  2
_FILLED
 70
64
 10
0.0
 20
0.0
  3
_FILLED
  1

  0
SOLID
  5
211
100
AcDbEntity
  8
0
  6
BYBLOCK
 62
0
100
AcDbTrace
 10
0.0
 20
0.0
 11
-1.0
 21
0.1666666667
 12
-1.0
 22
-0.1666666667
 13
-1.0
 23
-0.1666666667
  0
ENDBLK
  5
212
100
AcDbEntity
  8
0
  6
BYBLOCK
 62
0
100
AcDbBlockEnd
  0
BLOCK
  5
213
100
AcDbEntity
  8
0
100
AcDbBlockBegin
 62
2
  6
CONTINUOUS
  2
*D0
 70
65
 10
0.0
 20
0.0
  3
*D0
  1

  0
MTEXT
  5
214
100
AcDbEntity
  8
0
100
AcDbMText
 62
2
  6
CONTINUOUS
  7
STANDARD
 71
2
 72
1
 10
632.2309243176
 20
800.9493205477
 30
0.0
 11
1.0
 21
0.0
 31
0.0
 44
0.9
  1
1050
 40
10.0
 41
61.7142857143
  0
LINE
  5
215
100
AcDbEntity
  8
0
100
AcDbLine
 62
2
  6
CONTINUOUS
 10
106.6309243176
 20
735.7921305319
 11
106.6309243176
 21
787.163606262
  0
LINE
  5
216
100
AcDbEntity
  8
0
100
AcDbLine
 62
2
  6
CONTINUOUS
 10
1157.8309243176
 20
735.7921305319
 11
1157.8309243176
 21
787.163606262
  0
LINE
  5
217
100
AcDbEntity
  8
0
100
AcDbLine
 62
2
  6
CONTINUOUS
 10
106.6309243176
 20
786.663606262
 11
632.2309243176
 21
786.663606262
  0
LINE
  5
218
100
AcDbEntity
  8
0
100
AcDbLine
 62
2
  6
CONTINUOUS
 10
1157.8309243176
 20
786.663606262
 11
632.2309243176
 21
786.663606262
  0
INSERT
  5
219
100
AcDbEntity
  8
0
100
AcDbBlockReference
 62
2
  6
CONTINUOUS
  2
_FILLED
 10
106.6309243176
 20
786.663606262
 41
3.0
 42
3.0
 43
3.0
 50
180.0
  0
INSERT
  5
21A
100
AcDbEntity
  8
0
100
AcDbBlockReference
 62
2
  6
CONTINUOUS
  2
_FILLED
 10
1157.8309243176
 20
786.663606262
 41
3.0
 42
3.0
 43
3.0
  0
ENDBLK
  5
21B
100
AcDbEntity
  8
0
  6
BYBLOCK
 62
0
100
AcDbBlockEnd
  0
BLOCK
  5
21C
100
AcDbEntity
  8
0
100
AcDbBlockBegin
 62
2
  6
CONTINUOUS
  2
*D1
 70
65
 10
0.0
 20
0.0
  3
*D1
  1

  0
MTEXT
  5
21D
100
AcDbEntity
  8
0
100
AcDbMText
 62
2
  6
CONTINUOUS
  7
STANDARD
 71
2
 72
1
 10
44.7519982224
 20
473.9054020508
 30
0.0
 11
0.0
 21
1.0
 31
0.0
 44
0.9
  1
525
 40
10.0
 41
46.2857142857
  0
LINE
  5
21E
100
AcDbEntity
  8
0
100
AcDbLine
 62
2
  6
CONTINUOUS
 10
108.7034081856
 20
737.405127923
 11
58.5377125081
 21
737.405127923
  0
LINE
  5
21F
100
AcDbEntity
  8
0
100
AcDbLine
 62
2
  6
CONTINUOUS
 10
107.0445488655
 20
210.4056761787
 11
58.5377125081
 21
210.4056761787
  0
LINE
  5
220
100
AcDbEntity
  8
0
100
AcDbLine
 62
2
  6
CONTINUOUS
 10
59.0377125081
 20
737.405127923
 11
59.0377125081
 21
473.9054020508
  0
LINE
  5
221
100
AcDbEntity
  8
0
100
AcDbLine
 62
2
  6
CONTINUOUS
 10
59.0377125081
 20
210.4056761787
 11
59.0377125081
 21
473.9054020508
  0
INSERT
  5
222
100
AcDbEntity
  8
0
100
AcDbBlockReference
 62
2
  6
CONTINUOUS
  2
_FILLED
 10
59.0377125081
 20
737.405127923
 41
3.0
 42
3.0
 43
3.0
 50
90.0
  0
INSERT
  5
223
100
AcDbEntity
  8
0
100
AcDbBlockReference
 62
2
  6
CONTINUOUS
  2
_FILLED
 10
59.0377125081
 20
210.4056761787
 41
3.0
 42
3.0
 43
3.0
 50
270.0
  0
ENDBLK
  5
224
100
AcDbEntity
  8
0
  6
BYBLOCK
 62
0
100
AcDbBlockEnd
  0
BLOCK
  5
225
100
AcDbEntity
  8
0
100
AcDbBlockBegin
 62
2
  6
CONTINUOUS
  2
*D2
 70
65
 10
0.0
 20
0.0
  3
*D2
  1

  0
MTEXT
  5
226
100
AcDbEntity
  8
0
100
AcDbMText
 62
2
  6
CONTINUOUS
  7
STANDARD
 71
1
 72
1
 10
1442.7073468456
 20
800.9493205477
 30
0.0
 11
1.0
 21
0.0
 31
0.0
 44
0.9
  1
28
 40
10.0
 41
30.8571428571
  0
LINE
  5
227
100
AcDbEntity
  8
0
100
AcDbLine
 62
2
  6
CONTINUOUS
 10
1402.0587203794
 20
735.2314121099
 11
1402.0587203794
 21
787.163606262
  0
LINE
  5
228
100
AcDbEntity
  8
0
100
AcDbLine
 62
2
  6
CONTINUOUS
 10
1430.6155266617
 20
737.0052628054
 11
1430.6155266617
 21
787.163606262
  0
LINE
  5
229
100
AcDbEntity
  8
0
100
AcDbLine
 62
2
  6
CONTINUOUS
 10
1402.0587203794
 20
786.663606262
 11
1416.3371235205
 21
786.663606262
  0
LINE
  5
22A
100
AcDbEntity
  8
0
100
AcDbLine
 62
2
  6
CONTINUOUS
 10
1430.6155266617
 20
786.663606262
 11
1416.3371235205
 21
786.663606262
  0
LINE
  5
22B
100
AcDbEntity
  8
0
100
AcDbLine
 62
2
  6
CONTINUOUS
 10
1416.3371235205
 20
786.663606262
 11
1463.278775417
 21
786.663606262
  0
INSERT
  5
22C
100
AcDbEntity
  8
0
100
AcDbBlockReference
 62
2
  6
CONTINUOUS
  2
_FILLED
 10
1402.0587203794
 20
786.663606262
 41
3.0
 42
3.0
 43
3.0
 50
180.0
  0
INSERT
  5
22D
100
AcDbEntity
  8
0
100
AcDbBlockReference
 62
2
  6
CONTINUOUS
  2
_FILLED
 10
1430.6155266617
 20
786.663606262
 41
3.0
 42
3.0
 43
3.0
  0
ENDBLK
  5
22E
100
AcDbEntity
  8
0
  6
BYBLOCK
 62
0
100
AcDbBlockEnd
  0
BLOCK
  5
22F
100
AcDbEntity
  8
0
100
AcDbBlockBegin
 62
2
  6
CONTINUOUS
  2
*D3
 70
65
 10
0.0
 20
0.0
  3
*D3
  1

  0
MTEXT
  5
230
100
AcDbEntity
  8
0
100
AcDbMText
 62
2
  6
CONTINUOUS
  7
STANDARD
 71
2
 72
1
 10
1336.5587203794
 20
800.9493205477
 30
0.0
 11
1.0
 21
0.0
 31
0.0
 44
0.9
  1
130
 40
10.0
 41
46.2857142857
  0
LINE
  5
231
100
AcDbEntity
  8
0
100
AcDbLine
 62
2
  6
CONTINUOUS
 10
1271.0587203794
 20
579.3056761787
 11
1271.0587203794
 21
787.163606262
  0
LINE
  5
232
100
AcDbEntity
  8
0
100
AcDbLine
 62
2
  6
CONTINUOUS
 10
1402.0587203794
 20
735.2314121099
 11
1402.0587203794
 21
787.163606262
  0
LINE
  5
233
100
AcDbEntity
  8
0
100
AcDbLine
 62
2
  6
CONTINUOUS
 10
1271.0587203794
 20
786.663606262
 11
1336.5587203794
 21
786.663606262
  0
LINE
  5
234
100
AcDbEntity
  8
0
100
AcDbLine
 62
2
  6
CONTINUOUS
 10
1402.0587203794
 20
786.663606262
 11
1336.5587203794
 21
786.663606262
  0
INSERT
  5
235
100
AcDbEntity
  8
0
100
AcDbBlockReference
 62
2
  6
CONTINUOUS
  2
_FILLED
 10
1271.0587203794
 20
786.663606262
 41
3.0
 42
3.0
 43
3.0
 50
180.0
  0
INSERT
  5
236
100
AcDbEntity
  8
0
100
AcDbBlockReference
 62
2
  6
CONTINUOUS
  2
_FILLED
 10
1402.0587203794
 20
786.663606262
 41
3.0
 42
3.0
 43
3.0
  0
ENDBLK
  5
237
100
AcDbEntity
  8
0
  6
BYBLOCK
 62
0
100
AcDbBlockEnd
  0
ENDSEC
  0
SECTION
  2
ENTITIES
  0
DIMENSION
  5
238
100
AcDbEntity
  8
0
100
AcDbDimension
 62
2
  6
CONTINUOUS
  2
*D0
 10
1157.8309243176
 20
786.663606262
 11
632.2309243176
 21
786.663606262
 70
160
 71
2
 42
1051.2
  3
DIMSTYLE_1
100
AcDbAlignedDimension
 13
106.6309243176
 23
735.2921305319
 14
1157.8309243176
 24
735.2921305319
100
AcDbRotatedDimension
  0
DIMENSION
  5
239
100
AcDbEntity
  8
0
100
AcDbDimension
 62
2
  6
CONTINUOUS
  2
*D1
 10
59.0377125081
 20
210.4056761787
 11
59.0377125081
 21
473.9054020508
 70
160
 71
2
 42
526.9994517443
  3
DIMSTYLE_1
100
AcDbAlignedDimension
 13
109.2034081856
 23
737.405127923
 14
107.5445488655
 24
210.4056761787
 50
270.0
100
AcDbRotatedDimension
  0
DIMENSION
  5
23A
100
AcDbEntity
  8
0
100
AcDbDimension
 62
2
  6
CONTINUOUS
  2
*D2
 10
1430.6155266617
 20
786.663606262
 11
1452.9930611313
 21
786.663606262
 70
160
 71
1
 42
28.5568062823
  3
DIMSTYLE_1
100
AcDbAlignedDimension
 13
1402.0587203794
 23
734.7314121099
 14
1430.6155266617
 24
736.5052628054
100
AcDbRotatedDimension
  0
DIMENSION
  5
23B
100
AcDbEntity
  8
0
100
AcDbDimension
 62
2
  6
CONTINUOUS
  2
*D3
 10
1402.0587203794
 20
786.663606262
 11
1336.5587203794
 21
786.663606262
 70
160
 71
2
 42
131.0
  3
DIMSTYLE_1
100
AcDbAlignedDimension
 13
1271.0587203794
 23
578.8056761787
 14
1402.0587203794
 24
734.7314121099
100
AcDbRotatedDimension
  0
LINE
  5
23C
100
AcDbEntity
  8
0
100
AcDbLine
 62
7
  6
CONTINUOUS
 10
0.0
 20
-0.0
 11
0.0
 21
1000.0
  0
LINE
  5
23D
100
AcDbEntity
  8
0
100
AcDbLine
 62
7
  6
CONTINUOUS
 10
0.0
 20
-0.0
 11
1500.0
 21
-0.0
  0
LINE
  5
23E
100
AcDbEntity
  8
0
100
AcDbLine
 62
7
  6
CONTINUOUS
 10
0.0
 20
1000.0
 11
1500.0
 21
1000.0
  0
LINE
  5
23F
100
AcDbEntity
  8
0
100
AcDbLine
 62
7
  6
CONTINUOUS
 10
1500.0
 20
-0.0
 11
1500.0
 21
1000.0
  0
LINE
  5
240
100
AcDbEntity
  8
0
100
AcDbLine
 62
3
  6
CONTINUOUS
 10
106.6309243176
 20
735.3056761787
 11
106.6309243176
 21
211.3193007265
  0
LINE
  5
241
100
AcDbEntity
  8
0
100
AcDbLine
 62
7
  6
CONTINUOUS
 10
107.2309243176
 20
735.3056761787
 11
107.2309243176
 21
735.0056761787
  0
LINE
  5
242
100
AcDbEntity
  8
0
100
AcDbLine
 62
7
  6
CONTINUOUS
 10
107.2309243176
 20
211.6056761787
 11
107.2309243176
 21
211.3193007265
  0
LINE
  5
243
100
AcDbEntity
  8
0
100
AcDbLine
 62
7
  6
CONTINUOUS
 10
107.5309243176
 20
736.2056761787
 11
107.5309243176
 21
735.6056761787
  0
LINE
  5
244
100
AcDbEntity
  8
02___PRT_ALL_AXES
100
AcDbLine
 62
7
  6
CONTINUOUS
 10
107.5309243176
 20
210.4056761787
 11
107.5309243176
 21
211.0056761787
  0
LINE
  5
245
100
AcDbEntity
  8
0
100
AcDbLine
 62
7
  6
CONTINUOUS
 10
107.5309243176
 20
210.4056761787
 11
107.5309243176
 21
211.0056761787
  0
LINE
  5
246
100
AcDbEntity
  8
0
100
AcDbLine
 62
3
  6
CONTINUOUS
 10
107.8309243176
 20
734.7314121099
 11
107.8309243176
 21
211.8799402474
  0
LINE
  5
247
100
AcDbEntity
  8
0
100
AcDbLine
 62
7
  6
CONTINUOUS
 10
107.967287954
 20
210.9001693853
 11
107.967287954
 21
211.0056761787
  0
LINE
  5
248
100
AcDbEntity
  8
02___PRT_ALL_AXES
100
AcDbLine
 62
3
  6
CONTINUOUS
 10
129.8637882139
 20
658.3056761787
 11
129.8637882139
 21
288.3056761787
  0
LINE
  5
249
100
AcDbEntity
  8
02___PRT_ALL_AXES
100
AcDbLine
 62
3
  6
CONTINUOUS
 10
133.4144923695
 20
658.3056761787
 11
133.4144923695
 21
288.3056761787
  0
LINE
  5
24A
100
AcDbEntity
  8
02___PRT_ALL_AXES
100
AcDbLine
 62
3
  6
CONTINUOUS
 10
134.0085872829
 20
658.3056761787
 11
134.0085872829
 21
288.3056761786
  0
LINE
  5
24B
100
AcDbEntity
  8
02___PRT_ALL_AXES
100
AcDbLine
 62
3
  6
CONTINUOUS
 10
171.5478290433
 20
407.8359315278
 11
171.5857745894
 21
407.389624201
  0
LINE
  5
24C
100
AcDbEntity
  8
02___PRT_ALL_AXES
100
AcDbLine
 62
3
  6
CONTINUOUS
 10
170.8784251948
 20
443.6070175267
 11
170.8554764446
 21
444.0513181505
  0
LINE
  5
24D
100
AcDbEntity
  8
02___PRT_ALL_AXES
100
AcDbLine
 62
3
  6
CONTINUOUS
 10
171.2143061403
 20
455.3952254593
 11
171.2217717941
 21
454.9488766421
  0
LINE
  5
24E
100
AcDbEntity
  8
02___PRT_ALL_AXES
100
AcDbLine
 62
3
  6
CONTINUOUS
 10
140.7971712617
 20
658.3056761787
 11
140.7971712617
 21
288.3056761787
  0
LINE
  5
24F
100
AcDbEntity
  8
02___PRT_ALL_AXES
100
AcDbLine
 62
3
  6
CONTINUOUS
 10
157.2309243176
 20
368.3056761897
 11
157.2309243176
 21
578.3056761678
  0
LINE
  5
250
100
AcDbEntity
  8
02___PRT_ALL_AXES
100
AcDbLine
 62
3
  6
CONTINUOUS
 10
158.7313905169
 20
368.3056761787
 11
158.7313905169
 21
578.3056761787
  0
LINE
  5
251
100
AcDbEntity
  8
02___PRT_ALL_AXES
100
AcDbLine
 62
3
  6
CONTINUOUS
 10
162.2309243176
 20
255.938540075
 11
162.2309243176
 21
260.2979347473
  0
LINE
  5
252
100
AcDbEntity
  8
02___PRT_ALL_AXES
100
AcDbLine
 62
3
  6
CONTINUOUS
 10
162.2309243176
 20
686.31341761
 11
162.2309243176
 21
690.6728122823
  0
LINE
  5
253
100
AcDbEntity
  8
02___PRT_ALL_AXES
100
AcDbLine
 62
3
  6
CONTINUOUS
 10
164.6287445494
 20
581.4881062123
 11
164.628196415
 21
555.5942521509
  0
LINE
  5
254
100
AcDbEntity
  8
02___PRT_ALL_AXES
100
AcDbLine
 62
3
  6
CONTINUOUS
 10
164.6286158525
 20
486.303594907
 11
164.6286158525
 21
460.3077574503
  0
LINE
  5
255
100
AcDbEntity
  8
02___PRT_ALL_AXES
100
AcDbLine
 62
3
  6
CONTINUOUS
 10
164.6286814403
 20
533.8858675527
 11
164.6292402456
 21
507.9163571926
  0
LINE
  5
256
100
AcDbEntity
  8
02___PRT_ALL_AXES
100
AcDbLine
 62
3
  6
CONTINUOUS
 10
164.6292402456
 20
438.6949951648
 11
164.6281965319
 21
412.7247619781
  0
LINE
  5
257
100
AcDbEntity
  8
02___PRT_ALL_AXES
100
AcDbLine
 62
3
  6
CONTINUOUS
 10
164.6291728797
 20
391.0119059659
 11
164.6281964936
 21
365.1218188969
  0
LINE
  5
258
100
AcDbEntity
  8
02___PRT_ALL_AXES
100
AcDbLine
 62
3
  6
CONTINUOUS
 10
165.7060402385
 20
581.4883957532
 11
165.705739033
 21
555.599532454
  0
LINE
  5
259
100
AcDbEntity
  8
02___PRT_ALL_AXES
100
AcDbLine
 62
3
  6
CONTINUOUS
 10
165.7059694835
 20
486.3039972088
 11
165.7059694835
 21
460.3073551486
  0
LINE
  5
25A
100
AcDbEntity
  8
02___PRT_ALL_AXES
100
AcDbLine
 62
3
  6
CONTINUOUS
 10
165.706005538
 20
533.8862205718
 11
165.7063128458
 21
507.916617
  0
LINE
  5
25B
100
AcDbEntity
  8
02___PRT_ALL_AXES
100
AcDbLine
 62
3
  6
CONTINUOUS
 10
165.7063128445
 20
438.6947353573
 11
165.7057390532
 21
412.7251322644
  0
LINE
  5
25C
100
AcDbEntity
  8
02___PRT_ALL_AXES
100
AcDbLine
 62
3
  6
CONTINUOUS
 10
165.7062757902
 20
391.011819625
 11
165.7057390429
 21
365.1229570249
  0
LINE
  5
25D
100
AcDbEntity
  8
02___PRT_ALL_AXES
100
AcDbLine
 62
3
  6
CONTINUOUS
 10
166.1292274295
 20
581.4883956997
 11
166.1290123843
 21
555.5995324916
  0
LINE
  5
25E
100
AcDbEntity
  8
02___PRT_ALL_AXES
100
AcDbLine
 62
3
  6
CONTINUOUS
 10
166.1291768308
 20
486.3039971519
 11
166.1291768308
 21
460.3073552055
  0
LINE
  5
25F
100
AcDbEntity
  8
02___PRT_ALL_AXES
100
AcDbLine
 62
3
  6
CONTINUOUS
 10
166.1292026175
 20
533.8862205141
 11
166.1294222215
 21
507.9166168388
  0
LINE
  5
260
100
AcDbEntity
  8
02___PRT_ALL_AXES
100
AcDbLine
 62
3
  6
CONTINUOUS
 10
166.1294222232
 20
438.6947355185
 11
166.129012403
 21
412.725132199
  0
LINE
  5
261
100
AcDbEntity
  8
02___PRT_ALL_AXES
100
AcDbLine
 62
3
  6
CONTINUOUS
 10
166.1293957872
 20
391.0118196751
 11
166.1290123934
 21
365.1229569702
  0
LINE
  5
262
100
AcDbEntity
  8
02___PRT_ALL_AXES
100
AcDbLine
 62
3
  6
CONTINUOUS
 10
167.6380776429
 20
581.4889113177
 11
167.6375719929
 21
555.6046548715
  0
LINE
  5
263
100
AcDbEntity
  8
02___PRT_ALL_AXES
100
AcDbLine
 62
3
  6
CONTINUOUS
 10
167.6379587143
 20
486.3047141722
 11
167.6379587143
 21
460.3066381851
  0
LINE
  5
264
100
AcDbEntity
  8
02___PRT_ALL_AXES
100
AcDbLine
 62
3
  6
CONTINUOUS
 10
167.6380193197
 20
533.8868494277
 11
167.6385352624
 21
507.9170782874
  0
LINE
  5
265
100
AcDbEntity
  8
02___PRT_ALL_AXES
100
AcDbLine
 62
3
  6
CONTINUOUS
 10
167.6385352624
 20
438.6942740699
 11
167.6375721585
 21
412.7317980264
  0
LINE
  5
266
100
AcDbEntity
  8
02___PRT_ALL_AXES
100
AcDbLine
 62
3
  6
CONTINUOUS
 10
167.6384731706
 20
391.0116662593
 11
167.6375721168
 21
365.1291317374
  0
LINE
  5
267
100
AcDbEntity
  8
02___PRT_ALL_AXES
100
AcDbLine
 62
3
  6
CONTINUOUS
 10
171.2143061402
 20
491.216126898
 11
171.2217717941
 21
491.6624757152
  0
LINE
  5
268
100
AcDbEntity
  8
02___PRT_ALL_AXES
100
AcDbLine
 62
3
  6
CONTINUOUS
 10
170.8784251948
 20
503.0043348306
 11
170.8554764446
 21
502.5600342069
  0
LINE
  5
269
100
AcDbEntity
  8
02___PRT_ALL_AXES
100
AcDbLine
 62
3
  6
CONTINUOUS
 10
171.5478291402
 20
538.7754209639
 11
171.5857744936
 21
539.2217283236
  0
LINE
  5
26A
100
AcDbEntity
  8
02___PRT_ALL_AXES
100
AcDbLine
 62
3
  6
CONTINUOUS
 10
170.5448625773
 20
550.7098811592
 11
170.4919899113
 21
550.2696614331
  0
LINE
  5
26B
100
AcDbEntity
  8
02___PRT_ALL_AXES
100
AcDbLine
 62
3
  6
CONTINUOUS
 10
171.8744833342
 20
586.3328283025
 11
171.9425513202
 21
586.7770347503
  0
LINE
  5
26C
100
AcDbEntity
  8
02___PRT_ALL_AXES
100
AcDbLine
 62
3
  6
CONTINUOUS
 10
176.2281014606
 20
597.5291881403
 11
176.1461837252
 21
597.0949434932
  0
LINE
  5
26D
100
AcDbEntity
  8
02___PRT_ALL_AXES
100
AcDbLine
 62
3
  6
CONTINUOUS
 10
202.3298941712
 20
626.7286683935
 11
202.4273391346
 21
627.1688259979
  0
LINE
  5
26E
100
AcDbEntity
  8
02___PRT_ALL_AXES
100
AcDbLine
 62
3
  6
CONTINUOUS
 10
202.329894966
 20
319.8826818039
 11
202.4273404217
 21
319.4425242458
  0
LINE
  5
26F
100
AcDbEntity
  8
02___PRT_ALL_AXES
100
AcDbLine
 62
3
  6
CONTINUOUS
 10
176.2281009036
 20
349.0821644456
 11
176.1461825307
 21
349.5164090127
  0
LINE
  5
270
100
AcDbEntity
  8
02___PRT_ALL_AXES
100
AcDbLine
 62
3
  6
CONTINUOUS
 10
171.8744833511
 20
360.2785242598
 11
171.9425516463
 21
359.8343178833
  0
LINE
  5
271
100
AcDbEntity
  8
02___PRT_ALL_AXES
100
AcDbLine
 62
3
  6
CONTINUOUS
 10
170.5448615532
 20
395.9014717115
 11
170.4919875593
 21
396.341691357
  0
LINE
  5
272
100
AcDbEntity
  8
02___PRT_ALL_AXES
100
AcDbLine
 62
3
  6
CONTINUOUS
 10
269.5076725026
 20
622.7525677361
 11
269.3979195344
 21
622.3259889259
  0
LINE
  5
273
100
AcDbEntity
  8
02___PRT_ALL_AXES
100
AcDbLine
 62
3
  6
CONTINUOUS
 10
269.5076723175
 20
323.8587846631
 11
269.3979194361
 21
324.2853635004
  0
LINE
  5
274
100
AcDbEntity
  8
02___PRT_ALL_AXES
100
AcDbLine
 62
3
  6
CONTINUOUS
 10
270.884633415
 20
634.4207519302
 11
270.876856767
 21
634.8663363418
  0
LINE
  5
275
100
AcDbEntity
  8
02___PRT_ALL_AXES
100
AcDbLine
 62
3
  6
CONTINUOUS
 10
270.8846339435
 20
312.1906005221
 11
270.8768577885
 21
311.7450161176
  0
LINE
  5
276
100
AcDbEntity
  8
02___PRT_ALL_AXES
100
AcDbLine
 62
3
  6
CONTINUOUS
 10
342.2463655533
 20
634.4207511797
 11
342.2385873912
 21
634.8663355859
  0
LINE
  5
277
100
AcDbEntity
  8
02___PRT_ALL_AXES
100
AcDbLine
 62
3
  6
CONTINUOUS
 10
342.2463344238
 20
312.1887451907
 11
342.2385558494
 21
311.7431032147
  0
LINE
  5
278
100
AcDbEntity
  8
02___PRT_ALL_AXES
100
AcDbLine
 62
3
  6
CONTINUOUS
 10
392.9448616117
 20
527.8996242492
 11
392.891987792
 21
527.4594045876
  0
LINE
  5
279
100
AcDbEntity
  8
02___PRT_ALL_AXES
100
AcDbLine
 62
3
  6
CONTINUOUS
 10
394.274483079
 20
548.3157343404
 11
394.3425508973
 21
548.759940818
  0
LINE
  5
27A
100
AcDbEntity
  8
02___PRT_ALL_AXES
100
AcDbLine
 62
3
  6
CONTINUOUS
 10
392.6181273722
 20
560.5394398088
 11
392.5362222504
 21
560.1052651371
  0
LINE
  5
27B
100
AcDbEntity
  8
02___PRT_ALL_AXES
100
AcDbLine
 62
3
  6
CONTINUOUS
 10
394.5903219729
 20
580.7129629997
 11
394.6877706515
 21
581.1531198326
  0
LINE
  5
27C
100
AcDbEntity
  8
02___PRT_ALL_AXES
100
AcDbLine
 62
3
  6
CONTINUOUS
 10
387.8395846034
 20
594.4309471834
 11
387.7298319356
 21
594.004368294
  0
LINE
  5
27D
100
AcDbEntity
  8
02___PRT_ALL_AXES
100
AcDbLine
 62
3
  6
CONTINUOUS
 10
190.3866483018
 20
322.1017614624
 11
190.1353203482
 21
321.7481421309
  0
LINE
  5
27E
100
AcDbEntity
  8
0
100
AcDbLine
 62
3
  6
CONTINUOUS
 10
1156.9172997698
 20
210.4056761787
 11
107.5445488655
 21
210.4056761787
  0
LINE
  5
27F
100
AcDbEntity
  8
0
100
AcDbLine
 62
7
  6
CONTINUOUS
 10
1156.9172997698
 20
211.0056761787
 11
1156.7387886107
 21
211.0056761787
  0
LINE
  5
280
100
AcDbEntity
  8
0
100
AcDbLine
 62
7
  6
CONTINUOUS
 10
107.8309243176
 20
211.0056761787
 11
107.5445488655
 21
211.0056761787
  0
LINE
  5
281
100
AcDbEntity
  8
0
100
AcDbLine
 62
7
  6
CONTINUOUS
 10
1157.8309243176
 20
211.3056761787
 11
1157.2309243176
 21
211.3056761787
  0
LINE
  5
282
100
AcDbEntity
  8
02___PRT_ALL_AXES
100
AcDbLine
 62
7
  6
CONTINUOUS
 10
1157.8309243176
 20
211.3056761787
 11
1157.2309243176
 21
211.3056761787
  0
LINE
  5
283
100
AcDbEntity
  8
02___PRT_ALL_AXES
100
AcDbLine
 62
7
  6
CONTINUOUS
 10
106.6309243176
 20
211.3056761787
 11
107.2309243176
 21
211.3056761787
  0
LINE
  5
284
100
AcDbEntity
  8
0
100
AcDbLine
 62
7
  6
CONTINUOUS
 10
106.6309243176
 20
211.3193007265
 11
107.2309243176
 21
211.3193007265
  0
LINE
  5
285
100
AcDbEntity
  8
0
100
AcDbLine
 62
3
  6
CONTINUOUS
 10
1156.3566602489
 20
211.6056761787
 11
108.1051883863
 21
211.6056761787
  0
LINE
  5
286
100
AcDbEntity
  8
0
100
AcDbLine
 62
7
  6
CONTINUOUS
 10
1157.336431111
 20
211.742039815
 11
1157.2309243176
 21
211.742039815
  0
LINE
  5
287
100
AcDbEntity
  8
0
100
AcDbLine
 62
7
  6
CONTINUOUS
 10
107.1254175242
 20
211.742039815
 11
107.2309243176
 21
211.742039815
  0
LINE
  5
288
100
AcDbEntity
  8
02___PRT_ALL_AXES
100
AcDbLine
 62
3
  6
CONTINUOUS
 10
190.39222703
 20
624.5014789558
 11
190.1414373978
 21
624.8543384529
  0
LINE
  5
289
100
AcDbEntity
  8
02___PRT_ALL_AXES
100
AcDbLine
 62
3
  6
CONTINUOUS
 10
387.8395846034
 20
352.180405174
 11
387.7298319356
 21
352.6069840634
  0
LINE
  5
28A
100
AcDbEntity
  8
02___PRT_ALL_AXES
100
AcDbLine
 62
3
  6
CONTINUOUS
 10
394.590321912
 20
365.8983893387
 11
394.687770468
 21
365.4582324761
  0
LINE
  5
28B
100
AcDbEntity
  8
02___PRT_ALL_AXES
100
AcDbLine
 62
3
  6
CONTINUOUS
 10
392.6181280645
 20
386.0719124661
 11
392.5362102734
 21
386.5061571137
  0
LINE
  5
28C
100
AcDbEntity
  8
02___PRT_ALL_AXES
100
AcDbLine
 62
3
  6
CONTINUOUS
 10
394.274483079
 20
398.2956180169
 11
394.3425508973
 21
397.8514115393
  0
LINE
  5
28D
100
AcDbEntity
  8
02___PRT_ALL_AXES
100
AcDbLine
 62
3
  6
CONTINUOUS
 10
392.9448616117
 20
418.7117281081
 11
392.891987792
 21
419.1519477697
  0
LINE
  5
28E
100
AcDbEntity
  8
02___PRT_ALL_AXES
100
AcDbLine
 62
3
  6
CONTINUOUS
 10
393.9478288273
 20
430.6461877519
 11
393.9857759917
 21
430.1998559749
  0
LINE
  5
28F
100
AcDbEntity
  8
02___PRT_ALL_AXES
100
AcDbLine
 62
3
  6
CONTINUOUS
 10
393.2784257781
 20
451.2104363448
 11
393.2554775126
 21
451.6547369846
  0
LINE
  5
290
100
AcDbEntity
  8
02___PRT_ALL_AXES
100
AcDbLine
 62
3
  6
CONTINUOUS
 10
393.6143060375
 20
462.9986442539
 11
393.6217713687
 21
462.5522954252
  0
LINE
  5
291
100
AcDbEntity
  8
02___PRT_ALL_AXES
100
AcDbLine
 62
3
  6
CONTINUOUS
 10
396.8975935659
 20
565.3841027638
 11
396.8978298213
 21
575.9338833166
  0
LINE
  5
292
100
AcDbEntity
  8
02___PRT_ALL_AXES
100
AcDbLine
 62
3
  6
CONTINUOUS
 10
396.8977129112
 20
500.3124909412
 11
396.8981009105
 21
511.0709236949
  0
LINE
  5
293
100
AcDbEntity
  8
02___PRT_ALL_AXES
100
AcDbLine
 62
3
  6
CONTINUOUS
 10
396.8980099606
 20
370.6794315967
 11
396.8981010297
 21
381.2206156086
  0
LINE
  5
294
100
AcDbEntity
  8
02___PRT_ALL_AXES
100
AcDbLine
 62
3
  6
CONTINUOUS
 10
396.8972798058
 20
403.1399197095
 11
396.8976520935
 21
413.8226961673
  0
LINE
  5
295
100
AcDbEntity
  8
02___PRT_ALL_AXES
100
AcDbLine
 62
3
  6
CONTINUOUS
 10
396.8976520935
 20
532.7886561899
 11
396.8972798058
 21
543.4714326479
  0
LINE
  5
296
100
AcDbEntity
  8
02___PRT_ALL_AXES
100
AcDbLine
 62
3
  6
CONTINUOUS
 10
398.3590617155
 20
565.3846109427
 11
398.3591619518
 21
575.9333937267
  0
LINE
  5
297
100
AcDbEntity
  8
02___PRT_ALL_AXES
100
AcDbLine
 62
3
  6
CONTINUOUS
 10
398.3591123701
 20
500.3131976118
 11
398.359276982
 21
511.0759640425
  0
LINE
  5
298
100
AcDbEntity
  8
02___PRT_ALL_AXES
100
AcDbLine
 62
3
  6
CONTINUOUS
 10
398.358866702
 20
467.9107744301
 11
398.3592769584
 21
478.7005786098
  0
LINE
  5
299
100
AcDbEntity
  8
02___PRT_ALL_AXES
100
AcDbLine
 62
3
  6
CONTINUOUS
 10
398.3592384144
 20
370.6779587869
 11
398.3592769725
 21
381.2267411108
  0
LINE
  5
29A
100
AcDbEntity
  8
02___PRT_ALL_AXES
100
AcDbLine
 62
3
  6
CONTINUOUS
 10
398.3588931745
 20
435.5353885002
 11
398.3591123575
 21
446.2981547455
  0
LINE
  5
29B
100
AcDbEntity
  8
02___PRT_ALL_AXES
100
AcDbLine
 62
3
  6
CONTINUOUS
 10
398.3589285028
 20
403.1400507666
 11
398.3590865502
 21
413.8220763296
  0
LINE
  5
29C
100
AcDbEntity
  8
02___PRT_ALL_AXES
100
AcDbLine
 62
3
  6
CONTINUOUS
 10
398.3590865502
 20
532.7892760277
 11
398.3589285028
 21
543.4713015907
  0
LINE
  5
29D
100
AcDbEntity
  8
02___PRT_ALL_AXES
100
AcDbLine
 62
3
  6
CONTINUOUS
 10
398.8266721315
 20
565.3846108928
 11
398.8268147885
 21
575.9333937524
  0
LINE
  5
29E
100
AcDbEntity
  8
02___PRT_ALL_AXES
100
AcDbLine
 62
3
  6
CONTINUOUS
 10
398.8267441197
 20
500.3131975587
 11
398.8269785988
 21
511.0759640776
  0
LINE
  5
29F
100
AcDbEntity
  8
02___PRT_ALL_AXES
100
AcDbLine
 62
3
  6
CONTINUOUS
 10
398.8269229412
 20
370.6779588131
 11
398.8269785883
 21
381.2267410598
  0
LINE
  5
2A0
100
AcDbEntity
  8
02___PRT_ALL_AXES
100
AcDbLine
 62
3
  6
CONTINUOUS
 10
398.8264324528
 20
435.5353885452
 11
398.8267441299
 21
446.2981547986
  0
LINE
  5
2A1
100
AcDbEntity
  8
02___PRT_ALL_AXES
100
AcDbLine
 62
3
  6
CONTINUOUS
 10
398.8264827009
 20
403.1400507458
 11
398.8267074407
 21
413.8220763834
  0
LINE
  5
2A2
100
AcDbEntity
  8
02___PRT_ALL_AXES
100
AcDbLine
 62
3
  6
CONTINUOUS
 10
398.8267074407
 20
532.7892759739
 11
398.8264827009
 21
543.4713016115
  0
LINE
  5
2A3
100
AcDbEntity
  8
02___PRT_ALL_AXES
100
AcDbLine
 62
3
  6
CONTINUOUS
 10
399.8701180752
 20
565.3848980358
 11
399.8703775753
 21
575.9331174514
  0
LINE
  5
2A4
100
AcDbEntity
  8
02___PRT_ALL_AXES
100
AcDbLine
 62
3
  6
CONTINUOUS
 10
399.8702490216
 20
500.3135965297
 11
399.8706758706
 21
511.0812053595
  0
LINE
  5
2A5
100
AcDbEntity
  8
02___PRT_ALL_AXES
100
AcDbLine
 62
3
  6
CONTINUOUS
 10
399.8705743483
 20
370.6771263757
 11
399.8706756626
 21
381.2278271053
  0
LINE
  5
2A6
100
AcDbEntity
  8
02___PRT_ALL_AXES
100
AcDbLine
 62
3
  6
CONTINUOUS
 10
399.8697735992
 20
403.14012491
 11
399.8701822876
 21
413.8217262875
  0
LINE
  5
2A7
100
AcDbEntity
  8
02___PRT_ALL_AXES
100
AcDbLine
 62
3
  6
CONTINUOUS
 10
399.8701822876
 20
532.7896260698
 11
399.8697735992
 21
543.4712274473
  0
LINE
  5
2A8
100
AcDbEntity
  8
02___PRT_ALL_AXES
100
AcDbLine
 62
3
  6
CONTINUOUS
 10
405.7653629312
 20
578.3056761787
 11
405.7653629312
 21
368.3056761787
  0
LINE
  5
2A9
100
AcDbEntity
  8
02___PRT_ALL_AXES
100
AcDbLine
 62
3
  6
CONTINUOUS
 10
407.2309243176
 20
578.3056761677
 11
407.2309243176
 21
368.3056761895
  0
LINE
  5
2AA
100
AcDbEntity
  8
02___PRT_ALL_AXES
100
AcDbLine
 62
3
  6
CONTINUOUS
 10
418.4279599349
 20
269.8094184072
 11
418.4279599349
 21
676.8019339502
  0
LINE
  5
2AB
100
AcDbEntity
  8
02___PRT_ALL_AXES
100
AcDbLine
 62
3
  6
CONTINUOUS
 10
427.1541631535
 20
262.9244783322
 11
427.1541674043
 21
415.1772550916
  0
LINE
  5
2AC
100
AcDbEntity
  8
02___PRT_ALL_AXES
100
AcDbLine
 62
3
  6
CONTINUOUS
 10
427.1541631535
 20
531.4340561569
 11
427.1541631535
 21
683.6868740251
  0
LINE
  5
2AD
100
AcDbEntity
  8
02___PRT_ALL_AXES
100
AcDbLine
 62
3
  6
CONTINUOUS
 10
396.8971343118
 20
467.9112292311
 11
396.8981007857
 21
478.6974241467
  0
LINE
  5
2AE
100
AcDbEntity
  8
02___PRT_ALL_AXES
100
AcDbLine
 62
3
  6
CONTINUOUS
 10
396.8971966299
 20
435.5355397054
 11
396.8977129112
 21
446.2988614161
  0
LINE
  5
2AF
100
AcDbEntity
  8
02___PRT_ALL_AXES
100
AcDbLine
 62
3
  6
CONTINUOUS
 10
398.8263947517
 20
467.9107745748
 11
398.8269785729
 21
478.7005787511
  0
LINE
  5
2B0
100
AcDbEntity
  8
02___PRT_ALL_AXES
100
AcDbLine
 62
3
  6
CONTINUOUS
 10
399.8696136945
 20
467.910516929
 11
399.8706763877
 21
478.708211797
  0
LINE
  5
2B1
100
AcDbEntity
  8
02___PRT_ALL_AXES
100
AcDbLine
 62
3
  6
CONTINUOUS
 10
399.8696822425
 20
435.5353029224
 11
399.8702490216
 21
446.2977558276
  0
LINE
  5
2B2
100
AcDbEntity
  8
02___PRT_ALL_AXES
100
AcDbLine
 62
3
  6
CONTINUOUS
 10
393.6143065446
 20
483.6127073526
 11
393.6217730532
 21
484.0590560744
  0
LINE
  5
2B3
100
AcDbEntity
  8
02___PRT_ALL_AXES
100
AcDbLine
 62
3
  6
CONTINUOUS
 10
393.2784257781
 20
495.4009160125
 11
393.2554775125
 21
494.9566153727
  0
LINE
  5
2B4
100
AcDbEntity
  8
02___PRT_ALL_AXES
100
AcDbLine
 62
3
  6
CONTINUOUS
 10
393.9478294969
 20
515.9651639159
 11
393.9857757988
 21
516.4114711235
  0
LINE
  5
2B5
100
AcDbEntity
  8
02___PRT_ALL_AXES
100
AcDbLine
 62
3
  6
CONTINUOUS
 10
393.4754319359
 20
601.220636669
 11
393.8994549846
 21
601.4139974124
  0
LINE
  5
2B6
100
AcDbEntity
  8
02___PRT_ALL_AXES
100
AcDbLine
 62
3
  6
CONTINUOUS
 10
162.2309243176
 20
260.2979347473
 11
418.5675791864
 21
262.8812151769
  0
LINE
  5
2B7
100
AcDbEntity
  8
02___PRT_ALL_AXES
100
AcDbLine
 62
3
  6
CONTINUOUS
 10
162.2309243176
 20
255.938540075
 11
1102.2309243176
 21
255.938540075
  0
LINE
  5
2B8
100
AcDbEntity
  8
02___PRT_ALL_AXES
100
AcDbLine
 62
3
  6
CONTINUOUS
 10
162.2309243176
 20
259.4892442305
 11
1102.2309243176
 21
259.4892442305
  0
LINE
  5
2B9
100
AcDbEntity
  8
02___PRT_ALL_AXES
100
AcDbLine
 62
3
  6
CONTINUOUS
 10
427.1541631535
 20
262.9244783322
 11
837.3076854817
 21
262.9244783322
  0
LINE
  5
2BA
100
AcDbEntity
  8
02___PRT_ALL_AXES
100
AcDbLine
 62
3
  6
CONTINUOUS
 10
427.1541631535
 20
269.8526815625
 11
837.3076854817
 21
269.8526815625
  0
LINE
  5
2BB
100
AcDbEntity
  8
02___PRT_ALL_AXES
100
AcDbLine
 62
3
  6
CONTINUOUS
 10
845.8942694488
 20
262.8812151769
 11
1102.2309243176
 21
260.2979347473
  0
LINE
  5
2BC
100
AcDbEntity
  8
02___PRT_ALL_AXES
100
AcDbLine
 62
3
  6
CONTINUOUS
 10
393.4681871941
 20
345.393955093
 11
393.8917970364
 21
345.2007829267
  0
LINE
  5
2BD
100
AcDbEntity
  8
02___PRT_ALL_AXES
100
AcDbLine
 62
3
  6
CONTINUOUS
 10
162.0913050661
 20
267.2261379776
 11
418.4279599349
 21
269.8094184072
  0
LINE
  5
2BE
100
AcDbEntity
  8
02___PRT_ALL_AXES
100
AcDbLine
 62
3
  6
CONTINUOUS
 10
418.4279599349
 20
269.8094184072
 11
427.1541631535
 21
269.8526815625
  0
LINE
  5
2BF
100
AcDbEntity
  8
02___PRT_ALL_AXES
100
AcDbLine
 62
3
  6
CONTINUOUS
 10
129.8637882139
 20
288.3056761787
 11
140.7971712617
 21
288.3056761787
  0
LINE
  5
2C0
100
AcDbEntity
  8
02___PRT_ALL_AXES
100
AcDbLine
 62
3
  6
CONTINUOUS
 10
1123.6646773736
 20
288.3056761787
 11
1134.5980604213
 21
288.3056761787
  0
LINE
  5
2C1
100
AcDbEntity
  8
02___PRT_ALL_AXES
100
AcDbLine
 62
3
  6
CONTINUOUS
 10
342.2309243066
 20
303.3056761787
 11
222.2309243283
 21
303.3056761787
  0
LINE
  5
2C2
100
AcDbEntity
  8
02___PRT_ALL_AXES
100
AcDbLine
 62
3
  6
CONTINUOUS
 10
922.2309243287
 20
303.3056761787
 11
1042.230924307
 21
303.3056761787
  0
LINE
  5
2C3
100
AcDbEntity
  8
02___PRT_ALL_AXES
100
AcDbLine
 62
3
  6
CONTINUOUS
 10
342.2483767241
 20
304.7889158761
 11
222.2483767241
 21
304.7889158761
  0
LINE
  5
2C4
100
AcDbEntity
  8
02___PRT_ALL_AXES
100
AcDbLine
 62
3
  6
CONTINUOUS
 10
922.2134719112
 20
304.7889158761
 11
1042.2134719112
 21
304.7889158761
  0
LINE
  5
2C5
100
AcDbEntity
  8
02___PRT_ALL_AXES
100
AcDbLine
 62
3
  6
CONTINUOUS
 10
922.2314383923
 20
310.6805647864
 11
993.5878460147
 21
310.6843556901
  0
LINE
  5
2C6
100
AcDbEntity
  8
02___PRT_ALL_AXES
100
AcDbLine
 62
3
  6
CONTINUOUS
 10
270.8768577885
 20
311.7450161176
 11
342.2385558494
 21
311.7431032147
  0
LINE
  5
2C7
100
AcDbEntity
  8
02___PRT_ALL_AXES
100
AcDbLine
 62
3
  6
CONTINUOUS
 10
922.2232927858
 20
311.7431032147
 11
993.5849908468
 21
311.7450161176
  0
LINE
  5
2C8
100
AcDbEntity
  8
02___PRT_ALL_AXES
100
AcDbLine
 62
3
  6
CONTINUOUS
 10
270.8846339435
 20
312.1906005221
 11
342.2463344238
 21
312.1887451907
  0
LINE
  5
2C9
100
AcDbEntity
  8
02___PRT_ALL_AXES
100
AcDbLine
 62
3
  6
CONTINUOUS
 10
922.2155142114
 20
312.1887451907
 11
993.5772146919
 21
312.1906005221
  0
LINE
  5
2CA
100
AcDbEntity
  8
02___PRT_ALL_AXES
100
AcDbLine
 62
3
  6
CONTINUOUS
 10
270.876725444
 20
310.6843555455
 11
342.2304102429
 21
310.6805647864
  0
LINE
  5
2CB
100
AcDbEntity
  8
02___PRT_ALL_AXES
100
AcDbLine
 62
3
  6
CONTINUOUS
 10
837.3076854817
 20
269.8526815625
 11
846.0338887003
 21
269.8094184072
  0
LINE
  5
2CC
100
AcDbEntity
  8
02___PRT_ALL_AXES
100
AcDbLine
 62
3
  6
CONTINUOUS
 10
846.0338887003
 20
269.8094184072
 11
1102.3705435691
 21
267.2261379776
  0
LINE
  5
2CD
100
AcDbEntity
  8
02___PRT_ALL_AXES
100
AcDbLine
 62
3
  6
CONTINUOUS
 10
922.2041186277
 20
313.6717633155
 11
993.5550007687
 21
313.6755241575
  0
LINE
  5
2CE
100
AcDbEntity
  8
02___PRT_ALL_AXES
100
AcDbLine
 62
3
  6
CONTINUOUS
 10
270.9067746961
 20
313.6755241614
 11
342.2577300075
 21
313.6717633155
  0
LINE
  5
2CF
100
AcDbEntity
  8
02___PRT_ALL_AXES
100
AcDbLine
 62
3
  6
CONTINUOUS
 10
518.843746708
 20
304.5835285719
 11
520.436528104
 21
314.3846972751
  0
LINE
  5
2D0
100
AcDbEntity
  8
02___PRT_ALL_AXES
100
AcDbLine
 62
3
  6
CONTINUOUS
 10
520.436528104
 20
314.3846972751
 11
520.5677965293
 21
315.1703564579
  0
LINE
  5
2D1
100
AcDbEntity
  8
02___PRT_ALL_AXES
100
AcDbLine
 62
3
  6
CONTINUOUS
 10
172.7184640061
 20
341.9266168149
 11
172.3410835636
 21
341.7295173638
  0
LINE
  5
2D2
100
AcDbEntity
  8
02___PRT_ALL_AXES
100
AcDbLine
 62
3
  6
CONTINUOUS
 10
164.6281965366
 20
365.1229568958
 11
167.6375719018
 21
365.1229568123
  0
LINE
  5
2D3
100
AcDbEntity
  8
02___PRT_ALL_AXES
100
AcDbLine
 62
3
  6
CONTINUOUS
 10
157.2309243176
 20
368.3056761787
 11
158.7313905169
 21
368.3056761787
  0
LINE
  5
2D4
100
AcDbEntity
  8
02___PRT_ALL_AXES
100
AcDbLine
 62
3
  6
CONTINUOUS
 10
858.696485704
 20
368.3056761787
 11
857.2309243176
 21
368.3056761895
  0
LINE
  5
2D5
100
AcDbEntity
  8
02___PRT_ALL_AXES
100
AcDbLine
 62
3
  6
CONTINUOUS
 10
1105.7304581184
 20
368.3056761787
 11
1107.2309243176
 21
368.3056761787
  0
LINE
  5
2D6
100
AcDbEntity
  8
02___PRT_ALL_AXES
100
AcDbLine
 62
3
  6
CONTINUOUS
 10
407.2309243176
 20
368.3056761787
 11
405.7653629312
 21
368.3056761787
  0
LINE
  5
2D7
100
AcDbEntity
  8
02___PRT_ALL_AXES
100
AcDbLine
 62
3
  6
CONTINUOUS
 10
864.5914300097
 20
370.677493297
 11
867.5639812157
 21
370.6787823807
  0
LINE
  5
2D8
100
AcDbEntity
  8
02___PRT_ALL_AXES
100
AcDbLine
 62
3
  6
CONTINUOUS
 10
399.8706756522
 20
381.2267411932
 11
396.8981010826
 21
381.2267412643
  0
LINE
  5
2D9
100
AcDbEntity
  8
02___PRT_ALL_AXES
100
AcDbLine
 62
3
  6
CONTINUOUS
 10
1096.8242767404
 20
391.0118197571
 11
1099.8336521062
 21
391.0118197014
  0
LINE
  5
2DA
100
AcDbEntity
  8
02___PRT_ALL_AXES
100
AcDbLine
 62
3
  6
CONTINUOUS
 10
167.6384731671
 20
391.0116662593
 11
164.629172885
 21
391.0119059659
  0
LINE
  5
2DB
100
AcDbEntity
  8
02___PRT_ALL_AXES
100
AcDbLine
 62
3
  6
CONTINUOUS
 10
1096.8239954635
 20
365.1242804911
 11
1099.8333464336
 21
365.1222131402
  0
LINE
  5
2DC
100
AcDbEntity
  8
02___PRT_ALL_AXES
100
AcDbLine
 62
3
  6
CONTINUOUS
 10
399.8705743484
 20
370.6771263757
 11
396.8980099606
 21
370.6794315967
  0
LINE
  5
2DD
100
AcDbEntity
  8
02___PRT_ALL_AXES
100
AcDbLine
 62
3
  6
CONTINUOUS
 10
867.5640298279
 20
381.2254366875
 11
864.5914839777
 21
381.2274787699
  0
LINE
  5
2DE
100
AcDbEntity
  8
02___PRT_ALL_AXES
100
AcDbLine
 62
3
  6
CONTINUOUS
 10
172.7163971518
 20
604.68583751
 11
172.3388715814
 21
604.8830104578
  0
LINE
  5
2DF
100
AcDbEntity
  8
02___PRT_ALL_AXES
100
AcDbLine
 62
3
  6
CONTINUOUS
 10
520.586202056
 20
631.3221942595
 11
518.8437467081
 21
642.0278237854
  0
LINE
  5
2E0
100
AcDbEntity
  8
02___PRT_ALL_AXES
100
AcDbLine
 62
3
  6
CONTINUOUS
 10
388.1959555831
 20
350.7331687048
 11
269.8675786023
 21
322.4123943357
  0
LINE
  5
2E1
100
AcDbEntity
  8
02___PRT_ALL_AXES
100
AcDbLine
 62
3
  6
CONTINUOUS
 10
387.8395846034
 20
352.180405174
 11
269.5076723175
 21
323.8587846631
  0
LINE
  5
2E2
100
AcDbEntity
  8
02___PRT_ALL_AXES
100
AcDbLine
 62
3
  6
CONTINUOUS
 10
387.7298319356
 20
352.6069840634
 11
269.3979194361
 21
324.2853635004
  0
LINE
  5
2E3
100
AcDbEntity
  8
02___PRT_ALL_AXES
100
AcDbLine
 62
3
  6
CONTINUOUS
 10
387.4720612438
 20
353.6399537239
 11
269.1360841796
 21
325.3173603461
  0
LINE
  5
2E4
100
AcDbEntity
  8
02___PRT_ALL_AXES
100
AcDbLine
 62
3
  6
CONTINUOUS
 10
202.5952661445
 20
318.3961517963
 11
394.9235691706
 21
364.4281047734
  0
LINE
  5
2E5
100
AcDbEntity
  8
02___PRT_ALL_AXES
100
AcDbLine
 62
3
  6
CONTINUOUS
 10
202.4273404217
 20
319.4425242458
 11
394.687770468
 21
365.4582324761
  0
LINE
  5
2E6
100
AcDbEntity
  8
02___PRT_ALL_AXES
100
AcDbLine
 62
3
  6
CONTINUOUS
 10
202.329894966
 20
319.8826818039
 11
394.590321912
 21
365.8983893387
  0
LINE
  5
2E7
100
AcDbEntity
  8
02___PRT_ALL_AXES
100
AcDbLine
 62
3
  6
CONTINUOUS
 10
201.9595932123
 20
321.315243038
 11
394.2611152616
 21
367.3407862894
  0
LINE
  5
2E8
100
AcDbEntity
  8
02___PRT_ALL_AXES
100
AcDbLine
 62
3
  6
CONTINUOUS
 10
392.8718926398
 20
384.6047795169
 11
176.4918358894
 21
347.6167358394
  0
LINE
  5
2E9
100
AcDbEntity
  8
02___PRT_ALL_AXES
100
AcDbLine
 62
3
  6
CONTINUOUS
 10
392.6181280645
 20
386.0719124661
 11
176.2281009036
 21
349.0821644456
  0
LINE
  5
2EA
100
AcDbEntity
  8
02___PRT_ALL_AXES
100
AcDbLine
 62
3
  6
CONTINUOUS
 10
392.5362102734
 20
386.5061571137
 11
176.1461825307
 21
349.5164090127
  0
LINE
  5
2EB
100
AcDbEntity
  8
02___PRT_ALL_AXES
100
AcDbLine
 62
3
  6
CONTINUOUS
 10
392.3298888073
 20
387.5498252804
 11
175.9568517162
 21
350.5629815635
  0
LINE
  5
2EC
100
AcDbEntity
  8
02___PRT_ALL_AXES
100
AcDbLine
 62
3
  6
CONTINUOUS
 10
429.0982259018
 20
397.6238186351
 11
439.7466170154
 21
398.9654282922
  0
LINE
  5
2ED
100
AcDbEntity
  8
02___PRT_ALL_AXES
100
AcDbLine
 62
3
  6
CONTINUOUS
 10
435.8139705686
 20
416.0092246569
 11
427.1541631535
 21
415.1772962004
  0
LINE
  5
2EE
100
AcDbEntity
  8
02___PRT_ALL_AXES
100
AcDbLine
 62
3
  6
CONTINUOUS
 10
864.5912835267
 20
403.1391608154
 11
867.5638469281
 21
403.1416256841
  0
LINE
  5
2EF
100
AcDbEntity
  8
02___PRT_ALL_AXES
100
AcDbLine
 62
3
  6
CONTINUOUS
 10
396.8972798031
 20
403.1399197095
 11
399.8697736041
 21
403.14012491
  0
LINE
  5
2F0
100
AcDbEntity
  8
02___PRT_ALL_AXES
100
AcDbLine
 62
3
  6
CONTINUOUS
 10
164.6281965467
 20
412.72513211
 11
167.6375719112
 21
412.7251320101
  0
LINE
  5
2F1
100
AcDbEntity
  8
02___PRT_ALL_AXES
100
AcDbLine
 62
3
  6
CONTINUOUS
 10
1096.8242767241
 20
412.7251320101
 11
1099.8336520885
 21
412.72513211
  0
LINE
  5
2F2
100
AcDbEntity
  8
02___PRT_ALL_AXES
100
AcDbLine
 62
3
  6
CONTINUOUS
 10
864.5911730584
 20
413.8220765178
 11
867.5637476212
 21
413.8220761674
  0
LINE
  5
2F3
100
AcDbEntity
  8
02___PRT_ALL_AXES
100
AcDbLine
 62
3
  6
CONTINUOUS
 10
867.5646520087
 20
435.5355397054
 11
864.5921663868
 21
435.5353029224
  0
LINE
  5
2F4
100
AcDbEntity
  8
02___PRT_ALL_AXES
100
AcDbLine
 62
3
  6
CONTINUOUS
 10
396.8971966266
 20
435.5355397054
 11
399.8696822485
 21
435.5353029224
  0
LINE
  5
2F5
100
AcDbEntity
  8
02___PRT_ALL_AXES
100
AcDbLine
 62
3
  6
CONTINUOUS
 10
396.8976520927
 20
413.8226961674
 11
399.870182289
 21
413.8217262875
  0
LINE
  5
2F6
100
AcDbEntity
  8
02___PRT_ALL_AXES
100
AcDbLine
 62
3
  6
CONTINUOUS
 10
828.6478780665
 20
416.0092246557
 11
837.3076854816
 21
415.1772962005
  0
LINE
  5
2F7
100
AcDbEntity
  8
02___PRT_ALL_AXES
100
AcDbLine
 62
3
  6
CONTINUOUS
 10
835.3636227335
 20
397.623818635
 11
825.5077607301
 21
398.8628777711
  0
LINE
  5
2F8
100
AcDbEntity
  8
02___PRT_ALL_AXES
100
AcDbLine
 62
3
  6
CONTINUOUS
 10
825.5077607301
 20
398.8628777711
 11
824.7153247371
 21
398.9661937411
  0
LINE
  5
2F9
100
AcDbEntity
  8
02___PRT_ALL_AXES
100
AcDbLine
 62
3
  6
CONTINUOUS
 10
1087.9692448972
 20
347.6168670956
 11
871.5850698391
 21
384.6056149551
  0
LINE
  5
2FA
100
AcDbEntity
  8
02___PRT_ALL_AXES
100
AcDbLine
 62
3
  6
CONTINUOUS
 10
1088.2337477306
 20
349.0821644458
 11
871.8437212361
 21
386.0719125508
  0
LINE
  5
2FB
100
AcDbEntity
  8
02___PRT_ALL_AXES
100
AcDbLine
 62
3
  6
CONTINUOUS
 10
1088.3156661043
 20
349.5164090127
 11
871.9256395275
 21
386.5061571305
  0
LINE
  5
2FC
100
AcDbEntity
  8
02___PRT_ALL_AXES
100
AcDbLine
 62
3
  6
CONTINUOUS
 10
1088.5055419392
 20
350.5628883977
 11
872.1153927514
 21
387.5526574747
  0
LINE
  5
2FD
100
AcDbEntity
  8
02___PRT_ALL_AXES
100
AcDbLine
 62
3
  6
CONTINUOUS
 10
994.5945328363
 20
322.4123314362
 11
876.2659077935
 21
350.7331651766
  0
LINE
  5
2FE
100
AcDbEntity
  8
02___PRT_ALL_AXES
100
AcDbLine
 62
3
  6
CONTINUOUS
 10
994.9541763177
 20
323.8587846631
 11
876.6222640318
 21
352.180405174
  0
LINE
  5
2FF
100
AcDbEntity
  8
02___PRT_ALL_AXES
100
AcDbLine
 62
3
  6
CONTINUOUS
 10
995.0639291991
 20
324.2853635004
 11
876.7320166996
 21
352.6069840634
  0
LINE
  5
300
100
AcDbEntity
  8
02___PRT_ALL_AXES
100
AcDbLine
 62
3
  6
CONTINUOUS
 10
995.32721914
 20
325.3170121812
 11
876.989350919
 21
353.6400581895
  0
LINE
  5
301
100
AcDbEntity
  8
02___PRT_ALL_AXES
100
AcDbLine
 62
3
  6
CONTINUOUS
 10
869.5413634239
 20
364.4273666706
 11
1061.8552517829
 21
318.3988646772
  0
LINE
  5
302
100
AcDbEntity
  8
02___PRT_ALL_AXES
100
AcDbLine
 62
3
  6
CONTINUOUS
 10
869.7740779361
 20
365.4582325449
 11
1062.0345067364
 21
319.4425255786
  0
LINE
  5
303
100
AcDbEntity
  8
02___PRT_ALL_AXES
100
AcDbLine
 62
3
  6
CONTINUOUS
 10
869.8715266513
 20
365.8983893683
 11
1062.1319526604
 21
319.8826829958
  0
LINE
  5
304
100
AcDbEntity
  8
02___PRT_ALL_AXES
100
AcDbLine
 62
3
  6
CONTINUOUS
 10
870.2084601244
 20
367.3389369774
 11
1062.5199723329
 21
321.3110036184
  0
LINE
  5
305
100
AcDbEntity
  8
02___PRT_ALL_AXES
100
AcDbLine
 62
3
  6
CONTINUOUS
 10
172.1245768426
 20
358.7922821722
 11
394.5111324488
 21
396.8070777686
  0
LINE
  5
306
100
AcDbEntity
  8
02___PRT_ALL_AXES
100
AcDbLine
 62
3
  6
CONTINUOUS
 10
171.9425516463
 20
359.8343178833
 11
394.3425508973
 21
397.8514115393
  0
LINE
  5
307
100
AcDbEntity
  8
02___PRT_ALL_AXES
100
AcDbLine
 62
3
  6
CONTINUOUS
 10
171.8744833511
 20
360.2785242598
 11
394.274483079
 21
398.2956180169
  0
LINE
  5
308
100
AcDbEntity
  8
02___PRT_ALL_AXES
100
AcDbLine
 62
3
  6
CONTINUOUS
 10
171.6487275197
 20
361.7423451019
 11
394.0362091463
 21
399.757299012
  0
LINE
  5
309
100
AcDbEntity
  8
02___PRT_ALL_AXES
100
AcDbLine
 62
3
  6
CONTINUOUS
 10
393.1034720266
 20
417.2328523949
 11
170.7133434383
 21
394.4236084568
  0
LINE
  5
30A
100
AcDbEntity
  8
02___PRT_ALL_AXES
100
AcDbLine
 62
3
  6
CONTINUOUS
 10
392.9448616117
 20
418.7117281081
 11
170.5448615532
 21
395.9014717115
  0
LINE
  5
30B
100
AcDbEntity
  8
02___PRT_ALL_AXES
100
AcDbLine
 62
3
  6
CONTINUOUS
 10
392.891987792
 20
419.1519477697
 11
170.4919875593
 21
396.341691357
  0
LINE
  5
30C
100
AcDbEntity
  8
02___PRT_ALL_AXES
100
AcDbLine
 62
3
  6
CONTINUOUS
 10
392.77034861
 20
420.207431562
 11
170.3690750473
 21
397.3970445513
  0
LINE
  5
30D
100
AcDbEntity
  8
02___PRT_ALL_AXES
100
AcDbLine
 62
3
  6
CONTINUOUS
 10
171.6946682307
 20
406.3363045713
 11
394.085857749
 21
429.1456120323
  0
LINE
  5
30E
100
AcDbEntity
  8
02___PRT_ALL_AXES
100
AcDbLine
 62
3
  6
CONTINUOUS
 10
171.5857745894
 20
407.389624201
 11
393.9857759917
 21
430.1998559749
  0
LINE
  5
30F
100
AcDbEntity
  8
02___PRT_ALL_AXES
100
AcDbLine
 62
3
  6
CONTINUOUS
 10
171.5478290433
 20
407.8359315278
 11
393.9478288273
 21
430.6461877519
  0
LINE
  5
310
100
AcDbEntity
  8
02___PRT_ALL_AXES
100
AcDbLine
 62
3
  6
CONTINUOUS
 10
171.4179285906
 20
409.3128918943
 11
393.8073714078
 21
432.1220653523
  0
LINE
  5
311
100
AcDbEntity
  8
02___PRT_ALL_AXES
100
AcDbLine
 62
3
  6
CONTINUOUS
 10
393.3357223913
 20
449.7257934833
 11
170.9462119207
 21
442.1227333015
  0
LINE
  5
312
100
AcDbEntity
  8
02___PRT_ALL_AXES
100
AcDbLine
 62
3
  6
CONTINUOUS
 10
393.2784257781
 20
451.2104363448
 11
170.8784251948
 21
443.6070175267
  0
LINE
  5
313
100
AcDbEntity
  8
02___PRT_ALL_AXES
100
AcDbLine
 62
3
  6
CONTINUOUS
 10
393.2554775126
 20
451.6547369846
 11
170.8554764446
 21
444.0513181505
  0
LINE
  5
314
100
AcDbEntity
  8
02___PRT_ALL_AXES
100
AcDbLine
 62
3
  6
CONTINUOUS
 10
393.2043458314
 20
452.7148472645
 11
170.8004495773
 21
445.1112952615
  0
LINE
  5
315
100
AcDbEntity
  8
02___PRT_ALL_AXES
100
AcDbLine
 62
3
  6
CONTINUOUS
 10
171.2493523238
 20
453.8891183279
 11
393.6544570308
 21
461.4927116455
  0
LINE
  5
316
100
AcDbEntity
  8
02___PRT_ALL_AXES
100
AcDbLine
 62
3
  6
CONTINUOUS
 10
171.2217717941
 20
454.9488766421
 11
393.6217713687
 21
462.5522954252
  0
LINE
  5
317
100
AcDbEntity
  8
02___PRT_ALL_AXES
100
AcDbLine
 62
3
  6
CONTINUOUS
 10
171.2143061403
 20
455.3952254593
 11
393.6143060375
 21
462.9986442539
  0
LINE
  5
318
100
AcDbEntity
  8
02___PRT_ALL_AXES
100
AcDbLine
 62
3
  6
CONTINUOUS
 10
171.1846345189
 20
456.8791927785
 11
393.5743418192
 21
464.4822596895
  0
LINE
  5
319
100
AcDbEntity
  8
02___PRT_ALL_AXES
100
AcDbLine
 62
3
  6
CONTINUOUS
 10
1093.2772141167
 20
489.7321595788
 11
870.9026335484
 21
482.1296090873
  0
LINE
  5
31A
100
AcDbEntity
  8
02___PRT_ALL_AXES
100
AcDbLine
 62
3
  6
CONTINUOUS
 10
1093.247542495
 20
491.216126898
 11
870.8475420906
 21
483.6127073526
  0
LINE
  5
31B
100
AcDbEntity
  8
02___PRT_ALL_AXES
100
AcDbLine
 62
3
  6
CONTINUOUS
 10
1093.2400768411
 20
491.6624757152
 11
870.8400755824
 21
484.0590560744
  0
LINE
  5
31C
100
AcDbEntity
  8
02___PRT_ALL_AXES
100
AcDbLine
 62
3
  6
CONTINUOUS
 10
1093.2124963113
 20
492.7222340294
 11
870.8346237585
 21
485.1195709252
  0
LINE
  5
31D
100
AcDbEntity
  8
02___PRT_ALL_AXES
100
AcDbLine
 62
3
  6
CONTINUOUS
 10
1096.8233133768
 20
438.6942740699
 11
1099.8326083836
 21
438.6949951647
  0
LINE
  5
31E
100
AcDbEntity
  8
02___PRT_ALL_AXES
100
AcDbLine
 62
3
  6
CONTINUOUS
 10
867.5641357247
 20
446.2988614161
 11
864.5915996126
 21
446.2977558276
  0
LINE
  5
31F
100
AcDbEntity
  8
02___PRT_ALL_AXES
100
AcDbLine
 62
3
  6
CONTINUOUS
 10
1096.8238899216
 20
460.3066381851
 11
1099.8332327818
 21
460.3077574503
  0
LINE
  5
320
100
AcDbEntity
  8
02___PRT_ALL_AXES
100
AcDbLine
 62
3
  6
CONTINUOUS
 10
867.5647143272
 20
467.9112292311
 11
864.592234934
 21
467.910516929
  0
LINE
  5
321
100
AcDbEntity
  8
02___PRT_ALL_AXES
100
AcDbLine
 62
3
  6
CONTINUOUS
 10
867.563747567
 20
478.700578184
 11
864.5911729988
 21
478.7005783813
  0
LINE
  5
322
100
AcDbEntity
  8
02___PRT_ALL_AXES
100
AcDbLine
 62
3
  6
CONTINUOUS
 10
396.8981010683
 20
478.700578184
 11
399.8706756364
 21
478.7005783813
  0
LINE
  5
323
100
AcDbEntity
  8
02___PRT_ALL_AXES
100
AcDbLine
 62
3
  6
CONTINUOUS
 10
164.6292402517
 20
438.6949951647
 11
167.6385352585
 21
438.6942740699
  0
LINE
  5
324
100
AcDbEntity
  8
02___PRT_ALL_AXES
100
AcDbLine
 62
3
  6
CONTINUOUS
 10
399.8696137013
 20
467.910516929
 11
396.897134308
 21
467.9112292311
  0
LINE
  5
325
100
AcDbEntity
  8
02___PRT_ALL_AXES
100
AcDbLine
 62
3
  6
CONTINUOUS
 10
396.8977129106
 20
446.2988614161
 11
399.8702490226
 21
446.2977558276
  0
LINE
  5
326
100
AcDbEntity
  8
02___PRT_ALL_AXES
100
AcDbLine
 62
3
  6
CONTINUOUS
 10
167.6379587137
 20
460.3066381851
 11
164.6286158535
 21
460.3077574503
  0
LINE
  5
327
100
AcDbEntity
  8
02___PRT_ALL_AXES
100
AcDbLine
 62
3
  6
CONTINUOUS
 10
1093.5151116367
 20
442.1227512529
 11
871.1253594087
 21
449.7258196999
  0
LINE
  5
328
100
AcDbEntity
  8
02___PRT_ALL_AXES
100
AcDbLine
 62
3
  6
CONTINUOUS
 10
1093.5834234404
 20
443.6070175267
 11
871.1834228571
 21
451.2104363448
  0
LINE
  5
329
100
AcDbEntity
  8
02___PRT_ALL_AXES
100
AcDbLine
 62
3
  6
CONTINUOUS
 10
1093.6063721906
 20
444.0513181505
 11
871.2063711227
 21
451.6547369846
  0
LINE
  5
32A
100
AcDbEntity
  8
02___PRT_ALL_AXES
100
AcDbLine
 62
3
  6
CONTINUOUS
 10
1093.6624485685
 20
445.1112593808
 11
871.2545375491
 21
452.7149486407
  0
LINE
  5
32B
100
AcDbEntity
  8
02___PRT_ALL_AXES
100
AcDbLine
 62
3
  6
CONTINUOUS
 10
870.8059879174
 20
461.4927596348
 11
1093.2145916294
 21
453.8890466931
  0
LINE
  5
32C
100
AcDbEntity
  8
02___PRT_ALL_AXES
100
AcDbLine
 62
3
  6
CONTINUOUS
 10
870.8400772666
 20
462.5522954252
 11
1093.2400768411
 21
454.9488766421
  0
LINE
  5
32D
100
AcDbEntity
  8
02___PRT_ALL_AXES
100
AcDbLine
 62
3
  6
CONTINUOUS
 10
870.8475425977
 20
462.9986442539
 11
1093.247542495
 21
455.3952254593
  0
LINE
  5
32E
100
AcDbEntity
  8
02___PRT_ALL_AXES
100
AcDbLine
 62
3
  6
CONTINUOUS
 10
870.8880252039
 20
464.4822419668
 11
1093.2778921658
 21
456.8791695973
  0
LINE
  5
32F
100
AcDbEntity
  8
02___PRT_ALL_AXES
100
AcDbLine
 62
3
  6
CONTINUOUS
 10
393.5552885157
 20
482.129743329
 11
171.1839564692
 21
489.73218276
  0
LINE
  5
330
100
AcDbEntity
  8
02___PRT_ALL_AXES
100
AcDbLine
 62
3
  6
CONTINUOUS
 10
393.6143065446
 20
483.6127073526
 11
171.2143061402
 21
491.216126898
  0
LINE
  5
331
100
AcDbEntity
  8
02___PRT_ALL_AXES
100
AcDbLine
 62
3
  6
CONTINUOUS
 10
393.6217730532
 20
484.0590560744
 11
171.2217717941
 21
491.6624757152
  0
LINE
  5
332
100
AcDbEntity
  8
02___PRT_ALL_AXES
100
AcDbLine
 62
3
  6
CONTINUOUS
 10
393.6190082711
 20
485.1198518348
 11
171.2472570059
 21
492.7223056642
  0
LINE
  5
333
100
AcDbEntity
  8
02___PRT_ALL_AXES
100
AcDbLine
 62
3
  6
CONTINUOUS
 10
1093.7514717932
 20
394.4233041919
 11
871.3593691752
 21
417.2327506097
  0
LINE
  5
334
100
AcDbEntity
  8
02___PRT_ALL_AXES
100
AcDbLine
 62
3
  6
CONTINUOUS
 10
1093.9169869835
 20
395.901471723
 11
871.5169870806
 21
418.7117281187
  0
LINE
  5
335
100
AcDbEntity
  8
02___PRT_ALL_AXES
100
AcDbLine
 62
3
  6
CONTINUOUS
 10
1093.9698609082
 20
396.3416913758
 11
871.5698609845
 21
419.1519477732
  0
LINE
  5
336
100
AcDbEntity
  8
02___PRT_ALL_AXES
100
AcDbLine
 62
3
  6
CONTINUOUS
 10
1094.0891475129
 20
397.397416458
 11
871.6861709464
 21
420.2079781521
  0
LINE
  5
337
100
AcDbEntity
  8
02___PRT_ALL_AXES
100
AcDbLine
 62
3
  6
CONTINUOUS
 10
870.3759908862
 20
429.1456120323
 11
1092.7658986581
 21
406.3364360322
  0
LINE
  5
338
100
AcDbEntity
  8
02___PRT_ALL_AXES
100
AcDbLine
 62
3
  6
CONTINUOUS
 10
870.4760726435
 20
430.1998559749
 11
1092.8760740458
 21
407.389624201
  0
LINE
  5
339
100
AcDbEntity
  8
02___PRT_ALL_AXES
100
AcDbLine
 62
3
  6
CONTINUOUS
 10
870.514019808
 20
430.6461877519
 11
1092.9140195921
 21
407.8359315278
  0
LINE
  5
33A
100
AcDbEntity
  8
02___PRT_ALL_AXES
100
AcDbLine
 62
3
  6
CONTINUOUS
 10
870.6545344101
 20
432.1220594874
 11
1093.0427309973
 21
409.3130138479
  0
LINE
  5
33B
100
AcDbEntity
  8
02___PRT_ALL_AXES
100
AcDbLine
 62
3
  6
CONTINUOUS
 10
869.9494761668
 20
396.8072897513
 11
1092.3524835209
 21
358.7896816582
  0
LINE
  5
33C
100
AcDbEntity
  8
02___PRT_ALL_AXES
100
AcDbLine
 62
3
  6
CONTINUOUS
 10
870.1192980702
 20
397.851411496
 11
1092.5192973139
 21
359.8343176098
  0
LINE
  5
33D
100
AcDbEntity
  8
02___PRT_ALL_AXES
100
AcDbLine
 62
3
  6
CONTINUOUS
 10
870.1873657291
 20
398.2956179997
 11
1092.5873653068
 21
360.2785240562
  0
LINE
  5
33E
100
AcDbEntity
  8
02___PRT_ALL_AXES
100
AcDbLine
 62
3
  6
CONTINUOUS
 10
870.4193178871
 20
399.7583796401
 11
1092.8177601315
 21
361.7415519075
  0
LINE
  5
33F
100
AcDbEntity
  8
02___PRT_ALL_AXES
100
AcDbLine
 62
3
  6
CONTINUOUS
 10
1092.8170898799
 20
584.8696858793
 11
870.4256394889
 21
546.8540533453
  0
LINE
  5
340
100
AcDbEntity
  8
02___PRT_ALL_AXES
100
AcDbLine
 62
3
  6
CONTINUOUS
 10
1092.587365301
 20
586.3328283025
 11
870.1873655563
 21
548.3157343404
  0
LINE
  5
341
100
AcDbEntity
  8
02___PRT_ALL_AXES
100
AcDbLine
 62
3
  6
CONTINUOUS
 10
1092.519297315
 20
586.7770347503
 11
870.1192977379
 21
548.759940818
  0
LINE
  5
342
100
AcDbEntity
  8
02___PRT_ALL_AXES
100
AcDbLine
 62
3
  6
CONTINUOUS
 10
1092.3516313212
 20
587.8215250266
 11
869.9507161864
 21
549.8042745887
  0
LINE
  5
343
100
AcDbEntity
  8
02___PRT_ALL_AXES
100
AcDbLine
 62
3
  6
CONTINUOUS
 10
872.1125934456
 20
559.0583473319
 11
1088.4898272498
 21
596.0457780472
  0
LINE
  5
344
100
AcDbEntity
  8
02___PRT_ALL_AXES
100
AcDbLine
 62
3
  6
CONTINUOUS
 10
871.9256263848
 20
560.1052651371
 11
1088.31566491
 21
597.0949434932
  0
LINE
  5
345
100
AcDbEntity
  8
02___PRT_ALL_AXES
100
AcDbLine
 62
3
  6
CONTINUOUS
 10
871.843721263
 20
560.5394398088
 11
1088.2337471748
 21
597.5291881404
  0
LINE
  5
346
100
AcDbEntity
  8
02___PRT_ALL_AXES
100
AcDbLine
 62
3
  6
CONTINUOUS
 10
871.5858001968
 20
562.0058622473
 11
1087.9577764935
 21
598.9925251736
  0
LINE
  5
347
100
AcDbEntity
  8
02___PRT_ALL_AXES
100
AcDbLine
 62
3
  6
CONTINUOUS
 10
1093.0447933407
 20
537.2985501763
 11
870.6681737242
 21
514.490691152
  0
LINE
  5
348
100
AcDbEntity
  8
02___PRT_ALL_AXES
100
AcDbLine
 62
3
  6
CONTINUOUS
 10
1092.9140194951
 20
538.7754209638
 11
870.5140191387
 21
515.9651639159
  0
LINE
  5
349
100
AcDbEntity
  8
02___PRT_ALL_AXES
100
AcDbLine
 62
3
  6
CONTINUOUS
 10
1092.8760741416
 20
539.2217283236
 11
870.4760728369
 21
516.4114711235
  0
LINE
  5
34A
100
AcDbEntity
  8
02___PRT_ALL_AXES
100
AcDbLine
 62
3
  6
CONTINUOUS
 10
1092.7773549659
 20
540.2760914868
 11
870.3994117533
 21
517.468096654
  0
LINE
  5
34B
100
AcDbEntity
  8
02___PRT_ALL_AXES
100
AcDbLine
 62
3
  6
CONTINUOUS
 10
871.691500025
 20
526.4039207953
 11
1094.0709499352
 21
549.2120701554
  0
LINE
  5
34C
100
AcDbEntity
  8
02___PRT_ALL_AXES
100
AcDbLine
 62
3
  6
CONTINUOUS
 10
871.5698608432
 20
527.4594045876
 11
1093.9698587241
 21
550.2696614331
  0
LINE
  5
34D
100
AcDbEntity
  8
02___PRT_ALL_AXES
100
AcDbLine
 62
3
  6
CONTINUOUS
 10
871.5169870235
 20
527.8996242492
 11
1093.9169860583
 21
550.7098811592
  0
LINE
  5
34E
100
AcDbEntity
  8
02___PRT_ALL_AXES
100
AcDbLine
 62
3
  6
CONTINUOUS
 10
871.3583766085
 20
529.3784999624
 11
1093.7353366887
 21
552.1863939016
  0
LINE
  5
34F
100
AcDbEntity
  8
02___PRT_ALL_AXES
100
AcDbLine
 62
3
  6
CONTINUOUS
 10
828.6478780665
 20
530.6021277016
 11
837.3076854816
 21
531.4340561569
  0
LINE
  5
350
100
AcDbEntity
  8
02___PRT_ALL_AXES
100
AcDbLine
 62
3
  6
CONTINUOUS
 10
871.2575028039
 20
493.8965050928
 11
1093.661399058
 21
501.5000570958
  0
LINE
  5
351
100
AcDbEntity
  8
02___PRT_ALL_AXES
100
AcDbLine
 62
3
  6
CONTINUOUS
 10
871.2063711227
 20
494.9566153727
 11
1093.6063721906
 21
502.5600342069
  0
LINE
  5
352
100
AcDbEntity
  8
02___PRT_ALL_AXES
100
AcDbLine
 62
3
  6
CONTINUOUS
 10
871.1834228571
 20
495.4009160125
 11
1093.5834234404
 21
503.0043348306
  0
LINE
  5
353
100
AcDbEntity
  8
02___PRT_ALL_AXES
100
AcDbLine
 62
3
  6
CONTINUOUS
 10
871.1261262439
 20
496.885558874
 11
1093.5156367145
 21
504.4886190558
  0
LINE
  5
354
100
AcDbEntity
  8
02___PRT_ALL_AXES
100
AcDbLine
 62
3
  6
CONTINUOUS
 10
167.6379587137
 20
486.3047141722
 11
164.6286158535
 21
486.303594907
  0
LINE
  5
355
100
AcDbEntity
  8
02___PRT_ALL_AXES
100
AcDbLine
 62
3
  6
CONTINUOUS
 10
396.8977129106
 20
500.3124909412
 11
399.8702490226
 21
500.3135965297
  0
LINE
  5
356
100
AcDbEntity
  8
02___PRT_ALL_AXES
100
AcDbLine
 62
3
  6
CONTINUOUS
 10
164.6292402517
 20
507.9163571926
 11
167.6385352585
 21
507.9170782874
  0
LINE
  5
357
100
AcDbEntity
  8
02___PRT_ALL_AXES
100
AcDbLine
 62
3
  6
CONTINUOUS
 10
867.563747543
 20
511.075963937
 11
864.5911729724
 21
511.0759639859
  0
LINE
  5
358
100
AcDbEntity
  8
02___PRT_ALL_AXES
100
AcDbLine
 62
3
  6
CONTINUOUS
 10
396.8981010923
 20
511.075963937
 11
399.8706756628
 21
511.0759639859
  0
LINE
  5
359
100
AcDbEntity
  8
02___PRT_ALL_AXES
100
AcDbLine
 62
3
  6
CONTINUOUS
 10
1096.8233133768
 20
507.9170782874
 11
1099.8326083836
 21
507.9163571926
  0
LINE
  5
35A
100
AcDbEntity
  8
02___PRT_ALL_AXES
100
AcDbLine
 62
3
  6
CONTINUOUS
 10
1096.8238899216
 20
486.3047141722
 11
1099.8332327818
 21
486.303594907
  0
LINE
  5
35B
100
AcDbEntity
  8
02___PRT_ALL_AXES
100
AcDbLine
 62
3
  6
CONTINUOUS
 10
867.5641357247
 20
500.3124909412
 11
864.5915996126
 21
500.3135965297
  0
LINE
  5
35C
100
AcDbEntity
  8
02___PRT_ALL_AXES
100
AcDbLine
 62
3
  6
CONTINUOUS
 10
170.7994000668
 20
501.5000929765
 11
393.2073110861
 21
493.8964037166
  0
LINE
  5
35D
100
AcDbEntity
  8
02___PRT_ALL_AXES
100
AcDbLine
 62
3
  6
CONTINUOUS
 10
170.8554764446
 20
502.5600342069
 11
393.2554775125
 21
494.9566153727
  0
LINE
  5
35E
100
AcDbEntity
  8
02___PRT_ALL_AXES
100
AcDbLine
 62
3
  6
CONTINUOUS
 10
170.8784251948
 20
503.0043348306
 11
393.2784257781
 21
495.4009160125
  0
LINE
  5
35F
100
AcDbEntity
  8
02___PRT_ALL_AXES
100
AcDbLine
 62
3
  6
CONTINUOUS
 10
170.9467369985
 20
504.4886011044
 11
393.3364892265
 21
496.8855326574
  0
LINE
  5
360
100
AcDbEntity
  8
02___PRT_ALL_AXES
100
AcDbLine
 62
3
  6
CONTINUOUS
 10
435.8139705686
 20
530.6021277004
 11
427.1541631535
 21
531.4340561569
  0
LINE
  5
361
100
AcDbEntity
  8
02___PRT_ALL_AXES
100
AcDbLine
 62
3
  6
CONTINUOUS
 10
393.790117862
 20
514.4910559776
 11
171.4168690046
 21
537.298569283
  0
LINE
  5
362
100
AcDbEntity
  8
02___PRT_ALL_AXES
100
AcDbLine
 62
3
  6
CONTINUOUS
 10
393.9478294969
 20
515.9651639159
 11
171.5478291402
 21
538.7754209639
  0
LINE
  5
363
100
AcDbEntity
  8
02___PRT_ALL_AXES
100
AcDbLine
 62
3
  6
CONTINUOUS
 10
393.9857757988
 20
516.4114711235
 11
171.5857744936
 21
539.2217283236
  0
LINE
  5
364
100
AcDbEntity
  8
02___PRT_ALL_AXES
100
AcDbLine
 62
3
  6
CONTINUOUS
 10
394.0565404473
 20
517.4687014165
 11
171.6822850765
 21
540.2763180091
  0
LINE
  5
365
100
AcDbEntity
  8
02___PRT_ALL_AXES
100
AcDbLine
 62
3
  6
CONTINUOUS
 10
170.3962369263
 20
549.211522645
 11
392.7727311965
 21
526.4036764275
  0
LINE
  5
366
100
AcDbEntity
  8
02___PRT_ALL_AXES
100
AcDbLine
 62
3
  6
CONTINUOUS
 10
170.4919899113
 20
550.2696614331
 11
392.891987792
 21
527.4594045876
  0
LINE
  5
367
100
AcDbEntity
  8
02___PRT_ALL_AXES
100
AcDbLine
 62
3
  6
CONTINUOUS
 10
170.5448625773
 20
550.7098811592
 11
392.9448616117
 21
527.8996242492
  0
LINE
  5
368
100
AcDbEntity
  8
02___PRT_ALL_AXES
100
AcDbLine
 62
3
  6
CONTINUOUS
 10
170.7297727634
 20
552.1860594588
 11
393.1036814204
 21
529.3784784861
  0
LINE
  5
369
100
AcDbEntity
  8
02___PRT_ALL_AXES
100
AcDbLine
 62
3
  6
CONTINUOUS
 10
394.036075598
 20
546.8540761741
 11
171.6444683015
 21
584.8697355296
  0
LINE
  5
36A
100
AcDbEntity
  8
02___PRT_ALL_AXES
100
AcDbLine
 62
3
  6
CONTINUOUS
 10
394.274483079
 20
548.3157343404
 11
171.8744833342
 21
586.3328283025
  0
LINE
  5
36B
100
AcDbEntity
  8
02___PRT_ALL_AXES
100
AcDbLine
 62
3
  6
CONTINUOUS
 10
394.3425508973
 20
548.759940818
 11
171.9425513202
 21
586.7770347503
  0
LINE
  5
36C
100
AcDbEntity
  8
02___PRT_ALL_AXES
100
AcDbLine
 62
3
  6
CONTINUOUS
 10
394.5110530751
 20
549.8042881568
 11
172.1087122076
 21
587.8217823097
  0
LINE
  5
36D
100
AcDbEntity
  8
02___PRT_ALL_AXES
100
AcDbLine
 62
3
  6
CONTINUOUS
 10
175.971134938
 20
596.0459295761
 11
392.3492551896
 21
559.0583473319
  0
LINE
  5
36E
100
AcDbEntity
  8
02___PRT_ALL_AXES
100
AcDbLine
 62
3
  6
CONTINUOUS
 10
176.1461837252
 20
597.0949434932
 11
392.5362222504
 21
560.1052651371
  0
LINE
  5
36F
100
AcDbEntity
  8
02___PRT_ALL_AXES
100
AcDbLine
 62
3
  6
CONTINUOUS
 10
176.2281014606
 20
597.5291881403
 11
392.6181273722
 21
560.5394398088
  0
LINE
  5
370
100
AcDbEntity
  8
02___PRT_ALL_AXES
100
AcDbLine
 62
3
  6
CONTINUOUS
 10
176.5059055128
 20
598.9922117769
 11
392.876389981
 21
562.005803864
  0
LINE
  5
371
100
AcDbEntity
  8
02___PRT_ALL_AXES
100
AcDbLine
 62
3
  6
CONTINUOUS
 10
745.6181019272
 20
642.0278237854
 11
743.8748795476
 21
631.3223141226
  0
LINE
  5
372
100
AcDbEntity
  8
02___PRT_ALL_AXES
100
AcDbLine
 62
3
  6
CONTINUOUS
 10
1062.5614089302
 20
625.3102647887
 11
870.2074130911
 21
579.2721647905
  0
LINE
  5
373
100
AcDbEntity
  8
02___PRT_ALL_AXES
100
AcDbLine
 62
3
  6
CONTINUOUS
 10
1062.131954464
 20
626.7286683935
 11
869.8715266623
 21
580.7129629997
  0
LINE
  5
374
100
AcDbEntity
  8
02___PRT_ALL_AXES
100
AcDbLine
 62
3
  6
CONTINUOUS
 10
1062.0345095006
 20
627.1688259979
 11
869.7740779837
 21
581.1531198326
  0
LINE
  5
375
100
AcDbEntity
  8
02___PRT_ALL_AXES
100
AcDbLine
 62
3
  6
CONTINUOUS
 10
1061.7966827373
 20
628.2024331995
 11
869.5384636735
 21
582.183291731
  0
LINE
  5
376
100
AcDbEntity
  8
02___PRT_ALL_AXES
100
AcDbLine
 62
3
  6
CONTINUOUS
 10
876.9897873913
 20
592.9713986334
 11
995.3282846742
 21
621.2945952938
  0
LINE
  5
377
100
AcDbEntity
  8
02___PRT_ALL_AXES
100
AcDbLine
 62
3
  6
CONTINUOUS
 10
876.7320166996
 20
594.004368294
 11
995.0639291008
 21
622.3259889259
  0
LINE
  5
378
100
AcDbEntity
  8
02___PRT_ALL_AXES
100
AcDbLine
 62
3
  6
CONTINUOUS
 10
876.6222640318
 20
594.4309471834
 11
994.9541761326
 21
622.7525677361
  0
LINE
  5
379
100
AcDbEntity
  8
02___PRT_ALL_AXES
100
AcDbLine
 62
3
  6
CONTINUOUS
 10
876.2658930522
 20
595.8781836525
 11
994.6053416589
 21
624.201607996
  0
LINE
  5
37A
100
AcDbEntity
  8
02___PRT_ALL_AXES
100
AcDbLine
 62
3
  6
CONTINUOUS
 10
824.6425539095
 20
547.636896559
 11
835.3636227335
 21
548.9875337222
  0
LINE
  5
37B
100
AcDbEntity
  8
02___PRT_ALL_AXES
100
AcDbLine
 62
3
  6
CONTINUOUS
 10
771.6123714094
 20
541.0106017975
 11
824.6418903351
 21
547.6421571142
  0
LINE
  5
37C
100
AcDbEntity
  8
02___PRT_ALL_AXES
100
AcDbLine
 62
3
  6
CONTINUOUS
 10
396.8976520927
 20
532.7886561899
 11
399.870182289
 21
532.7896260698
  0
LINE
  5
37D
100
AcDbEntity
  8
02___PRT_ALL_AXES
100
AcDbLine
 62
3
  6
CONTINUOUS
 10
167.6380193189
 20
533.8868494277
 11
164.6286814416
 21
533.8858675527
  0
LINE
  5
37E
100
AcDbEntity
  8
02___PRT_ALL_AXES
100
AcDbLine
 62
3
  6
CONTINUOUS
 10
867.5645688322
 20
543.4714326478
 11
864.5920750312
 21
543.4712274473
  0
LINE
  5
37F
100
AcDbEntity
  8
02___PRT_ALL_AXES
100
AcDbLine
 62
3
  6
CONTINUOUS
 10
1096.8242767424
 20
555.5995326002
 11
1099.8336521084
 21
555.5995325427
  0
LINE
  5
380
100
AcDbEntity
  8
02___PRT_ALL_AXES
100
AcDbLine
 62
3
  6
CONTINUOUS
 10
167.6375718928
 20
555.5995326002
 11
164.6281965268
 21
555.5995325427
  0
LINE
  5
381
100
AcDbEntity
  8
02___PRT_ALL_AXES
100
AcDbLine
 62
3
  6
CONTINUOUS
 10
396.8972798031
 20
543.4714326478
 11
399.8697736041
 21
543.4712274473
  0
LINE
  5
382
100
AcDbEntity
  8
02___PRT_ALL_AXES
100
AcDbLine
 62
3
  6
CONTINUOUS
 10
1096.8238293163
 20
533.8868494277
 11
1099.8331671936
 21
533.8858675527
  0
LINE
  5
383
100
AcDbEntity
  8
02___PRT_ALL_AXES
100
AcDbLine
 62
3
  6
CONTINUOUS
 10
867.5641965425
 20
532.7886561899
 11
864.5916663462
 21
532.7896260698
  0
LINE
  5
384
100
AcDbEntity
  8
02___PRT_ALL_AXES
100
AcDbLine
 62
3
  6
CONTINUOUS
 10
429.0982259017
 20
548.9875337223
 11
492.8494771759
 21
541.0106018045
  0
LINE
  5
385
100
AcDbEntity
  8
02___PRT_ALL_AXES
100
AcDbLine
 62
3
  6
CONTINUOUS
 10
394.2550281019
 20
579.2720229675
 11
201.9309948996
 21
625.3029516935
  0
LINE
  5
386
100
AcDbEntity
  8
02___PRT_ALL_AXES
100
AcDbLine
 62
3
  6
CONTINUOUS
 10
394.5903219729
 20
580.7129629997
 11
202.3298941712
 21
626.7286683935
  0
LINE
  5
387
100
AcDbEntity
  8
02___PRT_ALL_AXES
100
AcDbLine
 62
3
  6
CONTINUOUS
 10
394.6877706515
 20
581.1531198326
 11
202.4273391346
 21
627.1688259979
  0
LINE
  5
388
100
AcDbEntity
  8
02___PRT_ALL_AXES
100
AcDbLine
 62
3
  6
CONTINUOUS
 10
394.9233187058
 20
582.1833075255
 11
202.5924017726
 21
628.2158836888
  0
LINE
  5
389
100
AcDbEntity
  8
02___PRT_ALL_AXES
100
AcDbLine
 62
3
  6
CONTINUOUS
 10
269.1307188777
 20
621.2952762375
 11
387.4724977164
 21
592.9712941678
  0
LINE
  5
38A
100
AcDbEntity
  8
02___PRT_ALL_AXES
100
AcDbLine
 62
3
  6
CONTINUOUS
 10
269.3979195344
 20
622.3259889259
 11
387.7298319356
 21
594.004368294
  0
LINE
  5
38B
100
AcDbEntity
  8
02___PRT_ALL_AXES
100
AcDbLine
 62
3
  6
CONTINUOUS
 10
269.5076725026
 20
622.7525677361
 11
387.8395846034
 21
594.4309471834
  0
LINE
  5
38C
100
AcDbEntity
  8
02___PRT_ALL_AXES
100
AcDbLine
 62
3
  6
CONTINUOUS
 10
269.858560615
 20
624.2011164771
 11
388.1959408417
 21
595.8781871807
  0
LINE
  5
38D
100
AcDbEntity
  8
02___PRT_ALL_AXES
100
AcDbLine
 62
3
  6
CONTINUOUS
 10
745.6181019271
 20
304.583528572
 11
743.8947891511
 21
315.1704740363
  0
LINE
  5
38E
100
AcDbEntity
  8
02___PRT_ALL_AXES
100
AcDbLine
 62
3
  6
CONTINUOUS
 10
1091.7433589944
 20
604.6847218057
 11
1092.1208238862
 21
604.8818631177
  0
LINE
  5
38F
100
AcDbEntity
  8
02___PRT_ALL_AXES
100
AcDbLine
 62
3
  6
CONTINUOUS
 10
396.8975935648
 20
565.3841027639
 11
399.870118077
 21
565.3848980358
  0
LINE
  5
390
100
AcDbEntity
  8
02___PRT_ALL_AXES
100
AcDbLine
 62
3
  6
CONTINUOUS
 10
867.5640188142
 20
575.9338833166
 11
864.5914710594
 21
575.9331174514
  0
LINE
  5
391
100
AcDbEntity
  8
02___PRT_ALL_AXES
100
AcDbLine
 62
3
  6
CONTINUOUS
 10
858.696485704
 20
578.3056761787
 11
857.2309243176
 21
578.3056761787
  0
LINE
  5
392
100
AcDbEntity
  8
02___PRT_ALL_AXES
100
AcDbLine
 62
3
  6
CONTINUOUS
 10
407.2309243176
 20
578.3056761787
 11
405.7653629312
 21
578.3056761787
  0
LINE
  5
393
100
AcDbEntity
  8
02___PRT_ALL_AXES
100
AcDbLine
 62
3
  6
CONTINUOUS
 10
157.2309243176
 20
578.3056761787
 11
158.7313905169
 21
578.3056761787
  0
LINE
  5
394
100
AcDbEntity
  8
02___PRT_ALL_AXES
100
AcDbLine
 62
3
  6
CONTINUOUS
 10
1105.7304581184
 20
578.3056761787
 11
1107.2309243176
 21
578.3056761679
  0
LINE
  5
395
100
AcDbEntity
  8
02___PRT_ALL_AXES
100
AcDbLine
 62
3
  6
CONTINUOUS
 10
167.6380776418
 20
581.4889113177
 11
164.6287445511
 21
581.4881062123
  0
LINE
  5
396
100
AcDbEntity
  8
02___PRT_ALL_AXES
100
AcDbLine
 62
3
  6
CONTINUOUS
 10
867.5642550704
 20
565.3841027639
 11
864.5917305582
 21
565.3848980358
  0
LINE
  5
397
100
AcDbEntity
  8
02___PRT_ALL_AXES
100
AcDbLine
 62
3
  6
CONTINUOUS
 10
396.897829821
 20
575.9338833166
 11
399.8703775759
 21
575.9331174514
  0
LINE
  5
398
100
AcDbEntity
  8
02___PRT_ALL_AXES
100
AcDbLine
 62
3
  6
CONTINUOUS
 10
1096.8237709935
 20
581.4889113177
 11
1099.8331040842
 21
581.4881062123
  0
LINE
  5
399
100
AcDbEntity
  8
02___PRT_ALL_AXES
100
AcDbLine
 62
3
  6
CONTINUOUS
 10
1092.1210621375
 20
341.7293608439
 11
1091.7435903947
 21
341.9265062549
  0
LINE
  5
39A
100
AcDbEntity
  8
02___PRT_ALL_AXES
100
AcDbLine
 62
3
  6
CONTINUOUS
 10
993.5637090018
 20
632.9358276896
 11
922.1351229244
 21
632.9358269385
  0
LINE
  5
39B
100
AcDbEntity
  8
02___PRT_ALL_AXES
100
AcDbLine
 62
3
  6
CONTINUOUS
 10
342.2583886842
 20
632.9390901821
 11
270.8983363432
 21
632.9358276896
  0
LINE
  5
39C
100
AcDbEntity
  8
02___PRT_ALL_AXES
100
AcDbLine
 62
3
  6
CONTINUOUS
 10
993.5772152202
 20
634.4207519302
 11
922.2154830819
 21
634.4207511797
  0
LINE
  5
39D
100
AcDbEntity
  8
02___PRT_ALL_AXES
100
AcDbLine
 62
3
  6
CONTINUOUS
 10
342.2463655533
 20
634.4207511797
 11
270.884633415
 21
634.4207519302
  0
LINE
  5
39E
100
AcDbEntity
  8
02___PRT_ALL_AXES
100
AcDbLine
 62
3
  6
CONTINUOUS
 10
993.5849918682
 20
634.8663363418
 11
922.223261244
 21
634.8663355859
  0
LINE
  5
39F
100
AcDbEntity
  8
02___PRT_ALL_AXES
100
AcDbLine
 62
3
  6
CONTINUOUS
 10
342.2385873912
 20
634.8663355859
 11
270.876856767
 21
634.8663363418
  0
LINE
  5
3A0
100
AcDbEntity
  8
02___PRT_ALL_AXES
100
AcDbLine
 62
3
  6
CONTINUOUS
 10
993.5996825758
 20
635.9269965137
 11
922.1564631329
 21
635.9269957569
  0
LINE
  5
3A1
100
AcDbEntity
  8
02___PRT_ALL_AXES
100
AcDbLine
 62
3
  6
CONTINUOUS
 10
342.229927276
 20
635.9302828581
 11
270.8631680656
 21
635.9269962363
  0
LINE
  5
3A2
100
AcDbEntity
  8
02___PRT_ALL_AXES
100
AcDbLine
 62
3
  6
CONTINUOUS
 10
1042.2134719112
 20
641.8224364812
 11
922.2134719112
 21
641.8224364812
  0
LINE
  5
3A3
100
AcDbEntity
  8
02___PRT_ALL_AXES
100
AcDbLine
 62
3
  6
CONTINUOUS
 10
222.2483767241
 20
641.8224364812
 11
342.2483767241
 21
641.8224364812
  0
LINE
  5
3A4
100
AcDbEntity
  8
02___PRT_ALL_AXES
100
AcDbLine
 62
3
  6
CONTINUOUS
 10
1042.2309243067
 20
643.3056761787
 11
922.2309243285
 21
643.3056761787
  0
LINE
  5
3A5
100
AcDbEntity
  8
02___PRT_ALL_AXES
100
AcDbLine
 62
3
  6
CONTINUOUS
 10
222.2309243285
 20
643.3056761787
 11
342.2309243067
 21
643.3056761787
  0
LINE
  5
3A6
100
AcDbEntity
  8
02___PRT_ALL_AXES
100
AcDbLine
 62
3
  6
CONTINUOUS
 10
837.3076854817
 20
262.9244783322
 11
837.3076854817
 21
415.1772962005
  0
LINE
  5
3A7
100
AcDbEntity
  8
02___PRT_ALL_AXES
100
AcDbLine
 62
3
  6
CONTINUOUS
 10
837.3076812309
 20
531.434097264
 11
837.3076854817
 21
683.6868740251
  0
LINE
  5
3A8
100
AcDbEntity
  8
02___PRT_ALL_AXES
100
AcDbLine
 62
3
  6
CONTINUOUS
 10
1102.3705435691
 20
679.3852143797
 11
846.0338887003
 21
676.8019339502
  0
LINE
  5
3A9
100
AcDbEntity
  8
02___PRT_ALL_AXES
100
AcDbLine
 62
3
  6
CONTINUOUS
 10
1102.2309243176
 20
686.31341761
 11
845.8942694488
 21
683.7301371804
  0
LINE
  5
3AA
100
AcDbEntity
  8
02___PRT_ALL_AXES
100
AcDbLine
 62
3
  6
CONTINUOUS
 10
846.0338887003
 20
676.8019339502
 11
837.3076854817
 21
676.7586707949
  0
LINE
  5
3AB
100
AcDbEntity
  8
02___PRT_ALL_AXES
100
AcDbLine
 62
3
  6
CONTINUOUS
 10
129.8637882139
 20
658.3056761787
 11
140.7971712617
 21
658.3056761787
  0
LINE
  5
3AC
100
AcDbEntity
  8
02___PRT_ALL_AXES
100
AcDbLine
 62
3
  6
CONTINUOUS
 10
1123.6646773736
 20
658.3056761787
 11
1134.5980604213
 21
658.3056761787
  0
LINE
  5
3AD
100
AcDbEntity
  8
02___PRT_ALL_AXES
100
AcDbLine
 62
3
  6
CONTINUOUS
 10
837.3076854817
 20
676.7586707949
 11
427.1541631535
 21
676.7586707949
  0
LINE
  5
3AE
100
AcDbEntity
  8
02___PRT_ALL_AXES
100
AcDbLine
 62
3
  6
CONTINUOUS
 10
837.3076854817
 20
683.6868740251
 11
427.1541631535
 21
683.6868740251
  0
LINE
  5
3AF
100
AcDbEntity
  8
02___PRT_ALL_AXES
100
AcDbLine
 62
3
  6
CONTINUOUS
 10
427.1541631535
 20
676.7586707949
 11
418.4279599349
 21
676.8019339502
  0
LINE
  5
3B0
100
AcDbEntity
  8
02___PRT_ALL_AXES
100
AcDbLine
 62
3
  6
CONTINUOUS
 10
418.4279599349
 20
676.8019339502
 11
162.0913050661
 21
679.3852143797
  0
LINE
  5
3B1
100
AcDbEntity
  8
02___PRT_ALL_AXES
100
AcDbLine
 62
3
  6
CONTINUOUS
 10
418.5675791864
 20
683.7301371804
 11
162.2309243176
 21
686.31341761
  0
LINE
  5
3B2
100
AcDbEntity
  8
02___PRT_ALL_AXES
100
AcDbLine
 62
3
  6
CONTINUOUS
 10
870.5140191387
 20
515.9651639159
 11
870.4760728369
 21
516.4114711235
  0
LINE
  5
3B3
100
AcDbEntity
  8
02___PRT_ALL_AXES
100
AcDbLine
 62
3
  6
CONTINUOUS
 10
871.1834228571
 20
495.4009160125
 11
871.2063711227
 21
494.9566153727
  0
LINE
  5
3B4
100
AcDbEntity
  8
02___PRT_ALL_AXES
100
AcDbLine
 62
3
  6
CONTINUOUS
 10
870.8475420906
 20
483.6127073526
 11
870.8400755824
 21
484.0590560744
  0
LINE
  5
3B5
100
AcDbEntity
  8
02___PRT_ALL_AXES
100
AcDbLine
 62
3
  6
CONTINUOUS
 10
846.0338887003
 20
269.8094184072
 11
846.0338887003
 21
676.8019339502
  0
LINE
  5
3B6
100
AcDbEntity
  8
02___PRT_ALL_AXES
100
AcDbLine
 62
3
  6
CONTINUOUS
 10
857.2309243176
 20
578.3056761676
 11
857.2309243176
 21
368.3056761895
  0
LINE
  5
3B7
100
AcDbEntity
  8
02___PRT_ALL_AXES
100
AcDbLine
 62
3
  6
CONTINUOUS
 10
858.696485704
 20
578.3056761787
 11
858.696485704
 21
368.3056761787
  0
LINE
  5
3B8
100
AcDbEntity
  8
02___PRT_ALL_AXES
100
AcDbLine
 62
3
  6
CONTINUOUS
 10
864.5920750361
 20
543.4712274473
 11
864.5916663476
 21
532.7896260698
  0
LINE
  5
3B9
100
AcDbEntity
  8
02___PRT_ALL_AXES
100
AcDbLine
 62
3
  6
CONTINUOUS
 10
864.5915996137
 20
446.2977558276
 11
864.5921663927
 21
435.5353029224
  0
LINE
  5
3BA
100
AcDbEntity
  8
02___PRT_ALL_AXES
100
AcDbLine
 62
3
  6
CONTINUOUS
 10
864.5911729168
 20
413.8357687873
 11
864.5912835268
 21
403.1391608154
  0
LINE
  5
3BB
100
AcDbEntity
  8
02___PRT_ALL_AXES
100
AcDbLine
 62
3
  6
CONTINUOUS
 10
864.5911721314
 20
478.7093916591
 11
864.5922349408
 21
467.910516929
  0
LINE
  5
3BC
100
AcDbEntity
  8
02___PRT_ALL_AXES
100
AcDbLine
 62
3
  6
CONTINUOUS
 10
864.5914839782
 20
381.2274787699
 11
864.5914300101
 21
370.677493297
  0
LINE
  5
3BD
100
AcDbEntity
  8
02___PRT_ALL_AXES
100
AcDbLine
 62
3
  6
CONTINUOUS
 10
864.591172754
 20
511.0814746229
 11
864.5915996137
 21
500.3135965297
  0
LINE
  5
3BE
100
AcDbEntity
  8
02___PRT_ALL_AXES
100
AcDbLine
 62
3
  6
CONTINUOUS
 10
864.5914710599
 20
575.9331174514
 11
864.5917305601
 21
565.3848980358
  0
LINE
  5
3BF
100
AcDbEntity
  8
02___PRT_ALL_AXES
100
AcDbLine
 62
3
  6
CONTINUOUS
 10
865.6353659343
 20
543.4713016115
 11
865.6351411946
 21
532.7892759739
  0
LINE
  5
3C0
100
AcDbEntity
  8
02___PRT_ALL_AXES
100
AcDbLine
 62
3
  6
CONTINUOUS
 10
865.6351045054
 20
446.2981547986
 11
865.6354161824
 21
435.5353885452
  0
LINE
  5
3C1
100
AcDbEntity
  8
02___PRT_ALL_AXES
100
AcDbLine
 62
3
  6
CONTINUOUS
 10
865.6348701209
 20
413.8220771743
 11
865.6349307696
 21
403.1400509521
  0
LINE
  5
3C2
100
AcDbEntity
  8
02___PRT_ALL_AXES
100
AcDbLine
 62
3
  6
CONTINUOUS
 10
865.6348700624
 20
478.7005787511
 11
865.6354538835
 21
467.9107745748
  0
LINE
  5
3C3
100
AcDbEntity
  8
02___PRT_ALL_AXES
100
AcDbLine
 62
3
  6
CONTINUOUS
 10
865.6350409409
 20
381.2267409777
 11
865.6350112849
 21
370.6779588576
  0
LINE
  5
3C4
100
AcDbEntity
  8
02___PRT_ALL_AXES
100
AcDbLine
 62
3
  6
CONTINUOUS
 10
865.6348700365
 20
511.0759640776
 11
865.6351045155
 21
500.3131975587
  0
LINE
  5
3C5
100
AcDbEntity
  8
02___PRT_ALL_AXES
100
AcDbLine
 62
3
  6
CONTINUOUS
 10
865.6350338467
 20
575.9333937524
 11
865.6351765037
 21
565.3846108928
  0
LINE
  5
3C6
100
AcDbEntity
  8
02___PRT_ALL_AXES
100
AcDbLine
 62
3
  6
CONTINUOUS
 10
866.1029201324
 20
543.4713015907
 11
866.1027620851
 21
532.7892760277
  0
LINE
  5
3C7
100
AcDbEntity
  8
02___PRT_ALL_AXES
100
AcDbLine
 62
3
  6
CONTINUOUS
 10
866.1027362777
 20
446.2981547455
 11
866.1029554608
 21
435.5353885002
  0
LINE
  5
3C8
100
AcDbEntity
  8
02___PRT_ALL_AXES
100
AcDbLine
 62
3
  6
CONTINUOUS
 10
866.1025717301
 20
413.8220769235
 11
866.1026137106
 21
403.1400509215
  0
LINE
  5
3C9
100
AcDbEntity
  8
02___PRT_ALL_AXES
100
AcDbLine
 62
3
  6
CONTINUOUS
 10
866.1025716768
 20
478.7005786098
 11
866.1029819332
 21
467.9107744301
  0
LINE
  5
3CA
100
AcDbEntity
  8
02___PRT_ALL_AXES
100
AcDbLine
 62
3
  6
CONTINUOUS
 10
866.1026913057
 20
381.2267410491
 11
866.1026707176
 21
370.6779588203
  0
LINE
  5
3CB
100
AcDbEntity
  8
02___PRT_ALL_AXES
100
AcDbLine
 62
3
  6
CONTINUOUS
 10
866.1025716532
 20
511.0759640425
 11
866.1027362651
 21
500.3131976118
  0
LINE
  5
3CC
100
AcDbEntity
  8
02___PRT_ALL_AXES
100
AcDbLine
 62
3
  6
CONTINUOUS
 10
866.1026866835
 20
575.9333937267
 11
866.1027869198
 21
565.3846109427
  0
LINE
  5
3CD
100
AcDbEntity
  8
02___PRT_ALL_AXES
100
AcDbLine
 62
3
  6
CONTINUOUS
 10
867.5645688294
 20
543.4714326478
 11
867.5641965417
 21
532.78865619
  0
LINE
  5
3CE
100
AcDbEntity
  8
02___PRT_ALL_AXES
100
AcDbLine
 62
3
  6
CONTINUOUS
 10
867.564135724
 20
446.2988614162
 11
867.5646520053
 21
435.5355397054
  0
LINE
  5
3CF
100
AcDbEntity
  8
02___PRT_ALL_AXES
100
AcDbLine
 62
3
  6
CONTINUOUS
 10
867.563747631
 20
413.8210224241
 11
867.563846928
 21
403.1416256841
  0
LINE
  5
3D0
100
AcDbEntity
  8
02___PRT_ALL_AXES
100
AcDbLine
 62
3
  6
CONTINUOUS
 10
867.5637478961
 20
478.6969053114
 11
867.5647143235
 21
467.9112292311
  0
LINE
  5
3D1
100
AcDbEntity
  8
02___PRT_ALL_AXES
100
AcDbLine
 62
3
  6
CONTINUOUS
 10
867.5640298276
 20
381.2254366875
 11
867.5639812155
 21
370.6787823807
  0
LINE
  5
3D2
100
AcDbEntity
  8
02___PRT_ALL_AXES
100
AcDbLine
 62
3
  6
CONTINUOUS
 10
867.5637477313
 20
511.0707420708
 11
867.564135724
 21
500.3124909412
  0
LINE
  5
3D3
100
AcDbEntity
  8
02___PRT_ALL_AXES
100
AcDbLine
 62
3
  6
CONTINUOUS
 10
867.5640188139
 20
575.9338833167
 11
867.5642550693
 21
565.3841027638
  0
LINE
  5
3D4
100
AcDbEntity
  8
02___PRT_ALL_AXES
100
AcDbLine
 62
3
  6
CONTINUOUS
 10
870.8475425977
 20
462.9986442539
 11
870.8400772666
 21
462.5522954252
  0
LINE
  5
3D5
100
AcDbEntity
  8
02___PRT_ALL_AXES
100
AcDbLine
 62
3
  6
CONTINUOUS
 10
871.1834228571
 20
451.2104363448
 11
871.2063711227
 21
451.6547369846
  0
LINE
  5
3D6
100
AcDbEntity
  8
02___PRT_ALL_AXES
100
AcDbLine
 62
3
  6
CONTINUOUS
 10
870.514019808
 20
430.6461877519
 11
870.4760726435
 21
430.1998559749
  0
LINE
  5
3D7
100
AcDbEntity
  8
02___PRT_ALL_AXES
100
AcDbLine
 62
3
  6
CONTINUOUS
 10
871.5698609845
 20
419.1519477732
 11
871.5169870806
 21
418.7117281187
  0
LINE
  5
3D8
100
AcDbEntity
  8
02___PRT_ALL_AXES
100
AcDbLine
 62
3
  6
CONTINUOUS
 10
870.1192980702
 20
397.851411496
 11
870.1873657291
 21
398.2956179997
  0
LINE
  5
3D9
100
AcDbEntity
  8
02___PRT_ALL_AXES
100
AcDbLine
 62
3
  6
CONTINUOUS
 10
871.9256395275
 20
386.5061571305
 11
871.8437212361
 21
386.0719125508
  0
LINE
  5
3DA
100
AcDbEntity
  8
02___PRT_ALL_AXES
100
AcDbLine
 62
3
  6
CONTINUOUS
 10
869.7740779361
 20
365.4582325449
 11
869.8715266513
 21
365.8983893683
  0
LINE
  5
3DB
100
AcDbEntity
  8
02___PRT_ALL_AXES
100
AcDbLine
 62
3
  6
CONTINUOUS
 10
870.9873158396
 20
345.3911219365
 11
870.5633222761
 21
345.197775083
  0
LINE
  5
3DC
100
AcDbEntity
  8
02___PRT_ALL_AXES
100
AcDbLine
 62
3
  6
CONTINUOUS
 10
1102.2309243176
 20
687.1221081268
 11
162.2309243176
 21
687.1221081268
  0
LINE
  5
3DD
100
AcDbEntity
  8
02___PRT_ALL_AXES
100
AcDbLine
 62
3
  6
CONTINUOUS
 10
1102.2309243176
 20
690.6728122823
 11
162.2309243176
 21
690.6728122823
  0
LINE
  5
3DE
100
AcDbEntity
  8
02___PRT_ALL_AXES
100
AcDbLine
 62
3
  6
CONTINUOUS
 10
870.9936622416
 20
601.2173980977
 11
870.5700525927
 21
601.4105706777
  0
LINE
  5
3DF
100
AcDbEntity
  8
02___PRT_ALL_AXES
100
AcDbLine
 62
3
  6
CONTINUOUS
 10
869.8715266623
 20
580.7129629997
 11
869.7740779837
 21
581.1531198326
  0
LINE
  5
3E0
100
AcDbEntity
  8
02___PRT_ALL_AXES
100
AcDbLine
 62
3
  6
CONTINUOUS
 10
871.843721263
 20
560.5394398088
 11
871.9256263848
 21
560.1052651371
  0
LINE
  5
3E1
100
AcDbEntity
  8
02___PRT_ALL_AXES
100
AcDbLine
 62
3
  6
CONTINUOUS
 10
870.1873655563
 20
548.3157343404
 11
870.1192977379
 21
548.759940818
  0
LINE
  5
3E2
100
AcDbEntity
  8
02___PRT_ALL_AXES
100
AcDbLine
 62
3
  6
CONTINUOUS
 10
871.5169870235
 20
527.8996242492
 11
871.5698608432
 21
527.4594045876
  0
LINE
  5
3E3
100
AcDbEntity
  8
02___PRT_ALL_AXES
100
AcDbLine
 62
3
  6
CONTINUOUS
 10
922.2155142114
 20
312.1887451907
 11
922.2232927858
 21
311.7431032147
  0
LINE
  5
3E4
100
AcDbEntity
  8
02___PRT_ALL_AXES
100
AcDbLine
 62
3
  6
CONTINUOUS
 10
922.2154830819
 20
634.4207511797
 11
922.223261244
 21
634.8663355859
  0
LINE
  5
3E5
100
AcDbEntity
  8
02___PRT_ALL_AXES
100
AcDbLine
 62
3
  6
CONTINUOUS
 10
876.6222640318
 20
352.180405174
 11
876.7320166996
 21
352.6069840634
  0
LINE
  5
3E6
100
AcDbEntity
  8
02___PRT_ALL_AXES
100
AcDbLine
 62
3
  6
CONTINUOUS
 10
1074.0737011129
 20
624.5074156999
 11
1074.3248436778
 21
624.8607742206
  0
LINE
  5
3E7
100
AcDbEntity
  8
0
100
AcDbLine
 62
7
  6
CONTINUOUS
 10
1157.3364560177
 20
734.8693371461
 11
1157.2309243176
 21
734.8693371461
  0
LINE
  5
3E8
100
AcDbEntity
  8
0
100
AcDbLine
 62
7
  6
CONTINUOUS
 10
107.1253926176
 20
734.8693371461
 11
107.2309243176
 21
734.8693371461
  0
LINE
  5
3E9
100
AcDbEntity
  8
0
100
AcDbLine
 62
3
  6
CONTINUOUS
 10
1156.3566602489
 20
735.0056761787
 11
108.1051883863
 21
735.0056761787
  0
LINE
  5
3EA
100
AcDbEntity
  8
0
100
AcDbLine
 62
7
  6
CONTINUOUS
 10
1157.8309243176
 20
735.2921305319
 11
1157.2309243176
 21
735.2921305319
  0
LINE
  5
3EB
100
AcDbEntity
  8
0
100
AcDbLine
 62
7
  6
CONTINUOUS
 10
106.6309243176
 20
735.2921305319
 11
107.2309243176
 21
735.2921305319
  0
LINE
  5
3EC
100
AcDbEntity
  8
0
100
AcDbLine
 62
3
  6
CONTINUOUS
 10
1156.9309243176
 20
735.6056761787
 11
107.5309243176
 21
735.6056761787
  0
LINE
  5
3ED
100
AcDbEntity
  8
0
100
AcDbLine
 62
7
  6
CONTINUOUS
 10
1156.9309243176
 20
736.2056761787
 11
1156.1036793683
 21
736.2056761787
  0
LINE
  5
3EE
100
AcDbEntity
  8
0
100
AcDbLine
 62
7
  6
CONTINUOUS
 10
108.3581908362
 20
736.2056761787
 11
107.5309243176
 21
736.2056761787
  0
LINE
  5
3EF
100
AcDbEntity
  8
0
100
AcDbLine
 62
3
  6
CONTINUOUS
 10
1155.2768088779
 20
737.4056761787
 11
109.1850397573
 21
737.4056761787
  0
LINE
  5
3F0
100
AcDbEntity
  8
02___PRT_ALL_AXES
100
AcDbLine
 62
3
  6
CONTINUOUS
 10
1074.3253887569
 20
321.7497983879
 11
1074.0741844048
 21
322.1032421322
  0
LINE
  5
3F1
100
AcDbEntity
  8
02___PRT_ALL_AXES
100
AcDbLine
 62
3
  6
CONTINUOUS
 10
876.6222640318
 20
594.4309471834
 11
876.7320166996
 21
594.004368294
  0
LINE
  5
3F2
100
AcDbEntity
  8
02___PRT_ALL_AXES
100
AcDbLine
 62
3
  6
CONTINUOUS
 10
993.5772146919
 20
312.1906005221
 11
993.5849908468
 21
311.7450161176
  0
LINE
  5
3F3
100
AcDbEntity
  8
02___PRT_ALL_AXES
100
AcDbLine
 62
3
  6
CONTINUOUS
 10
993.5772152202
 20
634.4207519302
 11
993.5849918682
 21
634.8663363418
  0
LINE
  5
3F4
100
AcDbEntity
  8
02___PRT_ALL_AXES
100
AcDbLine
 62
3
  6
CONTINUOUS
 10
994.9541763177
 20
323.8587846631
 11
995.0639291991
 21
324.2853635004
  0
LINE
  5
3F5
100
AcDbEntity
  8
02___PRT_ALL_AXES
100
AcDbLine
 62
3
  6
CONTINUOUS
 10
994.9541761326
 20
622.7525677361
 11
995.0639291008
 21
622.3259889259
  0
LINE
  5
3F6
100
AcDbEntity
  8
02___PRT_ALL_AXES
100
AcDbLine
 62
3
  6
CONTINUOUS
 10
1093.5834234404
 20
503.0043348306
 11
1093.6063721906
 21
502.5600342069
  0
LINE
  5
3F7
100
AcDbEntity
  8
02___PRT_ALL_AXES
100
AcDbLine
 62
3
  6
CONTINUOUS
 10
1093.247542495
 20
491.216126898
 11
1093.2400768411
 21
491.6624757152
  0
LINE
  5
3F8
100
AcDbEntity
  8
02___PRT_ALL_AXES
100
AcDbLine
 62
3
  6
CONTINUOUS
 10
1093.247542495
 20
455.3952254593
 11
1093.2400768411
 21
454.9488766421
  0
LINE
  5
3F9
100
AcDbEntity
  8
02___PRT_ALL_AXES
100
AcDbLine
 62
3
  6
CONTINUOUS
 10
1093.5834234404
 20
443.6070175267
 11
1093.6063721906
 21
444.0513181505
  0
LINE
  5
3FA
100
AcDbEntity
  8
02___PRT_ALL_AXES
100
AcDbLine
 62
3
  6
CONTINUOUS
 10
1062.0345067364
 20
319.4425255786
 11
1062.1319526604
 21
319.8826829958
  0
LINE
  5
3FB
100
AcDbEntity
  8
02___PRT_ALL_AXES
100
AcDbLine
 62
3
  6
CONTINUOUS
 10
1062.131954464
 20
626.7286683935
 11
1062.0345095006
 21
627.1688259979
  0
LINE
  5
3FC
100
AcDbEntity
  8
02___PRT_ALL_AXES
100
AcDbLine
 62
3
  6
CONTINUOUS
 10
1092.9140194951
 20
538.7754209638
 11
1092.8760741416
 21
539.2217283236
  0
LINE
  5
3FD
100
AcDbEntity
  8
02___PRT_ALL_AXES
100
AcDbLine
 62
3
  6
CONTINUOUS
 10
1096.8242764686
 20
412.7320189729
 11
1096.8233133728
 21
438.6942740699
  0
LINE
  5
3FE
100
AcDbEntity
  8
02___PRT_ALL_AXES
100
AcDbLine
 62
3
  6
CONTINUOUS
 10
1096.8233133728
 20
507.9170782874
 11
1096.8238293155
 21
533.8868494276
  0
LINE
  5
3FF
100
AcDbEntity
  8
02___PRT_ALL_AXES
100
AcDbLine
 62
3
  6
CONTINUOUS
 10
1096.8238899209
 20
460.3066381851
 11
1096.8238899209
 21
486.3047141722
  0
LINE
  5
400
100
AcDbEntity
  8
02___PRT_ALL_AXES
100
AcDbLine
 62
3
  6
CONTINUOUS
 10
1096.8239954632
 20
365.1242804911
 11
1096.8242766772
 21
391.0059991942
  0
LINE
  5
401
100
AcDbEntity
  8
02___PRT_ALL_AXES
100
AcDbLine
 62
3
  6
CONTINUOUS
 10
1096.8242766388
 20
555.6048368907
 11
1096.8237709924
 21
581.4889113177
  0
LINE
  5
402
100
AcDbEntity
  8
02___PRT_ALL_AXES
100
AcDbLine
 62
3
  6
CONTINUOUS
 10
1098.3328362323
 20
412.725132199
 11
1098.332426412
 21
438.6947355185
  0
LINE
  5
403
100
AcDbEntity
  8
02___PRT_ALL_AXES
100
AcDbLine
 62
3
  6
CONTINUOUS
 10
1098.3324264137
 20
507.9166168388
 11
1098.3326460177
 21
533.8862205141
  0
LINE
  5
404
100
AcDbEntity
  8
02___PRT_ALL_AXES
100
AcDbLine
 62
3
  6
CONTINUOUS
 10
1098.3326718045
 20
460.3073552055
 11
1098.3326718045
 21
486.3039971519
  0
LINE
  5
405
100
AcDbEntity
  8
02___PRT_ALL_AXES
100
AcDbLine
 62
3
  6
CONTINUOUS
 10
1098.332716733
 20
365.1229570337
 11
1098.3328362489
 21
391.0118196518
  0
LINE
  5
406
100
AcDbEntity
  8
02___PRT_ALL_AXES
100
AcDbLine
 62
3
  6
CONTINUOUS
 10
1098.332836251
 20
555.5995324915
 11
1098.3326212058
 21
581.4883956997
  0
LINE
  5
407
100
AcDbEntity
  8
02___PRT_ALL_AXES
100
AcDbLine
 62
3
  6
CONTINUOUS
 10
1098.756109582
 20
412.7251322644
 11
1098.7555357908
 21
438.6947353573
  0
LINE
  5
408
100
AcDbEntity
  8
02___PRT_ALL_AXES
100
AcDbLine
 62
3
  6
CONTINUOUS
 10
1098.7555357894
 20
507.916617
 11
1098.7558430972
 21
533.8862205718
  0
LINE
  5
409
100
AcDbEntity
  8
02___PRT_ALL_AXES
100
AcDbLine
 62
3
  6
CONTINUOUS
 10
1098.7558791518
 20
460.3073551486
 11
1098.7558791518
 21
486.3039972088
  0
LINE
  5
40A
100
AcDbEntity
  8
02___PRT_ALL_AXES
100
AcDbLine
 62
3
  6
CONTINUOUS
 10
1098.7559416327
 20
365.1229571103
 11
1098.7561096001
 21
391.0118196153
  0
LINE
  5
40B
100
AcDbEntity
  8
02___PRT_ALL_AXES
100
AcDbLine
 62
3
  6
CONTINUOUS
 10
1098.7561096023
 20
555.599532454
 11
1098.7558083968
 21
581.4883957532
  0
LINE
  5
40C
100
AcDbEntity
  8
02___PRT_ALL_AXES
100
AcDbLine
 62
3
  6
CONTINUOUS
 10
1099.8336520131
 20
412.7270094997
 11
1099.8326083897
 21
438.6949951647
  0
LINE
  5
40D
100
AcDbEntity
  8
02___PRT_ALL_AXES
100
AcDbLine
 62
3
  6
CONTINUOUS
 10
1099.8326083897
 20
507.9163571925
 11
1099.833167195
 21
533.8858675527
  0
LINE
  5
40E
100
AcDbEntity
  8
02___PRT_ALL_AXES
100
AcDbLine
 62
3
  6
CONTINUOUS
 10
1099.8332327828
 20
460.3077574503
 11
1099.8332327828
 21
486.303594907
  0
LINE
  5
40F
100
AcDbEntity
  8
02___PRT_ALL_AXES
100
AcDbLine
 62
3
  6
CONTINUOUS
 10
1099.8333464341
 20
365.1222131402
 11
1099.8336521276
 21
391.0136267498
  0
LINE
  5
410
100
AcDbEntity
  8
02___PRT_ALL_AXES
100
AcDbLine
 62
3
  6
CONTINUOUS
 10
1099.8336522261
 20
555.5939731147
 11
1099.8331040859
 21
581.4881062122
  0
LINE
  5
411
100
AcDbEntity
  8
02___PRT_ALL_AXES
100
AcDbLine
 62
3
  6
CONTINUOUS
 10
1102.2309243176
 20
255.938540075
 11
1102.2309243176
 21
260.2979347473
  0
LINE
  5
412
100
AcDbEntity
  8
02___PRT_ALL_AXES
100
AcDbLine
 62
3
  6
CONTINUOUS
 10
1102.2309243176
 20
686.31341761
 11
1102.2309243176
 21
690.6728122823
  0
LINE
  5
413
100
AcDbEntity
  8
02___PRT_ALL_AXES
100
AcDbLine
 62
3
  6
CONTINUOUS
 10
1105.7304581184
 20
368.3056761787
 11
1105.7304581184
 21
578.3056761787
  0
LINE
  5
414
100
AcDbEntity
  8
02___PRT_ALL_AXES
100
AcDbLine
 62
3
  6
CONTINUOUS
 10
1107.2309243176
 20
368.3056761897
 11
1107.2309243176
 21
578.3056761679
  0
LINE
  5
415
100
AcDbEntity
  8
02___PRT_ALL_AXES
100
AcDbLine
 62
3
  6
CONTINUOUS
 10
1123.6646773736
 20
288.3056761787
 11
1123.6646773736
 21
658.3056761787
  0
LINE
  5
416
100
AcDbEntity
  8
02___PRT_ALL_AXES
100
AcDbLine
 62
3
  6
CONTINUOUS
 10
1130.4532613523
 20
288.3056761786
 11
1130.4532613523
 21
658.3056761787
  0
LINE
  5
417
100
AcDbEntity
  8
02___PRT_ALL_AXES
100
AcDbLine
 62
3
  6
CONTINUOUS
 10
1131.0473562658
 20
288.3056761787
 11
1131.0473562658
 21
658.3056761787
  0
LINE
  5
418
100
AcDbEntity
  8
02___PRT_ALL_AXES
100
AcDbLine
 62
3
  6
CONTINUOUS
 10
1134.5980604213
 20
288.3056761787
 11
1134.5980604213
 21
658.3056761787
  0
LINE
  5
419
100
AcDbEntity
  8
02___PRT_ALL_AXES
100
AcDbLine
 62
3
  6
CONTINUOUS
 10
1092.9140195921
 20
407.8359315278
 11
1092.8760740458
 21
407.389624201
  0
LINE
  5
41A
100
AcDbEntity
  8
02___PRT_ALL_AXES
100
AcDbLine
 62
3
  6
CONTINUOUS
 10
1093.9698609082
 20
396.3416913758
 11
1093.9169869835
 21
395.901471723
  0
LINE
  5
41B
100
AcDbEntity
  8
02___PRT_ALL_AXES
100
AcDbLine
 62
3
  6
CONTINUOUS
 10
1092.5192973139
 20
359.8343176098
 11
1092.5873653068
 21
360.2785240562
  0
LINE
  5
41C
100
AcDbEntity
  8
02___PRT_ALL_AXES
100
AcDbLine
 62
3
  6
CONTINUOUS
 10
1088.3156661043
 20
349.5164090127
 11
1088.2337477306
 21
349.0821644458
  0
LINE
  5
41D
100
AcDbEntity
  8
02___PRT_ALL_AXES
100
AcDbLine
 62
3
  6
CONTINUOUS
 10
1088.2337471748
 20
597.5291881404
 11
1088.31566491
 21
597.0949434932
  0
LINE
  5
41E
100
AcDbEntity
  8
02___PRT_ALL_AXES
100
AcDbLine
 62
3
  6
CONTINUOUS
 10
1092.587365301
 20
586.3328283025
 11
1092.519297315
 21
586.7770347503
  0
LINE
  5
41F
100
AcDbEntity
  8
02___PRT_ALL_AXES
100
AcDbLine
 62
3
  6
CONTINUOUS
 10
1093.9169860583
 20
550.7098811592
 11
1093.9698587241
 21
550.2696614331
  0
LINE
  5
420
100
AcDbEntity
  8
0
100
AcDbLine
 62
7
  6
CONTINUOUS
 10
1156.4945606812
 20
210.9001693853
 11
1156.4945606812
 21
211.0056761787
  0
LINE
  5
421
100
AcDbEntity
  8
0
100
AcDbLine
 62
3
  6
CONTINUOUS
 10
1156.6309243176
 20
734.7314121099
 11
1156.6309243176
 21
211.8799402474
  0
LINE
  5
422
100
AcDbEntity
  8
0
100
AcDbLine
 62
7
  6
CONTINUOUS
 10
1156.9172997698
 20
210.4056761787
 11
1156.9172997698
 21
211.0056761787
  0
LINE
  5
423
100
AcDbEntity
  8
0
100
AcDbLine
 62
7
  6
CONTINUOUS
 10
1156.9309243176
 20
736.2056761787
 11
1156.9309243176
 21
735.6056761787
  0
LINE
  5
424
100
AcDbEntity
  8
02___PRT_ALL_AXES
100
AcDbLine
 62
7
  6
CONTINUOUS
 10
1156.9309243176
 20
210.4056761787
 11
1156.9309243176
 21
211.0056761787
  0
LINE
  5
425
100
AcDbEntity
  8
0
100
AcDbLine
 62
7
  6
CONTINUOUS
 10
1157.2309243176
 20
735.2921305319
 11
1157.2309243176
 21
735.1135404475
  0
LINE
  5
426
100
AcDbEntity
  8
0
100
AcDbLine
 62
7
  6
CONTINUOUS
 10
1157.2309243176
 20
211.4978104045
 11
1157.2309243176
 21
211.3193007265
  0
LINE
  5
427
100
AcDbEntity
  8
0
100
AcDbLine
 62
3
  6
CONTINUOUS
 10
1157.8309243176
 20
735.2921305319
 11
1157.8309243176
 21
211.3193007265
  0
LINE
  5
428
100
AcDbEntity
  8
0
100
AcDbLine
 62
3
  6
CONTINUOUS
 10
1373.8011981755
 20
210.4056761787
 11
1400.8587203794
 21
210.4056761787
  0
LINE
  5
429
100
AcDbEntity
  8
0
100
AcDbLine
 62
7
  6
CONTINUOUS
 10
1373.8011981755
 20
211.0056761787
 11
1400.8587203794
 21
211.0056761787
  0
LINE
  5
42A
100
AcDbEntity
  8
0
100
AcDbLine
 62
3
  6
CONTINUOUS
 10
1373.8011981755
 20
211.3056761787
 11
1400.6784059693
 21
211.3056761787
  0
LINE
  5
42B
100
AcDbEntity
  8
0
100
AcDbLine
 62
7
  6
CONTINUOUS
 10
1402.0587203794
 20
211.6056761787
 11
1401.8294212419
 21
211.6056761787
  0
LINE
  5
42C
100
AcDbEntity
  8
0
100
AcDbLine
 62
7
  6
CONTINUOUS
 10
1373.2011981755
 20
211.6056761787
 11
1372.6011981755
 21
211.6056761787
  0
LINE
  5
42D
100
AcDbEntity
  8
0
100
AcDbLine
 62
7
  6
CONTINUOUS
 10
1401.8294212419
 20
210.9001693853
 11
1401.3440708106
 21
211.252922782
  0
LINE
  5
42E
100
AcDbEntity
  8
02___PRT_ALL_AXES
100
AcDbLine
 62
7
  6
CONTINUOUS
 10
1270.3533068482
 20
569.6285906553
 11
1268.5426496832
 21
567.302004859
  0
LINE
  5
42F
100
AcDbEntity
  8
02___PRT_ALL_AXES
100
AcDbLine
 62
7
  6
CONTINUOUS
 10
1268.295195639
 20
566.8045120567
 11
1266.0302761442
 21
558.351717427
  0
LINE
  5
430
100
AcDbEntity
  8
02___PRT_ALL_AXES
100
AcDbLine
 62
7
  6
CONTINUOUS
 10
1270.3533068482
 20
569.6285906553
 11
1270.4587203794
 21
569.9356761787
  0
LINE
  5
431
100
AcDbEntity
  8
02___PRT_ALL_AXES
100
AcDbLine
 62
7
  6
CONTINUOUS
 10
1268.5426496832
 20
567.302004859
 11
1268.295195639
 21
566.8045120567
  0
LINE
  5
432
100
AcDbEntity
  8
02___PRT_ALL_AXES
100
AcDbLine
 62
7
  6
CONTINUOUS
 10
1270.4587203794
 20
463.7978217484
 11
1273.1861893897
 21
359.6399824658
  0
LINE
  5
433
100
AcDbEntity
  8
02___PRT_ALL_AXES
100
AcDbLine
 62
7
  6
CONTINUOUS
 10
1265.9587203794
 20
557.8081974323
 11
1265.9587203794
 21
484.8384038089
  0
LINE
  5
434
100
AcDbEntity
  8
02___PRT_ALL_AXES
100
AcDbLine
 62
7
  6
CONTINUOUS
 10
1266.0302761442
 20
558.351717427
 11
1266.0302761442
 21
484.3015579938
  0
LINE
  5
435
100
AcDbEntity
  8
02___PRT_ALL_AXES
100
AcDbLine
 62
7
  6
CONTINUOUS
 10
1268.295195639
 20
566.8045120567
 11
1268.295195639
 21
475.8195569523
  0
LINE
  5
436
100
AcDbEntity
  8
02___PRT_ALL_AXES
100
AcDbLine
 62
7
  6
CONTINUOUS
 10
1268.5426496832
 20
567.302004859
 11
1268.5426496832
 21
475.3222031963
  0
LINE
  5
437
100
AcDbEntity
  8
02___PRT_ALL_AXES
100
AcDbLine
 62
7
  6
CONTINUOUS
 10
1270.3533068482
 20
569.6285906553
 11
1270.3533068482
 21
472.982761702
  0
LINE
  5
438
100
AcDbEntity
  8
02___PRT_ALL_AXES
100
AcDbLine
 62
7
  6
CONTINUOUS
 10
1270.4587203794
 20
578.8135306089
 11
1270.4587203794
 21
463.7978217484
  0
LINE
  5
439
100
AcDbEntity
  8
02___PRT_ALL_AXES
100
AcDbLine
 62
7
  6
CONTINUOUS
 10
1270.6679665419
 20
586.804319171
 11
1270.4587203794
 21
578.8135306089
  0
LINE
  5
43A
100
AcDbEntity
  8
02___PRT_ALL_AXES
100
AcDbLine
 62
7
  6
CONTINUOUS
 10
1266.030276144
 20
558.3517174262
 11
1265.9587203794
 21
557.8081974323
  0
LINE
  5
43B
100
AcDbEntity
  8
02___PRT_ALL_AXES
100
AcDbLine
 62
7
  6
CONTINUOUS
 10
1270.3533068482
 20
472.982761702
 11
1268.5426496832
 21
475.3093474983
  0
LINE
  5
43C
100
AcDbEntity
  8
02___PRT_ALL_AXES
100
AcDbLine
 62
7
  6
CONTINUOUS
 10
1268.5426496832
 20
475.3093474983
 11
1268.295195639
 21
475.8068403006
  0
LINE
  5
43D
100
AcDbEntity
  8
02___PRT_ALL_AXES
100
AcDbLine
 62
7
  6
CONTINUOUS
 10
1270.3533068482
 20
472.982761702
 11
1270.4587203794
 21
472.6756761787
  0
LINE
  5
43E
100
AcDbEntity
  8
02___PRT_ALL_AXES
100
AcDbLine
 62
7
  6
CONTINUOUS
 10
1268.295195639
 20
475.8068403006
 11
1266.0302761442
 21
484.2596349303
  0
LINE
  5
43F
100
AcDbEntity
  8
0
100
AcDbLine
 62
3
  6
CONTINUOUS
 10
1372.6011981755
 20
211.6056761787
 11
1372.6011981755
 21
733.9732818672
  0
LINE
  5
440
100
AcDbEntity
  8
0
100
AcDbLine
 62
7
  6
CONTINUOUS
 10
1373.8011981755
 20
211.0056761787
 11
1373.8011981755
 21
210.4056761787
  0
LINE
  5
441
100
AcDbEntity
  8
0
100
AcDbLine
 62
3
  6
CONTINUOUS
 10
1373.8011981755
 20
735.3056761787
 11
1373.8011981755
 21
211.3056761787
  0
LINE
  5
442
100
AcDbEntity
  8
02___PRT_ALL_AXES
100
AcDbLine
 62
7
  6
CONTINUOUS
 10
1400.6784059693
 20
210.4056761787
 11
1400.6784059693
 21
211.0056761787
  0
LINE
  5
443
100
AcDbEntity
  8
0
100
AcDbLine
 62
3
  6
CONTINUOUS
 10
1400.8587203794
 20
735.2921305319
 11
1400.8587203794
 21
211.3193007265
  0
LINE
  5
444
100
AcDbEntity
  8
0
100
AcDbLine
 62
7
  6
CONTINUOUS
 10
1400.8587203794
 20
210.4056761787
 11
1400.8587203794
 21
211.0056761787
  0
LINE
  5
445
100
AcDbEntity
  8
0
100
AcDbLine
 62
3
  6
CONTINUOUS
 10
1402.0587203794
 20
735.0056761787
 11
1402.0587203794
 21
211.6056761787
  0
LINE
  5
446
100
AcDbEntity
  8
0
100
AcDbLine
 62
7
  6
CONTINUOUS
 10
1402.6587203794
 20
735.6056761787
 11
1402.6587203794
 21
736.2056761787
  0
LINE
  5
447
100
AcDbEntity
  8
02___PRT_ALL_AXES
100
AcDbLine
 62
7
  6
CONTINUOUS
 10
1402.8390347894
 20
735.6056761787
 11
1402.8390347894
 21
736.2056761787
  0
LINE
  5
448
100
AcDbEntity
  8
02___PRT_ALL_AXES
100
AcDbLine
 62
7
  6
CONTINUOUS
 10
1420.94977388
 20
737.1000929357
 11
1420.9707135781
 21
736.5004584395
  0
LINE
  5
449
100
AcDbEntity
  8
0
100
AcDbLine
 62
7
  6
CONTINUOUS
 10
1429.7162425833
 20
736.2056761787
 11
1429.7162425833
 21
735.6056761787
  0
LINE
  5
44A
100
AcDbEntity
  8
0
100
AcDbLine
 62
7
  6
CONTINUOUS
 10
1429.7057727343
 20
736.8054934268
 11
1429.6848330363
 21
737.405127923
  0
LINE
  5
44B
100
AcDbEntity
  8
0
100
AcDbLine
 62
7
  6
CONTINUOUS
 10
1402.1733699481
 20
735.3584295754
 11
1401.6880195169
 21
735.7111829721
  0
LINE
  5
44C
100
AcDbEntity
  8
0
100
AcDbLine
 62
7
  6
CONTINUOUS
 10
1420.9707135781
 20
736.5004584395
 11
1429.7057727343
 21
736.8054934268
  0
LINE
  5
44D
100
AcDbEntity
  8
0
100
AcDbLine
 62
3
  6
CONTINUOUS
 10
1420.94977388
 20
737.1000929357
 11
1429.6848330363
 21
737.405127923
  0
LINE
  5
44E
100
AcDbEntity
  8
0
100
AcDbLine
 62
7
  6
CONTINUOUS
 10
1402.0587203794
 20
735.0056761787
 11
1401.8294031392
 21
735.0056761787
  0
LINE
  5
44F
100
AcDbEntity
  8
0
100
AcDbLine
 62
3
  6
CONTINUOUS
 10
1400.6636174328
 20
735.3056761787
 11
1373.8011981755
 21
735.3056761787
  0
LINE
  5
450
100
AcDbEntity
  8
0
100
AcDbLine
 62
3
  6
CONTINUOUS
 10
1402.6587203794
 20
735.6056761787
 11
1429.7162425833
 21
735.6056761787
  0
LINE
  5
451
100
AcDbEntity
  8
0
100
AcDbLine
 62
7
  6
CONTINUOUS
 10
1402.6587203794
 20
736.2056761787
 11
1429.7162425833
 21
736.2056761787
  0
ARC
  5
452
100
AcDbEntity
  8
02___PRT_ALL_AXES
100
AcDbCircle
 62
3
  6
CONTINUOUS
 10
228.6540511343
 20
473.0019656327
 40
600.6469485125
100
AcDbArc
 50
354.5707889491
 51
5.4852530578
  0
ARC
  5
453
100
AcDbEntity
  8
02___PRT_ALL_AXES
100
AcDbCircle
 62
3
  6
CONTINUOUS
 10
229.4499788726
 20
472.9714559375
 40
599.8575913128
100
AcDbArc
 50
5.4954209229
 51
7.1502622605
  0
ARC
  5
454
100
AcDbEntity
  8
02___PRT_ALL_AXES
100
AcDbCircle
 62
3
  6
CONTINUOUS
 10
230.9805927578
 20
472.9327245613
 40
598.3243097519
100
AcDbArc
 50
352.898768406
 51
354.478514445
  0
ARC
  5
455
100
AcDbEntity
  8
02___PRT_ALL_AXES
100
AcDbCircle
 62
3
  6
CONTINUOUS
 10
296.4467373323
 20
132.8401305568
 40
233.6499253965
100
AcDbArc
 50
65.4653950443
 51
65.8242383321
  0
ARC
  5
456
100
AcDbEntity
  8
02___PRT_ALL_AXES
100
AcDbCircle
 62
3
  6
CONTINUOUS
 10
75.4740741688
 20
417.055787734
 40
211.3317446497
100
AcDbArc
 50
62.1955606294
 51
62.603819775
  0
ARC
  5
457
100
AcDbEntity
  8
02___PRT_ALL_AXES
100
AcDbCircle
 62
3
  6
CONTINUOUS
 10
241.2566428705
 20
210.0883919554
 40
148.5895289298
100
AcDbArc
 50
117.6325329073
 51
118.0474480959
  0
ARC
  5
458
100
AcDbEntity
  8
02___PRT_ALL_AXES
100
AcDbCircle
 62
3
  6
CONTINUOUS
 10
252.4796637191
 20
304.788474753
 40
89.768713006
100
AcDbArc
 50
359.7996985989
 51
0.0002815512
  0
ARC
  5
459
100
AcDbEntity
  8
02___PRT_ALL_AXES
100
AcDbCircle
 62
3
  6
CONTINUOUS
 10
132.5008564419
 20
304.7882430056
 40
89.7475202847
100
AcDbArc
 50
359.7997982651
 51
0.0004295678
  0
ARC
  5
45A
100
AcDbEntity
  8
02___PRT_ALL_AXES
100
AcDbCircle
 62
3
  6
CONTINUOUS
 10
315.9657693924
 20
386.237025836
 40
79.2317126129
100
AcDbArc
 50
8.7540997013
 51
9.82506043
  0
ARC
  5
45B
100
AcDbEntity
  8
02___PRT_ALL_AXES
100
AcDbCircle
 62
3
  6
CONTINUOUS
 10
276.9665914766
 20
304.6627793644
 40
65.2815077713
100
AcDbArc
 50
359.2294124892
 51
359.8348849103
  0
ARC
  5
45C
100
AcDbEntity
  8
02___PRT_ALL_AXES
100
AcDbCircle
 62
3
  6
CONTINUOUS
 10
157.0177985642
 20
304.6623559589
 40
65.2303003579
100
AcDbArc
 50
359.2285025792
 51
359.8351258385
  0
ARC
  5
45D
100
AcDbEntity
  8
02___PRT_ALL_AXES
100
AcDbCircle
 62
3
  6
CONTINUOUS
 10
222.232020783
 20
368.306772644
 40
65.0010964746
100
AcDbArc
 50
180.0009664792
 51
269.9990335206
  0
ARC
  5
45E
100
AcDbEntity
  8
02___PRT_ALL_AXES
100
AcDbCircle
 62
3
  6
CONTINUOUS
 10
342.2298281744
 20
368.3067723219
 40
65.0010961525
100
AcDbArc
 50
270.0009661952
 51
359.9990338046
  0
ARC
  5
45F
100
AcDbEntity
  8
02___PRT_ALL_AXES
100
AcDbCircle
 62
3
  6
CONTINUOUS
 10
222.2482637937
 20
368.3057891529
 40
63.5168732769
100
AcDbArc
 50
180.0001019091
 51
270.0001018695
  0
ARC
  5
460
100
AcDbEntity
  8
02___PRT_ALL_AXES
100
AcDbCircle
 62
3
  6
CONTINUOUS
 10
342.2484896592
 20
368.3057891481
 40
63.5168732721
100
AcDbArc
 50
269.9998981262
 51
359.9998980952
  0
ARC
  5
461
100
AcDbEntity
  8
02___PRT_ALL_AXES
100
AcDbCircle
 62
3
  6
CONTINUOUS
 10
115.7968950801
 20
337.554866031
 40
61.5208033546
100
AcDbArc
 50
9.4127478837
 51
10.7994731609
  0
ARC
  5
462
100
AcDbEntity
  8
02___PRT_ALL_AXES
100
AcDbCircle
 62
3
  6
CONTINUOUS
 10
222.1590513096
 20
368.2098147399
 40
56.4184017805
100
AcDbArc
 50
207.9924805069
 51
235.4234308511
  0
ARC
  5
463
100
AcDbEntity
  8
02___PRT_ALL_AXES
100
AcDbCircle
 62
3
  6
CONTINUOUS
 10
222.1410943646
 20
368.2139434952
 40
55.978745391
100
AcDbArc
 50
208.0079961069
 51
235.4473519685
  0
ARC
  5
464
100
AcDbEntity
  8
02___PRT_ALL_AXES
100
AcDbCircle
 62
3
  6
CONTINUOUS
 10
162.2309243176
 20
288.3056761787
 40
32.3671005024
100
AcDbArc
 50
180.0
 51
270.0
  0
ARC
  5
465
100
AcDbEntity
  8
02___PRT_ALL_AXES
100
AcDbCircle
 62
3
  6
CONTINUOUS
 10
162.2309243176
 20
288.3056761787
 40
28.816424084
100
AcDbArc
 50
180.0
 51
270.0
  0
ARC
  5
466
100
AcDbEntity
  8
02___PRT_ALL_AXES
100
AcDbCircle
 62
3
  6
CONTINUOUS
 10
162.0180217443
 20
288.3066599023
 40
28.0095140917
100
AcDbArc
 50
180.002012294
 51
270.4355137157
  0
ARC
  5
467
100
AcDbEntity
  8
02___PRT_ALL_AXES
100
AcDbCircle
 62
3
  6
CONTINUOUS
 10
161.8785001624
 20
288.3063927865
 40
21.081328913
100
AcDbArc
 50
180.0019476289
 51
270.5783805173
  0
ARC
  5
468
100
AcDbEntity
  8
02___PRT_ALL_AXES
100
AcDbCircle
 62
3
  6
CONTINUOUS
 10
270.8885146171
 20
318.1056884684
 40
7.4213804529
100
AcDbArc
 50
103.6581043979
 51
269.9089827528
  0
ARC
  5
469
100
AcDbEntity
  8
02___PRT_ALL_AXES
100
AcDbCircle
 62
3
  6
CONTINUOUS
 10
177.0579437707
 20
344.2388319272
 40
6.4189122026
100
AcDbArc
 50
99.8767104773
 51
207.9803054458
  0
ARC
  5
46A
100
AcDbEntity
  8
02___PRT_ALL_AXES
100
AcDbCircle
 62
3
  6
CONTINUOUS
 10
177.0736030954
 20
344.2395980741
 40
5.3576670182
100
AcDbArc
 50
99.9681570331
 51
207.9411069116
  0
ARC
  5
46B
100
AcDbEntity
  8
02___PRT_ALL_AXES
100
AcDbCircle
 62
3
  6
CONTINUOUS
 10
177.0519762645
 20
344.2390048699
 40
4.9127211108
100
AcDbArc
 50
99.654234296
 51
208.0847059925
  0
ARC
  5
46C
100
AcDbEntity
  8
02___PRT_ALL_AXES
100
AcDbCircle
 62
3
  6
CONTINUOUS
 10
177.0749975188
 20
344.2396846238
 40
3.4270325938
100
AcDbArc
 50
99.7974232975
 51
208.0250467037
  0
ARC
  5
46D
100
AcDbEntity
  8
0
100
AcDbCircle
 62
3
  6
CONTINUOUS
 10
107.6809243176
 20
211.4556761787
 40
0.45
100
AcDbArc
 50
19.4712206345
 51
70.5287793666
  0
ARC
  5
46E
100
AcDbEntity
  8
02___PRT_ALL_AXES
100
AcDbCircle
 62
3
  6
CONTINUOUS
 10
427.1539698928
 20
-589.1628987303
 40
852.0873770625
100
AcDbArc
 50
89.9999870048
 51
90.5773730351
  0
ARC
  5
46F
100
AcDbEntity
  8
02___PRT_ALL_AXES
100
AcDbCircle
 62
3
  6
CONTINUOUS
 10
632.1740244107
 20
-63.6773847463
 40
703.9007401204
100
AcDbArc
 50
89.9953684883
 51
99.1214536442
  0
ARC
  5
470
100
AcDbEntity
  8
02___PRT_ALL_AXES
100
AcDbCircle
 62
3
  6
CONTINUOUS
 10
632.2880157468
 20
-63.6750050769
 40
703.8983604665
100
AcDbArc
 50
80.878594232
 51
90.0046471169
  0
ARC
  5
471
100
AcDbEntity
  8
02___PRT_ALL_AXES
100
AcDbCircle
 62
3
  6
CONTINUOUS
 10
632.2309243176
 20
-56.6943238213
 40
707.8624934115
100
AcDbArc
 50
80.7825110163
 51
99.2174889837
  0
ARC
  5
472
100
AcDbEntity
  8
02___PRT_ALL_AXES
100
AcDbCircle
 62
3
  6
CONTINUOUS
 10
632.2309243176
 20
-56.6943238213
 40
699.1628043173
100
AcDbArc
 50
80.7825110163
 51
99.2174889837
  0
ARC
  5
473
100
AcDbEntity
  8
02___PRT_ALL_AXES
100
AcDbCircle
 62
3
  6
CONTINUOUS
 10
463.7895811705
 20
447.4977841474
 40
169.0409188053
100
AcDbArc
 50
114.0675664543
 51
114.4218098257
  0
ARC
  5
474
100
AcDbEntity
  8
02___PRT_ALL_AXES
100
AcDbCircle
 62
3
  6
CONTINUOUS
 10
536.1214278839
 20
411.05322604
 40
107.8624554785
100
AcDbArc
 50
187.1521653049
 51
260.7825110163
  0
ARC
  5
475
100
AcDbEntity
  8
02___PRT_ALL_AXES
100
AcDbCircle
 62
3
  6
CONTINUOUS
 10
536.1214278839
 20
411.05322604
 40
99.1628043145
100
AcDbArc
 50
187.1521653049
 51
260.7825110163
  0
ARC
  5
476
100
AcDbEntity
  8
02___PRT_ALL_AXES
100
AcDbCircle
 62
3
  6
CONTINUOUS
 10
536.0829181601
 20
411.0087947494
 40
97.0862637805
100
AcDbArc
 50
187.1257944979
 51
260.8042633393
  0
ARC
  5
477
100
AcDbEntity
  8
02___PRT_ALL_AXES
100
AcDbCircle
 62
3
  6
CONTINUOUS
 10
418.8191082687
 20
310.6430894581
 40
76.5887071106
100
AcDbArc
 50
179.1770560326
 51
179.9719648104
  0
ARC
  5
478
100
AcDbEntity
  8
02___PRT_ALL_AXES
100
AcDbCircle
 62
3
  6
CONTINUOUS
 10
468.4093695562
 20
436.74595032
 40
74.7111072696
100
AcDbArc
 50
185.0266447868
 51
185.838782824
  0
ARC
  5
479
100
AcDbEntity
  8
02___PRT_ALL_AXES
100
AcDbCircle
 62
3
  6
CONTINUOUS
 10
535.4966640859
 20
410.3342014333
 40
42.7460557082
100
AcDbArc
 50
187.3448000851
 51
260.6428061052
  0
ARC
  5
47A
100
AcDbEntity
  8
02___PRT_ALL_AXES
100
AcDbCircle
 62
3
  6
CONTINUOUS
 10
434.3071446999
 20
403.8524539388
 40
40.4126374852
100
AcDbArc
 50
188.539673506
 51
190.0394815022
  0
ARC
  5
47B
100
AcDbEntity
  8
02___PRT_ALL_AXES
100
AcDbCircle
 62
3
  6
CONTINUOUS
 10
393.4488305296
 20
403.1395358129
 40
6.4209430966
100
AcDbArc
 50
279.5229867606
 51
0.00525667
  0
ARC
  5
47C
100
AcDbEntity
  8
02___PRT_ALL_AXES
100
AcDbCircle
 62
3
  6
CONTINUOUS
 10
393.4661104333
 20
403.1386719369
 40
5.3593818488
100
AcDbArc
 50
279.4120249197
 51
0.0147397545
  0
ARC
  5
47D
100
AcDbEntity
  8
02___PRT_ALL_AXES
100
AcDbCircle
 62
3
  6
CONTINUOUS
 10
393.4429974492
 20
370.6787084847
 40
4.9161635751
100
AcDbArc
 50
283.4962767827
 51
359.9912635148
  0
ARC
  5
47E
100
AcDbEntity
  8
02___PRT_ALL_AXES
100
AcDbCircle
 62
3
  6
CONTINUOUS
 10
220.2838514954
 20
473.3056874321
 40
619.755856426
100
AcDbArc
 50
354.6181807265
 51
5.3818234634
  0
ARC
  5
47F
100
AcDbEntity
  8
02___PRT_ALL_AXES
100
AcDbCircle
 62
3
  6
CONTINUOUS
 10
232.2309243176
 20
473.3056761787
 40
607.8623954192
100
AcDbArc
 50
5.487442247
 51
7.1521653049
  0
ARC
  5
480
100
AcDbEntity
  8
02___PRT_ALL_AXES
100
AcDbCircle
 62
3
  6
CONTINUOUS
 10
232.2309243176
 20
473.3056761787
 40
607.8623932821
100
AcDbArc
 50
352.8478346951
 51
354.5125616482
  0
ARC
  5
481
100
AcDbEntity
  8
02___PRT_ALL_AXES
100
AcDbCircle
 62
3
  6
CONTINUOUS
 10
232.2309243176
 20
473.3056761787
 40
599.16280431
100
AcDbArc
 50
352.8478346951
 51
7.1521653049
  0
ARC
  5
482
100
AcDbEntity
  8
02___PRT_ALL_AXES
100
AcDbCircle
 62
3
  6
CONTINUOUS
 10
236.4881988374
 20
473.9335201125
 40
539.3117976251
100
AcDbArc
 50
352.6425420569
 51
7.1446832
  0
ARC
  5
483
100
AcDbEntity
  8
02___PRT_ALL_AXES
100
AcDbCircle
 62
3
  6
CONTINUOUS
 10
295.7444741336
 20
816.4812852357
 40
236.4074550801
100
AcDbArc
 50
294.0640164957
 51
294.4186177344
  0
ARC
  5
484
100
AcDbEntity
  8
02___PRT_ALL_AXES
100
AcDbCircle
 62
3
  6
CONTINUOUS
 10
76.5233677716
 20
525.6303767393
 40
207.3661974363
100
AcDbArc
 50
297.6384768081
 51
298.0544358574
  0
ARC
  5
485
100
AcDbEntity
  8
02___PRT_ALL_AXES
100
AcDbCircle
 62
3
  6
CONTINUOUS
 10
241.9367305921
 20
739.3525963805
 40
151.4131120582
100
AcDbArc
 50
242.2281133077
 51
242.6351251512
  0
ARC
  5
486
100
AcDbEntity
  8
02___PRT_ALL_AXES
100
AcDbCircle
 62
3
  6
CONTINUOUS
 10
132.4796227277
 20
641.8228776634
 40
89.7687539974
100
AcDbArc
 50
359.9997184112
 51
0.2003012719
  0
ARC
  5
487
100
AcDbEntity
  8
02___PRT_ALL_AXES
100
AcDbCircle
 62
3
  6
CONTINUOUS
 10
252.5008728593
 20
641.8231081837
 40
89.7475038673
100
AcDbArc
 50
359.9995711779
 51
0.2002025386
  0
ARC
  5
488
100
AcDbEntity
  8
02___PRT_ALL_AXES
100
AcDbCircle
 62
3
  6
CONTINUOUS
 10
276.9794617958
 20
641.9487280584
 40
65.2686377357
100
AcDbArc
 50
0.1650129092
 51
0.7705859816
  0
ARC
  5
489
100
AcDbEntity
  8
02___PRT_ALL_AXES
100
AcDbCircle
 62
3
  6
CONTINUOUS
 10
157.0049233857
 20
641.9488402943
 40
65.2431752518
100
AcDbArc
 50
0.1649773586
 51
0.7714993753
  0
ARC
  5
48A
100
AcDbEntity
  8
02___PRT_ALL_AXES
100
AcDbCircle
 62
3
  6
CONTINUOUS
 10
222.2320207817
 20
578.3045797146
 40
65.0010964733
100
AcDbArc
 50
90.0009664782
 51
179.9990335218
  0
ARC
  5
48B
100
AcDbEntity
  8
02___PRT_ALL_AXES
100
AcDbCircle
 62
3
  6
CONTINUOUS
 10
342.2298281749
 20
578.304580036
 40
65.0010961519
100
AcDbArc
 50
0.0009661948
 51
89.9990338051
  0
ARC
  5
48C
100
AcDbEntity
  8
02___PRT_ALL_AXES
100
AcDbCircle
 62
3
  6
CONTINUOUS
 10
222.2482637904
 20
578.3055632077
 40
63.5168732736
100
AcDbArc
 50
89.9998981275
 51
179.9998980939
  0
ARC
  5
48D
100
AcDbEntity
  8
02___PRT_ALL_AXES
100
AcDbCircle
 62
3
  6
CONTINUOUS
 10
342.2484896611
 20
578.3055632111
 40
63.5168732703
100
AcDbArc
 50
0.0001019031
 51
90.0001018755
  0
ARC
  5
48E
100
AcDbEntity
  8
02___PRT_ALL_AXES
100
AcDbCircle
 62
3
  6
CONTINUOUS
 10
222.2195605358
 20
578.3394865936
 40
57.5779275213
100
AcDbArc
 50
124.5456690822
 51
151.9996960914
  0
ARC
  5
48F
100
AcDbEntity
  8
02___PRT_ALL_AXES
100
AcDbCircle
 62
3
  6
CONTINUOUS
 10
222.152815562
 20
578.4057658178
 40
56.4109761643
100
AcDbArc
 50
124.5737934344
 51
152.008338552
  0
ARC
  5
490
100
AcDbEntity
  8
02___PRT_ALL_AXES
100
AcDbCircle
 62
3
  6
CONTINUOUS
 10
222.1337722956
 20
578.4029091013
 40
55.9696689151
100
AcDbArc
 50
124.5496708802
 51
151.9934522389
  0
ARC
  5
491
100
AcDbEntity
  8
02___PRT_ALL_AXES
100
AcDbCircle
 62
3
  6
CONTINUOUS
 10
162.2309243176
 20
658.3056761787
 40
32.3671005024
100
AcDbArc
 50
90.0
 51
180.0
  0
ARC
  5
492
100
AcDbEntity
  8
02___PRT_ALL_AXES
100
AcDbCircle
 62
3
  6
CONTINUOUS
 10
162.2309243176
 20
658.3056761787
 40
28.816424084
100
AcDbArc
 50
90.0
 51
180.0
  0
ARC
  5
493
100
AcDbEntity
  8
02___PRT_ALL_AXES
100
AcDbCircle
 62
3
  6
CONTINUOUS
 10
162.018026399
 20
658.3046935285
 40
28.0095132259
100
AcDbArc
 50
89.5644957888
 51
179.9979899025
  0
ARC
  5
494
100
AcDbEntity
  8
02___PRT_ALL_AXES
100
AcDbCircle
 62
3
  6
CONTINUOUS
 10
161.8785005487
 20
658.3049591806
 40
21.0813292992
100
AcDbArc
 50
89.4216205431
 51
179.9980513107
  0
ARC
  5
495
100
AcDbEntity
  8
02___PRT_ALL_AXES
100
AcDbCircle
 62
3
  6
CONTINUOUS
 10
270.8834509482
 20
628.5053112372
 40
5.9156146839
100
AcDbArc
 50
89.9885452391
 51
256.5502453326
  0
ARC
  5
496
100
AcDbEntity
  8
0
100
AcDbCircle
 62
3
  6
CONTINUOUS
 10
107.6809243176
 20
735.1556761787
 40
0.45
100
AcDbArc
 50
289.471220635
 51
340.5287793655
  0
ARC
  5
497
100
AcDbEntity
  8
02___PRT_ALL_AXES
100
AcDbCircle
 62
3
  6
CONTINUOUS
 10
632.2309243176
 20
1003.3056761787
 40
707.8624934115
100
AcDbArc
 50
260.7825110163
 51
279.2174889837
  0
ARC
  5
498
100
AcDbEntity
  8
02___PRT_ALL_AXES
100
AcDbCircle
 62
3
  6
CONTINUOUS
 10
632.2309243176
 20
1003.3056761787
 40
699.1628043173
100
AcDbArc
 50
260.7825110163
 51
279.2174889837
  0
ARC
  5
499
100
AcDbEntity
  8
02___PRT_ALL_AXES
100
AcDbCircle
 62
3
  6
CONTINUOUS
 10
631.9923299194
 20
999.107007014
 40
639.4513628918
100
AcDbArc
 50
270.0213784083
 51
279.3531292758
  0
ARC
  5
49A
100
AcDbEntity
  8
02___PRT_ALL_AXES
100
AcDbCircle
 62
3
  6
CONTINUOUS
 10
463.7381065593
 20
498.0045984829
 40
168.010460808
100
AcDbArc
 50
245.4349628388
 51
245.7914163776
  0
ARC
  5
49B
100
AcDbEntity
  8
02___PRT_ALL_AXES
100
AcDbCircle
 62
3
  6
CONTINUOUS
 10
536.1214278839
 20
535.5581263173
 40
107.8624554782
100
AcDbArc
 50
99.2174889837
 51
172.8478346951
  0
ARC
  5
49C
100
AcDbEntity
  8
02___PRT_ALL_AXES
100
AcDbCircle
 62
3
  6
CONTINUOUS
 10
536.1214278839
 20
535.5581263173
 40
99.1628043145
100
AcDbArc
 50
99.2174889837
 51
172.8478346951
  0
ARC
  5
49D
100
AcDbEntity
  8
02___PRT_ALL_AXES
100
AcDbCircle
 62
3
  6
CONTINUOUS
 10
536.0619338879
 20
535.5687001937
 40
96.9962602535
100
AcDbArc
 50
99.1807866762
 51
172.8497003477
  0
ARC
  5
49E
100
AcDbEntity
  8
02___PRT_ALL_AXES
100
AcDbCircle
 62
3
  6
CONTINUOUS
 10
466.9685331428
 20
546.2854037686
 40
75.7045885631
100
AcDbArc
 50
169.4816598706
 51
170.2865443038
  0
CIRCLE
  5
49F
100
AcDbEntity
  8
02___PRT_ALL_AXES
100
AcDbCircle
 62
3
  6
CONTINUOUS
 10
632.2309243176
 20
521.3056761787
 40
57.5
  0
ARC
  5
4A0
100
AcDbEntity
  8
02___PRT_ALL_AXES
100
AcDbCircle
 62
3
  6
CONTINUOUS
 10
441.737620008
 20
521.5613171327
 40
49.2004393393
100
AcDbArc
 50
173.1148947001
 51
174.3521397761
  0
CIRCLE
  5
4A1
100
AcDbEntity
  8
02___PRT_ALL_AXES
100
AcDbCircle
 62
3
  6
CONTINUOUS
 10
632.2309243176
 20
521.3056761787
 40
48.63
  0
CIRCLE
  5
4A2
100
AcDbEntity
  8
02___PRT_ALL_AXES
100
AcDbCircle
 62
3
  6
CONTINUOUS
 10
632.2309243176
 20
521.3056761787
 40
47.9544118486
  0
ARC
  5
4A3
100
AcDbEntity
  8
02___PRT_ALL_AXES
100
AcDbCircle
 62
3
  6
CONTINUOUS
 10
432.4351150457
 20
582.4263131894
 40
46.1802306294
100
AcDbArc
 50
165.4802012147
 51
166.8011074243
  0
CIRCLE
  5
4A4
100
AcDbEntity
  8
02___PRT_ALL_AXES
100
AcDbCircle
 62
3
  6
CONTINUOUS
 10
632.2309243176
 20
521.3056761787
 40
45.627790858
  0
CIRCLE
  5
4A5
100
AcDbEntity
  8
02___PRT_ALL_AXES
100
AcDbCircle
 62
3
  6
CONTINUOUS
 10
632.2309243176
 20
521.3056761787
 40
45.3434925616
  0
ARC
  5
4A6
100
AcDbEntity
  8
02___PRT_ALL_AXES
100
AcDbCircle
 62
3
  6
CONTINUOUS
 10
438.1199318623
 20
492.5675147261
 40
44.9280210826
100
AcDbArc
 50
176.9517914427
 51
178.3052335464
  0
CIRCLE
  5
4A7
100
AcDbEntity
  8
02___PRT_ALL_AXES
100
AcDbCircle
 62
3
  6
CONTINUOUS
 10
632.2309243176
 20
521.3056761787
 40
36.8906982073
  0
CIRCLE
  5
4A8
100
AcDbEntity
  8
02___PRT_ALL_AXES
100
AcDbCircle
 62
3
  6
CONTINUOUS
 10
632.2309243176
 20
521.3056761787
 40
36.5024673166
  0
CIRCLE
  5
4A9
100
AcDbEntity
  8
02___PRT_ALL_AXES
100
AcDbCircle
 62
3
  6
CONTINUOUS
 10
632.2309243176
 20
521.3056761787
 40
35.0
  0
ARC
  5
4AA
100
AcDbEntity
  8
02___PRT_ALL_AXES
100
AcDbCircle
 62
3
  6
CONTINUOUS
 10
393.4488898223
 20
543.4718669683
 40
6.4208838087
100
AcDbArc
 50
359.9942933321
 51
80.4781791456
  0
ARC
  5
4AB
100
AcDbEntity
  8
02___PRT_ALL_AXES
100
AcDbCircle
 62
3
  6
CONTINUOUS
 10
393.4658878689
 20
543.4724917553
 40
5.359604374
100
AcDbArc
 50
359.987277744
 51
80.5859576583
  0
ARC
  5
4AC
100
AcDbEntity
  8
02___PRT_ALL_AXES
100
AcDbCircle
 62
3
  6
CONTINUOUS
 10
393.4439055095
 20
575.9333528962
 40
4.9150264194
100
AcDbArc
 50
0.0004768755
 51
76.5120915122
  0
ARC
  5
4AD
100
AcDbEntity
  8
02___PRT_ALL_AXES
100
AcDbCircle
 62
3
  6
CONTINUOUS
 10
388.9812691021
 20
599.2116380323
 40
4.9148827742
100
AcDbArc
 50
256.5686628389
 51
24.0857533529
  0
ARC
  5
4AE
100
AcDbEntity
  8
02___PRT_ALL_AXES
100
AcDbCircle
 62
3
  6
CONTINUOUS
 10
393.4437718292
 20
543.4719726485
 40
4.9144607561
100
AcDbArc
 50
359.9921771316
 51
80.2683759927
  0
ARC
  5
4AF
100
AcDbEntity
  8
02___PRT_ALL_AXES
100
AcDbCircle
 62
3
  6
CONTINUOUS
 10
427.1539698929
 20
1535.7742511011
 40
852.087377076
100
AcDbArc
 50
269.4226269649
 51
270.0000129952
  0
ARC
  5
4B0
100
AcDbEntity
  8
02___PRT_ALL_AXES
100
AcDbCircle
 62
3
  6
CONTINUOUS
 10
632.1595159652
 20
1007.4437469042
 40
701.2325245063
100
AcDbArc
 50
270.0058345799
 51
279.1686625866
  0
ARC
  5
4B1
100
AcDbEntity
  8
02___PRT_ALL_AXES
100
AcDbCircle
 62
3
  6
CONTINUOUS
 10
632.3020664606
 20
1007.4404435437
 40
701.2292211188
100
AcDbArc
 50
260.8313768622
 51
269.9941871439
  0
ARC
  5
4B2
100
AcDbEntity
  8
02___PRT_ALL_AXES
100
AcDbCircle
 62
3
  6
CONTINUOUS
 10
837.3078787453
 20
-589.1628981598
 40
852.087376492
100
AcDbArc
 50
89.4226269647
 51
90.0000129954
  0
ARC
  5
4B3
100
AcDbEntity
  8
02___PRT_ALL_AXES
100
AcDbCircle
 62
3
  6
CONTINUOUS
 10
800.7310489903
 20
448.6229138626
 40
167.9927263462
100
AcDbArc
 50
65.4349379578
 51
65.7914291246
  0
ARC
  5
4B4
100
AcDbEntity
  8
02___PRT_ALL_AXES
100
AcDbCircle
 62
3
  6
CONTINUOUS
 10
728.3404207514
 20
411.05322604
 40
107.8624554782
100
AcDbArc
 50
279.2174889837
 51
352.8478346951
  0
ARC
  5
4B5
100
AcDbEntity
  8
02___PRT_ALL_AXES
100
AcDbCircle
 62
3
  6
CONTINUOUS
 10
728.3404207514
 20
411.05322604
 40
99.1628043145
100
AcDbArc
 50
279.2174889837
 51
352.8478346951
  0
ARC
  5
4B6
100
AcDbEntity
  8
02___PRT_ALL_AXES
100
AcDbCircle
 62
3
  6
CONTINUOUS
 10
728.3789345241
 20
411.0087998972
 40
97.086264294
100
AcDbArc
 50
279.1961742812
 51
352.8746572456
  0
ARC
  5
4B7
100
AcDbEntity
  8
02___PRT_ALL_AXES
100
AcDbCircle
 62
3
  6
CONTINUOUS
 10
922.2320204621
 20
368.3067723232
 40
65.0010961538
100
AcDbArc
 50
180.0009661966
 51
269.9990338037
  0
ARC
  5
4B8
100
AcDbEntity
  8
02___PRT_ALL_AXES
100
AcDbCircle
 62
3
  6
CONTINUOUS
 10
922.2133589769
 20
368.305789149
 40
63.516873273
100
AcDbArc
 50
180.0001019056
 51
270.000101873
  0
ARC
  5
4B9
100
AcDbEntity
  8
02___PRT_ALL_AXES
100
AcDbCircle
 62
3
  6
CONTINUOUS
 10
824.8734029924
 20
395.4327657229
 40
47.8915160712
100
AcDbArc
 50
349.2576841406
 51
350.5300899411
  0
ARC
  5
4BA
100
AcDbEntity
  8
02___PRT_ALL_AXES
100
AcDbCircle
 62
3
  6
CONTINUOUS
 10
832.0267335902
 20
364.1850391678
 40
46.1802306287
100
AcDbArc
 50
345.4802012147
 51
346.8011074243
  0
ARC
  5
4BB
100
AcDbEntity
  8
02___PRT_ALL_AXES
100
AcDbCircle
 62
3
  6
CONTINUOUS
 10
826.3419167733
 20
454.0438376312
 40
44.9280210822
100
AcDbArc
 50
356.9517914427
 51
358.3052335464
  0
ARC
  5
4BC
100
AcDbEntity
  8
02___PRT_ALL_AXES
100
AcDbCircle
 62
3
  6
CONTINUOUS
 10
728.9651653922
 20
410.3342017043
 40
42.7460560142
100
AcDbArc
 50
279.3572191719
 51
352.6552028374
  0
ARC
  5
4BD
100
AcDbEntity
  8
02___PRT_ALL_AXES
100
AcDbCircle
 62
3
  6
CONTINUOUS
 10
948.9526099723
 20
304.133142756
 40
26.7352257537
100
AcDbArc
 50
180.7464719756
 51
181.4584815671
  0
ARC
  5
4BE
100
AcDbEntity
  8
02___PRT_ALL_AXES
100
AcDbCircle
 62
3
  6
CONTINUOUS
 10
871.0190542628
 20
403.1409012748
 40
4.916356176
100
AcDbArc
 50
180.0099090407
 51
260.2601443855
  0
ARC
  5
4BF
100
AcDbEntity
  8
02___PRT_ALL_AXES
100
AcDbCircle
 62
3
  6
CONTINUOUS
 10
875.4805797612
 20
347.3997139732
 40
4.9148831406
100
AcDbArc
 50
76.5686663776
 51
204.0857262585
  0
ARC
  5
4C0
100
AcDbEntity
  8
02___PRT_ALL_AXES
100
AcDbCircle
 62
3
  6
CONTINUOUS
 10
871.0169788486
 20
370.6773647284
 40
4.9141100991
100
AcDbArc
 50
179.9930719096
 51
256.5212999959
  0
ARC
  5
4C1
100
AcDbEntity
  8
02___PRT_ALL_AXES
100
AcDbCircle
 62
3
  6
CONTINUOUS
 10
1044.1779971395
 20
473.3056649253
 40
619.7558564257
100
AcDbArc
 50
174.6181807265
 51
185.3818234634
  0
ARC
  5
4C2
100
AcDbEntity
  8
02___PRT_ALL_AXES
100
AcDbCircle
 62
3
  6
CONTINUOUS
 10
1035.803073217
 20
473.0019067761
 40
600.6422354324
100
AcDbArc
 50
174.5147060714
 51
185.429251146
  0
ARC
  5
4C3
100
AcDbEntity
  8
02___PRT_ALL_AXES
100
AcDbCircle
 62
3
  6
CONTINUOUS
 10
1035.1276896858
 20
472.959161617
 40
599.974040222
100
AcDbArc
 50
172.8494502405
 51
174.5044774242
  0
ARC
  5
4C4
100
AcDbEntity
  8
02___PRT_ALL_AXES
100
AcDbCircle
 62
3
  6
CONTINUOUS
 10
1033.5037522578
 20
472.9350483904
 40
598.3469207988
100
AcDbArc
 50
185.5211791028
 51
187.1012599397
  0
ARC
  5
4C5
100
AcDbEntity
  8
02___PRT_ALL_AXES
100
AcDbCircle
 62
3
  6
CONTINUOUS
 10
968.7546003017
 20
129.5271716397
 40
236.9719064768
100
AcDbArc
 50
114.012554304
 51
114.3663190299
  0
ARC
  5
4C6
100
AcDbEntity
  8
02___PRT_ALL_AXES
100
AcDbCircle
 62
3
  6
CONTINUOUS
 10
1189.2235244585
 20
418.8164143948
 40
209.8795163352
100
AcDbArc
 50
117.675144076
 51
118.0862161702
  0
ARC
  5
4C7
100
AcDbEntity
  8
02___PRT_ALL_AXES
100
AcDbCircle
 62
3
  6
CONTINUOUS
 10
1021.9158411052
 20
206.2780326392
 40
152.5641815325
100
AcDbArc
 50
62.197301603
 51
62.6012963864
  0
ARC
  5
4C8
100
AcDbEntity
  8
02___PRT_ALL_AXES
100
AcDbCircle
 62
3
  6
CONTINUOUS
 10
991.5650951376
 20
304.7137965239
 40
69.3516639098
100
AcDbArc
 50
179.9379391576
 51
180.7674961386
  0
ARC
  5
4C9
100
AcDbEntity
  8
02___PRT_ALL_AXES
100
AcDbCircle
 62
3
  6
CONTINUOUS
 10
1111.5112950234
 20
304.7134191561
 40
69.2978642373
100
AcDbArc
 50
179.9375789669
 51
180.768449144
  0
ARC
  5
4CA
100
AcDbEntity
  8
02___PRT_ALL_AXES
100
AcDbCircle
 62
3
  6
CONTINUOUS
 10
1042.229827851
 20
368.3067726453
 40
65.0010964759
100
AcDbArc
 50
270.0009664806
 51
359.9990335197
  0
ARC
  5
4CB
100
AcDbEntity
  8
02___PRT_ALL_AXES
100
AcDbCircle
 62
3
  6
CONTINUOUS
 10
1156.2328789833
 20
402.5478429707
 40
63.5392935818
100
AcDbArc
 50
173.889111827
 51
175.225726779
  0
ARC
  5
4CC
100
AcDbEntity
  8
02___PRT_ALL_AXES
100
AcDbCircle
 62
3
  6
CONTINUOUS
 10
1042.2135848406
 20
368.3057891538
 40
63.5168732778
100
AcDbArc
 50
269.9998981313
 51
359.9998980901
  0
ARC
  5
4CD
100
AcDbEntity
  8
02___PRT_ALL_AXES
100
AcDbCircle
 62
3
  6
CONTINUOUS
 10
1042.2932272631
 20
368.2188089699
 40
56.4314096076
100
AcDbArc
 50
304.5793901179
 51
332.0040176606
  0
ARC
  5
4CE
100
AcDbEntity
  8
02___PRT_ALL_AXES
100
AcDbCircle
 62
3
  6
CONTINUOUS
 10
1042.3127508129
 20
368.2212723293
 40
55.9894867334
100
AcDbArc
 50
304.55514254
 51
331.9892274945
  0
ARC
  5
4CF
100
AcDbEntity
  8
02___PRT_ALL_AXES
100
AcDbCircle
 62
3
  6
CONTINUOUS
 10
1048.5706701452
 20
313.3306570683
 40
55.0052707773
100
AcDbArc
 50
179.6407691017
 51
181.1873123831
  0
ARC
  5
4D0
100
AcDbEntity
  8
02___PRT_ALL_AXES
100
AcDbCircle
 62
3
  6
CONTINUOUS
 10
1102.2309243176
 20
288.3056761787
 40
32.3671005024
100
AcDbArc
 50
270.0
 51
360.0
  0
ARC
  5
4D1
100
AcDbEntity
  8
02___PRT_ALL_AXES
100
AcDbCircle
 62
3
  6
CONTINUOUS
 10
1102.2309243176
 20
288.3056761787
 40
28.816424084
100
AcDbArc
 50
270.0
 51
360.0
  0
ARC
  5
4D2
100
AcDbEntity
  8
02___PRT_ALL_AXES
100
AcDbCircle
 62
3
  6
CONTINUOUS
 10
1102.4438247425
 20
288.3066563033
 40
28.0095132259
100
AcDbArc
 50
269.564490623
 51
359.9979950683
  0
ARC
  5
4D3
100
AcDbEntity
  8
02___PRT_ALL_AXES
100
AcDbCircle
 62
3
  6
CONTINUOUS
 10
1068.9220457397
 20
304.1325285327
 40
26.7046564828
100
AcDbArc
 50
180.747745013
 51
181.4588348497
  0
ARC
  5
4D4
100
AcDbEntity
  8
02___PRT_ALL_AXES
100
AcDbCircle
 62
3
  6
CONTINUOUS
 10
1102.5833480866
 20
288.3063931767
 40
21.0813292992
100
AcDbArc
 50
269.4216205431
 51
359.9980513107
  0
ARC
  5
4D5
100
AcDbEntity
  8
02___PRT_ALL_AXES
100
AcDbCircle
 62
3
  6
CONTINUOUS
 10
1065.56836869
 20
334.4653941866
 40
15.4392932794
100
AcDbArc
 50
256.7627839083
 51
304.5545403859
  0
ARC
  5
4D6
100
AcDbEntity
  8
02___PRT_ALL_AXES
100
AcDbCircle
 62
3
  6
CONTINUOUS
 10
1065.5928984508
 20
334.4543304105
 40
14.9827098046
100
AcDbArc
 50
256.6390728725
 51
304.4767356734
  0
ARC
  5
4D7
100
AcDbEntity
  8
02___PRT_ALL_AXES
100
AcDbCircle
 62
3
  6
CONTINUOUS
 10
993.5737959774
 20
318.1056670706
 40
7.4213866809
100
AcDbArc
 50
270.1084723221
 51
76.3338525143
  0
ARC
  5
4D8
100
AcDbEntity
  8
02___PRT_ALL_AXES
100
AcDbCircle
 62
3
  6
CONTINUOUS
 10
1087.3858294699
 20
344.238825809
 40
3.4280514137
100
AcDbArc
 50
332.1452530776
 51
80.2012125097
  0
ARC
  5
4D9
100
AcDbEntity
  8
0
100
AcDbCircle
 62
3
  6
CONTINUOUS
 10
1156.7809243176
 20
211.4556761787
 40
0.45
100
AcDbArc
 50
109.4712206334
 51
160.5287793655
  0
ARC
  5
4DA
100
AcDbEntity
  8
02___PRT_ALL_AXES
100
AcDbCircle
 62
3
  6
CONTINUOUS
 10
632.4693847831
 20
999.1053735096
 40
639.4497293375
100
AcDbArc
 50
260.6468587782
 51
269.9786335376
  0
ARC
  5
4DB
100
AcDbEntity
  8
02___PRT_ALL_AXES
100
AcDbCircle
 62
3
  6
CONTINUOUS
 10
800.6794808572
 20
499.4733135934
 40
169.3655663451
100
AcDbArc
 50
294.01604872
 51
294.3696051422
  0
ARC
  5
4DC
100
AcDbEntity
  8
02___PRT_ALL_AXES
100
AcDbCircle
 62
3
  6
CONTINUOUS
 10
728.3404207514
 20
535.5581263173
 40
107.8624554785
100
AcDbArc
 50
7.1521653049
 51
80.7825110163
  0
ARC
  5
4DD
100
AcDbEntity
  8
02___PRT_ALL_AXES
100
AcDbCircle
 62
3
  6
CONTINUOUS
 10
728.3404207514
 20
535.5581263173
 40
99.1628043145
100
AcDbArc
 50
7.1521653049
 51
80.7825110163
  0
ARC
  5
4DE
100
AcDbEntity
  8
02___PRT_ALL_AXES
100
AcDbCircle
 62
3
  6
CONTINUOUS
 10
728.3999198168
 20
535.5687021473
 40
96.9962583909
100
AcDbArc
 50
7.1472105942
 51
80.819674667
  0
ARC
  5
4DF
100
AcDbEntity
  8
02___PRT_ALL_AXES
100
AcDbCircle
 62
3
  6
CONTINUOUS
 10
828.1577277938
 20
572.0465154318
 40
42.6010663362
100
AcDbArc
 50
12.3430654105
 51
13.7643586064
  0
ARC
  5
4E0
100
AcDbEntity
  8
02___PRT_ALL_AXES
100
AcDbCircle
 62
3
  6
CONTINUOUS
 10
881.8134843243
 20
635.6888170971
 40
40.4181431843
100
AcDbArc
 50
358.8339896749
 51
0.3376382468
  0
ARC
  5
4E1
100
AcDbEntity
  8
02___PRT_ALL_AXES
100
AcDbCircle
 62
3
  6
CONTINUOUS
 10
830.1547039323
 20
542.7588984181
 40
40.4126374882
100
AcDbArc
 50
8.5396735061
 51
10.0394815021
  0
ARC
  5
4E2
100
AcDbEntity
  8
02___PRT_ALL_AXES
100
AcDbCircle
 62
3
  6
CONTINUOUS
 10
871.0132226795
 20
575.9331733528
 40
6.4217516199
100
AcDbArc
 50
103.2765010119
 51
180.0004987603
  0
ARC
  5
4E3
100
AcDbEntity
  8
02___PRT_ALL_AXES
100
AcDbCircle
 62
3
  6
CONTINUOUS
 10
871.0130181056
 20
543.4718165444
 40
6.4209430966
100
AcDbArc
 50
99.5229867606
 51
180.00525667
  0
ARC
  5
4E4
100
AcDbEntity
  8
02___PRT_ALL_AXES
100
AcDbCircle
 62
3
  6
CONTINUOUS
 10
870.995738202
 20
543.4726804204
 40
5.3593818488
100
AcDbArc
 50
99.4120249197
 51
180.0147397545
  0
ARC
  5
4E5
100
AcDbEntity
  8
02___PRT_ALL_AXES
100
AcDbCircle
 62
3
  6
CONTINUOUS
 10
837.3078787453
 20
1535.7742505138
 40
852.0873764887
100
AcDbArc
 50
269.9999870046
 51
270.5773730353
  0
ARC
  5
4E6
100
AcDbEntity
  8
02___PRT_ALL_AXES
100
AcDbCircle
 62
3
  6
CONTINUOUS
 10
1032.2309243176
 20
473.3056761787
 40
607.862478471
100
AcDbArc
 50
185.4874422471
 51
187.1521653049
  0
ARC
  5
4E7
100
AcDbEntity
  8
02___PRT_ALL_AXES
100
AcDbCircle
 62
3
  6
CONTINUOUS
 10
1032.2309243176
 20
473.3056761787
 40
607.8624784682
100
AcDbArc
 50
172.8478346951
 51
174.5125616482
  0
ARC
  5
4E8
100
AcDbEntity
  8
02___PRT_ALL_AXES
100
AcDbCircle
 62
3
  6
CONTINUOUS
 10
1032.2309243176
 20
473.3056761787
 40
599.1628043162
100
AcDbArc
 50
172.8478346951
 51
187.1521653049
  0
ARC
  5
4E9
100
AcDbEntity
  8
02___PRT_ALL_AXES
100
AcDbCircle
 62
3
  6
CONTINUOUS
 10
1030.6450892672
 20
473.9384804735
 40
541.9619819596
100
AcDbArc
 50
172.8909635151
 51
187.321811228
  0
ARC
  5
4EA
100
AcDbEntity
  8
02___PRT_ALL_AXES
100
AcDbCircle
 62
3
  6
CONTINUOUS
 10
968.0224670759
 20
813.7874717166
 40
233.6677625495
100
AcDbArc
 50
245.4654088799
 51
245.8242247766
  0
ARC
  5
4EB
100
AcDbEntity
  8
02___PRT_ALL_AXES
100
AcDbCircle
 62
3
  6
CONTINUOUS
 10
1189.0977383884
 20
529.5072416567
 40
211.3394691995
100
AcDbArc
 50
242.1630577689
 51
242.5713098708
  0
ARC
  5
4EC
100
AcDbEntity
  8
02___PRT_ALL_AXES
100
AcDbCircle
 62
3
  6
CONTINUOUS
 10
1022.5038248516
 20
737.6417476471
 40
149.9056792287
100
AcDbArc
 50
297.6717293744
 51
298.0828484604
  0
ARC
  5
4ED
100
AcDbEntity
  8
02___PRT_ALL_AXES
100
AcDbCircle
 62
3
  6
CONTINUOUS
 10
948.4960792425
 20
560.3743265213
 40
79.2317126126
100
AcDbArc
 50
188.7540997013
 51
189.82506043
  0
ARC
  5
4EE
100
AcDbEntity
  8
02___PRT_ALL_AXES
100
AcDbCircle
 62
3
  6
CONTINUOUS
 10
1068.0720178215
 20
641.5599566411
 40
75.49792458
100
AcDbArc
 50
193.2937861947
 51
194.4251495865
  0
ARC
  5
4EF
100
AcDbEntity
  8
02___PRT_ALL_AXES
100
AcDbCircle
 62
3
  6
CONTINUOUS
 10
991.5493917785
 20
641.8977340265
 40
69.3359607532
100
AcDbArc
 50
179.2324615062
 51
180.0622221478
  0
ARC
  5
4F0
100
AcDbEntity
  8
02___PRT_ALL_AXES
100
AcDbCircle
 62
3
  6
CONTINUOUS
 10
1111.5269757066
 20
641.8977542685
 40
69.3135447165
100
AcDbArc
 50
179.2315925519
 51
180.0622590029
  0
ARC
  5
4F1
100
AcDbEntity
  8
02___PRT_ALL_AXES
100
AcDbCircle
 62
3
  6
CONTINUOUS
 10
1042.2298278534
 20
578.3045797144
 40
65.0010964735
100
AcDbArc
 50
0.0009664784
 51
89.9990335217
  0
ARC
  5
4F2
100
AcDbEntity
  8
02___PRT_ALL_AXES
100
AcDbCircle
 62
3
  6
CONTINUOUS
 10
922.2320204606
 20
578.3045800357
 40
65.0010961522
100
AcDbArc
 50
90.0009661951
 51
179.999033805
  0
ARC
  5
4F3
100
AcDbEntity
  8
02___PRT_ALL_AXES
100
AcDbCircle
 62
3
  6
CONTINUOUS
 10
1042.2135848458
 20
578.3055632087
 40
63.5168732727
100
AcDbArc
 50
0.0001019053
 51
90.0001018733
  0
ARC
  5
4F4
100
AcDbEntity
  8
02___PRT_ALL_AXES
100
AcDbCircle
 62
3
  6
CONTINUOUS
 10
922.2133589733
 20
578.305563212
 40
63.5168732694
100
AcDbArc
 50
89.9998981237
 51
179.9998980977
  0
ARC
  5
4F5
100
AcDbEntity
  8
02___PRT_ALL_AXES
100
AcDbCircle
 62
3
  6
CONTINUOUS
 10
930.6235433603
 20
484.4811753562
 40
59.7823091111
100
AcDbArc
 50
180.8330200567
 51
182.2548345325
  0
ARC
  5
4F6
100
AcDbEntity
  8
02___PRT_ALL_AXES
100
AcDbCircle
 62
3
  6
CONTINUOUS
 10
981.0767311877
 20
633.2528168163
 40
58.8728388725
100
AcDbArc
 50
178.8601947799
 51
180.3084999842
  0
ARC
  5
4F7
100
AcDbEntity
  8
02___PRT_ALL_AXES
100
AcDbCircle
 62
3
  6
CONTINUOUS
 10
1042.2564480861
 20
578.3505781868
 40
57.5600301188
100
AcDbArc
 50
27.9994981176
 51
55.4506326342
  0
ARC
  5
4F8
100
AcDbEntity
  8
02___PRT_ALL_AXES
100
AcDbCircle
 62
3
  6
CONTINUOUS
 10
1143.8000774205
 20
608.1893894506
 40
56.57965073
100
AcDbArc
 50
189.3521970532
 51
190.859595978
  0
ARC
  5
4F9
100
AcDbEntity
  8
02___PRT_ALL_AXES
100
AcDbCircle
 62
3
  6
CONTINUOUS
 10
1042.3090366161
 20
578.4057689702
 40
56.4109715601
100
AcDbArc
 50
27.9916571438
 51
55.4262095378
  0
ARC
  5
4FA
100
AcDbEntity
  8
02___PRT_ALL_AXES
100
AcDbCircle
 62
3
  6
CONTINUOUS
 10
1042.3280808805
 20
578.4029131455
 40
55.9696630107
100
AcDbArc
 50
28.0065432961
 51
55.4503324545
  0
ARC
  5
4FB
100
AcDbEntity
  8
02___PRT_ALL_AXES
100
AcDbCircle
 62
3
  6
CONTINUOUS
 10
924.9411952402
 20
520.4060776554
 40
54.6080497767
100
AcDbArc
 50
184.6652770964
 51
186.220201777
  0
ARC
  5
4FC
100
AcDbEntity
  8
02___PRT_ALL_AXES
100
AcDbCircle
 62
3
  6
CONTINUOUS
 10
955.2176110635
 20
611.9467478459
 40
41.1759356775
100
AcDbArc
 50
13.1186206313
 51
14.6000709191
  0
ARC
  5
4FD
100
AcDbEntity
  8
02___PRT_ALL_AXES
100
AcDbCircle
 62
3
  6
CONTINUOUS
 10
1102.2309243176
 20
658.3056761787
 40
32.3671005024
100
AcDbArc
 50
0.0
 51
90.0
  0
ARC
  5
4FE
100
AcDbEntity
  8
02___PRT_ALL_AXES
100
AcDbCircle
 62
3
  6
CONTINUOUS
 10
1102.2309243176
 20
658.3056761787
 40
28.816424084
100
AcDbArc
 50
0.0
 51
90.0
  0
ARC
  5
4FF
100
AcDbEntity
  8
02___PRT_ALL_AXES
100
AcDbCircle
 62
3
  6
CONTINUOUS
 10
1102.443824519
 20
658.3046897974
 40
28.0095140917
100
AcDbArc
 50
0.0020177301
 51
90.4355088225
  0
ARC
  5
500
100
AcDbEntity
  8
02___PRT_ALL_AXES
100
AcDbCircle
 62
3
  6
CONTINUOUS
 10
948.9462865235
 20
642.4782907248
 40
26.7289029583
100
AcDbArc
 50
178.5413456306
 51
179.2534843956
  0
ARC
  5
501
100
AcDbEntity
  8
02___PRT_ALL_AXES
100
AcDbCircle
 62
3
  6
CONTINUOUS
 10
1068.92835633
 20
642.478742481
 40
26.7109664106
100
AcDbArc
 50
178.5413369419
 51
179.2522980465
  0
ARC
  5
502
100
AcDbEntity
  8
02___PRT_ALL_AXES
100
AcDbCircle
 62
3
  6
CONTINUOUS
 10
1102.5833484728
 20
658.3049595708
 40
21.081328913
100
AcDbArc
 50
0.0019476289
 51
90.5783805173
  0
ARC
  5
503
100
AcDbEntity
  8
02___PRT_ALL_AXES
100
AcDbCircle
 62
3
  6
CONTINUOUS
 10
1065.5907458727
 20
612.192815619
 40
16.4530474426
100
AcDbArc
 50
55.5430300511
 51
103.3323644446
  0
ARC
  5
504
100
AcDbEntity
  8
02___PRT_ALL_AXES
100
AcDbCircle
 62
3
  6
CONTINUOUS
 10
1065.5896084764
 20
612.1546646494
 40
14.9856693671
100
AcDbArc
 50
55.5180169103
 51
103.3466081812
  0
ARC
  5
505
100
AcDbEntity
  8
02___PRT_ALL_AXES
100
AcDbCircle
 62
3
  6
CONTINUOUS
 10
993.5787464555
 20
628.5052538035
 40
5.9155737398
100
AcDbArc
 50
283.4465986323
 51
90.0148326076
  0
ARC
  5
506
100
AcDbEntity
  8
0
100
AcDbCircle
 62
3
  6
CONTINUOUS
 10
1156.7809243176
 20
735.1556761787
 40
0.45
100
AcDbArc
 50
199.4712206345
 51
250.5287793649
  0
ARC
  5
507
100
AcDbEntity
  8
02___PRT_ALL_AXES
100
AcDbCircle
 62
7
  6
CONTINUOUS
 10
1390.0057256073
 20
-7467.0877774191
 40
8015.0714222525
100
AcDbArc
 50
90.1244168119
 51
90.4676871456
  0
ARC
  5
508
100
AcDbEntity
  8
02___PRT_ALL_AXES
100
AcDbCircle
 62
7
  6
CONTINUOUS
 10
1390.0440183224
 20
-379.6384938259
 40
1013.7077061574
100
AcDbArc
 50
90.9859376954
 51
93.7375592456
  0
ARC
  5
509
100
AcDbEntity
  8
02___PRT_ALL_AXES
100
AcDbCircle
 62
7
  6
CONTINUOUS
 10
1390.0587203794
 20
-357.4943238213
 40
1000.6
100
AcDbArc
 50
91.0000890294
 51
93.8717635614
  0
ARC
  5
50A
100
AcDbEntity
  8
02___PRT_ALL_AXES
100
AcDbCircle
 62
7
  6
CONTINUOUS
 10
1328.7671396368
 20
361.0954227952
 40
55.5999999165
100
AcDbArc
 50
181.5000020052
 51
266.2812500915
  0
ARC
  5
50B
100
AcDbEntity
  8
0
100
AcDbCircle
 62
3
  6
CONTINUOUS
 10
1400.6205378578
 20
213.7008838968
 40
2.3934638729
100
AcDbArc
 50
275.7111696801
 51
280.4073467888
  0
ARC
  5
50C
100
AcDbEntity
  8
02___PRT_ALL_AXES
100
AcDbCircle
 62
7
  6
CONTINUOUS
 10
1269.6474917958
 20
476.1691869637
 40
1.4
100
AcDbArc
 50
194.9999999997
 51
217.8917117329
  0
ARC
  5
50D
100
AcDbEntity
  8
0
100
AcDbCircle
 62
3
  6
CONTINUOUS
 10
1400.8587203794
 20
211.6056761787
 40
1.2
100
AcDbArc
 50
270.0
 51
360.0
  0
ARC
  5
50E
100
AcDbEntity
  8
0
100
AcDbCircle
 62
3
  6
CONTINUOUS
 10
1373.8011981755
 20
211.6056761787
 40
1.2
100
AcDbArc
 50
180.0
 51
270.0
  0
ARC
  5
50F
100
AcDbEntity
  8
0
100
AcDbCircle
 62
3
  6
CONTINUOUS
 10
1400.6784059693
 20
212.5056761787
 40
1.2
100
AcDbArc
 50
270.0
 51
278.6421106274
  0
ARC
  5
510
100
AcDbEntity
  8
0
100
AcDbCircle
 62
7
  6
CONTINUOUS
 10
1400.8587203794
 20
211.6056761787
 40
0.6
100
AcDbArc
 50
270.0
 51
323.9902915104
  0
ARC
  5
511
100
AcDbEntity
  8
0
100
AcDbCircle
 62
7
  6
CONTINUOUS
 10
1373.8011981755
 20
211.6056761787
 40
0.6
100
AcDbArc
 50
180.0
 51
270.0
  0
ARC
  5
512
100
AcDbEntity
  8
02___PRT_ALL_AXES
100
AcDbCircle
 62
7
  6
CONTINUOUS
 10
1269.9587203794
 20
472.6756761787
 40
0.5
100
AcDbArc
 50
0.0
 51
37.8917117335
  0
ARC
  5
513
100
AcDbEntity
  8
02___PRT_ALL_AXES
100
AcDbCircle
 62
7
  6
CONTINUOUS
 10
1390.9992615507
 20
8434.0986936062
 40
8035.4730335235
100
AcDbArc
 50
269.5344533851
 51
269.8688148971
  0
ARC
  5
514
100
AcDbEntity
  8
02___PRT_ALL_AXES
100
AcDbCircle
 62
7
  6
CONTINUOUS
 10
1390.0397735063
 20
1326.2334131746
 40
1013.6912063721
100
AcDbArc
 50
266.3669973633
 51
269.0142875548
  0
ARC
  5
515
100
AcDbEntity
  8
02___PRT_ALL_AXES
100
AcDbCircle
 62
7
  6
CONTINUOUS
 10
1390.0587203794
 20
1304.1056761787
 40
1000.6
100
AcDbArc
 50
266.2812530524
 51
268.9999427562
  0
ARC
  5
516
100
AcDbEntity
  8
02___PRT_ALL_AXES
100
AcDbCircle
 62
7
  6
CONTINUOUS
 10
1065.4430634074
 20
551.9693465145
 40
208.2266416336
100
AcDbArc
 50
7.1382998921
 51
7.4838185869
  0
ARC
  5
517
100
AcDbEntity
  8
02___PRT_ALL_AXES
100
AcDbCircle
 62
7
  6
CONTINUOUS
 10
1099.0473147453
 20
556.4021101836
 40
174.3312922916
100
AcDbArc
 50
7.4778440413
 51
8.2755446504
  0
ARC
  5
518
100
AcDbEntity
  8
02___PRT_ALL_AXES
100
AcDbCircle
 62
7
  6
CONTINUOUS
 10
1326.2489153624
 20
585.3488809755
 40
55.5999999038
100
AcDbArc
 50
93.8717651835
 51
178.5000001782
  0
ARC
  5
519
100
AcDbEntity
  8
02___PRT_ALL_AXES
100
AcDbCircle
 62
7
  6
CONTINUOUS
 10
1268.0587203794
 20
557.8081974323
 40
2.1
100
AcDbArc
 50
165.0000000222
 51
180.0
  0
ARC
  5
51A
100
AcDbEntity
  8
02___PRT_ALL_AXES
100
AcDbCircle
 62
7
  6
CONTINUOUS
 10
1268.0587203794
 20
484.803154925
 40
2.1
100
AcDbArc
 50
180.0
 51
194.9999999778
  0
ARC
  5
51B
100
AcDbEntity
  8
02___PRT_ALL_AXES
100
AcDbCircle
 62
7
  6
CONTINUOUS
 10
1269.6474917958
 20
566.4421653936
 40
1.4
100
AcDbArc
 50
142.1082882671
 51
165.0000000003
  0
ARC
  5
51C
100
AcDbEntity
  8
0
100
AcDbCircle
 62
7
  6
CONTINUOUS
 10
1402.6587203794
 20
735.0056761787
 40
1.2
100
AcDbArc
 50
90.0
 51
180.0
  0
ARC
  5
51D
100
AcDbEntity
  8
0
100
AcDbCircle
 62
3
  6
CONTINUOUS
 10
1400.678331552
 20
734.1057663926
 40
1.2
100
AcDbArc
 50
81.3542953841
 51
90.7025650479
  0
ARC
  5
51E
100
AcDbEntity
  8
0
100
AcDbCircle
 62
3
  6
CONTINUOUS
 10
1429.7162425833
 20
736.5056761787
 40
0.9
100
AcDbArc
 50
270.0
 51
92.0
  0
ARC
  5
51F
100
AcDbEntity
  8
0
100
AcDbCircle
 62
3
  6
CONTINUOUS
 10
1402.6587203794
 20
735.0056761787
 40
0.6
100
AcDbArc
 50
90.0
 51
180.0
  0
ARC
  5
520
100
AcDbEntity
  8
02___PRT_ALL_AXES
100
AcDbCircle
 62
7
  6
CONTINUOUS
 10
1269.9587203794
 20
569.9356761787
 40
0.5
100
AcDbArc
 50
322.1082882665
 51
360.0
  0
ARC
  5
521
100
AcDbEntity
  8
0
100
AcDbCircle
 62
7
  6
CONTINUOUS
 10
1429.7162425833
 20
736.5056761787
 40
0.3
100
AcDbArc
 50
270.0
 51
92.0
  0
ARC
  5
522
100
AcDbEntity
  8
02___PRT_ALL_AXES
100
AcDbCircle
 62
7
  6
CONTINUOUS
 10
12524.0082138379
 20
558.1203546053
 40
11199.4310616664
100
AcDbArc
 50
180.0532250055
 51
180.8146381619
  0
ARC
  5
523
100
AcDbEntity
  8
02___PRT_ALL_AXES
100
AcDbCircle
 62
7
  6
CONTINUOUS
 10
11145.2259435587
 20
550.1264098701
 40
9872.5907894339
100
AcDbArc
 50
180.0528910237
 51
180.8430894113
  0
SPLINE
  5
524
100
AcDbEntity
  8
0
100
AcDbSpline
 62
7
  6
CONTINUOUS
 70
0
 71
3
 72
8
 73
4
 74
0
 42
0.0000001
 43
0.0000001
 44
0.0000000001
 40
0.0
 40
0.0
 40
0.0
 40
0.0
 40
1.0
 40
1.0
 40
1.0
 40
1.0
 10
108.358203359
 20
736.5059345346
 30
0.0
 10
108.1815862113
 20
736.4076509288
 30
0.0
 10
108.0024840738
 20
736.3070563361
 30
0.0
 10
107.8087304935
 20
736.2494991109
 30
0.0
  0
SPLINE
  5
525
100
AcDbEntity
  8
0
100
AcDbSpline
 62
7
  6
CONTINUOUS
 70
0
 71
3
 72
8
 73
4
 74
0
 42
0.0000001
 43
0.0000001
 44
0.0000000001
 40
0.0
 40
0.0
 40
0.0
 40
0.0
 40
1.0
 40
1.0
 40
1.0
 40
1.0
 10
107.8087304935
 20
736.2494991109
 30
0.0
 10
107.7188647371
 20
736.2228032245
 30
0.0
 10
107.6246714484
 20
736.2056761787
 30
0.0
 10
107.5309243176
 20
736.2056761787
 30
0.0
  0
SPLINE
  5
526
100
AcDbEntity
  8
0
100
AcDbSpline
 62
7
  6
CONTINUOUS
 70
0
 71
3
 72
9
 73
5
 74
0
 42
0.0000001
 43
0.0000001
 44
0.0000000001
 40
0.0
 40
0.0
 40
0.0
 40
0.0
 40
0.6336675301
 40
1.0
 40
1.0
 40
1.0
 40
1.0
 10
1156.4945606812
 20
211.252922782
 30
0.0
 10
1156.5868658328
 20
211.2061983111
 30
0.0
 10
1156.7267134086
 20
211.1354366297
 30
0.0
 10
1156.8574895791
 20
211.0056761787
 30
0.0
 10
1156.9172997698
 20
211.0056761787
 30
0.0
  0
SPLINE
  5
527
100
AcDbEntity
  8
0
100
AcDbSpline
 62
7
  6
CONTINUOUS
 70
0
 71
3
 72
8
 73
4
 74
0
 42
0.0000001
 43
0.0000001
 44
0.0000000001
 40
0.0
 40
0.0
 40
0.0
 40
0.0
 40
1.0
 40
1.0
 40
1.0
 40
1.0
 10
1156.9309243176
 20
736.2056761787
 30
0.0
 10
1156.7385389056
 20
736.2056761787
 30
0.0
 10
1156.5479535357
 20
736.2766359549
 30
0.0
 10
1156.3750731358
 20
736.3610427916
 30
0.0
  0
SPLINE
  5
528
100
AcDbEntity
  8
0
100
AcDbSpline
 62
7
  6
CONTINUOUS
 70
0
 71
3
 72
9
 73
5
 74
0
 42
0.0000001
 43
0.0000001
 44
0.0000000001
 40
0.0
 40
0.0
 40
0.0
 40
0.0
 40
0.3663333185
 40
1.0
 40
1.0
 40
1.0
 40
1.0
 10
1157.2309243176
 20
211.3193007265
 30
0.0
 10
1157.2309243176
 20
211.3791110545
 30
0.0
 10
1157.1011633312
 20
211.5098869308
 30
0.0
 10
1157.0304021217
 20
211.6497347888
 30
0.0
 10
1156.9836777143
 20
211.742039815
 30
0.0
  0
SPLINE
  5
529
100
AcDbEntity
  8
0
100
AcDbSpline
 62
7
  6
CONTINUOUS
 70
0
 71
3
 72
9
 73
5
 74
0
 42
0.0000001
 43
0.0000001
 44
0.0000000001
 40
0.0
 40
0.0
 40
0.0
 40
0.0
 40
0.633667257
 40
1.0
 40
1.0
 40
1.0
 40
1.0
 10
107.4781709209
 20
211.742039815
 30
0.0
 10
107.4314464705
 20
211.6497347038
 30
0.0
 10
107.3606849409
 20
211.5098870372
 30
0.0
 10
107.2309243176
 20
211.3791109613
 30
0.0
 10
107.2309243176
 20
211.3193007265
 30
0.0
  0
SPLINE
  5
52A
100
AcDbEntity
  8
0
100
AcDbSpline
 62
7
  6
CONTINUOUS
 70
0
 71
3
 72
9
 73
5
 74
0
 42
0.0000001
 43
0.0000001
 44
0.0000000001
 40
0.0
 40
0.0
 40
0.0
 40
0.0
 40
0.1318093286
 40
1.0
 40
1.0
 40
1.0
 40
1.0
 10
107.2309243176
 20
735.2921305319
 30
0.0
 10
107.2309243176
 20
735.2808542549
 30
0.0
 10
107.2703345052
 20
735.2008790525
 30
0.0
 10
107.3195764393
 20
735.1336164841
 30
0.0
 10
107.3598638393
 20
735.0712185767
 30
0.0
  0
SPLINE
  5
52B
100
AcDbEntity
  8
0
100
AcDbSpline
 62
7
  6
CONTINUOUS
 70
0
 71
3
 72
8
 73
4
 74
0
 42
0.0000001
 43
0.0000001
 44
0.0000000001
 40
0.0
 40
0.0
 40
0.0
 40
0.0
 40
1.0
 40
1.0
 40
1.0
 40
1.0
 10
107.3598638393
 20
735.0712185767
 30
0.0
 10
107.4021700646
 20
735.0056938733
 30
0.0
 10
107.4429378846
 20
734.9389274758
 30
0.0
 10
107.4781584676
 20
734.8693371461
 30
0.0
  0
SPLINE
  5
52C
100
AcDbEntity
  8
0
100
AcDbSpline
 62
7
  6
CONTINUOUS
 70
0
 71
3
 72
9
 73
5
 74
0
 42
0.0000001
 43
0.0000001
 44
0.0000000001
 40
0.0
 40
0.0
 40
0.0
 40
0.0
 40
0.3663324699
 40
1.0
 40
1.0
 40
1.0
 40
1.0
 10
107.5445488655
 20
211.0056761787
 30
0.0
 10
107.6043590561
 20
211.0056761787
 30
0.0
 10
107.7351352266
 20
211.1354366297
 30
0.0
 10
107.8749828024
 20
211.2061983111
 30
0.0
 10
107.967287954
 20
211.252922782
 30
0.0
  0
SPLINE
  5
52D
100
AcDbEntity
  8
0
100
AcDbSpline
 62
7
  6
CONTINUOUS
 70
0
 71
3
 72
9
 73
5
 74
0
 42
0.0000001
 43
0.0000001
 44
0.0000000001
 40
0.0
 40
0.0
 40
0.0
 40
0.0
 40
0.6336454233
 40
1.0
 40
1.0
 40
1.0
 40
1.0
 10
1156.9836901676
 20
734.8693371461
 30
0.0
 10
1157.0304108246
 20
734.9616498123
 30
0.0
 10
1157.1011754621
 20
735.1015123748
 30
0.0
 10
1157.2309243176
 20
735.2323117645
 30
0.0
 10
1157.2309243176
 20
735.2921305319
 30
0.0
  0
SPLINE
  5
52E
100
AcDbEntity
  8
0
100
AcDbSpline
 62
3
  6
CONTINUOUS
 70
0
 71
3
 72
8
 73
4
 74
0
 42
0.0000001
 43
0.0000001
 44
0.0000000001
 40
0.0
 40
0.0
 40
0.0
 40
0.0
 40
1.0
 40
1.0
 40
1.0
 40
1.0
 10
1156.1036743388
 20
736.5060082027
 30
0.0
 10
1155.9948725899
 20
736.691916101
 30
0.0
 10
1155.8873025634
 20
736.8795448329
 30
0.0
 10
1155.7595436983
 20
737.0529727418
 30
0.0
  0
SPLINE
  5
52F
100
AcDbEntity
  8
0
100
AcDbSpline
 62
3
  6
CONTINUOUS
 70
0
 71
3
 72
8
 73
4
 74
0
 42
0.0000001
 43
0.0000001
 44
0.0000000001
 40
0.0
 40
0.0
 40
0.0
 40
0.0
 40
1.0
 40
1.0
 40
1.0
 40
1.0
 10
1155.7595436983
 20
737.0529727418
 30
0.0
 10
1155.7090528669
 20
737.1215121679
 30
0.0
 10
1155.655074589
 20
737.1881757603
 30
0.0
 10
1155.5937929852
 20
737.2472650319
 30
0.0
  0
SPLINE
  5
530
100
AcDbEntity
  8
0
100
AcDbSpline
 62
3
  6
CONTINUOUS
 70
0
 71
3
 72
9
 73
5
 74
0
 42
0.0000001
 43
0.0000001
 44
0.0000000001
 40
0.0
 40
0.0
 40
0.0
 40
0.0
 40
0.5306787145
 40
1.0
 40
1.0
 40
1.0
 40
1.0
 10
1155.5937929852
 20
737.2472650319
 30
0.0
 10
1155.5656139138
 20
737.2744360049
 30
0.0
 10
1155.5093771158
 20
737.3225731434
 30
0.0
 10
1155.4454725928
 20
737.3605744899
 30
0.0
 10
1155.4138150916
 20
737.374584222
 30
0.0
  0
SPLINE
  5
531
100
AcDbEntity
  8
0
100
AcDbSpline
 62
3
  6
CONTINUOUS
 70
0
 71
3
 72
9
 73
5
 74
0
 42
0.0000001
 43
0.0000001
 44
0.0000000001
 40
0.0
 40
0.0
 40
0.0
 40
0.0
 40
0.5131307423
 40
1.0
 40
1.0
 40
1.0
 40
1.0
 10
1155.4138150916
 20
737.374584222
 30
0.0
 10
1155.3917388492
 20
737.3843538573
 30
0.0
 10
1155.3469704541
 20
737.3998198322
 30
0.0
 10
1155.299820658
 20
737.405565577
 30
0.0
 10
1155.2769149461
 20
737.4056452262
 30
0.0
  0
SPLINE
  5
532
100
AcDbEntity
  8
0
100
AcDbSpline
 62
3
  6
CONTINUOUS
 70
0
 71
3
 72
9
 73
5
 74
0
 42
0.0000001
 43
0.0000001
 44
0.0000000001
 40
0.0
 40
0.0
 40
0.0
 40
0.0
 40
0.1842269866
 40
1.0
 40
1.0
 40
1.0
 40
1.0
 10
109.1849336892
 20
737.4056452262
 30
0.0
 10
109.1291726215
 20
737.4054513304
 30
0.0
 10
108.829047392
 20
737.307349971
 30
0.0
 10
108.6664693445
 20
737.0143231416
 30
0.0
 10
108.5362637738
 20
736.8045275805
 30
0.0
  0
SPLINE
  5
533
100
AcDbEntity
  8
0
100
AcDbSpline
 62
3
  6
CONTINUOUS
 70
0
 71
3
 72
8
 73
4
 74
0
 42
0.0000001
 43
0.0000001
 44
0.0000000001
 40
0.0
 40
0.0
 40
0.0
 40
0.0
 40
1.0
 40
1.0
 40
1.0
 40
1.0
 10
108.5362637738
 20
736.8045275805
 30
0.0
 10
108.4751631939
 20
736.7060784097
 30
0.0
 10
108.4166997073
 20
736.6060096846
 30
0.0
 10
108.3581742965
 20
736.5060082027
 30
0.0
  0
SPLINE
  5
534
100
AcDbEntity
  8
0
100
AcDbSpline
 62
3
  6
CONTINUOUS
 70
0
 71
3
 72
9
 73
5
 74
0
 42
0.0000001
 43
0.0000001
 44
0.0000000001
 40
0.0
 40
0.0
 40
0.0
 40
0.0
 40
0.5009204485
 40
1.0
 40
1.0
 40
1.0
 40
1.0
 10
108.1051883863
 20
211.6056761787
 30
0.0
 10
108.1134278504
 20
211.5703207227
 30
0.0
 10
108.1254280765
 20
211.4986480151
 30
0.0
 10
108.1292882972
 20
211.4261237021
 30
0.0
 10
108.1293016306
 20
211.389954267
 30
0.0
  0
SPLINE
  5
535
100
AcDbEntity
  8
0
100
AcDbSpline
 62
3
  6
CONTINUOUS
 70
0
 71
3
 72
9
 73
5
 74
0
 42
0.0000001
 43
0.0000001
 44
0.0000000001
 40
0.0
 40
0.0
 40
0.0
 40
0.0
 40
0.5054778361
 40
1.0
 40
1.0
 40
1.0
 40
1.0
 10
1156.3285611726
 20
735.1128652144
 30
0.0
 10
1156.3245222005
 20
735.1558952529
 30
0.0
 10
1156.3243196671
 20
735.2603707507
 30
0.0
 10
1156.4350752472
 20
735.2816653116
 30
0.0
 10
1156.4758578254
 20
735.2705034534
 30
0.0
  0
SPLINE
  5
536
100
AcDbEntity
  8
0
100
AcDbSpline
 62
3
  6
CONTINUOUS
 70
0
 71
3
 72
9
 73
5
 74
0
 42
0.0000001
 43
0.0000001
 44
0.0000000001
 40
0.0
 40
0.0
 40
0.0
 40
0.0
 40
0.4990791821
 40
1.0
 40
1.0
 40
1.0
 40
1.0
 10
1156.8466440288
 20
734.7072990897
 30
0.0
 10
1156.8104749895
 20
734.7073124586
 30
0.0
 10
1156.7379514212
 20
734.7111726485
 30
0.0
 10
1156.6662794389
 20
734.7231727239
 30
0.0
 10
1156.6309243176
 20
734.7314121099
 30
0.0
  0
SPLINE
  5
537
100
AcDbEntity
  8
0
100
AcDbSpline
 62
3
  6
CONTINUOUS
 70
0
 71
3
 72
9
 73
5
 74
0
 42
0.0000001
 43
0.0000001
 44
0.0000000001
 40
0.0
 40
0.0
 40
0.0
 40
0.0
 40
0.4990768715
 40
1.0
 40
1.0
 40
1.0
 40
1.0
 10
107.6152031185
 20
211.9040534917
 30
0.0
 10
107.6513722384
 20
211.9040398992
 30
0.0
 10
107.7238962828
 20
211.9001797593
 30
0.0
 10
107.7955687907
 20
211.888179728
 30
0.0
 10
107.8309243176
 20
211.8799402474
 30
0.0
  0
SPLINE
  5
538
100
AcDbEntity
  8
0
100
AcDbSpline
 62
3
  6
CONTINUOUS
 70
0
 71
3
 72
9
 73
5
 74
0
 42
0.0000001
 43
0.0000001
 44
0.0000000001
 40
0.0
 40
0.0
 40
0.0
 40
0.0
 40
0.5009204538
 40
1.0
 40
1.0
 40
1.0
 40
1.0
 10
107.8309243176
 20
734.7314121099
 30
0.0
 10
107.7955692172
 20
734.7231727288
 30
0.0
 10
107.7238972285
 20
734.7111726355
 30
0.0
 10
107.651373647
 20
734.7073124562
 30
0.0
 10
107.6152045764
 20
734.7072991115
 30
0.0
  0
SPLINE
  5
539
100
AcDbEntity
  8
0
100
AcDbSpline
 62
3
  6
CONTINUOUS
 70
0
 71
3
 72
9
 73
5
 74
0
 42
0.0000001
 43
0.0000001
 44
0.0000000001
 40
0.0
 40
0.0
 40
0.0
 40
0.0
 40
0.4990795515
 40
1.0
 40
1.0
 40
1.0
 40
1.0
 10
1156.3325470046
 20
211.389954267
 30
0.0
 10
1156.3325603381
 20
211.4261237021
 30
0.0
 10
1156.3364205588
 20
211.4986480151
 30
0.0
 10
1156.3484207849
 20
211.5703207227
 30
0.0
 10
1156.3566602489
 20
211.6056761787
 30
0.0
  0
SPLINE
  5
53A
100
AcDbEntity
  8
0
100
AcDbSpline
 62
3
  6
CONTINUOUS
 70
0
 71
3
 72
9
 73
5
 74
0
 42
0.0000001
 43
0.0000001
 44
0.0000000001
 40
0.0
 40
0.0
 40
0.0
 40
0.0
 40
0.5009234779
 40
1.0
 40
1.0
 40
1.0
 40
1.0
 10
1156.6309243176
 20
211.8799402474
 30
0.0
 10
1156.6662798654
 20
211.8881797328
 30
0.0
 10
1156.7379523686
 20
211.9001797474
 30
0.0
 10
1156.8104764019
 20
211.9040398985
 30
0.0
 10
1156.8466454926
 20
211.904053514
 30
0.0
  0
SPLINE
  5
53B
100
AcDbEntity
  8
0
100
AcDbSpline
 62
3
  6
CONTINUOUS
 70
0
 71
3
 72
8
 73
4
 74
0
 42
0.0000001
 43
0.0000001
 44
0.0000000001
 40
0.0
 40
0.0
 40
0.0
 40
0.0
 40
1.0
 40
1.0
 40
1.0
 40
1.0
 10
107.967287954
 20
735.3584295754
 30
0.0
 10
108.0504054158
 20
735.3163558735
 30
0.0
 10
108.1723627321
 20
735.1980867964
 30
0.0
 10
108.117533045
 20
735.1227713647
 30
0.0
  0
SPLINE
  5
53C
100
AcDbEntity
  8
0
100
AcDbSpline
 62
3
  6
CONTINUOUS
 70
0
 71
3
 72
8
 73
4
 74
0
 42
0.0000001
 43
0.0000001
 44
0.0000000001
 40
0.0
 40
0.0
 40
0.0
 40
0.0
 40
1.0
 40
1.0
 40
1.0
 40
1.0
 10
107.967287954
 20
735.3584295754
 30
0.0
 10
107.8977221344
 20
735.3936434942
 30
0.0
 10
107.8309787988
 20
735.4344010764
 30
0.0
 10
107.7654773743
 20
735.4766974912
 30
0.0
  0
SPLINE
  5
53D
100
AcDbEntity
  8
0
100
AcDbSpline
 62
3
  6
CONTINUOUS
 70
0
 71
3
 72
9
 73
5
 74
0
 42
0.0000001
 43
0.0000001
 44
0.0000000001
 40
0.0
 40
0.0
 40
0.0
 40
0.0
 40
0.4541075563
 40
1.0
 40
1.0
 40
1.0
 40
1.0
 10
108.117533045
 20
735.1227713647
 30
0.0
 10
108.1115504967
 20
735.1145535865
 30
0.0
 10
108.0960695601
 20
735.0981186936
 30
0.0
 10
108.0779249052
 20
735.0848476063
 30
0.0
 10
108.0676328703
 20
735.0782608519
 30
0.0
  0
SPLINE
  5
53E
100
AcDbEntity
  8
02___PRT_ALL_AXES
100
AcDbSpline
 62
3
  6
CONTINUOUS
 70
0
 71
3
 72
9
 73
5
 74
0
 42
0.0000001
 43
0.0000001
 44
0.0000000001
 40
0.0
 40
0.0
 40
0.0
 40
0.0
 40
0.4999666607
 40
1.0
 40
1.0
 40
1.0
 40
1.0
 10
1099.8332327828
 20
486.303594907
 30
0.0
 10
1099.8348250576
 20
487.9724502104
 30
0.0
 10
1098.4056960269
 20
491.4567088628
 30
0.0
 10
1094.880839645
 20
492.7717719058
 30
0.0
 10
1093.2124963113
 20
492.7222340294
 30
0.0
  0
SPLINE
  5
53F
100
AcDbEntity
  8
0
100
AcDbSpline
 62
3
  6
CONTINUOUS
 70
0
 71
3
 72
9
 73
5
 74
0
 42
0.0000001
 43
0.0000001
 44
0.0000000001
 40
0.0
 40
0.0
 40
0.0
 40
0.0
 40
0.3011485244
 40
1.0
 40
1.0
 40
1.0
 40
1.0
 10
1157.8309243176
 20
211.3193007265
 30
0.0
 10
1157.8309243176
 20
211.3672741597
 30
0.0
 10
1157.6498902863
 20
211.4551222774
 30
0.0
 10
1157.5508874053
 20
211.5545795349
 30
0.0
 10
1157.4653089928
 20
211.6257855016
 30
0.0
  0
SPLINE
  5
540
100
AcDbEntity
  8
0
100
AcDbSpline
 62
3
  6
CONTINUOUS
 70
0
 71
3
 72
9
 73
5
 74
0
 42
0.0000001
 43
0.0000001
 44
0.0000000001
 40
0.0
 40
0.0
 40
0.0
 40
0.0
 40
0.4880603225
 40
1.0
 40
1.0
 40
1.0
 40
1.0
 10
1157.4653089928
 20
211.6257855016
 30
0.0
 10
1157.443598445
 20
211.6438498767
 30
0.0
 10
1157.3997303692
 20
211.6816109082
 30
0.0
 10
1157.3575076624
 20
211.721221235
 30
0.0
 10
1157.336431111
 20
211.742039815
 30
0.0
  0
SPLINE
  5
541
100
AcDbEntity
  8
02___PRT_ALL_AXES
100
AcDbSpline
 62
3
  6
CONTINUOUS
 70
0
 71
3
 72
9
 73
5
 74
0
 42
0.0000001
 43
0.0000001
 44
0.0000000001
 40
0.0
 40
0.0
 40
0.0
 40
0.0
 40
0.5000604773
 40
1.0
 40
1.0
 40
1.0
 40
1.0
 10
870.8346237585
 20
485.1195709252
 30
0.0
 10
869.2258096703
 20
485.0689040653
 30
0.0
 10
865.913217262
 20
483.6676440734
 30
0.0
 10
864.5979127341
 20
480.3185999329
 30
0.0
 10
864.5911721314
 20
478.7093916591
 30
0.0
  0
SPLINE
  5
542
100
AcDbEntity
  8
0
100
AcDbSpline
 62
3
  6
CONTINUOUS
 70
0
 71
3
 72
8
 73
4
 74
0
 42
0.0000001
 43
0.0000001
 44
0.0000000001
 40
0.0
 40
0.0
 40
0.0
 40
0.0
 40
1.0
 40
1.0
 40
1.0
 40
1.0
 10
1156.8466454926
 20
211.904053514
 30
0.0
 10
1156.9783396938
 20
211.9041030889
 30
0.0
 10
1157.1162636691
 20
211.8803233652
 30
0.0
 10
1157.2322178459
 20
211.8178894482
 30
0.0
  0
SPLINE
  5
543
100
AcDbEntity
  8
0
100
AcDbSpline
 62
3
  6
CONTINUOUS
 70
0
 71
3
 72
9
 73
5
 74
0
 42
0.0000001
 43
0.0000001
 44
0.0000000001
 40
0.0
 40
0.0
 40
0.0
 40
0.0
 40
0.5016942843
 40
1.0
 40
1.0
 40
1.0
 40
1.0
 10
1157.2322178459
 20
211.8178894482
 30
0.0
 10
1157.2512452573
 20
211.8076444027
 30
0.0
 10
1157.2879955244
 20
211.7849204973
 30
0.0
 10
1157.3211603926
 20
211.7571236239
 30
0.0
 10
1157.336431111
 20
211.742039815
 30
0.0
  0
SPLINE
  5
544
100
AcDbEntity
  8
02___PRT_ALL_AXES
100
AcDbSpline
 62
3
  6
CONTINUOUS
 70
0
 71
3
 72
9
 73
5
 74
0
 42
0.0000001
 43
0.0000001
 44
0.0000000001
 40
0.0
 40
0.0
 40
0.0
 40
0.0
 40
0.5001154712
 40
1.0
 40
1.0
 40
1.0
 40
1.0
 10
864.5922349408
 20
467.910516929
 30
0.0
 10
864.5935667667
 20
466.3039247979
 30
0.0
 10
865.9031851081
 20
462.9601177958
 30
0.0
 10
869.2011487903
 20
461.5497521646
 30
0.0
 10
870.8059879174
 20
461.4927596348
 30
0.0
  0
SPLINE
  5
545
100
AcDbEntity
  8
02___PRT_ALL_AXES
100
AcDbSpline
 62
3
  6
CONTINUOUS
 70
0
 71
3
 72
9
 73
5
 74
0
 42
0.0000001
 43
0.0000001
 44
0.0000000001
 40
0.0
 40
0.0
 40
0.0
 40
0.0
 40
0.5004182443
 40
1.0
 40
1.0
 40
1.0
 40
1.0
 10
1093.2145916294
 20
453.8890466931
 30
0.0
 10
1094.8839569279
 20
453.8405185404
 30
0.0
 10
1098.4086829257
 20
455.156658965
 30
0.0
 10
1099.8337495427
 20
458.6404786828
 30
0.0
 10
1099.8332327828
 20
460.3077574503
 30
0.0
  0
SPLINE
  5
546
100
AcDbEntity
  8
02___PRT_ALL_AXES
100
AcDbSpline
 62
3
  6
CONTINUOUS
 70
0
 71
3
 72
9
 73
5
 74
0
 42
0.0000001
 43
0.0000001
 44
0.0000000001
 40
0.0
 40
0.0
 40
0.0
 40
0.0
 40
0.5000885399
 40
1.0
 40
1.0
 40
1.0
 40
1.0
 10
1099.8326083897
 20
438.6949951647
 30
0.0
 10
1099.8314215317
 20
440.2947758071
 30
0.0
 10
1098.5338517928
 20
443.6226460619
 30
0.0
 10
1095.2603033531
 20
445.0453242573
 30
0.0
 10
1093.6624485685
 20
445.1112593808
 30
0.0
  0
SPLINE
  5
547
100
AcDbEntity
  8
02___PRT_ALL_AXES
100
AcDbSpline
 62
3
  6
CONTINUOUS
 70
0
 71
3
 72
9
 73
5
 74
0
 42
0.0000001
 43
0.0000001
 44
0.0000000001
 40
0.0
 40
0.0
 40
0.0
 40
0.0
 40
0.5004236534
 40
1.0
 40
1.0
 40
1.0
 40
1.0
 10
871.2545375491
 20
452.7149486407
 30
0.0
 10
869.5787283628
 20
452.7752750517
 30
0.0
 10
866.0290558542
 20
451.4710933668
 30
0.0
 10
864.5910561662
 20
447.9718111176
 30
0.0
 10
864.5915996137
 20
446.2977558276
 30
0.0
  0
SPLINE
  5
548
100
AcDbEntity
  8
0
100
AcDbSpline
 62
3
  6
CONTINUOUS
 70
0
 71
3
 72
9
 73
5
 74
0
 42
0.0000001
 43
0.0000001
 44
0.0000000001
 40
0.0
 40
0.0
 40
0.0
 40
0.0
 40
0.4983044915
 40
1.0
 40
1.0
 40
1.0
 40
1.0
 10
1157.3364560177
 20
734.8693371461
 30
0.0
 10
1157.3211837989
 20
734.8542493956
 30
0.0
 10
1157.2880146495
 20
734.8264452956
 30
0.0
 10
1157.2512584549
 20
734.803715969
 30
0.0
 10
1157.2322277477
 20
734.7934686718
 30
0.0
  0
SPLINE
  5
549
100
AcDbEntity
  8
0
100
AcDbSpline
 62
3
  6
CONTINUOUS
 70
0
 71
3
 72
9
 73
5
 74
0
 42
0.0000001
 43
0.0000001
 44
0.0000000001
 40
0.0
 40
0.0
 40
0.0
 40
0.0
 40
0.4936000858
 40
1.0
 40
1.0
 40
1.0
 40
1.0
 10
1157.2322277477
 20
734.7934686718
 30
0.0
 10
1157.2023873034
 20
734.7774007509
 30
0.0
 10
1157.1388525605
 20
734.7504612691
 30
0.0
 10
1157.0723282523
 20
734.7326851741
 30
0.0
 10
1157.0382487283
 20
734.7257887824
 30
0.0
  0
SPLINE
  5
54A
100
AcDbEntity
  8
0
100
AcDbSpline
 62
3
  6
CONTINUOUS
 70
0
 71
3
 72
9
 73
5
 74
0
 42
0.0000001
 43
0.0000001
 44
0.0000000001
 40
0.0
 40
0.0
 40
0.0
 40
0.0
 40
0.4938625553
 40
1.0
 40
1.0
 40
1.0
 40
1.0
 10
1157.0382487283
 20
734.7257887824
 30
0.0
 10
1157.007151505
 20
734.7194958942
 30
0.0
 10
1156.9434400116
 20
734.7102768965
 30
0.0
 10
1156.8791601657
 20
734.707287071
 30
0.0
 10
1156.8466440288
 20
734.7072990897
 30
0.0
  0
SPLINE
  5
54B
100
AcDbEntity
  8
0
100
AcDbSpline
 62
3
  6
CONTINUOUS
 70
0
 71
3
 72
8
 73
4
 74
0
 42
0.0000001
 43
0.0000001
 44
0.0000000001
 40
0.0
 40
0.0
 40
0.0
 40
0.0
 40
1.0
 40
1.0
 40
1.0
 40
1.0
 10
1157.3364560177
 20
734.8693371461
 30
0.0
 10
1157.4139288131
 20
734.9458741725
 30
0.0
 10
1157.4989864897
 20
735.0146559298
 30
0.0
 10
1157.5855168326
 20
735.0807804352
 30
0.0
  0
SPLINE
  5
54C
100
AcDbEntity
  8
0
100
AcDbSpline
 62
3
  6
CONTINUOUS
 70
0
 71
3
 72
9
 73
5
 74
0
 42
0.0000001
 43
0.0000001
 44
0.0000000001
 40
0.0
 40
0.0
 40
0.0
 40
0.0
 40
0.3374643957
 40
1.0
 40
1.0
 40
1.0
 40
1.0
 10
1157.5855168326
 20
735.0807804352
 30
0.0
 10
1157.6118006846
 20
735.1008659527
 30
0.0
 10
1157.6891273164
 20
735.1606797581
 30
0.0
 10
1157.7717398391
 20
735.2161593048
 30
0.0
 10
1157.8149688976
 20
735.2646263482
 30
0.0
  0
SPLINE
  5
54D
100
AcDbEntity
  8
02___PRT_ALL_AXES
100
AcDbSpline
 62
3
  6
CONTINUOUS
 70
0
 71
3
 72
9
 73
5
 74
0
 42
0.0000001
 43
0.0000001
 44
0.0000000001
 40
0.0
 40
0.0
 40
0.0
 40
0.0
 40
0.4998074956
 40
1.0
 40
1.0
 40
1.0
 40
1.0
 10
864.5921663927
 20
435.5353029224
 30
0.0
 10
864.5924001446
 20
433.9964284705
 30
0.0
 10
865.7860371429
 20
430.8036259995
 30
0.0
 10
868.8437987667
 20
429.3010847426
 30
0.0
 10
870.3759908862
 20
429.1456120323
 30
0.0
  0
SPLINE
  5
54E
100
AcDbEntity
  8
02___PRT_ALL_AXES
100
AcDbSpline
 62
3
  6
CONTINUOUS
 70
0
 71
3
 72
9
 73
5
 74
0
 42
0.0000001
 43
0.0000001
 44
0.0000000001
 40
0.0
 40
0.0
 40
0.0
 40
0.0
 40
0.4999262065
 40
1.0
 40
1.0
 40
1.0
 40
1.0
 10
1092.7658986581
 20
406.3364360322
 30
0.0
 10
1094.4947191988
 20
406.1637202508
 30
0.0
 10
1098.2748262834
 20
407.3474559428
 30
0.0
 10
1099.8306136817
 20
410.9890726333
 30
0.0
 10
1099.8336520131
 20
412.7270094997
 30
0.0
  0
SPLINE
  5
54F
100
AcDbEntity
  8
02___PRT_ALL_AXES
100
AcDbSpline
 62
3
  6
CONTINUOUS
 70
0
 71
3
 72
9
 73
5
 74
0
 42
0.0000001
 43
0.0000001
 44
0.0000000001
 40
0.0
 40
0.0
 40
0.0
 40
0.0
 40
0.5003822788
 40
1.0
 40
1.0
 40
1.0
 40
1.0
 10
1092.3524835209
 20
358.7896816582
 30
0.0
 10
1094.1304770984
 20
358.4969417869
 30
0.0
 10
1098.1436426246
 20
359.5358802534
 30
0.0
 10
1099.8307540177
 20
363.3230365797
 30
0.0
 10
1099.8333464341
 20
365.1222131402
 30
0.0
  0
SPLINE
  5
550
100
AcDbEntity
  8
02___PRT_ALL_AXES
100
AcDbSpline
 62
3
  6
CONTINUOUS
 70
0
 71
3
 72
9
 73
5
 74
0
 42
0.0000001
 43
0.0000001
 44
0.0000000001
 40
0.0
 40
0.0
 40
0.0
 40
0.0
 40
0.500167859
 40
1.0
 40
1.0
 40
1.0
 40
1.0
 10
1099.8336521276
 20
391.0136267498
 30
0.0
 10
1099.8297518058
 20
392.5471134462
 30
0.0
 10
1098.6489088441
 20
395.7231039176
 30
0.0
 10
1095.613180948
 20
397.2369079712
 30
0.0
 10
1094.0891475129
 20
397.397416458
 30
0.0
  0
SPLINE
  5
551
100
AcDbEntity
  8
02___PRT_ALL_AXES
100
AcDbSpline
 62
3
  6
CONTINUOUS
 70
0
 71
3
 72
9
 73
5
 74
0
 42
0.0000001
 43
0.0000001
 44
0.0000000001
 40
0.0
 40
0.0
 40
0.0
 40
0.0
 40
0.5001693025
 40
1.0
 40
1.0
 40
1.0
 40
1.0
 10
871.6861709464
 20
420.2079781521
 30
0.0
 10
869.9551596712
 20
420.3848995981
 30
0.0
 10
866.16615915
 20
419.2177023016
 30
0.0
 10
864.5985068616
 20
415.5746044444
 30
0.0
 10
864.5911729168
 20
413.8357687873
 30
0.0
  0
SPLINE
  5
552
100
AcDbEntity
  8
02___PRT_ALL_AXES
100
AcDbSpline
 62
3
  6
CONTINUOUS
 70
0
 71
3
 72
9
 73
5
 74
0
 42
0.0000001
 43
0.0000001
 44
0.0000000001
 40
0.0
 40
0.0
 40
0.0
 40
0.0
 40
0.5002778663
 40
1.0
 40
1.0
 40
1.0
 40
1.0
 10
864.5912835268
 20
403.1391608154
 30
0.0
 10
864.5939198001
 20
401.6661078163
 30
0.0
 10
865.6771894109
 20
398.6248666719
 30
0.0
 10
868.4981937317
 20
397.049886577
 30
0.0
 10
869.9494761668
 20
396.8072897513
 30
0.0
  0
SPLINE
  5
553
100
AcDbEntity
  8
02___PRT_ALL_AXES
100
AcDbSpline
 62
3
  6
CONTINUOUS
 70
0
 71
3
 72
9
 73
5
 74
0
 42
0.0000001
 43
0.0000001
 44
0.0000000001
 40
0.0
 40
0.0
 40
0.0
 40
0.0
 40
0.5001346252
 40
1.0
 40
1.0
 40
1.0
 40
1.0
 10
1061.8552517829
 20
318.3988646772
 30
0.0
 10
1064.0545771772
 20
317.8798026031
 30
0.0
 10
1068.7205527365
 20
317.7769769461
 30
0.0
 10
1073.0309144537
 20
319.5651230981
 30
0.0
 10
1074.8918054713
 20
320.8449846314
 30
0.0
  0
SPLINE
  5
554
100
AcDbEntity
  8
0
100
AcDbSpline
 62
3
  6
CONTINUOUS
 70
0
 71
3
 72
8
 73
4
 74
0
 42
0.0000001
 43
0.0000001
 44
0.0000000001
 40
0.0
 40
0.0
 40
0.0
 40
0.0
 40
1.0
 40
1.0
 40
1.0
 40
1.0
 10
107.6152045764
 20
734.7072991115
 30
0.0
 10
107.4835063647
 20
734.7072505212
 30
0.0
 10
107.345577631
 20
734.7310305934
 30
0.0
 10
107.2296211121
 20
734.7934686191
 30
0.0
  0
SPLINE
  5
555
100
AcDbEntity
  8
0
100
AcDbSpline
 62
3
  6
CONTINUOUS
 70
0
 71
3
 72
9
 73
5
 74
0
 42
0.0000001
 43
0.0000001
 44
0.0000000001
 40
0.0
 40
0.0
 40
0.0
 40
0.0
 40
0.5016953038
 40
1.0
 40
1.0
 40
1.0
 40
1.0
 10
107.2296211121
 20
734.7934686191
 30
0.0
 10
107.2105903771
 20
734.8037159215
 30
0.0
 10
107.1738340995
 20
734.8264452463
 30
0.0
 10
107.1406648679
 20
734.8542493644
 30
0.0
 10
107.1253926176
 20
734.8693371461
 30
0.0
  0
SPLINE
  5
556
100
AcDbEntity
  8
02___PRT_ALL_AXES
100
AcDbSpline
 62
3
  6
CONTINUOUS
 70
0
 71
3
 72
9
 73
5
 74
0
 42
0.0000001
 43
0.0000001
 44
0.0000000001
 40
0.0
 40
0.0
 40
0.0
 40
0.0
 40
0.4999949992
 40
1.0
 40
1.0
 40
1.0
 40
1.0
 10
1074.8918054713
 20
320.8449846314
 30
0.0
 10
1078.6654742414
 20
323.4520198449
 30
0.0
 10
1085.6305007451
 20
329.5725722156
 30
0.0
 10
1090.9202048657
 20
337.1888804797
 30
0.0
 10
1093.0781191561
 20
341.2362816393
 30
0.0
  0
SPLINE
  5
557
100
AcDbEntity
  8
02___PRT_ALL_AXES
100
AcDbSpline
 62
3
  6
CONTINUOUS
 70
0
 71
3
 72
11
 73
7
 74
0
 42
0.0000001
 43
0.0000001
 44
0.0000000001
 40
0.0
 40
0.0
 40
0.0
 40
0.0
 40
0.2504968257
 40
0.5005838472
 40
0.7504148089
 40
1.0
 40
1.0
 40
1.0
 40
1.0
 10
1093.0781191561
 20
341.2362816393
 30
0.0
 10
1093.5442535496
 20
342.1221489405
 30
0.0
 10
1094.0679256396
 20
344.1435482181
 30
0.0
 10
1093.3809777136
 20
347.1763514229
 30
0.0
 10
1091.4012212007
 20
349.5666825225
 30
0.0
 10
1089.4881771638
 20
350.3920377045
 30
0.0
 10
1088.5055419392
 20
350.5628883977
 30
0.0
  0
SPLINE
  5
558
100
AcDbEntity
  8
0
100
AcDbSpline
 62
3
  6
CONTINUOUS
 70
0
 71
3
 72
9
 73
5
 74
0
 42
0.0000001
 43
0.0000001
 44
0.0000000001
 40
0.0
 40
0.0
 40
0.0
 40
0.0
 40
0.3011930931
 40
1.0
 40
1.0
 40
1.0
 40
1.0
 10
106.6309243176
 20
735.2921305319
 30
0.0
 10
106.6309243176
 20
735.2428769913
 30
0.0
 10
106.8174634784
 20
735.1534012811
 30
0.0
 10
106.9188020092
 20
735.0509961419
 30
0.0
 10
107.0062661111
 20
734.9774522051
 30
0.0
  0
SPLINE
  5
559
100
AcDbEntity
  8
0
100
AcDbSpline
 62
3
  6
CONTINUOUS
 70
0
 71
3
 72
9
 73
5
 74
0
 42
0.0000001
 43
0.0000001
 44
0.0000000001
 40
0.0
 40
0.0
 40
0.0
 40
0.0
 40
0.4891479664
 40
1.0
 40
1.0
 40
1.0
 40
1.0
 10
107.0062661111
 20
734.9774522051
 30
0.0
 10
107.0263463363
 20
734.9605678058
 30
0.0
 10
107.0668433062
 20
734.925382968
 30
0.0
 10
107.1059008583
 20
734.8885934706
 30
0.0
 10
107.1253926176
 20
734.8693371461
 30
0.0
  0
SPLINE
  5
55A
100
AcDbEntity
  8
0
100
AcDbSpline
 62
3
  6
CONTINUOUS
 70
0
 71
3
 72
9
 73
5
 74
0
 42
0.0000001
 43
0.0000001
 44
0.0000000001
 40
0.0
 40
0.0
 40
0.0
 40
0.0
 40
0.4983059286
 40
1.0
 40
1.0
 40
1.0
 40
1.0
 10
107.1254175242
 20
211.742039815
 30
0.0
 10
107.1406882813
 20
211.7571236621
 30
0.0
 10
107.1738532483
 20
211.7849205645
 30
0.0
 10
107.2106036178
 20
211.8076444736
 30
0.0
 10
107.2296310663
 20
211.8178895267
 30
0.0
  0
SPLINE
  5
55B
100
AcDbEntity
  8
0
100
AcDbSpline
 62
3
  6
CONTINUOUS
 70
0
 71
3
 72
9
 73
5
 74
0
 42
0.0000001
 43
0.0000001
 44
0.0000000001
 40
0.0
 40
0.0
 40
0.0
 40
0.0
 40
0.4935892144
 40
1.0
 40
1.0
 40
1.0
 40
1.0
 10
107.2296310663
 20
211.8178895267
 30
0.0
 10
107.2594778603
 20
211.8339600992
 30
0.0
 10
107.3230273272
 20
211.8609045831
 30
0.0
 10
107.3895675798
 20
211.878681356
 30
0.0
 10
107.4236559411
 20
211.8855771241
 30
0.0
  0
SPLINE
  5
55C
100
AcDbEntity
  8
0
100
AcDbSpline
 62
3
  6
CONTINUOUS
 70
0
 71
3
 72
9
 73
5
 74
0
 42
0.0000001
 43
0.0000001
 44
0.0000000001
 40
0.0
 40
0.0
 40
0.0
 40
0.0
 40
0.4938738406
 40
1.0
 40
1.0
 40
1.0
 40
1.0
 10
107.4236559411
 20
211.8855771241
 30
0.0
 10
107.4547448262
 20
211.8918661252
 30
0.0
 10
107.5184373312
 20
211.9010790674
 30
0.0
 10
107.582697615
 20
211.9040657074
 30
0.0
 10
107.6152031185
 20
211.9040534917
 30
0.0
  0
SPLINE
  5
55D
100
AcDbEntity
  8
0
100
AcDbSpline
 62
3
  6
CONTINUOUS
 70
0
 71
3
 72
9
 73
5
 74
0
 42
0.0000001
 43
0.0000001
 44
0.0000000001
 40
0.0
 40
0.0
 40
0.0
 40
0.0
 40
0.3442949255
 40
1.0
 40
1.0
 40
1.0
 40
1.0
 10
107.1254175242
 20
211.742039815
 30
0.0
 10
107.0747253588
 20
211.6919681082
 30
0.0
 10
106.9212507142
 20
211.5529557237
 30
0.0
 10
106.7372181723
 20
211.4480545002
 30
0.0
 10
106.6468799797
 20
211.3467965363
 30
0.0
  0
SPLINE
  5
55E
100
AcDbEntity
  8
02___PRT_ALL_AXES
100
AcDbSpline
 62
3
  6
CONTINUOUS
 70
0
 71
3
 72
9
 73
5
 74
0
 42
0.0000001
 43
0.0000001
 44
0.0000000001
 40
0.0
 40
0.0
 40
0.0
 40
0.0
 40
0.5003873132
 40
1.0
 40
1.0
 40
1.0
 40
1.0
 10
872.1153927514
 20
387.5526574747
 30
0.0
 10
870.3329055592
 20
387.8586257219
 30
0.0
 10
866.2952073844
 20
386.8357238006
 30
0.0
 10
864.5941082349
 20
383.0332337712
 30
0.0
 10
864.5914839782
 20
381.2274787699
 30
0.0
  0
SPLINE
  5
55F
100
AcDbEntity
  8
02___PRT_ALL_AXES
100
AcDbSpline
 62
3
  6
CONTINUOUS
 70
0
 71
3
 72
9
 73
5
 74
0
 42
0.0000001
 43
0.0000001
 44
0.0000000001
 40
0.0
 40
0.0
 40
0.0
 40
0.0
 40
0.5002416356
 40
1.0
 40
1.0
 40
1.0
 40
1.0
 10
864.5914300101
 20
370.677493297
 30
0.0
 10
864.5932750378
 20
369.269889062
 30
0.0
 10
865.5760334036
 20
366.3703033013
 30
0.0
 10
868.1732450028
 20
364.7526029658
 30
0.0
 10
869.5413634239
 20
364.4273666706
 30
0.0
  0
SPLINE
  5
560
100
AcDbEntity
  8
02___PRT_ALL_AXES
100
AcDbSpline
 62
3
  6
CONTINUOUS
 70
0
 71
3
 72
11
 73
7
 74
0
 42
0.0000001
 43
0.0000001
 44
0.0000000001
 40
0.0
 40
0.0
 40
0.0
 40
0.0
 40
0.250052111
 40
0.4999475769
 40
0.7500164846
 40
1.0
 40
1.0
 40
1.0
 40
1.0
 10
876.989350919
 20
353.6400581895
 30
0.0
 10
875.8401664613
 20
353.9167742926
 30
0.0
 10
873.3318045223
 20
353.8201137096
 30
0.0
 10
870.2605700347
 20
351.7042997875
 30
0.0
 10
868.7626499238
 20
348.286041213
 30
0.0
 10
869.1482055656
 20
345.8076611846
 30
0.0
 10
869.6321342911
 20
344.7295873278
 30
0.0
  0
SPLINE
  5
561
100
AcDbEntity
  8
02___PRT_ALL_AXES
100
AcDbSpline
 62
3
  6
CONTINUOUS
 70
0
 71
3
 72
9
 73
5
 74
0
 42
0.0000001
 43
0.0000001
 44
0.0000000001
 40
0.0
 40
0.0
 40
0.0
 40
0.0
 40
0.5001523498
 40
1.0
 40
1.0
 40
1.0
 40
1.0
 10
869.6321342911
 20
344.7295873278
 30
0.0
 10
874.0649037482
 20
334.7797562554
 30
0.0
 10
889.1043784967
 20
317.1405395101
 30
0.0
 10
911.3454865755
 20
310.6698006631
 30
0.0
 10
922.2314383923
 20
310.6805647864
 30
0.0
  0
SPLINE
  5
562
100
AcDbEntity
  8
0
100
AcDbSpline
 62
3
  6
CONTINUOUS
 70
0
 71
3
 72
8
 73
4
 74
0
 42
0.0000001
 43
0.0000001
 44
0.0000000001
 40
0.0
 40
0.0
 40
0.0
 40
0.0
 40
1.0
 40
1.0
 40
1.0
 40
1.0
 10
108.3581742965
 20
736.5060082027
 30
0.0
 10
108.2989538303
 20
736.4048190905
 30
0.0
 10
108.2397960674
 20
736.3035604108
 30
0.0
 10
108.1779082504
 20
736.2039803016
 30
0.0
  0
SPLINE
  5
563
100
AcDbEntity
  8
0
100
AcDbSpline
 62
3
  6
CONTINUOUS
 70
0
 71
3
 72
8
 73
4
 74
0
 42
0.0000001
 43
0.0000001
 44
0.0000000001
 40
0.0
 40
0.0
 40
0.0
 40
0.0
 40
1.0
 40
1.0
 40
1.0
 40
1.0
 10
108.1779082504
 20
736.2039803016
 30
0.0
 10
108.1314127046
 20
736.1291670064
 30
0.0
 10
108.0833975366
 20
736.0551969227
 30
0.0
 10
108.0320275663
 20
735.9836428099
 30
0.0
  0
SPLINE
  5
564
100
AcDbEntity
  8
0
100
AcDbSpline
 62
3
  6
CONTINUOUS
 70
0
 71
3
 72
8
 73
4
 74
0
 42
0.0000001
 43
0.0000001
 44
0.0000000001
 40
0.0
 40
0.0
 40
0.0
 40
0.0
 40
1.0
 40
1.0
 40
1.0
 40
1.0
 10
108.0320275663
 20
735.9836428099
 30
0.0
 10
107.9813359423
 20
735.9130335772
 30
0.0
 10
107.9273473791
 20
735.8441881816
 30
0.0
 10
107.8662768532
 20
735.782335976
 30
0.0
  0
SPLINE
  5
565
100
AcDbEntity
  8
0
100
AcDbSpline
 62
3
  6
CONTINUOUS
 70
0
 71
3
 72
8
 73
4
 74
0
 42
0.0000001
 43
0.0000001
 44
0.0000000001
 40
0.0
 40
0.0
 40
0.0
 40
0.0
 40
1.0
 40
1.0
 40
1.0
 40
1.0
 10
107.8662768532
 20
735.782335976
 30
0.0
 10
107.8123513169
 20
735.7277202131
 30
0.0
 10
107.7515214144
 20
735.6772289085
 30
0.0
 10
107.6825623409
 20
735.6435318582
 30
0.0
  0
SPLINE
  5
566
100
AcDbEntity
  8
0
100
AcDbSpline
 62
3
  6
CONTINUOUS
 70
0
 71
3
 72
9
 73
5
 74
0
 42
0.0000001
 43
0.0000001
 44
0.0000000001
 40
0.0
 40
0.0
 40
0.0
 40
0.0
 40
0.5158301335
 40
1.0
 40
1.0
 40
1.0
 40
1.0
 10
107.6825623409
 20
735.6435318582
 30
0.0
 10
107.6582585491
 20
735.6316557401
 30
0.0
 10
107.6089137717
 20
735.6127249793
 30
0.0
 10
107.5563143039
 20
735.6056761787
 30
0.0
 10
107.5309243176
 20
735.6056761787
 30
0.0
  0
SPLINE
  5
567
100
AcDbEntity
  8
02___PRT_ALL_AXES
100
AcDbSpline
 62
3
  6
CONTINUOUS
 70
0
 71
3
 72
11
 73
7
 74
0
 42
0.0000001
 43
0.0000001
 44
0.0000000001
 40
0.0
 40
0.0
 40
0.0
 40
0.0
 40
0.2499399493
 40
0.5002826029
 40
0.7502836463
 40
1.0
 40
1.0
 40
1.0
 40
1.0
 10
995.3282846742
 20
621.2945952938
 30
0.0
 10
997.0330065851
 20
621.7063310191
 30
0.0
 10
1000.2446271408
 20
623.8891085238
 30
0.0
 10
1001.6098818944
 20
629.4591224163
 30
0.0
 10
998.9791250403
 20
634.5536185381
 30
0.0
 10
995.3518413464
 20
635.9204887218
 30
0.0
 10
993.5996825758
 20
635.9269965137
 30
0.0
  0
SPLINE
  5
568
100
AcDbEntity
  8
02___PRT_ALL_AXES
100
AcDbSpline
 62
3
  6
CONTINUOUS
 70
0
 71
3
 72
9
 73
5
 74
0
 42
0.0000001
 43
0.0000001
 44
0.0000000001
 40
0.0
 40
0.0
 40
0.0
 40
0.0
 40
0.5001124866
 40
1.0
 40
1.0
 40
1.0
 40
1.0
 10
922.1564631329
 20
635.9269957569
 30
0.0
 10
911.279573384
 20
635.9482992876
 30
0.0
 10
889.0733050902
 20
629.431774433
 30
0.0
 10
874.0719562407
 20
611.8246456616
 30
0.0
 10
869.6375507674
 20
601.8980744173
 30
0.0
  0
SPLINE
  5
569
100
AcDbEntity
  8
02___PRT_ALL_AXES
100
AcDbSpline
 62
3
  6
CONTINUOUS
 70
0
 71
3
 72
11
 73
7
 74
0
 42
0.0000001
 43
0.0000001
 44
0.0000000001
 40
0.0
 40
0.0
 40
0.0
 40
0.0
 40
0.2500864007
 40
0.5002460039
 40
0.7501813008
 40
1.0
 40
1.0
 40
1.0
 40
1.0
 10
869.6375507674
 20
601.8980744173
 30
0.0
 10
869.1518352936
 20
600.8187056983
 30
0.0
 10
868.7604322248
 20
598.337622721
 30
0.0
 10
870.2555974625
 20
594.9110229448
 30
0.0
 10
873.3299473195
 20
592.7914051551
 30
0.0
 10
875.8402324446
 20
592.6948446337
 30
0.0
 10
876.9897873913
 20
592.9713986334
 30
0.0
  0
SPLINE
  5
56A
100
AcDbEntity
  8
02___PRT_ALL_AXES
100
AcDbSpline
 62
3
  6
CONTINUOUS
 70
0
 71
3
 72
11
 73
7
 74
0
 42
0.0000001
 43
0.0000001
 44
0.0000000001
 40
0.0
 40
0.0
 40
0.0
 40
0.0
 40
0.2496891754
 40
0.4996226801
 40
0.7497167064
 40
1.0
 40
1.0
 40
1.0
 40
1.0
 10
1088.4898272498
 20
596.0457780472
 30
0.0
 10
1089.4739172747
 20
596.2170644411
 30
0.0
 10
1091.3926367449
 20
597.0356428794
 30
0.0
 10
1093.378106049
 20
599.4287186275
 30
0.0
 10
1094.0681405749
 20
602.4633567866
 30
0.0
 10
1093.5458822668
 20
604.4870915548
 30
0.0
 10
1093.0791748287
 20
605.3729303
 30
0.0
  0
SPLINE
  5
56B
100
AcDbEntity
  8
0
100
AcDbSpline
 62
3
  6
CONTINUOUS
 70
0
 71
3
 72
9
 73
5
 74
0
 42
0.0000001
 43
0.0000001
 44
0.0000000001
 40
0.0
 40
0.0
 40
0.0
 40
0.0
 40
0.4983045831
 40
1.0
 40
1.0
 40
1.0
 40
1.0
 10
1156.4945606812
 20
210.9001693853
 30
0.0
 10
1156.479478022
 20
210.9154389398
 30
0.0
 10
1156.4516829768
 20
210.948601114
 30
0.0
 10
1156.4289600363
 20
210.9853482088
 30
0.0
 10
1156.4187153563
 20
211.0043740575
 30
0.0
  0
SPLINE
  5
56C
100
AcDbEntity
  8
0
100
AcDbSpline
 62
3
  6
CONTINUOUS
 70
0
 71
3
 72
9
 73
5
 74
0
 42
0.0000001
 43
0.0000001
 44
0.0000000001
 40
0.0
 40
0.0
 40
0.0
 40
0.0
 40
0.4936013917
 40
1.0
 40
1.0
 40
1.0
 40
1.0
 10
1156.4187153563
 20
211.0043740575
 30
0.0
 10
1156.4026518134
 20
211.0342063742
 30
0.0
 10
1156.375718223
 20
211.0977228278
 30
0.0
 10
1156.3579437448
 20
211.1642279039
 30
0.0
 10
1156.3510471995
 20
211.1982975484
 30
0.0
  0
SPLINE
  5
56D
100
AcDbEntity
  8
0
100
AcDbSpline
 62
3
  6
CONTINUOUS
 70
0
 71
3
 72
9
 73
5
 74
0
 42
0.0000001
 43
0.0000001
 44
0.0000000001
 40
0.0
 40
0.0
 40
0.0
 40
0.0
 40
0.4938599573
 40
1.0
 40
1.0
 40
1.0
 40
1.0
 10
1156.3510471995
 20
211.1982975484
 30
0.0
 10
1156.3447507261
 20
211.2294027757
 30
0.0
 10
1156.3355266033
 20
211.2931314934
 30
0.0
 10
1156.3325350146
 20
211.3574290233
 30
0.0
 10
1156.3325470046
 20
211.389954267
 30
0.0
  0
SPLINE
  5
56E
100
AcDbEntity
  8
0
100
AcDbSpline
 62
3
  6
CONTINUOUS
 70
0
 71
3
 72
9
 73
5
 74
0
 42
0.0000001
 43
0.0000001
 44
0.0000000001
 40
0.0
 40
0.0
 40
0.0
 40
0.0
 40
0.3442949255
 40
1.0
 40
1.0
 40
1.0
 40
1.0
 10
1156.4945606812
 20
210.9001693853
 30
0.0
 10
1156.5446323881
 20
210.8494772198
 30
0.0
 10
1156.6836447725
 20
210.6960025752
 30
0.0
 10
1156.7885459961
 20
210.5119700333
 30
0.0
 10
1156.8898039599
 20
210.4216318407
 30
0.0
  0
SPLINE
  5
56F
100
AcDbEntity
  8
02___PRT_ALL_AXES
100
AcDbSpline
 62
3
  6
CONTINUOUS
 70
0
 71
3
 72
9
 73
5
 74
0
 42
0.0000001
 43
0.0000001
 44
0.0000000001
 40
0.0
 40
0.0
 40
0.0
 40
0.0
 40
0.1832461462
 40
1.0
 40
1.0
 40
1.0
 40
1.0
 10
342.2309243176
 20
643.3056761787
 30
0.0
 10
342.2321864406
 20
643.2764267202
 30
0.0
 10
342.2376869582
 20
643.1167502634
 30
0.0
 10
342.2403609058
 20
642.9569939919
 30
0.0
 10
342.2421966379
 20
642.8265166402
 30
0.0
  0
SPLINE
  5
570
100
AcDbEntity
  8
02___PRT_ALL_AXES
100
AcDbSpline
 62
3
  6
CONTINUOUS
 70
0
 71
3
 72
9
 73
5
 74
0
 42
0.0000001
 43
0.0000001
 44
0.0000000001
 40
0.0
 40
0.0
 40
0.0
 40
0.0
 40
0.1832899723
 40
1.0
 40
1.0
 40
1.0
 40
1.0
 10
222.2309243176
 20
643.3056761787
 30
0.0
 10
222.2321844118
 20
643.2764691518
 30
0.0
 10
222.2376765932
 20
643.117062548
 30
0.0
 10
222.2403491364
 20
642.9575762868
 30
0.0
 10
222.2421840505
 20
642.8273264295
 30
0.0
  0
SPLINE
  5
571
100
AcDbEntity
  8
02___PRT_ALL_AXES
100
AcDbSpline
 62
3
  6
CONTINUOUS
 70
0
 71
3
 72
9
 73
5
 74
0
 42
0.0000001
 43
0.0000001
 44
0.0000000001
 40
0.0
 40
0.0
 40
0.0
 40
0.0
 40
0.1832889419
 40
1.0
 40
1.0
 40
1.0
 40
1.0
 10
222.2309243176
 20
303.3056761787
 30
0.0
 10
222.2321846584
 20
303.3348842237
 30
0.0
 10
222.2376778081
 20
303.4942973044
 30
0.0
 10
222.2403505377
 20
303.6537900734
 30
0.0
 10
222.2421855322
 20
303.7840454065
 30
0.0
  0
SPLINE
  5
572
100
AcDbEntity
  8
02___PRT_ALL_AXES
100
AcDbSpline
 62
3
  6
CONTINUOUS
 70
0
 71
3
 72
9
 73
5
 74
0
 42
0.0000001
 43
0.0000001
 44
0.0000000001
 40
0.0
 40
0.0
 40
0.0
 40
0.0
 40
0.1832471904
 40
1.0
 40
1.0
 40
1.0
 40
1.0
 10
342.2309243176
 20
303.3056761787
 30
0.0
 10
342.2321861964
 20
303.3349246042
 30
0.0
 10
342.2376857551
 20
303.4945944887
 30
0.0
 10
342.2403595167
 20
303.6543441576
 30
0.0
 10
342.2421951671
 20
303.7848159532
 30
0.0
  0
SPLINE
  5
573
100
AcDbEntity
  8
02___PRT_ALL_AXES
100
AcDbSpline
 62
3
  6
CONTINUOUS
 70
0
 71
3
 72
9
 73
5
 74
0
 42
0.0000001
 43
0.0000001
 44
0.0000000001
 40
0.0
 40
0.0
 40
0.0
 40
0.0
 40
0.5479515764
 40
1.0
 40
1.0
 40
1.0
 40
1.0
 10
1042.2260449238
 20
303.4526621498
 30
0.0
 10
1042.2267566361
 20
303.4258095115
 30
0.0
 10
1042.2281793665
 20
303.3768072084
 30
0.0
 10
1042.2299689557
 20
303.3278162128
 30
0.0
 10
1042.230924307
 20
303.3056761787
 30
0.0
  0
SPLINE
  5
574
100
AcDbEntity
  8
02___PRT_ALL_AXES
100
AcDbSpline
 62
3
  6
CONTINUOUS
 70
0
 71
3
 72
9
 73
5
 74
0
 42
0.0000001
 43
0.0000001
 44
0.0000000001
 40
0.0
 40
0.0
 40
0.0
 40
0.0
 40
0.5479517634
 40
1.0
 40
1.0
 40
1.0
 40
1.0
 10
922.2260455974
 20
303.4526629131
 30
0.0
 10
922.226757228
 20
303.4258101282
 30
0.0
 10
922.2281797822
 20
303.3768075732
 30
0.0
 10
922.2299691149
 20
303.3278163216
 30
0.0
 10
922.2309243176
 20
303.3056761787
 30
0.0
  0
SPLINE
  5
575
100
AcDbEntity
  8
02___PRT_ALL_AXES
100
AcDbSpline
 62
3
  6
CONTINUOUS
 70
0
 71
3
 72
9
 73
5
 74
0
 42
0.0000001
 43
0.0000001
 44
0.0000000001
 40
0.0
 40
0.0
 40
0.0
 40
0.0
 40
0.4999883516
 40
1.0
 40
1.0
 40
1.0
 40
1.0
 10
864.5917305601
 20
565.3848980358
 30
0.0
 10
864.5904601097
 20
563.578041929
 30
0.0
 10
866.2969216653
 20
559.7756355663
 30
0.0
 10
870.331727141
 20
558.7524877986
 30
0.0
 10
872.1125934456
 20
559.0583473319
 30
0.0
  0
SPLINE
  5
576
100
AcDbEntity
  8
02___PRT_ALL_AXES
100
AcDbSpline
 62
3
  6
CONTINUOUS
 70
0
 71
3
 72
9
 73
5
 74
0
 42
0.0000001
 43
0.0000001
 44
0.0000000001
 40
0.0
 40
0.0
 40
0.0
 40
0.0
 40
0.5479515731
 40
1.0
 40
1.0
 40
1.0
 40
1.0
 10
922.2260449477
 20
643.1586902239
 30
0.0
 10
922.2267566598
 20
643.1855428589
 30
0.0
 10
922.2281793898
 20
643.2345451566
 30
0.0
 10
922.2299689779
 20
643.2835361468
 30
0.0
 10
922.2309243285
 20
643.3056761786
 30
0.0
  0
SPLINE
  5
577
100
AcDbEntity
  8
02___PRT_ALL_AXES
100
AcDbSpline
 62
3
  6
CONTINUOUS
 70
0
 71
3
 72
9
 73
5
 74
0
 42
0.0000001
 43
0.0000001
 44
0.0000000001
 40
0.0
 40
0.0
 40
0.0
 40
0.0
 40
0.5479517632
 40
1.0
 40
1.0
 40
1.0
 40
1.0
 10
1042.2260455926
 20
643.1586894442
 30
0.0
 10
1042.2267572237
 20
643.1855422291
 30
0.0
 10
1042.2281797791
 20
643.2345447842
 30
0.0
 10
1042.2299691137
 20
643.2835360357
 30
0.0
 10
1042.2309243176
 20
643.3056761787
 30
0.0
  0
SPLINE
  5
578
100
AcDbEntity
  8
02___PRT_ALL_AXES
100
AcDbSpline
 62
3
  6
CONTINUOUS
 70
0
 71
3
 72
9
 73
5
 74
0
 42
0.0000001
 43
0.0000001
 44
0.0000000001
 40
0.0
 40
0.0
 40
0.0
 40
0.0
 40
0.2758090925
 40
1.0
 40
1.0
 40
1.0
 40
1.0
 10
270.8691897083
 20
310.6843559458
 30
0.0
 10
270.8691897092
 20
310.781872297
 30
0.0
 10
270.8698403832
 20
311.1354349068
 30
0.0
 10
270.8723898019
 20
311.4890067736
 30
0.0
 10
270.8768572475
 20
311.7450161176
 30
0.0
  0
SPLINE
  5
579
100
AcDbEntity
  8
02___PRT_ALL_AXES
100
AcDbSpline
 62
3
  6
CONTINUOUS
 70
0
 71
3
 72
9
 73
5
 74
0
 42
0.0000001
 43
0.0000001
 44
0.0000000001
 40
0.0
 40
0.0
 40
0.0
 40
0.0
 40
0.2755887506
 40
1.0
 40
1.0
 40
1.0
 40
1.0
 10
269.1429008133
 20
325.3189918427
 30
0.0
 10
269.164174454
 20
325.2235292704
 30
0.0
 10
269.2433201537
 20
324.8775572538
 30
0.0
 10
269.3325562931
 20
324.5340033496
 30
0.0
 10
269.3979197553
 20
324.2853635768
 30
0.0
  0
SPLINE
  5
57A
100
AcDbEntity
  8
02___PRT_ALL_AXES
100
AcDbSpline
 62
3
  6
CONTINUOUS
 70
0
 71
3
 72
9
 73
5
 74
0
 42
0.0000001
 43
0.0000001
 44
0.0000000001
 40
0.0
 40
0.0
 40
0.0
 40
0.0
 40
0.2755990306
 40
1.0
 40
1.0
 40
1.0
 40
1.0
 10
387.474812962
 20
353.6406123216
 30
0.0
 10
387.4975717907
 20
353.5454936019
 30
0.0
 10
387.5807700651
 20
353.2005092129
 30
0.0
 10
387.665776884
 20
352.8559485746
 30
0.0
 10
387.7298319038
 20
352.6069840557
 30
0.0
  0
SPLINE
  5
57B
100
AcDbEntity
  8
02___PRT_ALL_AXES
100
AcDbSpline
 62
3
  6
CONTINUOUS
 70
0
 71
3
 72
9
 73
5
 74
0
 42
0.0000001
 43
0.0000001
 44
0.0000000001
 40
0.0
 40
0.0
 40
0.0
 40
0.0
 40
0.4999851219
 40
1.0
 40
1.0
 40
1.0
 40
1.0
 10
1099.8331040859
 20
581.4881062122
 30
0.0
 10
1099.8343712505
 20
583.2889179274
 30
0.0
 10
1098.1408596793
 20
587.0768236353
 30
0.0
 10
1094.1282893213
 20
588.1161379945
 30
0.0
 10
1092.3516313212
 20
587.8215250266
 30
0.0
  0
SPLINE
  5
57C
100
AcDbEntity
  8
02___PRT_ALL_AXES
100
AcDbSpline
 62
3
  6
CONTINUOUS
 70
0
 71
3
 72
9
 73
5
 74
0
 42
0.0000001
 43
0.0000001
 44
0.0000000001
 40
0.0
 40
0.0
 40
0.0
 40
0.0
 40
0.276019372
 40
1.0
 40
1.0
 40
1.0
 40
1.0
 10
202.6660272519
 20
318.4130877954
 30
0.0
 10
202.6434023537
 20
318.5076466934
 30
0.0
 10
202.562046171
 20
318.8503718408
 30
0.0
 10
202.4824671301
 20
319.1935313682
 30
0.0
 10
202.4273461267
 20
319.4425256112
 30
0.0
  0
SPLINE
  5
57D
100
AcDbEntity
  8
02___PRT_ALL_AXES
100
AcDbSpline
 62
3
  6
CONTINUOUS
 70
0
 71
3
 72
9
 73
5
 74
0
 42
0.0000001
 43
0.0000001
 44
0.0000000001
 40
0.0
 40
0.0
 40
0.0
 40
0.0
 40
0.2752866097
 40
1.0
 40
1.0
 40
1.0
 40
1.0
 10
189.5238716919
 20
320.8700577825
 30
0.0
 10
189.5794967139
 20
320.9509664557
 30
0.0
 10
189.7820062058
 20
321.2445643073
 30
0.0
 10
189.9858310354
 20
321.537265309
 30
0.0
 10
190.1353117326
 20
321.7481389148
 30
0.0
  0
SPLINE
  5
57E
100
AcDbEntity
  8
0
100
AcDbSpline
 62
3
  6
CONTINUOUS
 70
0
 71
3
 72
9
 73
5
 74
0
 42
0.0000001
 43
0.0000001
 44
0.0000000001
 40
0.0
 40
0.0
 40
0.0
 40
0.0
 40
0.4822846582
 40
1.0
 40
1.0
 40
1.0
 40
1.0
 10
1156.3566602489
 20
735.0056761787
 30
0.0
 10
1156.349108773
 20
735.0218778315
 30
0.0
 10
1156.3369554714
 20
735.0571192735
 30
0.0
 10
1156.3303543771
 20
735.0937609333
 30
0.0
 10
1156.3285611726
 20
735.1128652144
 30
0.0
  0
SPLINE
  5
57F
100
AcDbEntity
  8
0
100
AcDbSpline
 62
3
  6
CONTINUOUS
 70
0
 71
3
 72
9
 73
5
 74
0
 42
0.0000001
 43
0.0000001
 44
0.0000000001
 40
0.0
 40
0.0
 40
0.0
 40
0.0
 40
0.3011485244
 40
1.0
 40
1.0
 40
1.0
 40
1.0
 10
107.5445488655
 20
210.4056761787
 30
0.0
 10
107.5925222986
 20
210.4056761787
 30
0.0
 10
107.6803704163
 20
210.58671021
 30
0.0
 10
107.7798276738
 20
210.685713091
 30
0.0
 10
107.8510336405
 20
210.7712915034
 30
0.0
  0
SPLINE
  5
580
100
AcDbEntity
  8
0
100
AcDbSpline
 62
3
  6
CONTINUOUS
 70
0
 71
3
 72
9
 73
5
 74
0
 42
0.0000001
 43
0.0000001
 44
0.0000000001
 40
0.0
 40
0.0
 40
0.0
 40
0.0
 40
0.4880603225
 40
1.0
 40
1.0
 40
1.0
 40
1.0
 10
107.8510336405
 20
210.7712915034
 30
0.0
 10
107.8690980157
 20
210.7930020513
 30
0.0
 10
107.9068590471
 20
210.8368701271
 30
0.0
 10
107.946469374
 20
210.8790928339
 30
0.0
 10
107.967287954
 20
210.9001693853
 30
0.0
  0
SPLINE
  5
581
100
AcDbEntity
  8
02___PRT_ALL_AXES
100
AcDbSpline
 62
3
  6
CONTINUOUS
 70
0
 71
3
 72
9
 73
5
 74
0
 42
0.0000001
 43
0.0000001
 44
0.0000000001
 40
0.0
 40
0.0
 40
0.0
 40
0.0
 40
0.4999658339
 40
1.0
 40
1.0
 40
1.0
 40
1.0
 10
864.5916663476
 20
532.7896260698
 30
0.0
 10
864.5903623651
 20
531.0473408748
 30
0.0
 10
866.1628053401
 20
527.3938758134
 30
0.0
 10
869.9582676421
 20
526.2242134598
 30
0.0
 10
871.691500025
 20
526.4039207953
 30
0.0
  0
SPLINE
  5
582
100
AcDbEntity
  8
0
100
AcDbSpline
 62
3
  6
CONTINUOUS
 70
0
 71
3
 72
8
 73
4
 74
0
 42
0.0000001
 43
0.0000001
 44
0.0000000001
 40
0.0
 40
0.0
 40
0.0
 40
0.0
 40
1.0
 40
1.0
 40
1.0
 40
1.0
 10
108.1293016306
 20
211.389954267
 30
0.0
 10
108.1293501792
 20
211.2582571981
 30
0.0
 10
108.1055708033
 20
211.1203295484
 30
0.0
 10
108.043133279
 20
211.0043740575
 30
0.0
  0
SPLINE
  5
583
100
AcDbEntity
  8
0
100
AcDbSpline
 62
3
  6
CONTINUOUS
 70
0
 71
3
 72
9
 73
5
 74
0
 42
0.0000001
 43
0.0000001
 44
0.0000000001
 40
0.0
 40
0.0
 40
0.0
 40
0.0
 40
0.5016954169
 40
1.0
 40
1.0
 40
1.0
 40
1.0
 10
108.043133279
 20
211.0043740575
 30
0.0
 10
108.032888599
 20
210.9853482088
 30
0.0
 10
108.0101656584
 20
210.948601114
 30
0.0
 10
107.9823706132
 20
210.9154389398
 30
0.0
 10
107.967287954
 20
210.9001693853
 30
0.0
  0
SPLINE
  5
584
100
AcDbEntity
  8
02___PRT_ALL_AXES
100
AcDbSpline
 62
3
  6
CONTINUOUS
 70
0
 71
3
 72
9
 73
5
 74
0
 42
0.0000001
 43
0.0000001
 44
0.0000000001
 40
0.0
 40
0.0
 40
0.0
 40
0.0
 40
0.4999826467
 40
1.0
 40
1.0
 40
1.0
 40
1.0
 10
1094.0709499352
 20
549.2120701554
 30
0.0
 10
1095.597551017
 20
549.3740897483
 30
0.0
 10
1098.6433818013
 20
550.8757291732
 30
0.0
 10
1099.8281277942
 20
554.058701837
 30
0.0
 10
1099.8336522261
 20
555.5939731147
 30
0.0
  0
SPLINE
  5
585
100
AcDbEntity
  8
02___PRT_ALL_AXES
100
AcDbSpline
 62
3
  6
CONTINUOUS
 70
0
 71
3
 72
9
 73
5
 74
0
 42
0.0000001
 43
0.0000001
 44
0.0000000001
 40
0.0
 40
0.0
 40
0.0
 40
0.0
 40
0.4999668851
 40
1.0
 40
1.0
 40
1.0
 40
1.0
 10
1099.833167195
 20
533.8858675527
 30
0.0
 10
1099.8344677778
 20
535.621418955
 30
0.0
 10
1098.2757394013
 20
539.2584217493
 30
0.0
 10
1094.5048832476
 20
540.4451609292
 30
0.0
 10
1092.7773549659
 20
540.2760914868
 30
0.0
  0
SPLINE
  5
586
100
AcDbEntity
  8
02___PRT_ALL_AXES
100
AcDbSpline
 62
3
  6
CONTINUOUS
 70
0
 71
3
 72
9
 73
5
 74
0
 42
0.0000001
 43
0.0000001
 44
0.0000000001
 40
0.0
 40
0.0
 40
0.0
 40
0.0
 40
0.275651465
 40
1.0
 40
1.0
 40
1.0
 40
1.0
 10
175.9595617794
 20
350.5634448222
 30
0.0
 10
175.975200111
 20
350.4669799375
 30
0.0
 10
176.0332997612
 20
350.1172461834
 30
0.0
 10
176.0978504134
 20
349.7686165169
 30
0.0
 10
176.1461825196
 20
349.5164090108
 30
0.0
  0
SPLINE
  5
587
100
AcDbEntity
  8
02___PRT_ALL_AXES
100
AcDbSpline
 62
3
  6
CONTINUOUS
 70
0
 71
3
 72
9
 73
5
 74
0
 42
0.0000001
 43
0.0000001
 44
0.0000000001
 40
0.0
 40
0.0
 40
0.0
 40
0.0
 40
0.275657037
 40
1.0
 40
1.0
 40
1.0
 40
1.0
 10
392.3495886397
 20
387.5531927731
 30
0.0
 10
392.3660499457
 20
387.4568647894
 30
0.0
 10
392.4264012323
 20
387.1075266122
 30
0.0
 10
392.4886075648
 20
386.7584963529
 30
0.0
 10
392.5362093839
 20
386.5061569617
 30
0.0
  0
SPLINE
  5
588
100
AcDbEntity
  8
02___PRT_ALL_AXES
100
AcDbSpline
 62
3
  6
CONTINUOUS
 70
0
 71
3
 72
9
 73
5
 74
0
 42
0.0000001
 43
0.0000001
 44
0.0000000001
 40
0.0
 40
0.0
 40
0.0
 40
0.0
 40
0.2760113207
 40
1.0
 40
1.0
 40
1.0
 40
1.0
 10
394.9264517041
 20
364.4287946804
 30
0.0
 10
394.9027191665
 20
364.5230816948
 30
0.0
 10
394.8183209143
 20
364.8650930581
 30
0.0
 10
394.7419058032
 20
365.2090115182
 30
0.0
 10
394.6877705522
 20
365.4582324962
 30
0.0
  0
SPLINE
  5
589
100
AcDbEntity
  8
02___PRT_ALL_AXES
100
AcDbSpline
 62
3
  6
CONTINUOUS
 70
0
 71
3
 72
9
 73
5
 74
0
 42
0.0000001
 43
0.0000001
 44
0.0000000001
 40
0.0
 40
0.0
 40
0.0
 40
0.0
 40
0.2759612298
 40
1.0
 40
1.0
 40
1.0
 40
1.0
 10
172.113311234
 20
358.7903564272
 30
0.0
 10
172.0969201234
 20
358.8862736544
 30
0.0
 10
172.0381534454
 20
359.2339542487
 30
0.0
 10
171.9812219324
 20
359.5819576022
 30
0.0
 10
171.9425510018
 20
359.8343177731
 30
0.0
  0
SPLINE
  5
58A
100
AcDbEntity
  8
02___PRT_ALL_AXES
100
AcDbSpline
 62
3
  6
CONTINUOUS
 70
0
 71
3
 72
9
 73
5
 74
0
 42
0.0000001
 43
0.0000001
 44
0.0000000001
 40
0.0
 40
0.0
 40
0.0
 40
0.0
 40
0.2757055598
 40
1.0
 40
1.0
 40
1.0
 40
1.0
 10
170.3760222043
 20
397.3977570802
 30
0.0
 10
170.3841825355
 20
397.3004546274
 30
0.0
 10
170.4160271805
 20
396.9477047468
 30
0.0
 10
170.4598084856
 20
396.5961815098
 30
0.0
 10
170.4919876706
 20
396.3416913685
 30
0.0
  0
SPLINE
  5
58B
100
AcDbEntity
  8
02___PRT_ALL_AXES
100
AcDbSpline
 62
3
  6
CONTINUOUS
 70
0
 71
3
 72
9
 73
5
 74
0
 42
0.0000001
 43
0.0000001
 44
0.0000000001
 40
0.0
 40
0.0
 40
0.0
 40
0.0
 40
0.2757169999
 40
1.0
 40
1.0
 40
1.0
 40
1.0
 10
392.7760222345
 20
420.2080134722
 30
0.0
 10
392.785981573
 20
420.1108803231
 30
0.0
 10
392.8227486104
 20
419.7586556267
 30
0.0
 10
392.8614001904
 20
419.406614956
 30
0.0
 10
392.8919877013
 20
419.1519477604
 30
0.0
  0
SPLINE
  5
58C
100
AcDbEntity
  8
02___PRT_ALL_AXES
100
AcDbSpline
 62
3
  6
CONTINUOUS
 70
0
 71
3
 72
9
 73
5
 74
0
 42
0.0000001
 43
0.0000001
 44
0.0000000001
 40
0.0
 40
0.0
 40
0.0
 40
0.0
 40
0.2759012068
 40
1.0
 40
1.0
 40
1.0
 40
1.0
 10
171.686211768
 20
406.3354372435
 30
0.0
 10
171.6762781584
 20
406.4323193821
 30
0.0
 10
171.6409163232
 20
406.7835311309
 30
0.0
 10
171.6074274828
 20
407.1349441494
 30
0.0
 10
171.5857740339
 20
407.389624144
 30
0.0
  0
SPLINE
  5
58D
100
AcDbEntity
  8
02___PRT_ALL_AXES
100
AcDbSpline
 62
3
  6
CONTINUOUS
 70
0
 71
3
 72
9
 73
5
 74
0
 42
0.0000001
 43
0.0000001
 44
0.0000000001
 40
0.0
 40
0.0
 40
0.0
 40
0.0
 40
0.2757627066
 40
1.0
 40
1.0
 40
1.0
 40
1.0
 10
170.811563545
 20
445.1116752263
 30
0.0
 10
170.8124233409
 20
445.0141165619
 30
0.0
 10
170.8183943779
 20
444.6603334045
 30
0.0
 10
170.8400738879
 20
444.3070836427
 30
0.0
 10
170.8554770843
 20
444.0513181723
 30
0.0
  0
SPLINE
  5
58E
100
AcDbEntity
  8
02___PRT_ALL_AXES
100
AcDbSpline
 62
3
  6
CONTINUOUS
 70
0
 71
3
 72
9
 73
5
 74
0
 42
0.0000001
 43
0.0000001
 44
0.0000000001
 40
0.0
 40
0.0
 40
0.0
 40
0.0
 40
0.2757782458
 40
1.0
 40
1.0
 40
1.0
 40
1.0
 10
393.2115638353
 20
452.7150940339
 30
0.0
 10
393.2148962083
 20
452.617592377
 30
0.0
 10
393.2276301733
 20
452.2640657332
 30
0.0
 10
393.2422622771
 20
451.9105947082
 30
0.0
 10
393.2554773747
 20
451.6547369799
 30
0.0
  0
SPLINE
  5
58F
100
AcDbEntity
  8
0
100
AcDbSpline
 62
3
  6
CONTINUOUS
 70
0
 71
3
 72
9
 73
5
 74
0
 42
0.0000001
 43
0.0000001
 44
0.0000000001
 40
0.0
 40
0.0
 40
0.0
 40
0.0
 40
0.1825743499
 40
1.0
 40
1.0
 40
1.0
 40
1.0
 10
1156.9309243176
 20
735.6056761787
 30
0.0
 10
1156.8735388838
 20
735.6056761787
 30
0.0
 10
1156.5623866379
 20
735.7112398069
 30
0.0
 10
1156.3981354558
 20
736.0176360076
 30
0.0
 10
1156.2637799058
 20
736.2366341758
 30
0.0
  0
SPLINE
  5
590
100
AcDbEntity
  8
0
100
AcDbSpline
 62
3
  6
CONTINUOUS
 70
0
 71
3
 72
8
 73
4
 74
0
 42
0.0000001
 43
0.0000001
 44
0.0000000001
 40
0.0
 40
0.0
 40
0.0
 40
0.0
 40
1.0
 40
1.0
 40
1.0
 40
1.0
 10
1156.2637799058
 20
736.2366341758
 30
0.0
 10
1156.2091574227
 20
736.325668263
 30
0.0
 10
1156.1564343534
 20
736.415857966
 30
0.0
 10
1156.1036743388
 20
736.5060082027
 30
0.0
  0
SPLINE
  5
591
100
AcDbEntity
  8
02___PRT_ALL_AXES
100
AcDbSpline
 62
3
  6
CONTINUOUS
 70
0
 71
3
 72
9
 73
5
 74
0
 42
0.0000001
 43
0.0000001
 44
0.0000000001
 40
0.0
 40
0.0
 40
0.0
 40
0.0
 40
0.4999646915
 40
1.0
 40
1.0
 40
1.0
 40
1.0
 10
870.3994117533
 20
517.468096654
 30
0.0
 10
868.8646817324
 20
517.3159884514
 30
0.0
 10
865.7936188095
 20
515.8228725837
 30
0.0
 10
864.5967108048
 20
512.6239318917
 30
0.0
 10
864.591172754
 20
511.0814746229
 30
0.0
  0
LINE
  5
592
100
AcDbEntity
  8
02___PRT_ALL_AXES
100
AcDbLine
 62
3
  6
CONTINUOUS
 10
826.6064109848
 20
416.1712335718
 11
826.5287894978
 21
415.3625499922
  0
LINE
  5
593
100
AcDbEntity
  8
02___PRT_ALL_AXES
100
AcDbLine
 62
3
  6
CONTINUOUS
 10
437.9327414591
 20
415.3658836783
 11
437.8554450725
 21
416.1712022088
  0
SPLINE
  5
594
100
AcDbEntity
  8
02___PRT_ALL_AXES
100
AcDbSpline
 62
3
  6
CONTINUOUS
 70
0
 71
3
 72
9
 73
5
 74
0
 42
0.0000001
 43
0.0000001
 44
0.0000000001
 40
0.0
 40
0.0
 40
0.0
 40
0.0
 40
0.1835050253
 40
1.0
 40
1.0
 40
1.0
 40
1.0
 10
1102.2309243176
 20
686.31341761
 30
0.0
 10
1102.2479973754
 20
685.8898812112
 30
0.0
 10
1102.3185608388
 20
683.5809819415
 30
0.0
 10
1102.3515434916
 20
681.2711498244
 30
0.0
 10
1102.3705435691
 20
679.3852143797
 30
0.0
  0
SPLINE
  5
595
100
AcDbEntity
  8
02___PRT_ALL_AXES
100
AcDbSpline
 62
3
  6
CONTINUOUS
 70
0
 71
3
 72
9
 73
5
 74
0
 42
0.0000001
 43
0.0000001
 44
0.0000000001
 40
0.0
 40
0.0
 40
0.0
 40
0.0
 40
0.1835050587
 40
1.0
 40
1.0
 40
1.0
 40
1.0
 10
1102.2309243176
 20
260.2979347473
 30
0.0
 10
1102.2479973445
 20
260.7214712243
 30
0.0
 10
1102.3185607149
 20
263.030370496
 30
0.0
 10
1102.351543459
 20
265.3402026105
 30
0.0
 10
1102.3705435691
 20
267.2261379776
 30
0.0
  0
SPLINE
  5
596
100
AcDbEntity
  8
02___PRT_ALL_AXES
100
AcDbSpline
 62
3
  6
CONTINUOUS
 70
0
 71
3
 72
9
 73
5
 74
0
 42
0.0000001
 43
0.0000001
 44
0.0000000001
 40
0.0
 40
0.0
 40
0.0
 40
0.0
 40
0.1835050254
 40
1.0
 40
1.0
 40
1.0
 40
1.0
 10
845.8942694488
 20
262.8812151769
 30
0.0
 10
845.9113425169
 20
263.3047515753
 30
0.0
 10
845.9819060043
 20
265.6136508447
 30
0.0
 10
846.0148886232
 20
267.9234829625
 30
0.0
 10
846.0338887003
 20
269.8094184072
 30
0.0
  0
SPLINE
  5
597
100
AcDbEntity
  8
02___PRT_ALL_AXES
100
AcDbSpline
 62
3
  6
CONTINUOUS
 70
0
 71
3
 72
9
 73
5
 74
0
 42
0.0000001
 43
0.0000001
 44
0.0000000001
 40
0.0
 40
0.0
 40
0.0
 40
0.0
 40
0.1835050253
 40
1.0
 40
1.0
 40
1.0
 40
1.0
 10
418.5675791864
 20
262.8812151769
 30
0.0
 10
418.5505061183
 20
263.3047515753
 30
0.0
 10
418.4799426309
 20
265.6136508447
 30
0.0
 10
418.446960012
 20
267.9234829625
 30
0.0
 10
418.4279599349
 20
269.8094184072
 30
0.0
  0
SPLINE
  5
598
100
AcDbEntity
  8
02___PRT_ALL_AXES
100
AcDbSpline
 62
3
  6
CONTINUOUS
 70
0
 71
3
 72
9
 73
5
 74
0
 42
0.0000001
 43
0.0000001
 44
0.0000000001
 40
0.0
 40
0.0
 40
0.0
 40
0.0
 40
0.1835050253
 40
1.0
 40
1.0
 40
1.0
 40
1.0
 10
162.2309243176
 20
260.2979347473
 30
0.0
 10
162.2138512599
 20
260.7214711461
 30
0.0
 10
162.1432877964
 20
263.0303704159
 30
0.0
 10
162.1103051436
 20
265.3402025329
 30
0.0
 10
162.0913050661
 20
267.2261379776
 30
0.0
  0
SPLINE
  5
599
100
AcDbEntity
  8
02___PRT_ALL_AXES
100
AcDbSpline
 62
3
  6
CONTINUOUS
 70
0
 71
3
 72
9
 73
5
 74
0
 42
0.0000001
 43
0.0000001
 44
0.0000000001
 40
0.0
 40
0.0
 40
0.0
 40
0.0
 40
0.1835050587
 40
1.0
 40
1.0
 40
1.0
 40
1.0
 10
162.2309243176
 20
686.31341761
 30
0.0
 10
162.2138512908
 20
685.889881133
 30
0.0
 10
162.1432879203
 20
683.5809818613
 30
0.0
 10
162.1103051762
 20
681.2711497468
 30
0.0
 10
162.0913050661
 20
679.3852143797
 30
0.0
  0
SPLINE
  5
59A
100
AcDbEntity
  8
02___PRT_ALL_AXES
100
AcDbSpline
 62
3
  6
CONTINUOUS
 70
0
 71
3
 72
9
 73
5
 74
0
 42
0.0000001
 43
0.0000001
 44
0.0000000001
 40
0.0
 40
0.0
 40
0.0
 40
0.0
 40
0.1835050254
 40
1.0
 40
1.0
 40
1.0
 40
1.0
 10
418.5675791864
 20
683.7301371804
 30
0.0
 10
418.5505061183
 20
683.306600782
 30
0.0
 10
418.4799426309
 20
680.9977015126
 30
0.0
 10
418.446960012
 20
678.6878693948
 30
0.0
 10
418.4279599349
 20
676.8019339502
 30
0.0
  0
SPLINE
  5
59B
100
AcDbEntity
  8
02___PRT_ALL_AXES
100
AcDbSpline
 62
3
  6
CONTINUOUS
 70
0
 71
3
 72
9
 73
5
 74
0
 42
0.0000001
 43
0.0000001
 44
0.0000000001
 40
0.0
 40
0.0
 40
0.0
 40
0.0
 40
0.1835050253
 40
1.0
 40
1.0
 40
1.0
 40
1.0
 10
845.8942694488
 20
683.7301371804
 30
0.0
 10
845.9113425169
 20
683.306600782
 30
0.0
 10
845.9819060043
 20
680.9977015126
 30
0.0
 10
846.0148886232
 20
678.6878693948
 30
0.0
 10
846.0338887003
 20
676.8019339502
 30
0.0
  0
SPLINE
  5
59C
100
AcDbEntity
  8
02___PRT_ALL_AXES
100
AcDbSpline
 62
3
  6
CONTINUOUS
 70
0
 71
3
 72
9
 73
5
 74
0
 42
0.0000001
 43
0.0000001
 44
0.0000000001
 40
0.0
 40
0.0
 40
0.0
 40
0.0
 40
0.5000159511
 40
1.0
 40
1.0
 40
1.0
 40
1.0
 10
632.2309243176
 20
586.788613002
 30
0.0
 10
649.6639608273
 20
586.7885987006
 30
0.0
 10
684.5390409419
 20
585.1165222482
 30
0.0
 10
719.1612102964
 20
580.7076117826
 30
0.0
 10
736.3551654055
 20
577.8370908653
 30
0.0
  0
SPLINE
  5
59D
100
AcDbEntity
  8
02___PRT_ALL_AXES
100
AcDbSpline
 62
3
  6
CONTINUOUS
 70
0
 71
3
 72
11
 73
7
 74
0
 42
0.0000001
 43
0.0000001
 44
0.0000000001
 40
0.0
 40
0.0
 40
0.0
 40
0.0
 40
0.2499693844
 40
0.4999597484
 40
0.749970438
 40
1.0
 40
1.0
 40
1.0
 40
1.0
 10
736.3551654055
 20
577.8370908653
 30
0.0
 10
740.8262039936
 20
577.0900981354
 30
0.0
 10
749.5901402878
 20
574.124167564
 30
0.0
 10
760.6089604419
 20
565.7718343477
 30
0.0
 10
768.4581840919
 20
554.3893988294
 30
0.0
 10
771.046762046
 20
545.5092866035
 30
0.0
 10
771.6123715006
 20
541.0106018103
 30
0.0
  0
SPLINE
  5
59E
100
AcDbEntity
  8
02___PRT_ALL_AXES
100
AcDbSpline
 62
3
  6
CONTINUOUS
 70
0
 71
3
 72
11
 73
7
 74
0
 42
0.0000001
 43
0.0000001
 44
0.0000000001
 40
0.0
 40
0.0
 40
0.0
 40
0.0
 40
0.25002944
 40
0.5000401026
 40
0.750030483
 40
1.0
 40
1.0
 40
1.0
 40
1.0
 10
492.8494771347
 20
541.0106018103
 30
0.0
 10
493.415123878
 20
545.5092797029
 30
0.0
 10
496.0036765025
 20
554.3893853633
 30
0.0
 10
503.8528881837
 20
565.7718344336
 30
0.0
 10
514.8716939474
 20
574.1241787568
 30
0.0
 10
523.6356357653
 20
577.0901365667
 30
0.0
 10
528.1066832297
 20
577.8370908653
 30
0.0
  0
SPLINE
  5
59F
100
AcDbEntity
  8
02___PRT_ALL_AXES
100
AcDbSpline
 62
3
  6
CONTINUOUS
 70
0
 71
3
 72
9
 73
5
 74
0
 42
0.0000001
 43
0.0000001
 44
0.0000000001
 40
0.0
 40
0.0
 40
0.0
 40
0.0
 40
0.4999836633
 40
1.0
 40
1.0
 40
1.0
 40
1.0
 10
528.1066832297
 20
577.8370908653
 30
0.0
 10
545.3006248461
 20
580.7076109151
 30
0.0
 10
579.9227944208
 20
585.1165192494
 30
0.0
 10
614.7978743723
 20
586.7885987922
 30
0.0
 10
632.2309243176
 20
586.788613002
 30
0.0
  0
SPLINE
  5
5A0
100
AcDbEntity
  8
02___PRT_ALL_AXES
100
AcDbSpline
 62
3
  6
CONTINUOUS
 70
0
 71
3
 72
14
 73
10
 74
0
 42
0.0000001
 43
0.0000001
 44
0.0000000001
 40
0.0
 40
0.0
 40
0.0
 40
0.0
 40
0.3690570089
 40
0.5367163489
 40
0.6853371397
 40
0.8097352778
 40
0.9056332047
 40
0.9697683043
 40
1.0
 40
1.0
 40
1.0
 40
1.0
 10
528.1066831984
 20
577.8370908823
 30
0.0
 10
527.0532417987
 20
584.3993885878
 30
0.0
 10
525.5545732512
 20
593.948581498
 30
0.0
 10
523.725355086
 20
606.1538590932
 30
0.0
 10
522.5846950865
 20
614.0091361456
 30
0.0
 10
521.6937813536
 20
620.5888376631
 30
0.0
 10
521.0132358045
 20
625.6761351424
 30
0.0
 10
520.7143205321
 20
629.0711584034
 30
0.0
 10
520.5030730906
 20
630.7825697426
 30
0.0
 10
520.5811661902
 20
631.3213797457
 30
0.0
  0
SPLINE
  5
5A1
100
AcDbEntity
  8
02___PRT_ALL_AXES
100
AcDbSpline
 62
3
  6
CONTINUOUS
 70
0
 71
3
 72
14
 73
10
 74
0
 42
0.0000001
 43
0.0000001
 44
0.0000000001
 40
0.0
 40
0.0
 40
0.0
 40
0.0
 40
0.3699079909
 40
0.5377238789
 40
0.6863547857
 40
0.8106424727
 40
0.9063322535
 40
0.9701744089
 40
1.0
 40
1.0
 40
1.0
 40
1.0
 10
493.1022652646
 20
404.8696577574
 30
0.0
 10
486.5328168345
 20
404.053502112
 30
0.0
 10
476.9800130045
 20
402.8897775994
 30
0.0
 10
464.7803819822
 20
401.4624904158
 30
0.0
 10
456.942762409
 20
400.5699026372
 30
0.0
 10
450.3856165259
 20
399.8684763725
 30
0.0
 10
445.3295128403
 20
399.329679651
 30
0.0
 10
441.9592990934
 20
399.0834111718
 30
0.0
 10
440.2787582443
 20
398.9105876248
 30
0.0
 10
439.7472923598
 20
398.9600770285
 30
0.0
  0
SPLINE
  5
5A2
100
AcDbEntity
  8
02___PRT_ALL_AXES
100
AcDbSpline
 62
3
  6
CONTINUOUS
 70
0
 71
3
 72
14
 73
10
 74
0
 42
0.0000001
 43
0.0000001
 44
0.0000000001
 40
0.0
 40
0.0
 40
0.0
 40
0.0
 40
0.3700748753
 40
0.5379086478
 40
0.6865287108
 40
0.8107874531
 40
0.9064386778
 40
0.9702366403
 40
1.0
 40
1.0
 40
1.0
 40
1.0
 10
528.546622539
 20
368.1568686341
 30
0.0
 10
527.4940739862
 20
361.6306692651
 30
0.0
 10
525.9816677888
 20
352.1418226169
 30
0.0
 10
524.0963103214
 20
340.024563593
 30
0.0
 10
522.9043937304
 20
332.2425045027
 30
0.0
 10
521.9428068342
 20
325.7315123112
 30
0.0
 10
521.2028143482
 20
320.7146509238
 30
0.0
 10
520.7981967656
 20
317.3650650409
 30
0.0
 10
520.5568155289
 20
315.7031515363
 30
0.0
 10
520.5619443997
 20
315.1715226511
 30
0.0
  0
SPLINE
  5
5A3
100
AcDbEntity
  8
02___PRT_ALL_AXES
100
AcDbSpline
 62
3
  6
CONTINUOUS
 70
0
 71
3
 72
14
 73
10
 74
0
 42
0.0000001
 43
0.0000001
 44
0.0000000001
 40
0.0
 40
0.0
 40
0.0
 40
0.0
 40
0.3700744014
 40
0.5379081031
 40
0.6865282009
 40
0.8107870569
 40
0.9064384333
 40
0.9702365408
 40
1.0
 40
1.0
 40
1.0
 40
1.0
 10
735.9152260978
 20
368.1568686318
 30
0.0
 10
736.9677771047
 20
361.6306516343
 30
0.0
 10
738.4801874203
 20
352.141776848
 30
0.0
 10
740.3655510675
 20
340.0244786983
 30
0.0
 10
741.5574728501
 20
332.2423873745
 30
0.0
 10
742.519065011
 20
325.7313640739
 30
0.0
 10
743.2590618571
 20
320.7144756494
 30
0.0
 10
743.6636834145
 20
317.364869463
 30
0.0
 10
743.9050661293
 20
315.7029452301
 30
0.0
 10
743.8999383703
 20
315.171312444
 30
0.0
  0
SPLINE
  5
5A4
100
AcDbEntity
  8
02___PRT_ALL_AXES
100
AcDbSpline
 62
3
  6
CONTINUOUS
 70
0
 71
3
 72
14
 73
10
 74
0
 42
0.0000001
 43
0.0000001
 44
0.0000000001
 40
0.0
 40
0.0
 40
0.0
 40
0.0
 40
0.3699084546
 40
0.5377244106
 40
0.6863552814
 40
0.8106428554
 40
0.906332487
 40
0.970174502
 40
1.0
 40
1.0
 40
1.0
 40
1.0
 10
771.3595833366
 20
404.8696577859
 30
0.0
 10
777.9290141003
 20
404.0535041805
 30
0.0
 10
787.4817897297
 20
402.8897829989
 30
0.0
 10
799.6813815262
 20
401.4625007189
 30
0.0
 10
807.5189688341
 20
400.5699169702
 30
0.0
 10
814.0760836053
 20
399.8684947447
 30
0.0
 10
819.1321603557
 20
399.3297012882
 30
0.0
 10
822.5023539146
 20
399.0834357584
 30
0.0
 10
824.182884229
 20
398.9106132323
 30
0.0
 10
824.7143462568
 20
398.9601034047
 30
0.0
  0
SPLINE
  5
5A5
100
AcDbEntity
  8
02___PRT_ALL_AXES
100
AcDbSpline
 62
3
  6
CONTINUOUS
 70
0
 71
3
 72
14
 73
10
 74
0
 42
0.0000001
 43
0.0000001
 44
0.0000000001
 40
0.0
 40
0.0
 40
0.0
 40
0.0
 40
0.3690574733
 40
0.5367168794
 40
0.685337632
 40
0.8097356553
 40
0.9056334325
 40
0.9697683932
 40
1.0
 40
1.0
 40
1.0
 40
1.0
 10
736.3551653919
 20
577.8370908579
 30
0.0
 10
737.4086037185
 20
584.3993705257
 30
0.0
 10
738.9072674575
 20
593.9485346203
 30
0.0
 10
740.7364788965
 20
606.1537721215
 30
0.0
 10
741.8771335258
 20
614.0090162243
 30
0.0
 10
742.7680420818
 20
620.588686003
 30
0.0
 10
743.4485834212
 20
625.6759560973
 30
0.0
 10
743.7474953415
 20
629.0709588492
 30
0.0
 10
743.958741415
 20
630.7823595922
 30
0.0
 10
743.8806476837
 20
631.3211656784
 30
0.0
  0
SPLINE
  5
5A6
100
AcDbEntity
  8
02___PRT_ALL_AXES
100
AcDbSpline
 62
3
  6
CONTINUOUS
 70
0
 71
3
 72
11
 73
7
 74
0
 42
0.0000001
 43
0.0000001
 44
0.0000000001
 40
0.0
 40
0.0
 40
0.0
 40
0.0
 40
0.2500507366
 40
0.4999448741
 40
0.7500124391
 40
1.0
 40
1.0
 40
1.0
 40
1.0
 10
387.4724977164
 20
592.9712941678
 30
0.0
 10
388.6220114833
 20
592.6944987692
 30
0.0
 10
391.1311794908
 20
592.7913975795
 30
0.0
 10
394.2028294593
 20
594.9086159762
 30
0.0
 10
395.6999426349
 20
598.3287124045
 30
0.0
 10
395.3125346021
 20
600.8074073553
 30
0.0
 10
394.8282997224
 20
601.8857430409
 30
0.0
  0
SPLINE
  5
5A7
100
AcDbEntity
  8
02___PRT_ALL_AXES
100
AcDbSpline
 62
3
  6
CONTINUOUS
 70
0
 71
3
 72
9
 73
5
 74
0
 42
0.0000001
 43
0.0000001
 44
0.0000000001
 40
0.0
 40
0.0
 40
0.0
 40
0.0
 40
0.5001813918
 40
1.0
 40
1.0
 40
1.0
 40
1.0
 10
394.8282997224
 20
601.8857430409
 30
0.0
 10
390.3863494157
 20
611.8315615431
 30
0.0
 10
375.35925745
 20
629.4703222001
 30
0.0
 10
353.1146764799
 20
635.9505405243
 30
0.0
 10
342.229927276
 20
635.9302828581
 30
0.0
  0
SPLINE
  5
5A8
100
AcDbEntity
  8
02___PRT_ALL_AXES
100
AcDbSpline
 62
3
  6
CONTINUOUS
 70
0
 71
3
 72
11
 73
7
 74
0
 42
0.0000001
 43
0.0000001
 44
0.0000000001
 40
0.0
 40
0.0
 40
0.0
 40
0.0
 40
0.2504796025
 40
0.5007019221
 40
0.7505351992
 40
1.0
 40
1.0
 40
1.0
 40
1.0
 10
270.8631680656
 20
635.9269962363
 30
0.0
 10
269.1058857337
 20
635.9196347201
 30
0.0
 10
265.4714735818
 20
634.5464155345
 30
0.0
 10
262.8510896176
 20
629.4416957365
 30
0.0
 10
264.2257557469
 20
623.8840954968
 30
0.0
 10
267.429263569
 20
621.7053658312
 30
0.0
 10
269.1307188777
 20
621.2952762375
 30
0.0
  0
SPLINE
  5
5A9
100
AcDbEntity
  8
02___PRT_ALL_AXES
100
AcDbSpline
 62
3
  6
CONTINUOUS
 70
0
 71
3
 72
9
 73
5
 74
0
 42
0.0000001
 43
0.0000001
 44
0.0000000001
 40
0.0
 40
0.0
 40
0.0
 40
0.0
 40
0.5004054762
 40
1.0
 40
1.0
 40
1.0
 40
1.0
 10
392.3492551896
 20
559.0583473319
 30
0.0
 10
394.1314305396
 20
558.7519087517
 30
0.0
 10
398.1666314497
 20
559.7778380401
 30
0.0
 10
399.8714039211
 20
563.5795001074
 30
0.0
 10
399.8701180752
 20
565.3848980358
 30
0.0
  0
SPLINE
  5
5AA
100
AcDbEntity
  8
02___PRT_ALL_AXES
100
AcDbSpline
 62
3
  6
CONTINUOUS
 70
0
 71
3
 72
9
 73
5
 74
0
 42
0.0000001
 43
0.0000001
 44
0.0000000001
 40
0.0
 40
0.0
 40
0.0
 40
0.0
 40
0.4997263364
 40
1.0
 40
1.0
 40
1.0
 40
1.0
 10
399.8703775753
 20
575.9331174514
 30
0.0
 10
399.8711395645
 20
577.3389363155
 30
0.0
 10
398.8870124788
 20
580.2375865075
 30
0.0
 10
396.2924553666
 20
581.8575413604
 30
0.0
 10
394.9233187058
 20
582.1833075255
 30
0.0
  0
SPLINE
  5
5AB
100
AcDbEntity
  8
02___PRT_ALL_AXES
100
AcDbSpline
 62
3
  6
CONTINUOUS
 70
0
 71
3
 72
9
 73
5
 74
0
 42
0.0000001
 43
0.0000001
 44
0.0000000001
 40
0.0
 40
0.0
 40
0.0
 40
0.0
 40
0.5001348383
 40
1.0
 40
1.0
 40
1.0
 40
1.0
 10
202.5924017726
 20
628.2158836888
 30
0.0
 10
200.395098796
 20
628.7340442496
 30
0.0
 10
195.7322800505
 20
628.8324518567
 30
0.0
 10
191.4300372125
 20
627.0411254474
 30
0.0
 10
189.5692512152
 20
625.7649548455
 30
0.0
  0
SPLINE
  5
5AC
100
AcDbEntity
  8
02___PRT_ALL_AXES
100
AcDbSpline
 62
3
  6
CONTINUOUS
 70
0
 71
3
 72
11
 73
7
 74
0
 42
0.0000001
 43
0.0000001
 44
0.0000000001
 40
0.0
 40
0.0
 40
0.0
 40
0.0
 40
0.2499364761
 40
0.4999727078
 40
0.7500902782
 40
1.0
 40
1.0
 40
1.0
 40
1.0
 10
171.3814114088
 20
605.3709558653
 30
0.0
 10
170.9156891366
 20
604.4864455643
 30
0.0
 10
170.3940321287
 20
602.4651057926
 30
0.0
 10
171.0822162443
 20
599.4318438256
 30
0.0
 10
173.06676511
 20
597.0372821424
 30
0.0
 10
174.9863443811
 20
596.2168955042
 30
0.0
 10
175.971134938
 20
596.0459295761
 30
0.0
  0
SPLINE
  5
5AD
100
AcDbEntity
  8
02___PRT_ALL_AXES
100
AcDbSpline
 62
3
  6
CONTINUOUS
 70
0
 71
3
 72
9
 73
5
 74
0
 42
0.0000001
 43
0.0000001
 44
0.0000000001
 40
0.0
 40
0.0
 40
0.0
 40
0.0
 40
0.5004804576
 40
1.0
 40
1.0
 40
1.0
 40
1.0
 10
392.7727311965
 20
526.4036764275
 30
0.0
 10
394.5070752799
 20
526.2230247968
 30
0.0
 10
398.3024221539
 20
527.397496079
 30
0.0
 10
399.8706800121
 20
531.0492469109
 30
0.0
 10
399.8701822876
 20
532.7896260698
 30
0.0
  0
SPLINE
  5
5AE
100
AcDbEntity
  8
02___PRT_ALL_AXES
100
AcDbSpline
 62
3
  6
CONTINUOUS
 70
0
 71
3
 72
9
 73
5
 74
0
 42
0.0000001
 43
0.0000001
 44
0.0000000001
 40
0.0
 40
0.0
 40
0.0
 40
0.0
 40
0.5004033854
 40
1.0
 40
1.0
 40
1.0
 40
1.0
 10
172.1087122076
 20
587.8217823097
 30
0.0
 10
170.3307001037
 20
588.1151292615
 30
0.0
 10
166.3189780531
 20
587.0745219403
 30
0.0
 10
164.6274950907
 20
583.2872491307
 30
0.0
 10
164.6287445494
 20
581.4881062123
 30
0.0
  0
SPLINE
  5
5AF
100
AcDbEntity
  8
02___PRT_ALL_AXES
100
AcDbSpline
 62
3
  6
CONTINUOUS
 70
0
 71
3
 72
9
 73
5
 74
0
 42
0.0000001
 43
0.0000001
 44
0.0000000001
 40
0.0
 40
0.0
 40
0.0
 40
0.0
 40
0.5003496638
 40
1.0
 40
1.0
 40
1.0
 40
1.0
 10
164.628196415
 20
555.5942521509
 30
0.0
 10
164.6348861645
 20
554.0571431271
 30
0.0
 10
165.8208804389
 20
550.8725137081
 30
0.0
 10
168.8697043282
 20
549.3722927411
 30
0.0
 10
170.3962369263
 20
549.211522645
 30
0.0
  0
SPLINE
  5
5B0
100
AcDbEntity
  8
02___PRT_ALL_AXES
100
AcDbSpline
 62
3
  6
CONTINUOUS
 70
0
 71
3
 72
9
 73
5
 74
0
 42
0.0000001
 43
0.0000001
 44
0.0000000001
 40
0.0
 40
0.0
 40
0.0
 40
0.0
 40
0.5004236534
 40
1.0
 40
1.0
 40
1.0
 40
1.0
 10
393.2073110861
 20
493.8964037166
 30
0.0
 10
394.8831202725
 20
493.8360773056
 30
0.0
 10
398.432792781
 20
495.1402589905
 30
0.0
 10
399.870792469
 20
498.6395412397
 30
0.0
 10
399.8702490216
 20
500.3135965297
 30
0.0
  0
SPLINE
  5
5B1
100
AcDbEntity
  8
02___PRT_ALL_AXES
100
AcDbSpline
 62
3
  6
CONTINUOUS
 70
0
 71
3
 72
9
 73
5
 74
0
 42
0.0000001
 43
0.0000001
 44
0.0000000001
 40
0.0
 40
0.0
 40
0.0
 40
0.0
 40
0.5003503703
 40
1.0
 40
1.0
 40
1.0
 40
1.0
 10
399.8706758706
 20
511.0812053595
 30
0.0
 10
399.8639131828
 20
512.6255432707
 30
0.0
 10
398.6658626098
 20
515.827338593
 30
0.0
 10
395.5911512638
 20
517.3159952191
 30
0.0
 10
394.0565404473
 20
517.4687014165
 30
0.0
  0
SPLINE
  5
5B2
100
AcDbEntity
  8
02___PRT_ALL_AXES
100
AcDbSpline
 62
3
  6
CONTINUOUS
 70
0
 71
3
 72
9
 73
5
 74
0
 42
0.0000001
 43
0.0000001
 44
0.0000000001
 40
0.0
 40
0.0
 40
0.0
 40
0.0
 40
0.5004748618
 40
1.0
 40
1.0
 40
1.0
 40
1.0
 10
171.6822850765
 20
540.2763180091
 30
0.0
 10
169.9534442424
 20
540.4443658653
 30
0.0
 10
166.1829415324
 20
539.2558953787
 30
0.0
 10
164.6282120854
 20
535.6195602791
 30
0.0
 10
164.6286814403
 20
533.8858675527
 30
0.0
  0
SPLINE
  5
5B3
100
AcDbEntity
  8
02___PRT_ALL_AXES
100
AcDbSpline
 62
3
  6
CONTINUOUS
 70
0
 71
3
 72
9
 73
5
 74
0
 42
0.0000001
 43
0.0000001
 44
0.0000000001
 40
0.0
 40
0.0
 40
0.0
 40
0.0
 40
0.5000885399
 40
1.0
 40
1.0
 40
1.0
 40
1.0
 10
164.6292402456
 20
507.9163571926
 30
0.0
 10
164.6304271036
 20
506.3165765502
 30
0.0
 10
165.9279968424
 20
502.9887062954
 30
0.0
 10
169.2015452822
 20
501.5660281
 30
0.0
 10
170.7994000668
 20
501.5000929765
 30
0.0
  0
SPLINE
  5
5B4
100
AcDbEntity
  8
02___PRT_ALL_AXES
100
AcDbSpline
 62
3
  6
CONTINUOUS
 70
0
 71
3
 72
9
 73
5
 74
0
 42
0.0000001
 43
0.0000001
 44
0.0000000001
 40
0.0
 40
0.0
 40
0.0
 40
0.0
 40
0.500384082
 40
1.0
 40
1.0
 40
1.0
 40
1.0
 10
393.6544570308
 20
461.4927116455
 30
0.0
 10
395.2610728344
 20
461.5499348875
 30
0.0
 10
398.5592278027
 20
462.9614425132
 30
0.0
 10
399.8691899604
 20
466.3053503951
 30
0.0
 10
399.8696136945
 20
467.910516929
 30
0.0
  0
SPLINE
  5
5B5
100
AcDbEntity
  8
02___PRT_ALL_AXES
100
AcDbSpline
 62
3
  6
CONTINUOUS
 70
0
 71
3
 72
9
 73
5
 74
0
 42
0.0000001
 43
0.0000001
 44
0.0000000001
 40
0.0
 40
0.0
 40
0.0
 40
0.0
 40
0.500409817
 40
1.0
 40
1.0
 40
1.0
 40
1.0
 10
399.8706763877
 20
478.708211797
 30
0.0
 10
399.8627610285
 20
480.3203284226
 30
0.0
 10
398.545319121
 20
483.6736536387
 30
0.0
 10
395.2277043612
 20
485.0691305498
 30
0.0
 10
393.6190082711
 20
485.1198518348
 30
0.0
  0
SPLINE
  5
5B6
100
AcDbEntity
  8
02___PRT_ALL_AXES
100
AcDbSpline
 62
3
  6
CONTINUOUS
 70
0
 71
3
 72
9
 73
5
 74
0
 42
0.0000001
 43
0.0000001
 44
0.0000000001
 40
0.0
 40
0.0
 40
0.0
 40
0.0
 40
0.5004182443
 40
1.0
 40
1.0
 40
1.0
 40
1.0
 10
171.2472570059
 20
492.7223056642
 30
0.0
 10
169.5778917074
 20
492.770833817
 30
0.0
 10
166.0531657096
 20
491.4546933924
 30
0.0
 10
164.6280990926
 20
487.9708736745
 30
0.0
 10
164.6286158525
 20
486.303594907
 30
0.0
  0
SPLINE
  5
5B7
100
AcDbEntity
  8
02___PRT_ALL_AXES
100
AcDbSpline
 62
3
  6
CONTINUOUS
 70
0
 71
3
 72
9
 73
5
 74
0
 42
0.0000001
 43
0.0000001
 44
0.0000000001
 40
0.0
 40
0.0
 40
0.0
 40
0.0
 40
0.4999666607
 40
1.0
 40
1.0
 40
1.0
 40
1.0
 10
164.6286158525
 20
460.3077574503
 30
0.0
 10
164.6270235776
 20
458.6389021469
 30
0.0
 10
166.0561526083
 20
455.1546434945
 30
0.0
 10
169.5810089902
 20
453.8395804515
 30
0.0
 10
171.2493523238
 20
453.8891183279
 30
0.0
  0
SPLINE
  5
5B8
100
AcDbEntity
  8
02___PRT_ALL_AXES
100
AcDbSpline
 62
3
  6
CONTINUOUS
 70
0
 71
3
 72
9
 73
5
 74
0
 42
0.0000001
 43
0.0000001
 44
0.0000000001
 40
0.0
 40
0.0
 40
0.0
 40
0.0
 40
0.5003241793
 40
1.0
 40
1.0
 40
1.0
 40
1.0
 10
394.085857749
 20
429.1456120323
 30
0.0
 10
395.618336432
 20
429.301494875
 30
0.0
 10
398.6751372045
 20
430.8047571602
 30
0.0
 10
399.8698192052
 20
433.9969126431
 30
0.0
 10
399.8696822425
 20
435.5353029224
 30
0.0
  0
SPLINE
  5
5B9
100
AcDbEntity
  8
02___PRT_ALL_AXES
100
AcDbSpline
 62
3
  6
CONTINUOUS
 70
0
 71
3
 72
9
 73
5
 74
0
 42
0.0000001
 43
0.0000001
 44
0.0000000001
 40
0.0
 40
0.0
 40
0.0
 40
0.0
 40
0.499970595
 40
1.0
 40
1.0
 40
1.0
 40
1.0
 10
399.8702490216
 20
446.2977558276
 30
0.0
 10
399.8715974774
 20
447.9735749425
 30
0.0
 10
398.4297542136
 20
451.4747194761
 30
0.0
 10
394.8793013867
 20
452.7744805736
 30
0.0
 10
393.2043458314
 20
452.7148472645
 30
0.0
  0
SPLINE
  5
5BA
100
AcDbEntity
  8
02___PRT_ALL_AXES
100
AcDbSpline
 62
3
  6
CONTINUOUS
 70
0
 71
3
 72
9
 73
5
 74
0
 42
0.0000001
 43
0.0000001
 44
0.0000000001
 40
0.0
 40
0.0
 40
0.0
 40
0.0
 40
0.5003811288
 40
1.0
 40
1.0
 40
1.0
 40
1.0
 10
170.8004495773
 20
445.1112952615
 30
0.0
 10
169.2010714312
 20
445.0432093052
 30
0.0
 10
165.9274901341
 20
443.6220275464
 30
0.0
 10
164.6296956658
 20
440.2933831833
 30
0.0
 10
164.6292402456
 20
438.6949951648
 30
0.0
  0
SPLINE
  5
5BB
100
AcDbEntity
  8
02___PRT_ALL_AXES
100
AcDbSpline
 62
3
  6
CONTINUOUS
 70
0
 71
3
 72
9
 73
5
 74
0
 42
0.0000001
 43
0.0000001
 44
0.0000000001
 40
0.0
 40
0.0
 40
0.0
 40
0.0
 40
0.5005129647
 40
1.0
 40
1.0
 40
1.0
 40
1.0
 10
164.6281965319
 20
412.7247619781
 30
0.0
 10
164.6314069816
 20
410.9858255599
 30
0.0
 10
166.1898883754
 20
407.345763797
 30
0.0
 10
169.967885987
 20
406.163824411
 30
0.0
 10
171.6946682307
 20
406.3363045713
 30
0.0
  0
SPLINE
  5
5BC
100
AcDbEntity
  8
02___PRT_ALL_AXES
100
AcDbSpline
 62
3
  6
CONTINUOUS
 70
0
 71
3
 72
9
 73
5
 74
0
 42
0.0000001
 43
0.0000001
 44
0.0000000001
 40
0.0
 40
0.0
 40
0.0
 40
0.0
 40
0.4999658339
 40
1.0
 40
1.0
 40
1.0
 40
1.0
 10
399.8701822876
 20
413.8217262875
 30
0.0
 10
399.8714862701
 20
415.5640114825
 30
0.0
 10
398.299043295
 20
419.2174765441
 30
0.0
 10
394.5035809929
 20
420.3871388975
 30
0.0
 10
392.77034861
 20
420.207431562
 30
0.0
  0
SPLINE
  5
5BD
100
AcDbEntity
  8
02___PRT_ALL_AXES
100
AcDbSpline
 62
3
  6
CONTINUOUS
 70
0
 71
3
 72
9
 73
5
 74
0
 42
0.0000001
 43
0.0000001
 44
0.0000000001
 40
0.0
 40
0.0
 40
0.0
 40
0.0
 40
0.5003191393
 40
1.0
 40
1.0
 40
1.0
 40
1.0
 10
170.3690750473
 20
397.3970445513
 30
0.0
 10
168.8445451306
 20
397.2314624903
 30
0.0
 10
165.8121637901
 20
395.7202375756
 30
0.0
 10
164.6290442386
 20
392.5434452567
 30
0.0
 10
164.6291728797
 20
391.0119059659
 30
0.0
  0
SPLINE
  5
5BE
100
AcDbEntity
  8
02___PRT_ALL_AXES
100
AcDbSpline
 62
3
  6
CONTINUOUS
 70
0
 71
3
 72
9
 73
5
 74
0
 42
0.0000001
 43
0.0000001
 44
0.0000000001
 40
0.0
 40
0.0
 40
0.0
 40
0.0
 40
0.5004428928
 40
1.0
 40
1.0
 40
1.0
 40
1.0
 10
164.6281964936
 20
365.1218188969
 30
0.0
 10
164.6324326853
 20
363.3173748843
 30
0.0
 10
166.3265380607
 20
359.5259504341
 30
0.0
 10
170.3484151375
 20
358.4926665063
 30
0.0
 10
172.1245768426
 20
358.7922821722
 30
0.0
  0
SPLINE
  5
5BF
100
AcDbEntity
  8
02___PRT_ALL_AXES
100
AcDbSpline
 62
3
  6
CONTINUOUS
 70
0
 71
3
 72
9
 73
5
 74
0
 42
0.0000001
 43
0.0000001
 44
0.0000000001
 40
0.0
 40
0.0
 40
0.0
 40
0.0
 40
0.4997069174
 40
1.0
 40
1.0
 40
1.0
 40
1.0
 10
394.9235691706
 20
364.4281047734
 30
0.0
 10
396.2915883636
 20
364.7506812133
 30
0.0
 10
398.8860150433
 20
366.3734078527
 30
0.0
 10
399.8678802272
 20
369.2699440135
 30
0.0
 10
399.8705743483
 20
370.6771263757
 30
0.0
  0
SPLINE
  5
5C0
100
AcDbEntity
  8
02___PRT_ALL_AXES
100
AcDbSpline
 62
3
  6
CONTINUOUS
 70
0
 71
3
 72
9
 73
5
 74
0
 42
0.0000001
 43
0.0000001
 44
0.0000000001
 40
0.0
 40
0.0
 40
0.0
 40
0.0
 40
0.500442829
 40
1.0
 40
1.0
 40
1.0
 40
1.0
 10
399.8706756626
 20
381.2278271053
 30
0.0
 10
399.8663843066
 20
383.0390958245
 30
0.0
 10
398.1575433478
 20
386.8474994068
 30
0.0
 10
394.1110331342
 20
387.8606883957
 30
0.0
 10
392.3298888073
 20
387.5498252804
 30
0.0
  0
SPLINE
  5
5C1
100
AcDbEntity
  8
02___PRT_ALL_AXES
100
AcDbSpline
 62
3
  6
CONTINUOUS
 70
0
 71
3
 72
9
 73
5
 74
0
 42
0.0000001
 43
0.0000001
 44
0.0000000001
 40
0.0
 40
0.0
 40
0.0
 40
0.0
 40
0.5000021587
 40
1.0
 40
1.0
 40
1.0
 40
1.0
 10
171.389460992
 20
341.2273450261
 30
0.0
 10
173.5458091716
 20
337.1809004032
 30
0.0
 10
178.8357423274
 20
329.5681643244
 30
0.0
 10
185.7988872036
 20
323.4507388812
 30
0.0
 10
189.5711175293
 20
320.8443108935
 30
0.0
  0
SPLINE
  5
5C2
100
AcDbEntity
  8
02___PRT_ALL_AXES
100
AcDbSpline
 62
3
  6
CONTINUOUS
 70
0
 71
3
 72
9
 73
5
 74
0
 42
0.0000001
 43
0.0000001
 44
0.0000000001
 40
0.0
 40
0.0
 40
0.0
 40
0.0
 40
0.5001629863
 40
1.0
 40
1.0
 40
1.0
 40
1.0
 10
189.5711175293
 20
320.8443108935
 30
0.0
 10
191.4313271394
 20
319.5648209216
 30
0.0
 10
195.7380819557
 20
317.7781864259
 30
0.0
 10
200.3985680877
 20
317.881030632
 30
0.0
 10
202.5952661445
 20
318.3961517963
 30
0.0
  0
SPLINE
  5
5C3
100
AcDbEntity
  8
02___PRT_ALL_AXES
100
AcDbSpline
 62
3
  6
CONTINUOUS
 70
0
 71
3
 72
9
 73
5
 74
0
 42
0.0000001
 43
0.0000001
 44
0.0000000001
 40
0.0
 40
0.0
 40
0.0
 40
0.0
 40
0.5001484957
 40
1.0
 40
1.0
 40
1.0
 40
1.0
 10
342.2304102429
 20
310.6805647864
 30
0.0
 10
353.1213965458
 20
310.669350159
 30
0.0
 10
375.3598202377
 20
317.1432175976
 30
0.0
 10
390.3958581114
 20
334.7779774751
 30
0.0
 10
394.8265996586
 20
344.719879328
 30
0.0
  0
SPLINE
  5
5C4
100
AcDbEntity
  8
02___PRT_ALL_AXES
100
AcDbSpline
 62
3
  6
CONTINUOUS
 70
0
 71
3
 72
11
 73
7
 74
0
 42
0.0000001
 43
0.0000001
 44
0.0000000001
 40
0.0
 40
0.0
 40
0.0
 40
0.0
 40
0.250079375
 40
0.5002412095
 40
0.7501788246
 40
1.0
 40
1.0
 40
1.0
 40
1.0
 10
394.8265996586
 20
344.719879328
 30
0.0
 10
395.3120663709
 20
345.7986955402
 30
0.0
 10
395.7000860233
 20
348.2794180584
 30
0.0
 10
394.2037072018
 20
351.702904271
 30
0.0
 10
391.1300151869
 20
353.8202180818
 30
0.0
 10
388.6210713716
 20
353.9163766539
 30
0.0
 10
387.4720612438
 20
353.6399537239
 30
0.0
  0
SPLINE
  5
5C5
100
AcDbEntity
  8
02___PRT_ALL_AXES
100
AcDbSpline
 62
3
  6
CONTINUOUS
 70
0
 71
3
 72
11
 73
7
 74
0
 42
0.0000001
 43
0.0000001
 44
0.0000000001
 40
0.0
 40
0.0
 40
0.0
 40
0.0
 40
0.2498575374
 40
0.4999402677
 40
0.7500921229
 40
1.0
 40
1.0
 40
1.0
 40
1.0
 10
994.6053416589
 20
624.201607996
 30
0.0
 10
995.6233095388
 20
624.4461425642
 30
0.0
 10
997.5387702124
 20
625.752284014
 30
0.0
 10
998.3525701551
 20
629.0761715385
 30
0.0
 10
996.7798233288
 20
632.1203984137
 30
0.0
 10
994.6108352711
 20
632.9309253656
 30
0.0
 10
993.5637090018
 20
632.9358276896
 30
0.0
  0
SPLINE
  5
5C6
100
AcDbEntity
  8
02___PRT_ALL_AXES
100
AcDbSpline
 62
3
  6
CONTINUOUS
 70
0
 71
3
 72
11
 73
7
 74
0
 42
0.0000001
 43
0.0000001
 44
0.0000000001
 40
0.0
 40
0.0
 40
0.0
 40
0.0
 40
0.2500740891
 40
0.5000937937
 40
0.7501547152
 40
1.0
 40
1.0
 40
1.0
 40
1.0
 10
872.3422425119
 20
600.6613141866
 30
0.0
 10
872.0826251607
 20
600.0834789463
 30
0.0
 10
871.8673804936
 20
598.757799104
 30
0.0
 10
872.662487767
 20
596.920730453
 30
0.0
 10
874.3063326192
 20
595.7828135425
 30
0.0
 10
875.6504106905
 20
595.7307312665
 30
0.0
 10
876.2658930522
 20
595.8781836525
 30
0.0
  0
SPLINE
  5
5C7
100
AcDbEntity
  8
02___PRT_ALL_AXES
100
AcDbSpline
 62
3
  6
CONTINUOUS
 70
0
 71
3
 72
9
 73
5
 74
0
 42
0.0000001
 43
0.0000001
 44
0.0000000001
 40
0.0
 40
0.0
 40
0.0
 40
0.0
 40
0.5001372675
 40
1.0
 40
1.0
 40
1.0
 40
1.0
 10
922.1351229244
 20
632.9358269385
 30
0.0
 10
911.8210138119
 20
632.9542856876
 30
0.0
 10
890.7645084814
 20
626.7740921122
 30
0.0
 10
876.5451518419
 20
610.0740706044
 30
0.0
 10
872.3422425119
 20
600.6613141866
 30
0.0
  0
SPLINE
  5
5C8
100
AcDbEntity
  8
02___PRT_ALL_AXES
100
AcDbSpline
 62
3
  6
CONTINUOUS
 70
0
 71
3
 72
9
 73
5
 74
0
 42
0.0000001
 43
0.0000001
 44
0.0000000001
 40
0.0
 40
0.0
 40
0.0
 40
0.0
 40
0.5000787569
 40
1.0
 40
1.0
 40
1.0
 40
1.0
 10
1087.9577764935
 20
598.9925251736
 30
0.0
 10
1088.9821356307
 20
599.1694312204
 30
0.0
 10
1090.9771820708
 20
600.5982010726
 30
0.0
 10
1090.9003306534
 20
603.0515911939
 30
0.0
 10
1090.4178078366
 20
603.9719707321
 30
0.0
  0
SPLINE
  5
5C9
100
AcDbEntity
  8
02___PRT_ALL_AXES
100
AcDbSpline
 62
3
  6
CONTINUOUS
 70
0
 71
3
 72
9
 73
5
 74
0
 42
0.0000001
 43
0.0000001
 44
0.0000000001
 40
0.0
 40
0.0
 40
0.0
 40
0.0
 40
0.5000462479
 40
1.0
 40
1.0
 40
1.0
 40
1.0
 10
867.5642550693
 20
565.3841027638
 30
0.0
 10
867.5633444446
 20
564.4182698857
 30
0.0
 10
868.4773534854
 20
562.3847041481
 30
0.0
 10
870.6338352954
 20
561.8438383766
 30
0.0
 10
871.5858001968
 20
562.0058622473
 30
0.0
  0
SPLINE
  5
5CA
100
AcDbEntity
  8
02___PRT_ALL_AXES
100
AcDbSpline
 62
3
  6
CONTINUOUS
 70
0
 71
3
 72
9
 73
5
 74
0
 42
0.0000001
 43
0.0000001
 44
0.0000000001
 40
0.0
 40
0.0
 40
0.0
 40
0.0
 40
0.4998986612
 40
1.0
 40
1.0
 40
1.0
 40
1.0
 10
870.2074130911
 20
579.2721647905
 30
0.0
 10
869.4767096441
 20
579.0976736913
 30
0.0
 10
868.0903073602
 20
578.2342979761
 30
0.0
 10
867.563445195
 20
576.6854364233
 30
0.0
 10
867.5640188139
 20
575.9338833167
 30
0.0
  0
SPLINE
  5
5CB
100
AcDbEntity
  8
02___PRT_ALL_AXES
100
AcDbSpline
 62
3
  6
CONTINUOUS
 70
0
 71
3
 72
9
 73
5
 74
0
 42
0.0000001
 43
0.0000001
 44
0.0000000001
 40
0.0
 40
0.0
 40
0.0
 40
0.0
 40
0.5001472847
 40
1.0
 40
1.0
 40
1.0
 40
1.0
 10
1073.1818453172
 20
623.2972244643
 30
0.0
 10
1071.6627912296
 20
624.3380289698
 30
0.0
 10
1068.1571079477
 20
625.8021665701
 30
0.0
 10
1064.3525868377
 20
625.7327432996
 30
0.0
 10
1062.5614089302
 20
625.3102647887
 30
0.0
  0
SPLINE
  5
5CC
100
AcDbEntity
  8
02___PRT_ALL_AXES
100
AcDbSpline
 62
3
  6
CONTINUOUS
 70
0
 71
3
 72
9
 73
5
 74
0
 42
0.0000001
 43
0.0000001
 44
0.0000000001
 40
0.0
 40
0.0
 40
0.0
 40
0.0
 40
0.5000081671
 40
1.0
 40
1.0
 40
1.0
 40
1.0
 10
1090.4178078366
 20
603.9719707321
 30
0.0
 10
1088.3719494616
 20
607.8074947679
 30
0.0
 10
1083.3606536138
 20
615.0268878756
 30
0.0
 10
1076.75884041
 20
620.8272745422
 30
0.0
 10
1073.1818453172
 20
623.2972244643
 30
0.0
  0
SPLINE
  5
5CD
100
AcDbEntity
  8
02___PRT_ALL_AXES
100
AcDbSpline
 62
3
  6
CONTINUOUS
 70
0
 71
3
 72
9
 73
5
 74
0
 42
0.0000001
 43
0.0000001
 44
0.0000000001
 40
0.0
 40
0.0
 40
0.0
 40
0.0
 40
0.5000459563
 40
1.0
 40
1.0
 40
1.0
 40
1.0
 10
1096.8237709924
 20
581.4889113177
 30
0.0
 10
1096.8246840704
 20
582.452461564
 30
0.0
 10
1095.9154202074
 20
584.4815523901
 30
0.0
 10
1093.7677778454
 20
585.0255095871
 30
0.0
 10
1092.8170898799
 20
584.8696858793
 30
0.0
  0
SPLINE
  5
5CE
100
AcDbEntity
  8
02___PRT_ALL_AXES
100
AcDbSpline
 62
3
  6
CONTINUOUS
 70
0
 71
3
 72
9
 73
5
 74
0
 42
0.0000001
 43
0.0000001
 44
0.0000000001
 40
0.0
 40
0.0
 40
0.0
 40
0.0
 40
0.500078405
 40
1.0
 40
1.0
 40
1.0
 40
1.0
 10
1093.7353366887
 20
552.1863939016
 30
0.0
 10
1094.5540304421
 20
552.2719627855
 30
0.0
 10
1096.1917215066
 20
553.0730672498
 30
0.0
 10
1096.8191902751
 20
554.7819573419
 30
0.0
 10
1096.8242766388
 20
555.6048368907
 30
0.0
  0
SPLINE
  5
5CF
100
AcDbEntity
  8
02___PRT_ALL_AXES
100
AcDbSpline
 62
3
  6
CONTINUOUS
 70
0
 71
3
 72
9
 73
5
 74
0
 42
0.0000001
 43
0.0000001
 44
0.0000000001
 40
0.0
 40
0.0
 40
0.0
 40
0.0
 40
0.4999634458
 40
1.0
 40
1.0
 40
1.0
 40
1.0
 10
867.5641965417
 20
532.78865619
 30
0.0
 10
867.5631517632
 20
531.8578201276
 30
0.0
 10
868.4045230653
 20
529.9050477597
 30
0.0
 10
870.432236997
 20
529.283759765
 30
0.0
 10
871.3583766085
 20
529.3784999624
 30
0.0
  0
SPLINE
  5
5D0
100
AcDbEntity
  8
02___PRT_ALL_AXES
100
AcDbSpline
 62
3
  6
CONTINUOUS
 70
0
 71
3
 72
9
 73
5
 74
0
 42
0.0000001
 43
0.0000001
 44
0.0000000001
 40
0.0
 40
0.0
 40
0.0
 40
0.0
 40
0.5001024675
 40
1.0
 40
1.0
 40
1.0
 40
1.0
 10
870.4256394889
 20
546.8540533453
 30
0.0
 10
869.6502756891
 20
546.7221221088
 30
0.0
 10
868.1438803522
 20
545.8831184656
 30
0.0
 10
867.5643325904
 20
544.2576183372
 30
0.0
 10
867.5645688294
 20
543.4714326478
 30
0.0
  0
SPLINE
  5
5D1
100
AcDbEntity
  8
02___PRT_ALL_AXES
100
AcDbSpline
 62
3
  6
CONTINUOUS
 70
0
 71
3
 72
9
 73
5
 74
0
 42
0.0000001
 43
0.0000001
 44
0.0000000001
 40
0.0
 40
0.0
 40
0.0
 40
0.0
 40
0.4999537975
 40
1.0
 40
1.0
 40
1.0
 40
1.0
 10
1093.5156367145
 20
504.4886190558
 30
0.0
 10
1094.3711647077
 20
504.5239242103
 30
0.0
 10
1096.1269318363
 20
505.2769839502
 30
0.0
 10
1096.8227752704
 20
507.0606640432
 30
0.0
 10
1096.8233133728
 20
507.9170782874
 30
0.0
  0
SPLINE
  5
5D2
100
AcDbEntity
  8
02___PRT_ALL_AXES
100
AcDbSpline
 62
3
  6
CONTINUOUS
 70
0
 71
3
 72
9
 73
5
 74
0
 42
0.0000001
 43
0.0000001
 44
0.0000000001
 40
0.0
 40
0.0
 40
0.0
 40
0.0
 40
0.4999686225
 40
1.0
 40
1.0
 40
1.0
 40
1.0
 10
867.564135724
 20
500.3124909412
 30
0.0
 10
867.5630661552
 20
499.4172422341
 30
0.0
 10
868.3345624793
 20
497.5462347588
 30
0.0
 10
870.2312939493
 20
496.8547730569
 30
0.0
 10
871.1261262439
 20
496.885558874
 30
0.0
  0
SPLINE
  5
5D3
100
AcDbEntity
  8
02___PRT_ALL_AXES
100
AcDbSpline
 62
3
  6
CONTINUOUS
 70
0
 71
3
 72
9
 73
5
 74
0
 42
0.0000001
 43
0.0000001
 44
0.0000000001
 40
0.0
 40
0.0
 40
0.0
 40
0.0
 40
0.5000797789
 40
1.0
 40
1.0
 40
1.0
 40
1.0
 10
870.6681737242
 20
514.490691152
 30
0.0
 10
869.8467137629
 20
514.4084387051
 30
0.0
 10
868.2004593495
 20
513.6103454844
 30
0.0
 10
867.5688446202
 20
511.8960305654
 30
0.0
 10
867.5637477313
 20
511.0707420708
 30
0.0
  0
SPLINE
  5
5D4
100
AcDbEntity
  8
02___PRT_ALL_AXES
100
AcDbSpline
 62
3
  6
CONTINUOUS
 70
0
 71
3
 72
9
 73
5
 74
0
 42
0.0000001
 43
0.0000001
 44
0.0000000001
 40
0.0
 40
0.0
 40
0.0
 40
0.0
 40
0.4999635308
 40
1.0
 40
1.0
 40
1.0
 40
1.0
 10
1096.8238293155
 20
533.8868494276
 30
0.0
 10
1096.8248738564
 20
534.8153642213
 30
0.0
 10
1095.9881165775
 20
536.7636057081
 30
0.0
 10
1093.9691888334
 20
537.3873497015
 30
0.0
 10
1093.0447933407
 20
537.2985501763
 30
0.0
  0
SPLINE
  5
5D5
100
AcDbEntity
  8
02___PRT_ALL_AXES
100
AcDbSpline
 62
3
  6
CONTINUOUS
 70
0
 71
3
 72
9
 73
5
 74
0
 42
0.0000001
 43
0.0000001
 44
0.0000000001
 40
0.0
 40
0.0
 40
0.0
 40
0.0
 40
0.4999689224
 40
1.0
 40
1.0
 40
1.0
 40
1.0
 10
1096.8238899209
 20
486.3047141722
 30
0.0
 10
1096.8249585077
 20
487.1976091864
 30
0.0
 10
1096.0579287858
 20
489.0640395326
 30
0.0
 10
1094.1698660067
 20
489.7573288539
 30
0.0
 10
1093.2772141167
 20
489.7321595788
 30
0.0
  0
SPLINE
  5
5D6
100
AcDbEntity
  8
02___PRT_ALL_AXES
100
AcDbSpline
 62
3
  6
CONTINUOUS
 70
0
 71
3
 72
9
 73
5
 74
0
 42
0.0000001
 43
0.0000001
 44
0.0000000001
 40
0.0
 40
0.0
 40
0.0
 40
0.0
 40
0.5000357508
 40
1.0
 40
1.0
 40
1.0
 40
1.0
 10
1093.2778921658
 20
456.8791695973
 30
0.0
 10
1094.1703965496
 20
456.8521472906
 30
0.0
 10
1096.0582270273
 20
457.5486539882
 30
0.0
 10
1096.8248882502
 20
459.413853057
 30
0.0
 10
1096.8238899209
 20
460.3066381851
 30
0.0
  0
SPLINE
  5
5D7
100
AcDbEntity
  8
02___PRT_ALL_AXES
100
AcDbSpline
 62
3
  6
CONTINUOUS
 70
0
 71
3
 72
9
 73
5
 74
0
 42
0.0000001
 43
0.0000001
 44
0.0000000001
 40
0.0
 40
0.0
 40
0.0
 40
0.0
 40
0.5000882804
 40
1.0
 40
1.0
 40
1.0
 40
1.0
 10
867.5647143235
 20
467.9112292311
 30
0.0
 10
867.5649325414
 20
467.0523096002
 30
0.0
 10
868.2654908976
 20
465.2624046757
 30
0.0
 10
870.0300323033
 20
464.5149577202
 30
0.0
 10
870.8880252039
 20
464.4822419668
 30
0.0
  0
SPLINE
  5
5D8
100
AcDbEntity
  8
02___PRT_ALL_AXES
100
AcDbSpline
 62
3
  6
CONTINUOUS
 70
0
 71
3
 72
9
 73
5
 74
0
 42
0.0000001
 43
0.0000001
 44
0.0000000001
 40
0.0
 40
0.0
 40
0.0
 40
0.0
 40
0.5000738662
 40
1.0
 40
1.0
 40
1.0
 40
1.0
 10
870.9026335484
 20
482.1296090873
 30
0.0
 10
870.0413636096
 20
482.1019087287
 30
0.0
 10
868.26461564
 20
481.3539908663
 30
0.0
 10
867.5698060759
 20
479.5583447164
 30
0.0
 10
867.5637478961
 20
478.6969053114
 30
0.0
  0
SPLINE
  5
5D9
100
AcDbEntity
  8
02___PRT_ALL_AXES
100
AcDbSpline
 62
3
  6
CONTINUOUS
 70
0
 71
3
 72
9
 73
5
 74
0
 42
0.0000001
 43
0.0000001
 44
0.0000000001
 40
0.0
 40
0.0
 40
0.0
 40
0.0
 40
0.5000826811
 40
1.0
 40
1.0
 40
1.0
 40
1.0
 10
1096.8233133728
 20
438.6942740699
 30
0.0
 10
1096.8231012037
 20
439.5508479528
 30
0.0
 10
1096.1267867329
 20
441.3362561895
 30
0.0
 10
1094.3705615074
 20
442.0848141561
 30
0.0
 10
1093.5151116367
 20
442.1227512529
 30
0.0
  0
SPLINE
  5
5DA
100
AcDbEntity
  8
02___PRT_ALL_AXES
100
AcDbSpline
 62
3
  6
CONTINUOUS
 70
0
 71
3
 72
9
 73
5
 74
0
 42
0.0000001
 43
0.0000001
 44
0.0000000001
 40
0.0
 40
0.0
 40
0.0
 40
0.0
 40
0.4999340489
 40
1.0
 40
1.0
 40
1.0
 40
1.0
 10
1093.0427309973
 20
409.3130138479
 30
0.0
 10
1093.9679420075
 20
409.2192252922
 30
0.0
 10
1095.9944525449
 20
409.8506783085
 30
0.0
 10
1096.8211609746
 20
411.8018263031
 30
0.0
 10
1096.8242764686
 20
412.7320189729
 30
0.0
  0
SPLINE
  5
5DB
100
AcDbEntity
  8
02___PRT_ALL_AXES
100
AcDbSpline
 62
3
  6
CONTINUOUS
 70
0
 71
3
 72
9
 73
5
 74
0
 42
0.0000001
 43
0.0000001
 44
0.0000000001
 40
0.0
 40
0.0
 40
0.0
 40
0.0
 40
0.5000964696
 40
1.0
 40
1.0
 40
1.0
 40
1.0
 10
867.5646520053
 20
435.5355397054
 30
0.0
 10
867.5645275969
 20
434.7129497234
 30
0.0
 10
868.2028548771
 20
433.0063021556
 30
0.0
 10
869.8366197089
 20
432.2066042944
 30
0.0
 10
870.6545344101
 20
432.1220594874
 30
0.0
  0
SPLINE
  5
5DC
100
AcDbEntity
  8
02___PRT_ALL_AXES
100
AcDbSpline
 62
3
  6
CONTINUOUS
 70
0
 71
3
 72
9
 73
5
 74
0
 42
0.0000001
 43
0.0000001
 44
0.0000000001
 40
0.0
 40
0.0
 40
0.0
 40
0.0
 40
0.5000336898
 40
1.0
 40
1.0
 40
1.0
 40
1.0
 10
871.1253594087
 20
449.7258196999
 30
0.0
 10
870.2306457773
 20
449.7568216073
 30
0.0
 10
868.3342642938
 20
449.0645451958
 30
0.0
 10
867.563133042
 20
447.193990799
 30
0.0
 10
867.564135724
 20
446.2988614162
 30
0.0
  0
SPLINE
  5
5DD
100
AcDbEntity
  8
02___PRT_ALL_AXES
100
AcDbSpline
 62
3
  6
CONTINUOUS
 70
0
 71
3
 72
9
 73
5
 74
0
 42
0.0000001
 43
0.0000001
 44
0.0000000001
 40
0.0
 40
0.0
 40
0.0
 40
0.0
 40
0.5001537784
 40
1.0
 40
1.0
 40
1.0
 40
1.0
 10
1096.8242766772
 20
391.0059991942
 30
0.0
 10
1096.8218432686
 20
391.8268386644
 30
0.0
 10
1096.1944940343
 20
393.5289842414
 30
0.0
 10
1094.5672781847
 20
394.3371944236
 30
0.0
 10
1093.7514717932
 20
394.4233041919
 30
0.0
  0
SPLINE
  5
5DE
100
AcDbEntity
  8
02___PRT_ALL_AXES
100
AcDbSpline
 62
3
  6
CONTINUOUS
 70
0
 71
3
 72
9
 73
5
 74
0
 42
0.0000001
 43
0.0000001
 44
0.0000000001
 40
0.0
 40
0.0
 40
0.0
 40
0.0
 40
0.4999963528
 40
1.0
 40
1.0
 40
1.0
 40
1.0
 10
1092.8177601315
 20
361.7415519075
 30
0.0
 10
1093.7683184604
 20
361.5833239526
 30
0.0
 10
1095.918420766
 20
362.1321062434
 30
0.0
 10
1096.8223005196
 20
364.1606304279
 30
0.0
 10
1096.8239954632
 20
365.1242804911
 30
0.0
  0
SPLINE
  5
5DF
100
AcDbEntity
  8
02___PRT_ALL_AXES
100
AcDbSpline
 62
3
  6
CONTINUOUS
 70
0
 71
3
 72
9
 73
5
 74
0
 42
0.0000001
 43
0.0000001
 44
0.0000000001
 40
0.0
 40
0.0
 40
0.0
 40
0.0
 40
0.5000264292
 40
1.0
 40
1.0
 40
1.0
 40
1.0
 10
867.563846928
 20
403.1416256841
 30
0.0
 10
867.5656356514
 20
402.3559170491
 30
0.0
 10
868.1408564632
 20
400.7340664355
 30
0.0
 10
869.6443031166
 20
399.8870763823
 30
0.0
 10
870.4193178871
 20
399.7583796401
 30
0.0
  0
SPLINE
  5
5E0
100
AcDbEntity
  8
02___PRT_ALL_AXES
100
AcDbSpline
 62
3
  6
CONTINUOUS
 70
0
 71
3
 72
9
 73
5
 74
0
 42
0.0000001
 43
0.0000001
 44
0.0000000001
 40
0.0
 40
0.0
 40
0.0
 40
0.0
 40
0.4999100779
 40
1.0
 40
1.0
 40
1.0
 40
1.0
 10
871.3593691752
 20
417.2327506097
 30
0.0
 10
870.4328793816
 20
417.325702506
 30
0.0
 10
868.400713036
 20
416.7072075609
 30
0.0
 10
867.5703463546
 20
414.7524749408
 30
0.0
 10
867.563747631
 20
413.8210224241
 30
0.0
  0
SPLINE
  5
5E1
100
AcDbEntity
  8
02___PRT_ALL_AXES
100
AcDbSpline
 62
3
  6
CONTINUOUS
 70
0
 71
3
 72
9
 73
5
 74
0
 42
0.0000001
 43
0.0000001
 44
0.0000000001
 40
0.0
 40
0.0
 40
0.0
 40
0.0
 40
0.4999304131
 40
1.0
 40
1.0
 40
1.0
 40
1.0
 10
1062.5199723329
 20
321.3110036184
 30
0.0
 10
1064.3175522463
 20
320.8859069752
 30
0.0
 10
1068.1338467102
 20
320.8011528984
 30
0.0
 10
1071.6571868461
 20
322.2659495948
 30
0.0
 10
1073.1801861879
 20
323.3120727609
 30
0.0
  0
SPLINE
  5
5E2
100
AcDbEntity
  8
02___PRT_ALL_AXES
100
AcDbSpline
 62
3
  6
CONTINUOUS
 70
0
 71
3
 72
9
 73
5
 74
0
 42
0.0000001
 43
0.0000001
 44
0.0000000001
 40
0.0
 40
0.0
 40
0.0
 40
0.0
 40
0.5001477705
 40
1.0
 40
1.0
 40
1.0
 40
1.0
 10
867.5639812155
 20
370.6787823807
 30
0.0
 10
867.5648720804
 20
369.9267567621
 30
0.0
 10
868.0888607123
 20
368.3766582098
 30
0.0
 10
869.4773641666
 20
367.513217943
 30
0.0
 10
870.2084601244
 20
367.3389369774
 30
0.0
  0
SPLINE
  5
5E3
100
AcDbEntity
  8
02___PRT_ALL_AXES
100
AcDbSpline
 62
3
  6
CONTINUOUS
 70
0
 71
3
 72
9
 73
5
 74
0
 42
0.0000001
 43
0.0000001
 44
0.0000000001
 40
0.0
 40
0.0
 40
0.0
 40
0.0
 40
0.4999958936
 40
1.0
 40
1.0
 40
1.0
 40
1.0
 10
871.5850698391
 20
384.6056149551
 30
0.0
 10
870.6329666391
 20
384.7683171951
 30
0.0
 10
868.4744829741
 20
384.2251748696
 30
0.0
 10
867.5657308758
 20
382.191356083
 30
0.0
 10
867.5640298276
 20
381.2254366875
 30
0.0
  0
SPLINE
  5
5E4
100
AcDbEntity
  8
02___PRT_ALL_AXES
100
AcDbSpline
 62
3
  6
CONTINUOUS
 70
0
 71
3
 72
9
 73
5
 74
0
 42
0.0000001
 43
0.0000001
 44
0.0000000001
 40
0.0
 40
0.0
 40
0.0
 40
0.0
 40
0.499994689
 40
1.0
 40
1.0
 40
1.0
 40
1.0
 10
1073.1801861879
 20
323.3120727609
 30
0.0
 10
1076.7569244016
 20
325.7824622472
 30
0.0
 10
1083.3587043426
 20
331.5827325474
 30
0.0
 10
1088.3705479936
 20
338.8017714021
 30
0.0
 10
1090.416689475
 20
342.6371316672
 30
0.0
  0
SPLINE
  5
5E5
100
AcDbEntity
  8
02___PRT_ALL_AXES
100
AcDbSpline
 62
3
  6
CONTINUOUS
 70
0
 71
3
 72
11
 73
7
 74
0
 42
0.0000001
 43
0.0000001
 44
0.0000000001
 40
0.0
 40
0.0
 40
0.0
 40
0.0
 40
0.2498963258
 40
0.5000494124
 40
0.7501555307
 40
1.0
 40
1.0
 40
1.0
 40
1.0
 10
993.5550007687
 20
313.6755241575
 30
0.0
 10
994.6035972541
 20
313.6774743642
 30
0.0
 10
996.7775516719
 20
314.4875780123
 30
0.0
 10
998.3539230263
 20
317.535080597
 30
0.0
 10
997.5360970701
 20
320.8680355646
 30
0.0
 10
995.6127687901
 20
322.1627364878
 30
0.0
 10
994.5945328363
 20
322.4123314362
 30
0.0
  0
SPLINE
  5
5E6
100
AcDbEntity
  8
02___PRT_ALL_AXES
100
AcDbSpline
 62
3
  6
CONTINUOUS
 70
0
 71
3
 72
9
 73
5
 74
0
 42
0.0000001
 43
0.0000001
 44
0.0000000001
 40
0.0
 40
0.0
 40
0.0
 40
0.0
 40
0.5001803131
 40
1.0
 40
1.0
 40
1.0
 40
1.0
 10
872.3389973552
 20
345.9608593646
 30
0.0
 10
876.5417394843
 20
336.5266992779
 30
0.0
 10
890.7966864017
 20
319.7997522776
 30
0.0
 10
911.8836254967
 20
313.6626213848
 30
0.0
 10
922.2041186277
 20
313.6717633155
 30
0.0
  0
SPLINE
  5
5E7
100
AcDbEntity
  8
02___PRT_ALL_AXES
100
AcDbSpline
 62
3
  6
CONTINUOUS
 70
0
 71
3
 72
11
 73
7
 74
0
 42
0.0000001
 43
0.0000001
 44
0.0000000001
 40
0.0
 40
0.0
 40
0.0
 40
0.0
 40
0.2499290535
 40
0.4998770784
 40
0.7499106662
 40
1.0
 40
1.0
 40
1.0
 40
1.0
 10
876.2659077935
 20
350.7331651766
 30
0.0
 10
875.6511029743
 20
350.880392049
 30
0.0
 10
874.3093546072
 20
350.8287015021
 30
0.0
 10
872.6664386853
 20
349.6949819819
 30
0.0
 10
871.8695541997
 20
347.8631136964
 30
0.0
 10
872.0791243749
 20
346.537608464
 30
0.0
 10
872.3389973552
 20
345.9608593646
 30
0.0
  0
SPLINE
  5
5E8
100
AcDbEntity
  8
02___PRT_ALL_AXES
100
AcDbSpline
 62
3
  6
CONTINUOUS
 70
0
 71
3
 72
11
 73
7
 74
0
 42
0.0000001
 43
0.0000001
 44
0.0000000001
 40
0.0
 40
0.0
 40
0.0
 40
0.0
 40
0.2499268289
 40
0.4998725946
 40
0.749903849
 40
1.0
 40
1.0
 40
1.0
 40
1.0
 10
388.1959408417
 20
595.8781871807
 30
0.0
 10
388.8109895082
 20
595.7309019143
 30
0.0
 10
390.1533431547
 20
595.7827761895
 30
0.0
 10
391.7965256782
 20
596.9175104997
 30
0.0
 10
392.5929607887
 20
598.7508282136
 30
0.0
 10
392.3816260076
 20
600.0763598283
 30
0.0
 10
392.1218609084
 20
600.6534577819
 30
0.0
  0
SPLINE
  5
5E9
100
AcDbEntity
  8
02___PRT_ALL_AXES
100
AcDbSpline
 62
3
  6
CONTINUOUS
 70
0
 71
3
 72
11
 73
7
 74
0
 42
0.0000001
 43
0.0000001
 44
0.0000000001
 40
0.0
 40
0.0
 40
0.0
 40
0.0
 40
0.2498203837
 40
0.499789675
 40
0.7500841241
 40
1.0
 40
1.0
 40
1.0
 40
1.0
 10
270.8983363432
 20
632.9358276896
 30
0.0
 10
269.8514131358
 20
632.9321637981
 30
0.0
 10
267.6834491954
 20
632.1200995486
 30
0.0
 10
266.1091781544
 20
629.0777043544
 30
0.0
 10
266.9227342533
 20
625.7514684641
 30
0.0
 10
268.8402486274
 20
624.4459437773
 30
0.0
 10
269.858560615
 20
624.2011164771
 30
0.0
  0
SPLINE
  5
5EA
100
AcDbEntity
  8
02___PRT_ALL_AXES
100
AcDbSpline
 62
3
  6
CONTINUOUS
 70
0
 71
3
 72
9
 73
5
 74
0
 42
0.0000001
 43
0.0000001
 44
0.0000000001
 40
0.0
 40
0.0
 40
0.0
 40
0.0
 40
0.5002118945
 40
1.0
 40
1.0
 40
1.0
 40
1.0
 10
392.1218609084
 20
600.6534577819
 30
0.0
 10
387.9104891624
 20
610.083779883
 30
0.0
 10
373.6668944717
 20
626.80888151
 30
0.0
 10
352.5775751617
 20
632.9579027074
 30
0.0
 10
342.2583886842
 20
632.9390901821
 30
0.0
  0
SPLINE
  5
5EB
100
AcDbEntity
  8
02___PRT_ALL_AXES
100
AcDbSpline
 62
3
  6
CONTINUOUS
 70
0
 71
3
 72
9
 73
5
 74
0
 42
0.0000001
 43
0.0000001
 44
0.0000000001
 40
0.0
 40
0.0
 40
0.0
 40
0.0
 40
0.5000584717
 40
1.0
 40
1.0
 40
1.0
 40
1.0
 10
392.876389981
 20
562.005803864
 30
0.0
 10
393.8284633112
 20
561.8435145014
 30
0.0
 10
395.985024223
 20
562.3852668733
 30
0.0
 10
396.8983221621
 20
564.4185227806
 30
0.0
 10
396.8975935659
 20
565.3841027638
 30
0.0
  0
SPLINE
  5
5EC
100
AcDbEntity
  8
02___PRT_ALL_AXES
100
AcDbSpline
 62
3
  6
CONTINUOUS
 70
0
 71
3
 72
9
 73
5
 74
0
 42
0.0000001
 43
0.0000001
 44
0.0000000001
 40
0.0
 40
0.0
 40
0.0
 40
0.0
 40
0.5000258091
 40
1.0
 40
1.0
 40
1.0
 40
1.0
 10
174.044614009
 20
603.9728671828
 30
0.0
 10
173.5598595682
 20
603.0529344475
 30
0.0
 10
173.4852281997
 20
600.595870075
 30
0.0
 10
175.4815311544
 20
599.1702484341
 30
0.0
 10
176.5059055128
 20
598.9922117769
 30
0.0
  0
SPLINE
  5
5ED
100
AcDbEntity
  8
02___PRT_ALL_AXES
100
AcDbSpline
 62
3
  6
CONTINUOUS
 70
0
 71
3
 72
9
 73
5
 74
0
 42
0.0000001
 43
0.0000001
 44
0.0000000001
 40
0.0
 40
0.0
 40
0.0
 40
0.0
 40
0.4999927661
 40
1.0
 40
1.0
 40
1.0
 40
1.0
 10
191.2793882728
 20
623.2967246133
 30
0.0
 10
187.7023647261
 20
620.8273444867
 30
0.0
 10
181.1011626649
 20
615.0269129325
 30
0.0
 10
176.0908932877
 20
607.8078078811
 30
0.0
 10
174.044614009
 20
603.9728671828
 30
0.0
  0
SPLINE
  5
5EE
100
AcDbEntity
  8
02___PRT_ALL_AXES
100
AcDbSpline
 62
3
  6
CONTINUOUS
 70
0
 71
3
 72
9
 73
5
 74
0
 42
0.0000001
 43
0.0000001
 44
0.0000000001
 40
0.0
 40
0.0
 40
0.0
 40
0.0
 40
0.499961883
 40
1.0
 40
1.0
 40
1.0
 40
1.0
 10
201.9309948996
 20
625.3029516935
 30
0.0
 10
200.1344946718
 20
625.7275166157
 30
0.0
 10
196.3193761894
 20
625.8099121252
 30
0.0
 10
192.8028711985
 20
624.3396567759
 30
0.0
 10
191.2793882728
 20
623.2967246133
 30
0.0
  0
SPLINE
  5
5EF
100
AcDbEntity
  8
02___PRT_ALL_AXES
100
AcDbSpline
 62
3
  6
CONTINUOUS
 70
0
 71
3
 72
9
 73
5
 74
0
 42
0.0000001
 43
0.0000001
 44
0.0000000001
 40
0.0
 40
0.0
 40
0.0
 40
0.0
 40
0.5000001275
 40
1.0
 40
1.0
 40
1.0
 40
1.0
 10
396.8978298213
 20
575.9338833166
 30
0.0
 10
396.8985361436
 20
576.6851806131
 30
0.0
 10
396.3716300096
 20
578.2336364641
 30
0.0
 10
394.9857943109
 20
579.0975858772
 30
0.0
 10
394.2550281019
 20
579.2720229675
 30
0.0
  0
SPLINE
  5
5F0
100
AcDbEntity
  8
02___PRT_ALL_AXES
100
AcDbSpline
 62
3
  6
CONTINUOUS
 70
0
 71
3
 72
9
 73
5
 74
0
 42
0.0000001
 43
0.0000001
 44
0.0000000001
 40
0.0
 40
0.0
 40
0.0
 40
0.0
 40
0.5000223843
 40
1.0
 40
1.0
 40
1.0
 40
1.0
 10
393.1036814204
 20
529.3784784861
 30
0.0
 10
394.0297182603
 20
529.2835710562
 30
0.0
 10
396.0571563093
 20
529.9055168026
 30
0.0
 10
396.898620888
 20
531.8578524797
 30
0.0
 10
396.8976520935
 20
532.7886561899
 30
0.0
  0
SPLINE
  5
5F1
100
AcDbEntity
  8
02___PRT_ALL_AXES
100
AcDbSpline
 62
3
  6
CONTINUOUS
 70
0
 71
3
 72
9
 73
5
 74
0
 42
0.0000001
 43
0.0000001
 44
0.0000000001
 40
0.0
 40
0.0
 40
0.0
 40
0.0
 40
0.4999727429
 40
1.0
 40
1.0
 40
1.0
 40
1.0
 10
167.6375719929
 20
555.6046548715
 30
0.0
 10
167.6411031869
 20
554.7812146092
 30
0.0
 10
168.2720306124
 20
553.0704861685
 30
0.0
 10
169.9108098289
 20
552.2727423289
 30
0.0
 10
170.7297727634
 20
552.1860594588
 30
0.0
  0
SPLINE
  5
5F2
100
AcDbEntity
  8
02___PRT_ALL_AXES
100
AcDbSpline
 62
3
  6
CONTINUOUS
 70
0
 71
3
 72
9
 73
5
 74
0
 42
0.0000001
 43
0.0000001
 44
0.0000000001
 40
0.0
 40
0.0
 40
0.0
 40
0.0
 40
0.5000587245
 40
1.0
 40
1.0
 40
1.0
 40
1.0
 10
171.6444683015
 20
584.8697355296
 30
0.0
 10
170.6939471564
 20
585.0275466211
 30
0.0
 10
168.5457750823
 20
584.480162971
 30
0.0
 10
167.6373532422
 20
582.4522171929
 30
0.0
 10
167.6380776429
 20
581.4889113177
 30
0.0
  0
SPLINE
  5
5F3
100
AcDbEntity
  8
02___PRT_ALL_AXES
100
AcDbSpline
 62
3
  6
CONTINUOUS
 70
0
 71
3
 72
9
 73
5
 74
0
 42
0.0000001
 43
0.0000001
 44
0.0000000001
 40
0.0
 40
0.0
 40
0.0
 40
0.0
 40
0.5002068798
 40
1.0
 40
1.0
 40
1.0
 40
1.0
 10
396.8972798058
 20
543.4714326479
 30
0.0
 10
396.8976156611
 20
544.2581208322
 30
0.0
 10
396.3173333184
 20
545.8836506157
 30
0.0
 10
394.8109957672
 20
546.7223426437
 30
0.0
 10
394.036075598
 20
546.8540761741
 30
0.0
  0
SPLINE
  5
5F4
100
AcDbEntity
  8
02___PRT_ALL_AXES
100
AcDbSpline
 62
3
  6
CONTINUOUS
 70
0
 71
3
 72
9
 73
5
 74
0
 42
0.0000001
 43
0.0000001
 44
0.0000000001
 40
0.0
 40
0.0
 40
0.0
 40
0.0
 40
0.5000336898
 40
1.0
 40
1.0
 40
1.0
 40
1.0
 10
393.3364892265
 20
496.8855326574
 30
0.0
 10
394.2312028579
 20
496.85453075
 30
0.0
 10
396.1275843414
 20
497.5468071615
 30
0.0
 10
396.8987155932
 20
499.4173615583
 30
0.0
 10
396.8977129112
 20
500.3124909412
 30
0.0
  0
SPLINE
  5
5F5
100
AcDbEntity
  8
02___PRT_ALL_AXES
100
AcDbSpline
 62
3
  6
CONTINUOUS
 70
0
 71
3
 72
9
 73
5
 74
0
 42
0.0000001
 43
0.0000001
 44
0.0000000001
 40
0.0
 40
0.0
 40
0.0
 40
0.0
 40
0.5000826811
 40
1.0
 40
1.0
 40
1.0
 40
1.0
 10
167.6385352624
 20
507.9170782874
 30
0.0
 10
167.6387474316
 20
507.0605044046
 30
0.0
 10
168.3350619024
 20
505.2750961678
 30
0.0
 10
170.0912871278
 20
504.5265382012
 30
0.0
 10
170.9467369985
 20
504.4886011044
 30
0.0
  0
SPLINE
  5
5F6
100
AcDbEntity
  8
02___PRT_ALL_AXES
100
AcDbSpline
 62
3
  6
CONTINUOUS
 70
0
 71
3
 72
9
 73
5
 74
0
 42
0.0000001
 43
0.0000001
 44
0.0000000001
 40
0.0
 40
0.0
 40
0.0
 40
0.0
 40
0.5000260915
 40
1.0
 40
1.0
 40
1.0
 40
1.0
 10
171.4168690046
 20
537.298569283
 30
0.0
 10
170.4927290992
 20
537.3892238234
 30
0.0
 10
168.4738241567
 20
536.7622929747
 30
0.0
 10
167.6370543326
 20
534.8153277085
 30
0.0
 10
167.6380193197
 20
533.8868494277
 30
0.0
  0
SPLINE
  5
5F7
100
AcDbEntity
  8
02___PRT_ALL_AXES
100
AcDbSpline
 62
3
  6
CONTINUOUS
 70
0
 71
3
 72
9
 73
5
 74
0
 42
0.0000001
 43
0.0000001
 44
0.0000000001
 40
0.0
 40
0.0
 40
0.0
 40
0.0
 40
0.4999703211
 40
1.0
 40
1.0
 40
1.0
 40
1.0
 10
396.8981009105
 20
511.0709236949
 30
0.0
 10
396.894544621
 20
511.8968184352
 30
0.0
 10
396.2593316564
 20
513.6123645261
 30
0.0
 10
394.6120494642
 20
514.4091707822
 30
0.0
 10
393.790117862
 20
514.4910559776
 30
0.0
  0
SPLINE
  5
5F8
100
AcDbEntity
  8
02___PRT_ALL_AXES
100
AcDbSpline
 62
3
  6
CONTINUOUS
 70
0
 71
3
 72
9
 73
5
 74
0
 42
0.0000001
 43
0.0000001
 44
0.0000000001
 40
0.0
 40
0.0
 40
0.0
 40
0.0
 40
0.4999528204
 40
1.0
 40
1.0
 40
1.0
 40
1.0
 10
393.5743418192
 20
464.4822596895
 30
0.0
 10
394.4323490783
 20
464.513916063
 30
0.0
 10
396.1965491955
 20
465.2635098542
 30
0.0
 10
396.896593081
 20
467.0524763094
 30
0.0
 10
396.8971343118
 20
467.9112292311
 30
0.0
  0
SPLINE
  5
5F9
100
AcDbEntity
  8
02___PRT_ALL_AXES
100
AcDbSpline
 62
3
  6
CONTINUOUS
 70
0
 71
3
 72
9
 73
5
 74
0
 42
0.0000001
 43
0.0000001
 44
0.0000000001
 40
0.0
 40
0.0
 40
0.0
 40
0.0
 40
0.4999689224
 40
1.0
 40
1.0
 40
1.0
 40
1.0
 10
167.6379587143
 20
460.3066381851
 30
0.0
 10
167.6368901275
 20
459.4137431708
 30
0.0
 10
168.4039198496
 20
457.5473128245
 30
0.0
 10
170.2919826288
 20
456.8540235034
 30
0.0
 10
171.1846345189
 20
456.8791927785
 30
0.0
  0
SPLINE
  5
5FA
100
AcDbEntity
  8
02___PRT_ALL_AXES
100
AcDbSpline
 62
3
  6
CONTINUOUS
 70
0
 71
3
 72
9
 73
5
 74
0
 42
0.0000001
 43
0.0000001
 44
0.0000000001
 40
0.0
 40
0.0
 40
0.0
 40
0.0
 40
0.5000357508
 40
1.0
 40
1.0
 40
1.0
 40
1.0
 10
171.1839564692
 20
489.73218276
 30
0.0
 10
170.2914520854
 20
489.7592050667
 30
0.0
 10
168.4036216079
 20
489.0626983689
 30
0.0
 10
167.636960385
 20
487.1974993003
 30
0.0
 10
167.6379587143
 20
486.3047141722
 30
0.0
  0
SPLINE
  5
5FB
100
AcDbEntity
  8
02___PRT_ALL_AXES
100
AcDbSpline
 62
3
  6
CONTINUOUS
 70
0
 71
3
 72
9
 73
5
 74
0
 42
0.0000001
 43
0.0000001
 44
0.0000000001
 40
0.0
 40
0.0
 40
0.0
 40
0.0
 40
0.4999630561
 40
1.0
 40
1.0
 40
1.0
 40
1.0
 10
396.8981007857
 20
478.6974241467
 30
0.0
 10
396.8938831868
 20
479.5594497173
 30
0.0
 10
396.1946407795
 20
481.3563664498
 30
0.0
 10
394.4170145342
 20
482.102287908
 30
0.0
 10
393.5552885157
 20
482.129743329
 30
0.0
  0
SPLINE
  5
5FC
100
AcDbEntity
  8
02___PRT_ALL_AXES
100
AcDbSpline
 62
3
  6
CONTINUOUS
 70
0
 71
3
 72
9
 73
5
 74
0
 42
0.0000001
 43
0.0000001
 44
0.0000000001
 40
0.0
 40
0.0
 40
0.0
 40
0.0
 40
0.4999794885
 40
1.0
 40
1.0
 40
1.0
 40
1.0
 10
393.8073714078
 20
432.1220653523
 30
0.0
 10
394.625392168
 20
432.2064099116
 30
0.0
 10
396.2588892525
 20
433.0069221344
 30
0.0
 10
396.8970638467
 20
434.7131146747
 30
0.0
 10
396.8971966299
 20
435.5355397054
 30
0.0
  0
SPLINE
  5
5FD
100
AcDbEntity
  8
02___PRT_ALL_AXES
100
AcDbSpline
 62
3
  6
CONTINUOUS
 70
0
 71
3
 72
9
 73
5
 74
0
 42
0.0000001
 43
0.0000001
 44
0.0000000001
 40
0.0
 40
0.0
 40
0.0
 40
0.0
 40
0.5000547156
 40
1.0
 40
1.0
 40
1.0
 40
1.0
 10
167.6375721585
 20
412.7317980264
 30
0.0
 10
167.6396505898
 20
411.8018665646
 30
0.0
 10
168.4679427637
 20
409.8513726003
 30
0.0
 10
170.492873302
 20
409.2197731269
 30
0.0
 10
171.4179285906
 20
409.3128918943
 30
0.0
  0
SPLINE
  5
5FE
100
AcDbEntity
  8
02___PRT_ALL_AXES
100
AcDbSpline
 62
3
  6
CONTINUOUS
 70
0
 71
3
 72
9
 73
5
 74
0
 42
0.0000001
 43
0.0000001
 44
0.0000000001
 40
0.0
 40
0.0
 40
0.0
 40
0.0
 40
0.4999537975
 40
1.0
 40
1.0
 40
1.0
 40
1.0
 10
170.9462119207
 20
442.1227333015
 30
0.0
 10
170.0906839275
 20
442.0874281471
 30
0.0
 10
168.3349167989
 20
441.3343684071
 30
0.0
 10
167.6390733648
 20
439.5506883141
 30
0.0
 10
167.6385352624
 20
438.6942740699
 30
0.0
  0
SPLINE
  5
5FF
100
AcDbEntity
  8
02___PRT_ALL_AXES
100
AcDbSpline
 62
3
  6
CONTINUOUS
 70
0
 71
3
 72
9
 73
5
 74
0
 42
0.0000001
 43
0.0000001
 44
0.0000000001
 40
0.0
 40
0.0
 40
0.0
 40
0.0
 40
0.4999686225
 40
1.0
 40
1.0
 40
1.0
 40
1.0
 10
396.8977129112
 20
446.2988614161
 30
0.0
 10
396.89878248
 20
447.1941101233
 30
0.0
 10
396.127286156
 20
449.0651175985
 30
0.0
 10
394.2305546859
 20
449.7565793004
 30
0.0
 10
393.3357223913
 20
449.7257934833
 30
0.0
  0
SPLINE
  5
600
100
AcDbEntity
  8
02___PRT_ALL_AXES
100
AcDbSpline
 62
3
  6
CONTINUOUS
 70
0
 71
3
 72
9
 73
5
 74
0
 42
0.0000001
 43
0.0000001
 44
0.0000000001
 40
0.0
 40
0.0
 40
0.0
 40
0.0
 40
0.5001024675
 40
1.0
 40
1.0
 40
1.0
 40
1.0
 10
394.0362091463
 20
399.757299012
 30
0.0
 10
394.8115729461
 20
399.8892302485
 30
0.0
 10
396.3179682831
 20
400.7282338917
 30
0.0
 10
396.8975160448
 20
402.3537340202
 30
0.0
 10
396.8972798058
 20
403.1399197095
 30
0.0
  0
SPLINE
  5
601
100
AcDbEntity
  8
02___PRT_ALL_AXES
100
AcDbSpline
 62
3
  6
CONTINUOUS
 70
0
 71
3
 72
9
 73
5
 74
0
 42
0.0000001
 43
0.0000001
 44
0.0000000001
 40
0.0
 40
0.0
 40
0.0
 40
0.0
 40
0.5000856079
 40
1.0
 40
1.0
 40
1.0
 40
1.0
 10
167.6375721168
 20
365.1291317374
 30
0.0
 10
167.6400965122
 20
364.1638508687
 30
0.0
 10
168.5413044083
 20
362.1310695588
 30
0.0
 10
170.6972204781
 20
361.5818148595
 30
0.0
 10
171.6487275197
 20
361.7423451019
 30
0.0
  0
SPLINE
  5
602
100
AcDbEntity
  8
02___PRT_ALL_AXES
100
AcDbSpline
 62
3
  6
CONTINUOUS
 70
0
 71
3
 72
9
 73
5
 74
0
 42
0.0000001
 43
0.0000001
 44
0.0000000001
 40
0.0
 40
0.0
 40
0.0
 40
0.0
 40
0.4999757517
 40
1.0
 40
1.0
 40
1.0
 40
1.0
 10
170.7133434383
 20
394.4236084568
 30
0.0
 10
169.8980268539
 20
394.3359608254
 30
0.0
 10
168.272819781
 20
393.5327358089
 30
0.0
 10
167.6386023335
 20
391.8317599596
 30
0.0
 10
167.6384731706
 20
391.0116662593
 30
0.0
  0
SPLINE
  5
603
100
AcDbEntity
  8
02___PRT_ALL_AXES
100
AcDbSpline
 62
3
  6
CONTINUOUS
 70
0
 71
3
 72
9
 73
5
 74
0
 42
0.0000001
 43
0.0000001
 44
0.0000000001
 40
0.0
 40
0.0
 40
0.0
 40
0.0
 40
0.4999634458
 40
1.0
 40
1.0
 40
1.0
 40
1.0
 10
396.8976520935
 20
413.8226961673
 30
0.0
 10
396.898696872
 20
414.7535322298
 30
0.0
 10
396.0573255699
 20
416.7063045976
 30
0.0
 10
394.0296116381
 20
417.3275925923
 30
0.0
 10
393.1034720266
 20
417.2328523949
 30
0.0
  0
SPLINE
  5
604
100
AcDbEntity
  8
02___PRT_ALL_AXES
100
AcDbSpline
 62
3
  6
CONTINUOUS
 70
0
 71
3
 72
9
 73
5
 74
0
 42
0.0000001
 43
0.0000001
 44
0.0000000001
 40
0.0
 40
0.0
 40
0.0
 40
0.0
 40
0.4999370547
 40
1.0
 40
1.0
 40
1.0
 40
1.0
 10
394.2611152616
 20
367.3407862894
 30
0.0
 10
394.9915316759
 20
367.513419274
 30
0.0
 10
396.3749004853
 20
368.3829090688
 30
0.0
 10
396.8964019242
 20
369.9287043272
 30
0.0
 10
396.8980099606
 20
370.6794315967
 30
0.0
  0
SPLINE
  5
605
100
AcDbEntity
  8
02___PRT_ALL_AXES
100
AcDbSpline
 62
3
  6
CONTINUOUS
 70
0
 71
3
 72
9
 73
5
 74
0
 42
0.0000001
 43
0.0000001
 44
0.0000000001
 40
0.0
 40
0.0
 40
0.0
 40
0.0
 40
0.4999829781
 40
1.0
 40
1.0
 40
1.0
 40
1.0
 10
191.2907668288
 20
323.3048878306
 30
0.0
 10
192.8141711422
 20
322.2579268853
 30
0.0
 10
196.3438657057
 20
320.7954531514
 30
0.0
 10
200.1597297229
 20
320.8935267003
 30
0.0
 10
201.9595932123
 20
321.315243038
 30
0.0
  0
SPLINE
  5
606
100
AcDbEntity
  8
02___PRT_ALL_AXES
100
AcDbSpline
 62
3
  6
CONTINUOUS
 70
0
 71
3
 72
9
 73
5
 74
0
 42
0.0000001
 43
0.0000001
 44
0.0000000001
 40
0.0
 40
0.0
 40
0.0
 40
0.0
 40
0.5000026246
 40
1.0
 40
1.0
 40
1.0
 40
1.0
 10
174.0498109526
 20
342.6294676699
 30
0.0
 10
176.094692014
 20
338.792962852
 30
0.0
 10
181.1105576429
 20
331.5748524029
 30
0.0
 10
187.7140707383
 20
325.7761539035
 30
0.0
 10
191.2907668288
 20
323.3048878306
 30
0.0
  0
SPLINE
  5
607
100
AcDbEntity
  8
02___PRT_ALL_AXES
100
AcDbSpline
 62
3
  6
CONTINUOUS
 70
0
 71
3
 72
9
 73
5
 74
0
 42
0.0000001
 43
0.0000001
 44
0.0000000001
 40
0.0
 40
0.0
 40
0.0
 40
0.0
 40
0.5000858049
 40
1.0
 40
1.0
 40
1.0
 40
1.0
 10
396.8981010297
 20
381.2206156086
 30
0.0
 10
396.8955617355
 20
382.1882001433
 30
0.0
 10
395.9895358122
 20
384.2255120804
 30
0.0
 10
393.824665008
 20
384.7715387802
 30
0.0
 10
392.8718926398
 20
384.6047795169
 30
0.0
  0
SPLINE
  5
608
100
AcDbEntity
  8
02___PRT_ALL_AXES
100
AcDbSpline
 62
3
  6
CONTINUOUS
 70
0
 71
3
 72
9
 73
5
 74
0
 42
0.0000001
 43
0.0000001
 44
0.0000000001
 40
0.0
 40
0.0
 40
0.0
 40
0.0
 40
0.5001765322
 40
1.0
 40
1.0
 40
1.0
 40
1.0
 10
342.2577300075
 20
313.6717633155
 30
0.0
 10
352.5846146343
 20
313.6626056823
 30
0.0
 10
373.6689532978
 20
319.805165355
 30
0.0
 10
387.9224420673
 20
336.5280119088
 30
0.0
 10
392.1211678057
 20
345.954826258
 30
0.0
  0
SPLINE
  5
609
100
AcDbEntity
  8
02___PRT_ALL_AXES
100
AcDbSpline
 62
3
  6
CONTINUOUS
 70
0
 71
3
 72
11
 73
7
 74
0
 42
0.0000001
 43
0.0000001
 44
0.0000000001
 40
0.0
 40
0.0
 40
0.0
 40
0.0
 40
0.249921465
 40
0.5000734379
 40
0.7501758462
 40
1.0
 40
1.0
 40
1.0
 40
1.0
 10
269.8675786023
 20
322.4123943357
 30
0.0
 10
268.8486717348
 20
322.1641040562
 30
0.0
 10
266.9255497146
 20
320.8665686919
 30
0.0
 10
266.1078159925
 20
317.5340371872
 30
0.0
 10
267.6850198159
 20
314.4865066425
 30
0.0
 10
269.8584640588
 20
313.6783125615
 30
0.0
 10
270.9067746961
 20
313.6755241614
 30
0.0
  0
SPLINE
  5
60A
100
AcDbEntity
  8
02___PRT_ALL_AXES
100
AcDbSpline
 62
3
  6
CONTINUOUS
 70
0
 71
3
 72
11
 73
7
 74
0
 42
0.0000001
 43
0.0000001
 44
0.0000000001
 40
0.0
 40
0.0
 40
0.0
 40
0.0
 40
0.2500626642
 40
0.5000864369
 40
0.7501510168
 40
1.0
 40
1.0
 40
1.0
 40
1.0
 10
392.1211678057
 20
345.954826258
 30
0.0
 10
392.3806037073
 20
346.5322576438
 30
0.0
 10
392.5935810453
 20
347.8576534633
 30
0.0
 10
391.7975173572
 20
349.6924860208
 30
0.0
 10
390.1541600012
 20
350.8287340696
 30
0.0
 10
388.8110449838
 20
350.8805269483
 30
0.0
 10
388.1959555831
 20
350.7331687048
 30
0.0
  0
SPLINE
  5
60B
100
AcDbEntity
  8
02___PRT_ALL_AXES
100
AcDbSpline
 62
3
  6
CONTINUOUS
 70
0
 71
3
 72
11
 73
7
 74
0
 42
0.0000001
 43
0.0000001
 44
0.0000000001
 40
0.0
 40
0.0
 40
0.0
 40
0.0
 40
0.2499512617
 40
0.5002907905
 40
0.7502857844
 40
1.0
 40
1.0
 40
1.0
 40
1.0
 10
995.0641375011
 20
622.3251245425
 30
0.0
 10
996.5242236395
 20
622.6795673041
 30
0.0
 10
999.2746119405
 20
624.5497949863
 30
0.0
 10
1000.4440852793
 20
629.3211729995
 30
0.0
 10
998.1921650779
 20
633.6870679739
 30
0.0
 10
995.0860311381
 20
634.8574174542
 30
0.0
 10
993.5849923796
 20
634.866584137
 30
0.0
  0
SPLINE
  5
60C
100
AcDbEntity
  8
02___PRT_ALL_AXES
100
AcDbSpline
 62
3
  6
CONTINUOUS
 70
0
 71
3
 72
9
 73
5
 74
0
 42
0.0000001
 43
0.0000001
 44
0.0000000001
 40
0.0
 40
0.0
 40
0.0
 40
0.0
 40
0.5001176826
 40
1.0
 40
1.0
 40
1.0
 40
1.0
 10
922.2232653932
 20
634.8729723719
 30
0.0
 10
911.5238313479
 20
634.8954565388
 30
0.0
 10
889.6677044947
 20
628.5160059348
 30
0.0
 10
874.9245765705
 20
611.1783261351
 30
0.0
 10
870.5623953102
 20
601.4140011259
 30
0.0
  0
SPLINE
  5
60D
100
AcDbEntity
  8
02___PRT_ALL_AXES
100
AcDbSpline
 62
3
  6
CONTINUOUS
 70
0
 71
3
 72
9
 73
5
 74
0
 42
0.0000001
 43
0.0000001
 44
0.0000000001
 40
0.0
 40
0.0
 40
0.0
 40
0.0
 40
0.5001437278
 40
1.0
 40
1.0
 40
1.0
 40
1.0
 10
922.2154844216
 20
634.4271902278
 30
0.0
 10
911.602490795
 20
634.4436735801
 30
0.0
 10
889.9268693406
 20
628.1080140781
 30
0.0
 10
875.3107557922
 20
610.906019062
 30
0.0
 10
870.9864180853
 20
601.2206397727
 30
0.0
  0
SPLINE
  5
60E
100
AcDbEntity
  8
02___PRT_ALL_AXES
100
AcDbSpline
 62
3
  6
CONTINUOUS
 70
0
 71
3
 72
11
 73
7
 74
0
 42
0.0000001
 43
0.0000001
 44
0.0000000001
 40
0.0
 40
0.0
 40
0.0
 40
0.0
 40
0.2500372808
 40
0.5002178544
 40
0.7501687935
 40
1.0
 40
1.0
 40
1.0
 40
1.0
 10
870.5700525927
 20
601.4105706777
 30
0.0
 10
870.1653534127
 20
600.5126671582
 30
0.0
 10
869.8613729723
 20
598.44169822
 30
0.0
 10
871.1204643853
 20
595.6001148591
 30
0.0
 10
873.6870378274
 20
593.8476481941
 30
0.0
 10
875.7756086694
 20
593.772641393
 30
0.0
 10
876.7319901254
 20
594.0044784221
 30
0.0
  0
SPLINE
  5
60F
100
AcDbEntity
  8
02___PRT_ALL_AXES
100
AcDbSpline
 62
3
  6
CONTINUOUS
 70
0
 71
3
 72
11
 73
7
 74
0
 42
0.0000001
 43
0.0000001
 44
0.0000000001
 40
0.0
 40
0.0
 40
0.0
 40
0.0
 40
0.2499520823
 40
0.5000106814
 40
0.7501137278
 40
1.0
 40
1.0
 40
1.0
 40
1.0
 10
870.9936622416
 20
601.2173980977
 30
0.0
 10
870.6267438643
 20
600.3959497759
 30
0.0
 10
870.3505393325
 20
598.5052849046
 30
0.0
 10
871.4988637781
 20
595.9089224232
 30
0.0
 10
873.8385631312
 20
594.3007042487
 30
0.0
 10
875.7470996656
 20
594.2234201503
 30
0.0
 10
876.6222456461
 20
594.431025042
 30
0.0
  0
SPLINE
  5
610
100
AcDbEntity
  8
02___PRT_ALL_AXES
100
AcDbSpline
 62
3
  6
CONTINUOUS
 70
0
 71
3
 72
9
 73
5
 74
0
 42
0.0000001
 43
0.0000001
 44
0.0000000001
 40
0.0
 40
0.0
 40
0.0
 40
0.0
 40
0.499612485
 40
1.0
 40
1.0
 40
1.0
 40
1.0
 10
1088.3154081355
 20
597.0964255173
 30
0.0
 10
1089.9107842801
 20
597.3770681231
 30
0.0
 10
1093.0080736914
 20
599.6257784479
 30
0.0
 10
1092.8772600737
 20
603.44662616
 30
0.0
 10
1092.1229785008
 20
604.8830076959
 30
0.0
  0
SPLINE
  5
611
100
AcDbEntity
  8
02___PRT_ALL_AXES
100
AcDbSpline
 62
3
  6
CONTINUOUS
 70
0
 71
3
 72
9
 73
5
 74
0
 42
0.0000001
 43
0.0000001
 44
0.0000000001
 40
0.0
 40
0.0
 40
0.0
 40
0.0
 40
0.5000144397
 40
1.0
 40
1.0
 40
1.0
 40
1.0
 10
1088.2335706579
 20
597.5302369035
 30
0.0
 10
1089.7047987469
 20
597.7806758212
 30
0.0
 10
1092.5668924967
 20
599.8451900996
 30
0.0
 10
1092.4434297443
 20
603.3668191113
 30
0.0
 10
1091.7454528504
 20
604.6858349293
 30
0.0
  0
SPLINE
  5
612
100
AcDbEntity
  8
02___PRT_ALL_AXES
100
AcDbSpline
 62
3
  6
CONTINUOUS
 70
0
 71
3
 72
9
 73
5
 74
0
 42
0.0000001
 43
0.0000001
 44
0.0000000001
 40
0.0
 40
0.0
 40
0.0
 40
0.0
 40
0.50012848
 40
1.0
 40
1.0
 40
1.0
 40
1.0
 10
1074.3248436778
 20
624.8607742206
 30
0.0
 10
1072.5674529576
 20
626.0668677355
 30
0.0
 10
1068.5094500887
 20
627.7733353223
 30
0.0
 10
1064.1065190101
 20
627.6639692697
 30
0.0
 10
1062.0326628732
 20
627.1765913163
 30
0.0
  0
SPLINE
  5
613
100
AcDbEntity
  8
02___PRT_ALL_AXES
100
AcDbSpline
 62
3
  6
CONTINUOUS
 70
0
 71
3
 72
9
 73
5
 74
0
 42
0.0000001
 43
0.0000001
 44
0.0000000001
 40
0.0
 40
0.0
 40
0.0
 40
0.0
 40
0.5003411106
 40
1.0
 40
1.0
 40
1.0
 40
1.0
 10
869.7741266322
 20
581.1529147229
 30
0.0
 10
868.6290414464
 20
580.8830669404
 30
0.0
 10
866.4582663682
 20
579.5309941562
 30
0.0
 10
865.6346684334
 20
577.1082409323
 30
0.0
 10
865.6353612638
 20
575.9333938375
 30
0.0
  0
SPLINE
  5
614
100
AcDbEntity
  8
02___PRT_ALL_AXES
100
AcDbSpline
 62
3
  6
CONTINUOUS
 70
0
 71
3
 72
9
 73
5
 74
0
 42
0.0000001
 43
0.0000001
 44
0.0000000001
 40
0.0
 40
0.0
 40
0.0
 40
0.0
 40
0.4998958184
 40
1.0
 40
1.0
 40
1.0
 40
1.0
 10
869.871561612
 20
580.7128187794
 30
0.0
 10
868.8280216612
 20
580.46102541
 30
0.0
 10
866.8518905576
 20
579.219653432
 30
0.0
 10
866.1021196761
 20
577.0073285067
 30
0.0
 10
866.1029167499
 20
575.9333938042
 30
0.0
  0
SPLINE
  5
615
100
AcDbEntity
  8
02___PRT_ALL_AXES
100
AcDbSpline
 62
3
  6
CONTINUOUS
 70
0
 71
3
 72
9
 73
5
 74
0
 42
0.0000001
 43
0.0000001
 44
0.0000000001
 40
0.0
 40
0.0
 40
0.0
 40
0.0
 40
0.4999900034
 40
1.0
 40
1.0
 40
1.0
 40
1.0
 10
865.6357888676
 20
565.3846107274
 30
0.0
 10
865.6347341848
 20
563.8744736215
 30
0.0
 10
867.0628247802
 20
560.6952660363
 30
0.0
 10
870.437565801
 20
559.8476481926
 30
0.0
 10
871.9256044732
 20
560.1054048379
 30
0.0
  0
SPLINE
  5
616
100
AcDbEntity
  8
02___PRT_ALL_AXES
100
AcDbSpline
 62
3
  6
CONTINUOUS
 70
0
 71
3
 72
9
 73
5
 74
0
 42
0.0000001
 43
0.0000001
 44
0.0000000001
 40
0.0
 40
0.0
 40
0.0
 40
0.0
 40
0.5000524006
 40
1.0
 40
1.0
 40
1.0
 40
1.0
 10
866.1032171738
 20
565.3846107923
 30
0.0
 10
866.1030938098
 20
564.0039258055
 30
0.0
 10
867.4029522008
 20
561.0990809214
 30
0.0
 10
870.482406864
 20
560.3107152475
 30
0.0
 10
871.8436882211
 20
560.5396369724
 30
0.0
  0
SPLINE
  5
617
100
AcDbEntity
  8
02___PRT_ALL_AXES
100
AcDbSpline
 62
3
  6
CONTINUOUS
 70
0
 71
3
 72
9
 73
5
 74
0
 42
0.0000001
 43
0.0000001
 44
0.0000000001
 40
0.0
 40
0.0
 40
0.0
 40
0.0
 40
0.4999286788
 40
1.0
 40
1.0
 40
1.0
 40
1.0
 10
1093.9696405919
 20
550.2717397693
 30
0.0
 10
1095.2404879834
 20
550.4087055508
 30
0.0
 10
1097.7725101218
 20
551.6713192884
 30
0.0
 10
1098.7501663561
 20
554.3209751392
 30
0.0
 10
1098.7562228252
 20
555.5995323365
 30
0.0
  0
SPLINE
  5
618
100
AcDbEntity
  8
02___PRT_ALL_AXES
100
AcDbSpline
 62
3
  6
CONTINUOUS
 70
0
 71
3
 72
9
 73
5
 74
0
 42
0.0000001
 43
0.0000001
 44
0.0000000001
 40
0.0
 40
0.0
 40
0.0
 40
0.0
 40
0.5000642361
 40
1.0
 40
1.0
 40
1.0
 40
1.0
 10
1093.9168389727
 20
550.7113509209
 30
0.0
 10
1095.0873325198
 20
550.8310801376
 30
0.0
 10
1097.4234849204
 20
551.9842250147
 30
0.0
 10
1098.3286328547
 20
554.423241371
 30
0.0
 10
1098.3329275335
 20
555.599532383
 30
0.0
  0
SPLINE
  5
619
100
AcDbEntity
  8
02___PRT_ALL_AXES
100
AcDbSpline
 62
3
  6
CONTINUOUS
 70
0
 71
3
 72
9
 73
5
 74
0
 42
0.0000001
 43
0.0000001
 44
0.0000000001
 40
0.0
 40
0.0
 40
0.0
 40
0.0
 40
0.4999894825
 40
1.0
 40
1.0
 40
1.0
 40
1.0
 10
1098.7552063887
 20
581.4883959204
 30
0.0
 10
1098.7562501025
 20
582.9902536898
 30
0.0
 10
1097.3458550646
 20
586.1502590855
 30
0.0
 10
1094.0017731265
 20
587.0179438739
 30
0.0
 10
1092.5193456085
 20
586.7767462481
 30
0.0
  0
SPLINE
  5
61A
100
AcDbEntity
  8
02___PRT_ALL_AXES
100
AcDbSpline
 62
3
  6
CONTINUOUS
 70
0
 71
3
 72
9
 73
5
 74
0
 42
0.0000001
 43
0.0000001
 44
0.0000000001
 40
0.0
 40
0.0
 40
0.0
 40
0.0
 40
0.500053785
 40
1.0
 40
1.0
 40
1.0
 40
1.0
 10
1098.332191357
 20
581.4883958543
 30
0.0
 10
1098.3323008045
 20
582.8697476586
 30
0.0
 10
1097.0310370924
 20
585.7761356712
 30
0.0
 10
1093.9491269878
 20
586.5628703926
 30
0.0
 10
1092.5873980315
 20
586.3326396092
 30
0.0
  0
SPLINE
  5
61B
100
AcDbEntity
  8
02___PRT_ALL_AXES
100
AcDbSpline
 62
3
  6
CONTINUOUS
 70
0
 71
3
 72
9
 73
5
 74
0
 42
0.0000001
 43
0.0000001
 44
0.0000000001
 40
0.0
 40
0.0
 40
0.0
 40
0.0
 40
0.5000988496
 40
1.0
 40
1.0
 40
1.0
 40
1.0
 10
870.1873687655
 20
548.3157158988
 30
0.0
 10
869.0793537271
 20
548.1238804586
 30
0.0
 10
866.9294726886
 20
546.9189996852
 30
0.0
 10
866.103228886
 20
544.5953561209
 30
0.0
 10
866.1036161192
 20
543.4713016535
 30
0.0
  0
SPLINE
  5
61C
100
AcDbEntity
  8
02___PRT_ALL_AXES
100
AcDbSpline
 62
3
  6
CONTINUOUS
 70
0
 71
3
 72
9
 73
5
 74
0
 42
0.0000001
 43
0.0000001
 44
0.0000000001
 40
0.0
 40
0.0
 40
0.0
 40
0.0
 40
0.4999738732
 40
1.0
 40
1.0
 40
1.0
 40
1.0
 10
865.6356830402
 20
532.7892757954
 30
0.0
 10
865.6344968266
 20
531.3336898873
 30
0.0
 10
866.9491576442
 20
528.2808986082
 30
0.0
 10
870.1220728738
 20
527.3074708536
 30
0.0
 10
871.5698208349
 20
527.4597878779
 30
0.0
  0
SPLINE
  5
61D
100
AcDbEntity
  8
02___PRT_ALL_AXES
100
AcDbSpline
 62
3
  6
CONTINUOUS
 70
0
 71
3
 72
9
 73
5
 74
0
 42
0.0000001
 43
0.0000001
 44
0.0000000001
 40
0.0
 40
0.0
 40
0.0
 40
0.0
 40
0.4999702335
 40
1.0
 40
1.0
 40
1.0
 40
1.0
 10
866.1031427689
 20
532.7892758654
 30
0.0
 10
866.1026159041
 20
531.4588622499
 30
0.0
 10
867.2990452459
 20
528.6699850376
 30
0.0
 10
870.1930030933
 20
527.76738084
 30
0.0
 10
871.5169600331
 20
527.8998958624
 30
0.0
  0
SPLINE
  5
61E
100
AcDbEntity
  8
02___PRT_ALL_AXES
100
AcDbSpline
 62
3
  6
CONTINUOUS
 70
0
 71
3
 72
9
 73
5
 74
0
 42
0.0000001
 43
0.0000001
 44
0.0000000001
 40
0.0
 40
0.0
 40
0.0
 40
0.0
 40
0.5004040917
 40
1.0
 40
1.0
 40
1.0
 40
1.0
 10
1093.6063871678
 20
502.559629585
 30
0.0
 10
1094.9411049573
 20
502.6192225474
 30
0.0
 10
1097.6731541883
 20
503.8032682088
 30
0.0
 10
1098.7536898265
 20
506.5827277763
 30
0.0
 10
1098.7543896468
 20
507.9166172853
 30
0.0
  0
SPLINE
  5
61F
100
AcDbEntity
  8
02___PRT_ALL_AXES
100
AcDbSpline
 62
3
  6
CONTINUOUS
 70
0
 71
3
 72
9
 73
5
 74
0
 42
0.0000001
 43
0.0000001
 44
0.0000000001
 40
0.0
 40
0.0
 40
0.0
 40
0.0
 40
0.4999453801
 40
1.0
 40
1.0
 40
1.0
 40
1.0
 10
1093.583434351
 20
503.0040162741
 30
0.0
 10
1094.8107400298
 20
503.0504215658
 30
0.0
 10
1097.3309910184
 20
504.1305963867
 30
0.0
 10
1098.3309702367
 20
506.688166232
 30
0.0
 10
1098.3316082367
 20
507.9166171025
 30
0.0
  0
SPLINE
  5
620
100
AcDbEntity
  8
02___PRT_ALL_AXES
100
AcDbSpline
 62
3
  6
CONTINUOUS
 70
0
 71
3
 72
9
 73
5
 74
0
 42
0.0000001
 43
0.0000001
 44
0.0000000001
 40
0.0
 40
0.0
 40
0.0
 40
0.0
 40
0.4999739371
 40
1.0
 40
1.0
 40
1.0
 40
1.0
 10
1098.755310378
 20
533.8862207523
 30
0.0
 10
1098.7564837331
 20
535.3333942955
 30
0.0
 10
1097.4588043498
 20
538.3668201658
 30
0.0
 10
1094.3169763374
 20
539.3579467526
 30
0.0
 10
1092.8761131275
 20
539.2213357425
 30
0.0
  0
SPLINE
  5
621
100
AcDbEntity
  8
02___PRT_ALL_AXES
100
AcDbSpline
 62
3
  6
CONTINUOUS
 70
0
 71
3
 72
9
 73
5
 74
0
 42
0.0000001
 43
0.0000001
 44
0.0000000001
 40
0.0
 40
0.0
 40
0.0
 40
0.0
 40
0.499971016
 40
1.0
 40
1.0
 40
1.0
 40
1.0
 10
1098.3322656871
 20
533.8862206809
 30
0.0
 10
1098.3327895189
 20
535.217310448
 30
0.0
 10
1097.1349989346
 20
538.0077418586
 30
0.0
 10
1094.2385545176
 20
538.9089158344
 30
0.0
 10
1092.9140471863
 20
538.7751569072
 30
0.0
  0
SPLINE
  5
622
100
AcDbEntity
  8
02___PRT_ALL_AXES
100
AcDbSpline
 62
3
  6
CONTINUOUS
 70
0
 71
3
 72
9
 73
5
 74
0
 42
0.0000001
 43
0.0000001
 44
0.0000000001
 40
0.0
 40
0.0
 40
0.0
 40
0.0
 40
0.4999078584
 40
1.0
 40
1.0
 40
1.0
 40
1.0
 10
870.4762814569
 20
516.4093885733
 30
0.0
 10
869.1955968325
 20
516.2846960592
 30
0.0
 10
866.6330465425
 20
515.031945392
 30
0.0
 10
865.6408843545
 20
512.36316452
 30
0.0
 10
865.6347547354
 20
511.0759641938
 30
0.0
  0
SPLINE
  5
623
100
AcDbEntity
  8
02___PRT_ALL_AXES
100
AcDbSpline
 62
3
  6
CONTINUOUS
 70
0
 71
3
 72
9
 73
5
 74
0
 42
0.0000001
 43
0.0000001
 44
0.0000000001
 40
0.0
 40
0.0
 40
0.0
 40
0.0
 40
0.5000654176
 40
1.0
 40
1.0
 40
1.0
 40
1.0
 10
870.5141735542
 20
515.9636943219
 30
0.0
 10
869.3444674095
 20
515.8429997332
 30
0.0
 10
867.0107583598
 20
514.6890416967
 30
0.0
 10
866.106776699
 20
512.2515651496
 30
0.0
 10
866.1024803485
 20
511.0759641482
 30
0.0
  0
SPLINE
  5
624
100
AcDbEntity
  8
02___PRT_ALL_AXES
100
AcDbSpline
 62
3
  6
CONTINUOUS
 70
0
 71
3
 72
9
 73
5
 74
0
 42
0.0000001
 43
0.0000001
 44
0.0000000001
 40
0.0
 40
0.0
 40
0.0
 40
0.0
 40
0.4999808548
 40
1.0
 40
1.0
 40
1.0
 40
1.0
 10
865.6355730602
 20
500.3131973828
 30
0.0
 10
865.6342951911
 20
498.9132823838
 30
0.0
 10
866.8396197575
 20
495.9883468639
 30
0.0
 10
869.8072987108
 20
494.9050498726
 30
0.0
 10
871.2063543168
 20
494.9570809362
 30
0.0
  0
SPLINE
  5
625
100
AcDbEntity
  8
02___PRT_ALL_AXES
100
AcDbSpline
 62
3
  6
CONTINUOUS
 70
0
 71
3
 72
9
 73
5
 74
0
 42
0.0000001
 43
0.0000001
 44
0.0000000001
 40
0.0
 40
0.0
 40
0.0
 40
0.0
 40
0.4999759206
 40
1.0
 40
1.0
 40
1.0
 40
1.0
 10
866.1030654339
 20
500.3131974518
 30
0.0
 10
866.1024803228
 20
499.0338837116
 30
0.0
 10
867.1989737659
 20
496.3621213551
 30
0.0
 10
869.9046278194
 20
495.3603948791
 30
0.0
 10
871.1834126016
 20
495.401245518
 30
0.0
  0
SPLINE
  5
626
100
AcDbEntity
  8
02___PRT_ALL_AXES
100
AcDbSpline
 62
3
  6
CONTINUOUS
 70
0
 71
3
 72
9
 73
5
 74
0
 42
0.0000001
 43
0.0000001
 44
0.0000000001
 40
0.0
 40
0.0
 40
0.0
 40
0.0
 40
0.5004077374
 40
1.0
 40
1.0
 40
1.0
 40
1.0
 10
1093.2400915686
 20
454.9493498791
 30
0.0
 10
1094.6321543165
 20
454.9116274464
 30
0.0
 10
1097.5687853403
 20
456.012027328
 30
0.0
 10
1098.7565662436
 20
458.9170510521
 30
0.0
 10
1098.7554184157
 20
460.3073549707
 30
0.0
  0
SPLINE
  5
627
100
AcDbEntity
  8
02___PRT_ALL_AXES
100
AcDbSpline
 62
3
  6
CONTINUOUS
 70
0
 71
3
 72
9
 73
5
 74
0
 42
0.0000001
 43
0.0000001
 44
0.0000000001
 40
0.0
 40
0.0
 40
0.0
 40
0.0
 40
0.5000240129
 40
1.0
 40
1.0
 40
1.0
 40
1.0
 10
1093.2475542649
 20
455.3955484355
 30
0.0
 10
1094.526970385
 20
455.3528855304
 30
0.0
 10
1097.2350636567
 20
456.3542785748
 30
0.0
 10
1098.3332549562
 20
459.0273510857
 30
0.0
 10
1098.3323429511
 20
460.3073550411
 30
0.0
  0
SPLINE
  5
628
100
AcDbEntity
  8
02___PRT_ALL_AXES
100
AcDbSpline
 62
3
  6
CONTINUOUS
 70
0
 71
3
 72
9
 73
5
 74
0
 42
0.0000001
 43
0.0000001
 44
0.0000000001
 40
0.0
 40
0.0
 40
0.0
 40
0.0
 40
0.4999686649
 40
1.0
 40
1.0
 40
1.0
 40
1.0
 10
1098.7554184387
 20
486.3039973866
 30
0.0
 10
1098.7567820271
 20
487.6953395608
 30
0.0
 10
1097.5673144699
 20
490.6006373866
 30
0.0
 10
1094.6311077532
 20
491.6993416836
 30
0.0
 10
1093.2400915686
 20
491.6620024782
 30
0.0
  0
SPLINE
  5
629
100
AcDbEntity
  8
02___PRT_ALL_AXES
100
AcDbSpline
 62
3
  6
CONTINUOUS
 70
0
 71
3
 72
9
 73
5
 74
0
 42
0.0000001
 43
0.0000001
 44
0.0000000001
 40
0.0
 40
0.0
 40
0.0
 40
0.0
 40
0.4999766108
 40
1.0
 40
1.0
 40
1.0
 40
1.0
 10
1098.3323429444
 20
486.3039973162
 30
0.0
 10
1098.3329259295
 20
487.5839949155
 30
0.0
 10
1097.2351327196
 20
490.2573132267
 30
0.0
 10
1094.5269820542
 20
491.2578196441
 30
0.0
 10
1093.2475542649
 20
491.2158039218
 30
0.0
  0
SPLINE
  5
62A
100
AcDbEntity
  8
02___PRT_ALL_AXES
100
AcDbSpline
 62
3
  6
CONTINUOUS
 70
0
 71
3
 72
9
 73
5
 74
0
 42
0.0000001
 43
0.0000001
 44
0.0000000001
 40
0.0
 40
0.0
 40
0.0
 40
0.0
 40
0.4999887195
 40
1.0
 40
1.0
 40
1.0
 40
1.0
 10
870.8401494888
 20
484.0567414537
 30
0.0
 10
869.4972501434
 20
484.0170747421
 30
0.0
 10
866.7308209862
 20
482.8400205653
 30
0.0
 10
865.6417710415
 20
480.0441049607
 30
0.0
 10
865.6344513939
 20
478.7005792198
 30
0.0
  0
SPLINE
  5
62B
100
AcDbEntity
  8
02___PRT_ALL_AXES
100
AcDbSpline
 62
3
  6
CONTINUOUS
 70
0
 71
3
 72
9
 73
5
 74
0
 42
0.0000001
 43
0.0000001
 44
0.0000000001
 40
0.0
 40
0.0
 40
0.0
 40
0.0
 40
0.5000530841
 40
1.0
 40
1.0
 40
1.0
 40
1.0
 10
870.8476023292
 20
483.6110711535
 30
0.0
 10
869.6206299166
 20
483.5677858462
 30
0.0
 10
867.1004742154
 20
482.481943482
 30
0.0
 10
866.107336411
 20
479.9280435786
 30
0.0
 10
866.1022641611
 20
478.7005790359
 30
0.0
  0
SPLINE
  5
62C
100
AcDbEntity
  8
02___PRT_ALL_AXES
100
AcDbSpline
 62
3
  6
CONTINUOUS
 70
0
 71
3
 72
9
 73
5
 74
0
 42
0.0000001
 43
0.0000001
 44
0.0000000001
 40
0.0
 40
0.0
 40
0.0
 40
0.0
 40
0.5000826122
 40
1.0
 40
1.0
 40
1.0
 40
1.0
 10
865.6366201376
 20
467.910774857
 30
0.0
 10
865.6373346841
 20
466.5670055708
 30
0.0
 10
866.7346248805
 20
463.767810636
 30
0.0
 10
869.4975345865
 20
462.5981324908
 30
0.0
 10
870.8400633266
 20
462.5518724966
 30
0.0
  0
SPLINE
  5
62D
100
AcDbEntity
  8
02___PRT_ALL_AXES
100
AcDbSpline
 62
3
  6
CONTINUOUS
 70
0
 71
3
 72
9
 73
5
 74
0
 42
0.0000001
 43
0.0000001
 44
0.0000000001
 40
0.0
 40
0.0
 40
0.0
 40
0.0
 40
0.5000951937
 40
1.0
 40
1.0
 40
1.0
 40
1.0
 10
866.1038009978
 20
467.9107746867
 30
0.0
 10
866.1046317811
 20
466.6829117558
 30
0.0
 10
867.1031873095
 20
464.1268225433
 30
0.0
 10
869.6210573366
 20
463.0459062331
 30
0.0
 10
870.8475311304
 20
462.9983416533
 30
0.0
  0
SPLINE
  5
62E
100
AcDbEntity
  8
02___PRT_ALL_AXES
100
AcDbSpline
 62
3
  6
CONTINUOUS
 70
0
 71
3
 72
9
 73
5
 74
0
 42
0.0000001
 43
0.0000001
 44
0.0000000001
 40
0.0
 40
0.0
 40
0.0
 40
0.0
 40
0.4999111079
 40
1.0
 40
1.0
 40
1.0
 40
1.0
 10
1092.8761818102
 20
407.3906985654
 30
0.0
 10
1094.3162275669
 20
407.2492752342
 30
0.0
 10
1097.4611382473
 20
408.2465426054
 30
0.0
 10
1098.7520927385
 20
411.2776489275
 30
0.0
 10
1098.7557257003
 20
412.7251324687
 30
0.0
  0
SPLINE
  5
62F
100
AcDbEntity
  8
02___PRT_ALL_AXES
100
AcDbSpline
 62
3
  6
CONTINUOUS
 70
0
 71
3
 72
9
 73
5
 74
0
 42
0.0000001
 43
0.0000001
 44
0.0000000001
 40
0.0
 40
0.0
 40
0.0
 40
0.0
 40
0.499934051
 40
1.0
 40
1.0
 40
1.0
 40
1.0
 10
1092.9140993563
 20
407.8366893731
 30
0.0
 10
1094.2380208784
 20
407.699814342
 30
0.0
 10
1097.1365202471
 20
408.6048656254
 30
0.0
 10
1098.3299020745
 20
411.3938056977
 30
0.0
 10
1098.3325651449
 20
412.7251323878
 30
0.0
  0
SPLINE
  5
630
100
AcDbEntity
  8
02___PRT_ALL_AXES
100
AcDbSpline
 62
3
  6
CONTINUOUS
 70
0
 71
3
 72
9
 73
5
 74
0
 42
0.0000001
 43
0.0000001
 44
0.0000000001
 40
0.0
 40
0.0
 40
0.0
 40
0.0
 40
0.5000568456
 40
1.0
 40
1.0
 40
1.0
 40
1.0
 10
1098.7543897016
 20
438.694735072
 30
0.0
 10
1098.753716951
 20
440.0298619806
 30
0.0
 10
1097.671833565
 20
442.8097049071
 30
0.0
 10
1094.9398727594
 20
443.9919730561
 30
0.0
 10
1093.6063871678
 20
444.0517227723
 30
0.0
  0
SPLINE
  5
631
100
AcDbEntity
  8
02___PRT_ALL_AXES
100
AcDbSpline
 62
3
  6
CONTINUOUS
 70
0
 71
3
 72
9
 73
5
 74
0
 42
0.0000001
 43
0.0000001
 44
0.0000000001
 40
0.0
 40
0.0
 40
0.0
 40
0.0
 40
0.5000916782
 40
1.0
 40
1.0
 40
1.0
 40
1.0
 10
1098.3316081673
 20
438.6947352548
 30
0.0
 10
1098.3307711083
 20
439.923278013
 30
0.0
 10
1097.3309997412
 20
442.4809154723
 30
0.0
 10
1094.8106468272
 20
443.5608497354
 30
0.0
 10
1093.583434351
 20
443.6073360832
 30
0.0
  0
SPLINE
  5
632
100
AcDbEntity
  8
02___PRT_ALL_AXES
100
AcDbSpline
 62
3
  6
CONTINUOUS
 70
0
 71
3
 72
9
 73
5
 74
0
 42
0.0000001
 43
0.0000001
 44
0.0000000001
 40
0.0
 40
0.0
 40
0.0
 40
0.0
 40
0.5004120662
 40
1.0
 40
1.0
 40
1.0
 40
1.0
 10
871.2063543168
 20
451.6542714211
 30
0.0
 10
869.8062284253
 20
451.7067172359
 30
0.0
 10
866.8383675234
 20
450.6213668786
 30
0.0
 10
865.6344046356
 20
447.6969547946
 30
0.0
 10
865.6355730762
 20
446.2981549745
 30
0.0
  0
SPLINE
  5
633
100
AcDbEntity
  8
02___PRT_ALL_AXES
100
AcDbSpline
 62
3
  6
CONTINUOUS
 70
0
 71
3
 72
9
 73
5
 74
0
 42
0.0000001
 43
0.0000001
 44
0.0000000001
 40
0.0
 40
0.0
 40
0.0
 40
0.0
 40
0.5000232983
 40
1.0
 40
1.0
 40
1.0
 40
1.0
 10
871.1834126016
 20
451.2101068393
 30
0.0
 10
869.9046431998
 20
451.2516130023
 30
0.0
 10
867.1990613185
 20
450.2489871226
 30
0.0
 10
866.1021317649
 20
447.5774781608
 30
0.0
 10
866.1030654254
 20
446.2981549055
 30
0.0
  0
SPLINE
  5
634
100
AcDbEntity
  8
02___PRT_ALL_AXES
100
AcDbSpline
 62
3
  6
CONTINUOUS
 70
0
 71
3
 72
9
 73
5
 74
0
 42
0.0000001
 43
0.0000001
 44
0.0000000001
 40
0.0
 40
0.0
 40
0.0
 40
0.0
 40
0.4997934331
 40
1.0
 40
1.0
 40
1.0
 40
1.0
 10
865.636507113
 20
435.5353886329
 30
0.0
 10
865.6366006307
 20
434.2489448786
 30
0.0
 10
866.6356643667
 20
431.578983294
 30
0.0
 10
869.1949323554
 20
430.3277479774
 30
0.0
 10
870.4760668627
 20
430.1998065076
 30
0.0
  0
SPLINE
  5
635
100
AcDbEntity
  8
02___PRT_ALL_AXES
100
AcDbSpline
 62
3
  6
CONTINUOUS
 70
0
 71
3
 72
9
 73
5
 74
0
 42
0.0000001
 43
0.0000001
 44
0.0000000001
 40
0.0
 40
0.0
 40
0.0
 40
0.0
 40
0.5001045458
 40
1.0
 40
1.0
 40
1.0
 40
1.0
 10
866.103721805
 20
435.53538858
 30
0.0
 10
866.1039948776
 20
434.3593860839
 30
0.0
 10
867.0135340513
 20
431.9208492098
 30
0.0
 10
869.3449686019
 20
430.7692532091
 30
0.0
 10
870.5140123195
 20
430.6461169611
 30
0.0
  0
SPLINE
  5
636
100
AcDbEntity
  8
02___PRT_ALL_AXES
100
AcDbSpline
 62
3
  6
CONTINUOUS
 70
0
 71
3
 72
9
 73
5
 74
0
 42
0.0000001
 43
0.0000001
 44
0.0000000001
 40
0.0
 40
0.0
 40
0.0
 40
0.0
 40
0.5002760534
 40
1.0
 40
1.0
 40
1.0
 40
1.0
 10
865.6350527091
 20
403.1400510534
 30
0.0
 10
865.6371561289
 20
401.9083832993
 30
0.0
 10
866.5437470441
 20
399.3652228895
 30
0.0
 10
868.9052717461
 20
398.0509265976
 30
0.0
 10
870.1192500206
 20
397.8511263955
 30
0.0
  0
SPLINE
  5
637
100
AcDbEntity
  8
02___PRT_ALL_AXES
100
AcDbSpline
 62
3
  6
CONTINUOUS
 70
0
 71
3
 72
9
 73
5
 74
0
 42
0.0000001
 43
0.0000001
 44
0.0000000001
 40
0.0
 40
0.0
 40
0.0
 40
0.0
 40
0.5001497872
 40
1.0
 40
1.0
 40
1.0
 40
1.0
 10
871.569842325
 20
419.1517682239
 30
0.0
 10
870.1214128665
 20
419.3015023239
 30
0.0
 10
866.9452629796
 20
418.3300647939
 30
0.0
 10
865.6421094902
 20
415.2773323579
 30
0.0
 10
865.6341308084
 20
413.8220780066
 30
0.0
  0
SPLINE
  5
638
100
AcDbEntity
  8
02___PRT_ALL_AXES
100
AcDbSpline
 62
3
  6
CONTINUOUS
 70
0
 71
3
 72
9
 73
5
 74
0
 42
0.0000001
 43
0.0000001
 44
0.0000000001
 40
0.0
 40
0.0
 40
0.0
 40
0.0
 40
0.4999040444
 40
1.0
 40
1.0
 40
1.0
 40
1.0
 10
871.5169747235
 20
418.7116026407
 30
0.0
 10
870.1930734938
 20
418.8418036543
 30
0.0
 10
867.2973997494
 20
417.942151976
 30
0.0
 10
866.1070812243
 20
415.1528670471
 30
0.0
 10
866.1020386549
 20
413.8220776799
 30
0.0
  0
SPLINE
  5
639
100
AcDbEntity
  8
02___PRT_ALL_AXES
100
AcDbSpline
 62
3
  6
CONTINUOUS
 70
0
 71
3
 72
9
 73
5
 74
0
 42
0.0000001
 43
0.0000001
 44
0.0000000001
 40
0.0
 40
0.0
 40
0.0
 40
0.0
 40
0.5001679674
 40
1.0
 40
1.0
 40
1.0
 40
1.0
 10
1098.7559386234
 20
391.0118195013
 30
0.0
 10
1098.7522794913
 20
392.2907534784
 30
0.0
 10
1097.7705758691
 20
394.9399873134
 30
0.0
 10
1095.2405948606
 20
396.2048547574
 30
0.0
 10
1093.9698593413
 20
396.3416768613
 30
0.0
  0
SPLINE
  5
63A
100
AcDbEntity
  8
02___PRT_ALL_AXES
100
AcDbSpline
 62
3
  6
CONTINUOUS
 70
0
 71
3
 72
9
 73
5
 74
0
 42
0.0000001
 43
0.0000001
 44
0.0000000001
 40
0.0
 40
0.0
 40
0.0
 40
0.0
 40
0.5001468982
 40
1.0
 40
1.0
 40
1.0
 40
1.0
 10
1098.3327189887
 20
391.0118195464
 30
0.0
 10
1098.3297243711
 20
392.1886780049
 30
0.0
 10
1097.4217434379
 20
394.6271711699
 30
0.0
 10
1095.0870822912
 20
395.7820766041
 30
0.0
 10
1093.9169863532
 20
395.9014651021
 30
0.0
  0
SPLINE
  5
63B
100
AcDbEntity
  8
02___PRT_ALL_AXES
100
AcDbSpline
 62
3
  6
CONTINUOUS
 70
0
 71
3
 72
9
 73
5
 74
0
 42
0.0000001
 43
0.0000001
 44
0.0000000001
 40
0.0
 40
0.0
 40
0.0
 40
0.0
 40
0.5003759992
 40
1.0
 40
1.0
 40
1.0
 40
1.0
 10
1092.5193500412
 20
359.8346321855
 30
0.0
 10
1094.002687297
 20
359.5921567609
 30
0.0
 10
1097.3490651148
 20
360.4632728225
 30
0.0
 10
1098.7529678143
 20
363.6221936488
 30
0.0
 10
1098.7556058116
 20
365.1229573497
 30
0.0
  0
SPLINE
  5
63C
100
AcDbEntity
  8
02___PRT_ALL_AXES
100
AcDbSpline
 62
3
  6
CONTINUOUS
 70
0
 71
3
 72
9
 73
5
 74
0
 42
0.0000001
 43
0.0000001
 44
0.0000000001
 40
0.0
 40
0.0
 40
0.0
 40
0.0
 40
0.4999942776
 40
1.0
 40
1.0
 40
1.0
 40
1.0
 10
1092.5874016804
 20
360.2787338545
 30
0.0
 10
1093.9491442714
 20
360.0477277387
 30
0.0
 10
1097.0317694737
 20
360.835929156
 30
0.0
 10
1098.3313818642
 20
363.7417285104
 30
0.0
 10
1098.332477592
 20
365.122957255
 30
0.0
  0
SPLINE
  5
63D
100
AcDbEntity
  8
02___PRT_ALL_AXES
100
AcDbSpline
 62
3
  6
CONTINUOUS
 70
0
 71
3
 72
9
 73
5
 74
0
 42
0.0000001
 43
0.0000001
 44
0.0000000001
 40
0.0
 40
0.0
 40
0.0
 40
0.0
 40
0.5002481806
 40
1.0
 40
1.0
 40
1.0
 40
1.0
 10
865.6352939215
 20
370.6779589812
 30
0.0
 10
865.6363552808
 20
369.5017015417
 30
0.0
 10
866.458251765
 20
367.0783963556
 30
0.0
 10
868.6304198269
 20
365.7282022526
 30
0.0
 10
869.7741508659
 20
365.4585400595
 30
0.0
  0
SPLINE
  5
63E
100
AcDbEntity
  8
02___PRT_ALL_AXES
100
AcDbSpline
 62
3
  6
CONTINUOUS
 70
0
 71
3
 72
9
 73
5
 74
0
 42
0.0000001
 43
0.0000001
 44
0.0000000001
 40
0.0
 40
0.0
 40
0.0
 40
0.0
 40
0.5003801528
 40
1.0
 40
1.0
 40
1.0
 40
1.0
 10
871.9255867003
 20
386.505851407
 30
0.0
 10
870.4366311275
 20
386.7648709242
 30
0.0
 10
867.0595199216
 20
385.9139140199
 30
0.0
 10
865.6380535198
 20
382.7357592405
 30
0.0
 10
865.6353829474
 20
381.2267407409
 30
0.0
  0
SPLINE
  5
63F
100
AcDbEntity
  8
02___PRT_ALL_AXES
100
AcDbSpline
 62
3
  6
CONTINUOUS
 70
0
 71
3
 72
9
 73
5
 74
0
 42
0.0000001
 43
0.0000001
 44
0.0000000001
 40
0.0
 40
0.0
 40
0.0
 40
0.0
 40
0.4999953076
 40
1.0
 40
1.0
 40
1.0
 40
1.0
 10
871.8436848793
 20
386.0716958101
 30
0.0
 10
870.4823900425
 20
386.3013921905
 30
0.0
 10
867.4022110637
 20
385.5115598706
 30
0.0
 10
866.1040356272
 20
382.6073039021
 30
0.0
 10
866.1029307294
 20
381.2267408337
 30
0.0
  0
SPLINE
  5
640
100
AcDbEntity
  8
02___PRT_ALL_AXES
100
AcDbSpline
 62
3
  6
CONTINUOUS
 70
0
 71
3
 72
9
 73
5
 74
0
 42
0.0000001
 43
0.0000001
 44
0.0000000001
 40
0.0
 40
0.0
 40
0.0
 40
0.0
 40
0.5005515261
 40
1.0
 40
1.0
 40
1.0
 40
1.0
 10
1092.1228941325
 20
341.7283872774
 30
0.0
 10
1092.8782830491
 20
343.1649331911
 30
0.0
 10
1093.0069911828
 20
346.986993298
 30
0.0
 10
1089.910568533
 20
349.2354010374
 30
0.0
 10
1088.3156625906
 20
349.5163889967
 30
0.0
  0
SPLINE
  5
641
100
AcDbEntity
  8
02___PRT_ALL_AXES
100
AcDbSpline
 62
3
  6
CONTINUOUS
 70
0
 71
3
 72
9
 73
5
 74
0
 42
0.0000001
 43
0.0000001
 44
0.0000000001
 40
0.0
 40
0.0
 40
0.0
 40
0.0
 40
0.5000336133
 40
1.0
 40
1.0
 40
1.0
 40
1.0
 10
1091.7453902465
 20
341.9255491954
 30
0.0
 10
1092.4442055045
 20
343.2443907745
 30
0.0
 10
1092.5662547376
 20
346.7666434737
 30
0.0
 10
1089.7049360806
 20
348.8317809181
 30
0.0
 10
1088.2337460033
 20
349.082153989
 30
0.0
  0
SPLINE
  5
642
100
AcDbEntity
  8
02___PRT_ALL_AXES
100
AcDbSpline
 62
3
  6
CONTINUOUS
 70
0
 71
3
 72
11
 73
7
 74
0
 42
0.0000001
 43
0.0000001
 44
0.0000000001
 40
0.0
 40
0.0
 40
0.0
 40
0.0
 40
0.249891872
 40
0.500146894
 40
0.7501991095
 40
1.0
 40
1.0
 40
1.0
 40
1.0
 10
993.5849889261
 20
311.745927882
 30
0.0
 10
995.0870461078
 20
311.7527448181
 30
0.0
 10
998.1966967663
 20
312.9268383528
 30
0.0
 10
1000.444446003
 20
317.2952714985
 30
0.0
 10
999.2716241635
 20
322.0661485816
 30
0.0
 10
996.5219233002
 20
323.9264368524
 30
0.0
 10
995.0640084771
 20
324.28569165
 30
0.0
  0
SPLINE
  5
643
100
AcDbEntity
  8
02___PRT_ALL_AXES
100
AcDbSpline
 62
3
  6
CONTINUOUS
 70
0
 71
3
 72
11
 73
7
 74
0
 42
0.0000001
 43
0.0000001
 44
0.0000000001
 40
0.0
 40
0.0
 40
0.0
 40
0.0
 40
0.2498868815
 40
0.5000477084
 40
0.7501538069
 40
1.0
 40
1.0
 40
1.0
 40
1.0
 10
993.577216033
 20
312.191281472
 30
0.0
 10
994.9783039207
 20
312.1907071836
 30
0.0
 10
997.8838120901
 20
313.276779278
 30
0.0
 10
999.9877286252
 20
317.3499655402
 30
0.0
 10
998.8885540554
 20
321.8016115592
 30
0.0
 10
996.316063188
 20
323.5306525748
 30
0.0
 10
994.9542378529
 20
323.8590427873
 30
0.0
  0
SPLINE
  5
644
100
AcDbEntity
  8
02___PRT_ALL_AXES
100
AcDbSpline
 62
3
  6
CONTINUOUS
 70
0
 71
3
 72
11
 73
7
 74
0
 42
0.0000001
 43
0.0000001
 44
0.0000000001
 40
0.0
 40
0.0
 40
0.0
 40
0.0
 40
0.2500581267
 40
0.4999703307
 40
0.7500504253
 40
1.0
 40
1.0
 40
1.0
 40
1.0
 10
876.7319901254
 20
352.6068739352
 30
0.0
 10
875.7747733035
 20
352.8390647014
 30
0.0
 10
873.6850426237
 20
352.763586226
 30
0.0
 10
871.1194670589
 20
351.009277801
 30
0.0
 10
869.8612717019
 20
348.1684777871
 30
0.0
 10
870.165599605
 20
346.0984255716
 30
0.0
 10
870.570049661
 20
345.2007872201
 30
0.0
  0
SPLINE
  5
645
100
AcDbEntity
  8
02___PRT_ALL_AXES
100
AcDbSpline
 62
3
  6
CONTINUOUS
 70
0
 71
3
 72
9
 73
5
 74
0
 42
0.0000001
 43
0.0000001
 44
0.0000000001
 40
0.0
 40
0.0
 40
0.0
 40
0.0
 40
0.5001565087
 40
1.0
 40
1.0
 40
1.0
 40
1.0
 10
870.5633222761
 20
345.197775083
 30
0.0
 10
874.9186447766
 20
335.4240714291
 30
0.0
 10
889.6784500716
 20
318.0874170251
 30
0.0
 10
911.5297404846
 20
311.7268456618
 30
0.0
 10
922.2232290549
 20
311.7392756697
 30
0.0
  0
SPLINE
  5
646
100
AcDbEntity
  8
02___PRT_ALL_AXES
100
AcDbSpline
 62
3
  6
CONTINUOUS
 70
0
 71
3
 72
9
 73
5
 74
0
 42
0.0000001
 43
0.0000001
 44
0.0000000001
 40
0.0
 40
0.0
 40
0.0
 40
0.0
 40
0.5001823602
 40
1.0
 40
1.0
 40
1.0
 40
1.0
 10
870.9873158396
 20
345.3911219365
 30
0.0
 10
875.3055016847
 20
335.6955242409
 30
0.0
 10
889.9386631063
 20
318.4946891613
 30
0.0
 10
911.6094568669
 20
312.1783902551
 30
0.0
 10
922.2154492495
 20
312.1850324465
 30
0.0
  0
SPLINE
  5
647
100
AcDbEntity
  8
02___PRT_ALL_AXES
100
AcDbSpline
 62
3
  6
CONTINUOUS
 70
0
 71
3
 72
11
 73
7
 74
0
 42
0.0000001
 43
0.0000001
 44
0.0000000001
 40
0.0
 40
0.0
 40
0.0
 40
0.0
 40
0.2500581284
 40
0.4999703342
 40
0.7500504305
 40
1.0
 40
1.0
 40
1.0
 40
1.0
 10
387.7298585098
 20
594.0044784221
 30
0.0
 10
388.6870755004
 20
593.772287615
 30
0.0
 10
390.7768066177
 20
593.8477662166
 30
0.0
 10
393.342382288
 20
595.6020753368
 30
0.0
 10
394.6005776268
 20
598.4428763335
 30
0.0
 10
394.2962477922
 20
600.5129284766
 30
0.0
 10
393.8917977122
 20
601.410566978
 30
0.0
  0
SPLINE
  5
648
100
AcDbEntity
  8
02___PRT_ALL_AXES
100
AcDbSpline
 62
3
  6
CONTINUOUS
 70
0
 71
3
 72
9
 73
5
 74
0
 42
0.0000001
 43
0.0000001
 44
0.0000000001
 40
0.0
 40
0.0
 40
0.0
 40
0.0
 40
0.5001837887
 40
1.0
 40
1.0
 40
1.0
 40
1.0
 10
393.8994549846
 20
601.4139974124
 30
0.0
 10
389.5347868559
 20
611.1843215554
 30
0.0
 10
374.7872694687
 20
628.5215711916
 30
0.0
 10
352.9316105214
 20
634.8950760386
 30
0.0
 10
342.238583242
 20
634.8729723719
 30
0.0
  0
SPLINE
  5
649
100
AcDbEntity
  8
02___PRT_ALL_AXES
100
AcDbSpline
 62
3
  6
CONTINUOUS
 70
0
 71
3
 72
9
 73
5
 74
0
 42
0.0000001
 43
0.0000001
 44
0.0000000001
 40
0.0
 40
0.0
 40
0.0
 40
0.0
 40
0.5002121094
 40
1.0
 40
1.0
 40
1.0
 40
1.0
 10
393.4754319359
 20
601.220636669
 30
0.0
 10
389.1482534492
 20
610.9129922662
 30
0.0
 10
374.5261110152
 20
628.1132622061
 30
0.0
 10
352.8517851603
 20
634.4432784526
 30
0.0
 10
342.2463642136
 20
634.4271902278
 30
0.0
  0
SPLINE
  5
64A
100
AcDbEntity
  8
02___PRT_ALL_AXES
100
AcDbSpline
 62
3
  6
CONTINUOUS
 70
0
 71
3
 72
11
 73
7
 74
0
 42
0.0000001
 43
0.0000001
 44
0.0000000001
 40
0.0
 40
0.0
 40
0.0
 40
0.0
 40
0.2504661618
 40
0.5006841992
 40
0.7505196693
 40
1.0
 40
1.0
 40
1.0
 40
1.0
 10
270.8768562556
 20
634.8665841371
 30
0.0
 10
269.3713323391
 20
634.8575366022
 30
0.0
 10
266.2587164428
 20
633.6800384827
 30
0.0
 10
264.0168165734
 20
629.3049374133
 30
0.0
 10
265.1952775158
 20
624.5429135091
 30
0.0
 10
267.9404058585
 20
622.6788720511
 30
0.0
 10
269.3977111341
 20
622.3251245425
 30
0.0
  0
SPLINE
  5
64B
100
AcDbEntity
  8
02___PRT_ALL_AXES
100
AcDbSpline
 62
3
  6
CONTINUOUS
 70
0
 71
3
 72
9
 73
5
 74
0
 42
0.0000001
 43
0.0000001
 44
0.0000000001
 40
0.0
 40
0.0
 40
0.0
 40
0.0
 40
0.5004023962
 40
1.0
 40
1.0
 40
1.0
 40
1.0
 10
392.5362441569
 20
560.1054048102
 30
0.0
 10
394.0253890442
 20
559.8471232283
 30
0.0
 10
397.400600748
 20
560.6968767436
 30
0.0
 10
398.8272355195
 20
563.8756644446
 30
0.0
 10
398.826059746
 20
565.3846107274
 30
0.0
  0
SPLINE
  5
64C
100
AcDbEntity
  8
02___PRT_ALL_AXES
100
AcDbSpline
 62
3
  6
CONTINUOUS
 70
0
 71
3
 72
9
 73
5
 74
0
 42
0.0000001
 43
0.0000001
 44
0.0000000001
 40
0.0
 40
0.0
 40
0.0
 40
0.0
 40
0.500052587
 40
1.0
 40
1.0
 40
1.0
 40
1.0
 10
392.6181604141
 20
560.5396369724
 30
0.0
 10
393.9796093361
 20
560.3100071378
 30
0.0
 10
397.0588932909
 20
561.0998243054
 30
0.0
 10
398.3595563589
 20
564.0042230278
 30
0.0
 10
398.3586313931
 20
565.3846107923
 30
0.0
  0
SPLINE
  5
64D
100
AcDbEntity
  8
02___PRT_ALL_AXES
100
AcDbSpline
 62
3
  6
CONTINUOUS
 70
0
 71
3
 72
9
 73
5
 74
0
 42
0.0000001
 43
0.0000001
 44
0.0000000001
 40
0.0
 40
0.0
 40
0.0
 40
0.0
 40
0.4997252062
 40
1.0
 40
1.0
 40
1.0
 40
1.0
 10
398.8264873772
 20
575.9333938376
 30
0.0
 10
398.8273004359
 20
577.1084056524
 30
0.0
 10
398.0034978081
 20
579.5312530232
 30
0.0
 10
395.8326725382
 20
580.8831366705
 30
0.0
 10
394.6877220031
 20
581.1529147229
 30
0.0
  0
SPLINE
  5
64E
100
AcDbEntity
  8
02___PRT_ALL_AXES
100
AcDbSpline
 62
3
  6
CONTINUOUS
 70
0
 71
3
 72
9
 73
5
 74
0
 42
0.0000001
 43
0.0000001
 44
0.0000000001
 40
0.0
 40
0.0
 40
0.0
 40
0.0
 40
0.5001513978
 40
1.0
 40
1.0
 40
1.0
 40
1.0
 10
202.4291857621
 20
627.1765913163
 30
0.0
 10
200.3542303966
 20
627.6643247322
 30
0.0
 10
195.9511411458
 20
627.7719850773
 30
0.0
 10
191.8935482135
 20
626.0659183281
 30
0.0
 10
190.1370034754
 20
624.8607732027
 30
0.0
  0
SPLINE
  5
64F
100
AcDbEntity
  8
02___PRT_ALL_AXES
100
AcDbSpline
 62
3
  6
CONTINUOUS
 70
0
 71
3
 72
9
 73
5
 74
0
 42
0.0000001
 43
0.0000001
 44
0.0000000001
 40
0.0
 40
0.0
 40
0.0
 40
0.0
 40
0.499977762
 40
1.0
 40
1.0
 40
1.0
 40
1.0
 10
202.3315516937
 20
626.7355922634
 30
0.0
 10
200.3179004517
 20
627.2141638693
 30
0.0
 10
196.0410046343
 20
627.3270951054
 30
0.0
 10
192.096012608
 20
625.6769342599
 30
0.0
 10
190.3881460325
 20
624.5074146815
 30
0.0
  0
SPLINE
  5
650
100
AcDbEntity
  8
02___PRT_ALL_AXES
100
AcDbSpline
 62
3
  6
CONTINUOUS
 70
0
 71
3
 72
9
 73
5
 74
0
 42
0.0000001
 43
0.0000001
 44
0.0000000001
 40
0.0
 40
0.0
 40
0.0
 40
0.0
 40
0.5000092277
 40
1.0
 40
1.0
 40
1.0
 40
1.0
 10
172.3388715814
 20
604.8830104578
 30
0.0
 10
171.5854378943
 20
603.4475777287
 30
0.0
 10
171.452665916
 20
599.6280950955
 30
0.0
 10
174.5498564564
 20
597.377236536
 30
0.0
 10
176.1464404998
 20
597.0964255172
 30
0.0
  0
SPLINE
  5
651
100
AcDbEntity
  8
02___PRT_ALL_AXES
100
AcDbSpline
 62
3
  6
CONTINUOUS
 70
0
 71
3
 72
9
 73
5
 74
0
 42
0.0000001
 43
0.0000001
 44
0.0000000001
 40
0.0
 40
0.0
 40
0.0
 40
0.0
 40
0.5000932612
 40
1.0
 40
1.0
 40
1.0
 40
1.0
 10
172.7163971518
 20
604.68583751
 30
0.0
 10
172.0178121658
 20
603.3667880717
 30
0.0
 10
171.8955602785
 20
599.8445911309
 30
0.0
 10
174.757356037
 20
597.7805156419
 30
0.0
 10
176.2282779773
 20
597.5302369035
 30
0.0
  0
SPLINE
  5
652
100
AcDbEntity
  8
02___PRT_ALL_AXES
100
AcDbSpline
 62
3
  6
CONTINUOUS
 70
0
 71
3
 72
9
 73
5
 74
0
 42
0.0000001
 43
0.0000001
 44
0.0000000001
 40
0.0
 40
0.0
 40
0.0
 40
0.0
 40
0.5004703487
 40
1.0
 40
1.0
 40
1.0
 40
1.0
 10
392.8920278004
 20
527.4597878779
 30
0.0
 10
394.3409953351
 20
527.3068979438
 30
0.0
 10
397.5142648374
 20
528.2828504313
 30
0.0
 10
398.8272545609
 20
531.3350034309
 30
0.0
 10
398.8261655791
 20
532.7892757954
 30
0.0
  0
SPLINE
  5
653
100
AcDbEntity
  8
02___PRT_ALL_AXES
100
AcDbSpline
 62
3
  6
CONTINUOUS
 70
0
 71
3
 72
9
 73
5
 74
0
 42
0.0000001
 43
0.0000001
 44
0.0000000001
 40
0.0
 40
0.0
 40
0.0
 40
0.0
 40
0.5000153087
 40
1.0
 40
1.0
 40
1.0
 40
1.0
 10
392.9448886021
 20
527.8998958624
 30
0.0
 10
394.2686990204
 20
527.7664806284
 30
0.0
 10
397.1623410893
 20
528.6705731547
 30
0.0
 10
398.3598217545
 20
531.4588414961
 30
0.0
 10
398.3587058222
 20
532.7892758654
 30
0.0
  0
SPLINE
  5
654
100
AcDbEntity
  8
02___PRT_ALL_AXES
100
AcDbSpline
 62
3
  6
CONTINUOUS
 70
0
 71
3
 72
9
 73
5
 74
0
 42
0.0000001
 43
0.0000001
 44
0.0000000001
 40
0.0
 40
0.0
 40
0.0
 40
0.0
 40
0.5003971789
 40
1.0
 40
1.0
 40
1.0
 40
1.0
 10
171.9425030268
 20
586.776746248
 30
0.0
 10
170.4589988584
 20
587.0185145122
 30
0.0
 10
167.1144729505
 20
586.1486293031
 30
0.0
 10
165.7054845868
 20
582.989085093
 30
0.0
 10
165.7066422619
 20
581.4883959204
 30
0.0
  0
SPLINE
  5
655
100
AcDbEntity
  8
02___PRT_ALL_AXES
100
AcDbSpline
 62
3
  6
CONTINUOUS
 70
0
 71
3
 72
9
 73
5
 74
0
 42
0.0000001
 43
0.0000001
 44
0.0000000001
 40
0.0
 40
0.0
 40
0.0
 40
0.0
 40
0.5000514484
 40
1.0
 40
1.0
 40
1.0
 40
1.0
 10
171.8744506037
 20
586.3326396092
 30
0.0
 10
170.5125514847
 20
586.5635645164
 30
0.0
 10
167.4308211676
 20
585.7753984737
 30
0.0
 10
166.1287321418
 20
582.8694496116
 30
0.0
 10
166.1296573458
 20
581.4883958543
 30
0.0
  0
SPLINE
  5
656
100
AcDbEntity
  8
02___PRT_ALL_AXES
100
AcDbSpline
 62
3
  6
CONTINUOUS
 70
0
 71
3
 72
9
 73
5
 74
0
 42
0.0000001
 43
0.0000001
 44
0.0000000001
 40
0.0
 40
0.0
 40
0.0
 40
0.0
 40
0.500399076
 40
1.0
 40
1.0
 40
1.0
 40
1.0
 10
165.70562581
 20
555.5995323365
 30
0.0
 10
165.7114981171
 20
554.3201402205
 30
0.0
 10
166.6903573633
 20
551.6703725293
 30
0.0
 10
169.2222003451
 20
550.4086395014
 30
0.0
 10
170.4922080436
 20
550.2717397693
 30
0.0
  0
SPLINE
  5
657
100
AcDbEntity
  8
02___PRT_ALL_AXES
100
AcDbSpline
 62
3
  6
CONTINUOUS
 70
0
 71
3
 72
9
 73
5
 74
0
 42
0.0000001
 43
0.0000001
 44
0.0000000001
 40
0.0
 40
0.0
 40
0.0
 40
0.0
 40
0.4999867115
 40
1.0
 40
1.0
 40
1.0
 40
1.0
 10
166.1289211018
 20
555.599532383
 30
0.0
 10
166.1330936475
 20
554.4231210708
 30
0.0
 10
167.038542206
 20
551.9839928327
 30
0.0
 10
169.3746543723
 20
550.8312534402
 30
0.0
 10
170.5450096626
 20
550.711350921
 30
0.0
  0
SPLINE
  5
658
100
AcDbEntity
  8
02___PRT_ALL_AXES
100
AcDbSpline
 62
3
  6
CONTINUOUS
 70
0
 71
3
 72
9
 73
5
 74
0
 42
0.0000001
 43
0.0000001
 44
0.0000000001
 40
0.0
 40
0.0
 40
0.0
 40
0.0
 40
0.5004120662
 40
1.0
 40
1.0
 40
1.0
 40
1.0
 10
393.2554943184
 20
494.9570809362
 30
0.0
 10
394.6556202099
 20
494.9046351214
 30
0.0
 10
397.6234811118
 20
495.9899854788
 30
0.0
 10
398.8274439996
 20
498.9143975627
 30
0.0
 10
398.826275559
 20
500.3131973828
 30
0.0
  0
SPLINE
  5
659
100
AcDbEntity
  8
02___PRT_ALL_AXES
100
AcDbSpline
 62
3
  6
CONTINUOUS
 70
0
 71
3
 72
9
 73
5
 74
0
 42
0.0000001
 43
0.0000001
 44
0.0000000001
 40
0.0
 40
0.0
 40
0.0
 40
0.0
 40
0.5000232983
 40
1.0
 40
1.0
 40
1.0
 40
1.0
 10
393.2784360337
 20
495.401245518
 30
0.0
 10
394.5572054355
 20
495.359739355
 30
0.0
 10
397.2627873168
 20
496.3623652348
 30
0.0
 10
398.3597168704
 20
499.0338741966
 30
0.0
 10
398.3587832098
 20
500.3131974518
 30
0.0
  0
SPLINE
  5
65A
100
AcDbEntity
  8
02___PRT_ALL_AXES
100
AcDbSpline
 62
3
  6
CONTINUOUS
 70
0
 71
3
 72
9
 73
5
 74
0
 42
0.0000001
 43
0.0000001
 44
0.0000000001
 40
0.0
 40
0.0
 40
0.0
 40
0.0
 40
0.5004059369
 40
1.0
 40
1.0
 40
1.0
 40
1.0
 10
398.8270938998
 20
511.0759641938
 30
0.0
 10
398.8211393775
 20
512.3639743947
 30
0.0
 10
397.8278745664
 20
515.0329283258
 30
0.0
 10
395.2654441982
 20
516.2847223231
 30
0.0
 10
393.9855671788
 20
516.4093885733
 30
0.0
  0
SPLINE
  5
65B
100
AcDbEntity
  8
02___PRT_ALL_AXES
100
AcDbSpline
 62
3
  6
CONTINUOUS
 70
0
 71
3
 72
9
 73
5
 74
0
 42
0.0000001
 43
0.0000001
 44
0.0000000001
 40
0.0
 40
0.0
 40
0.0
 40
0.0
 40
0.499985955
 40
1.0
 40
1.0
 40
1.0
 40
1.0
 10
398.3593682867
 20
511.0759641482
 30
0.0
 10
398.3551908496
 20
512.2516861604
 30
0.0
 10
397.4509103341
 20
514.6892745693
 30
0.0
 10
395.117241302
 20
515.8428229661
 30
0.0
 10
393.947675081
 20
515.963694322
 30
0.0
  0
SPLINE
  5
65C
100
AcDbEntity
  8
02___PRT_ALL_AXES
100
AcDbSpline
 62
3
  6
CONTINUOUS
 70
0
 71
3
 72
9
 73
5
 74
0
 42
0.0000001
 43
0.0000001
 44
0.0000000001
 40
0.0
 40
0.0
 40
0.0
 40
0.0
 40
0.5004660298
 40
1.0
 40
1.0
 40
1.0
 40
1.0
 10
171.5857355078
 20
539.2213357424
 30
0.0
 10
170.1436653186
 20
539.3584921725
 30
0.0
 10
167.0015149305
 20
538.3648978724
 30
0.0
 10
165.7054689594
 20
535.332100582
 30
0.0
 10
165.7065382926
 20
533.8862207523
 30
0.0
  0
SPLINE
  5
65D
100
AcDbEntity
  8
02___PRT_ALL_AXES
100
AcDbSpline
 62
3
  6
CONTINUOUS
 70
0
 71
3
 72
9
 73
5
 74
0
 42
0.0000001
 43
0.0000001
 44
0.0000000001
 40
0.0
 40
0.0
 40
0.0
 40
0.0
 40
0.5000174058
 40
1.0
 40
1.0
 40
1.0
 40
1.0
 10
171.5478014489
 20
538.7751569072
 30
0.0
 10
170.2234334268
 20
538.9098057521
 30
0.0
 10
167.32731083
 20
538.0071429255
 30
0.0
 10
166.1284657974
 20
535.2173228493
 30
0.0
 10
166.1295829949
 20
533.8862206809
 30
0.0
  0
SPLINE
  5
65E
100
AcDbEntity
  8
02___PRT_ALL_AXES
100
AcDbSpline
 62
3
  6
CONTINUOUS
 70
0
 71
3
 72
9
 73
5
 74
0
 42
0.0000001
 43
0.0000001
 44
0.0000000001
 40
0.0
 40
0.0
 40
0.0
 40
0.0
 40
0.5000568456
 40
1.0
 40
1.0
 40
1.0
 40
1.0
 10
165.7074589336
 20
507.9166172853
 30
0.0
 10
165.7081316842
 20
506.5814903767
 30
0.0
 10
166.7900150703
 20
503.8016474502
 30
0.0
 10
169.5219758759
 20
502.6193793012
 30
0.0
 10
170.8554614675
 20
502.559629585
 30
0.0
  0
SPLINE
  5
65F
100
AcDbEntity
  8
02___PRT_ALL_AXES
100
AcDbSpline
 62
3
  6
CONTINUOUS
 70
0
 71
3
 72
9
 73
5
 74
0
 42
0.0000001
 43
0.0000001
 44
0.0000000001
 40
0.0
 40
0.0
 40
0.0
 40
0.0
 40
0.5000916782
 40
1.0
 40
1.0
 40
1.0
 40
1.0
 10
166.1302404679
 20
507.9166171025
 30
0.0
 10
166.1310775269
 20
506.6880743443
 30
0.0
 10
167.130848894
 20
504.130436885
 30
0.0
 10
169.651201808
 20
503.0505026219
 30
0.0
 10
170.8784142843
 20
503.0040162741
 30
0.0
  0
SPLINE
  5
660
100
AcDbEntity
  8
02___PRT_ALL_AXES
100
AcDbSpline
 62
3
  6
CONTINUOUS
 70
0
 71
3
 72
9
 73
5
 74
0
 42
0.0000001
 43
0.0000001
 44
0.0000000001
 40
0.0
 40
0.0
 40
0.0
 40
0.0
 40
0.500408559
 40
1.0
 40
1.0
 40
1.0
 40
1.0
 10
393.6217853087
 20
462.5518724966
 30
0.0
 10
394.9656364798
 20
462.5979394547
 30
0.0
 10
397.7286629574
 20
463.7695298263
 30
0.0
 10
398.8245278175
 20
466.5683301832
 30
0.0
 10
398.8252284933
 20
467.910774857
 30
0.0
  0
SPLINE
  5
661
100
AcDbEntity
  8
02___PRT_ALL_AXES
100
AcDbSpline
 62
3
  6
CONTINUOUS
 70
0
 71
3
 72
9
 73
5
 74
0
 42
0.0000001
 43
0.0000001
 44
0.0000000001
 40
0.0
 40
0.0
 40
0.0
 40
0.0
 40
0.4999454478
 40
1.0
 40
1.0
 40
1.0
 40
1.0
 10
393.6143175049
 20
462.9983416533
 30
0.0
 10
394.8408938969
 20
463.0458132032
 30
0.0
 10
397.358662774
 20
464.1269974126
 30
0.0
 10
398.3574169222
 20
466.6830122876
 30
0.0
 10
398.3580477089
 20
467.9107746867
 30
0.0
  0
SPLINE
  5
662
100
AcDbEntity
  8
02___PRT_ALL_AXES
100
AcDbSpline
 62
3
  6
CONTINUOUS
 70
0
 71
3
 72
9
 73
5
 74
0
 42
0.0000001
 43
0.0000001
 44
0.0000000001
 40
0.0
 40
0.0
 40
0.0
 40
0.0
 40
0.5004770664
 40
1.0
 40
1.0
 40
1.0
 40
1.0
 10
398.8273972414
 20
478.7005792198
 30
0.0
 10
398.8202917137
 20
480.0453497547
 30
0.0
 10
397.729403068
 20
482.8413958117
 30
0.0
 10
394.9633399295
 20
484.0171257423
 30
0.0
 10
393.6216991468
 20
484.0567414537
 30
0.0
  0
SPLINE
  5
663
100
AcDbEntity
  8
02___PRT_ALL_AXES
100
AcDbSpline
 62
3
  6
CONTINUOUS
 70
0
 71
3
 72
9
 73
5
 74
0
 42
0.0000001
 43
0.0000001
 44
0.0000000001
 40
0.0
 40
0.0
 40
0.0
 40
0.0
 40
0.499986046
 40
1.0
 40
1.0
 40
1.0
 40
1.0
 10
398.3595844742
 20
478.7005790359
 30
0.0
 10
398.3545968907
 20
479.928138812
 30
0.0
 10
397.361207969
 20
482.4819882283
 30
0.0
 10
394.8411253942
 20
483.5678992406
 30
0.0
 10
393.614246306
 20
483.6110711535
 30
0.0
  0
SPLINE
  5
664
100
AcDbEntity
  8
02___PRT_ALL_AXES
100
AcDbSpline
 62
3
  6
CONTINUOUS
 70
0
 71
3
 72
9
 73
5
 74
0
 42
0.0000001
 43
0.0000001
 44
0.0000000001
 40
0.0
 40
0.0
 40
0.0
 40
0.0
 40
0.5004077374
 40
1.0
 40
1.0
 40
1.0
 40
1.0
 10
171.2217570667
 20
491.6620024782
 30
0.0
 10
169.8296943187
 20
491.6997249109
 30
0.0
 10
166.8930632949
 20
490.5993250293
 30
0.0
 10
165.7052823916
 20
487.6943013052
 30
0.0
 10
165.7064302196
 20
486.3039973866
 30
0.0
  0
SPLINE
  5
665
100
AcDbEntity
  8
02___PRT_ALL_AXES
100
AcDbSpline
 62
3
  6
CONTINUOUS
 70
0
 71
3
 72
9
 73
5
 74
0
 42
0.0000001
 43
0.0000001
 44
0.0000000001
 40
0.0
 40
0.0
 40
0.0
 40
0.0
 40
0.5000240129
 40
1.0
 40
1.0
 40
1.0
 40
1.0
 10
171.2142943703
 20
491.2158039218
 30
0.0
 10
169.9348782503
 20
491.2584668269
 30
0.0
 10
167.2267849786
 20
490.2570737826
 30
0.0
 10
166.128593679
 20
487.5840012716
 30
0.0
 10
166.1295056841
 20
486.3039973162
 30
0.0
  0
SPLINE
  5
666
100
AcDbEntity
  8
02___PRT_ALL_AXES
100
AcDbSpline
 62
3
  6
CONTINUOUS
 70
0
 71
3
 72
9
 73
5
 74
0
 42
0.0000001
 43
0.0000001
 44
0.0000000001
 40
0.0
 40
0.0
 40
0.0
 40
0.0
 40
0.4999686649
 40
1.0
 40
1.0
 40
1.0
 40
1.0
 10
165.7064301965
 20
460.3073549707
 30
0.0
 10
165.7050666081
 20
458.9160127965
 30
0.0
 10
166.8945341653
 20
456.0107149707
 30
0.0
 10
169.830740882
 20
454.9120106737
 30
0.0
 10
171.2217570667
 20
454.9493498791
 30
0.0
  0
SPLINE
  5
667
100
AcDbEntity
  8
02___PRT_ALL_AXES
100
AcDbSpline
 62
3
  6
CONTINUOUS
 70
0
 71
3
 72
9
 73
5
 74
0
 42
0.0000001
 43
0.0000001
 44
0.0000000001
 40
0.0
 40
0.0
 40
0.0
 40
0.0
 40
0.4999766108
 40
1.0
 40
1.0
 40
1.0
 40
1.0
 10
166.1295056908
 20
460.3073550411
 30
0.0
 10
166.1289227057
 20
459.0273574418
 30
0.0
 10
167.2267159157
 20
456.3540391307
 30
0.0
 10
169.934866581
 20
455.3535327132
 30
0.0
 10
171.2142943703
 20
455.3955484355
 30
0.0
  0
SPLINE
  5
668
100
AcDbEntity
  8
02___PRT_ALL_AXES
100
AcDbSpline
 62
3
  6
CONTINUOUS
 70
0
 71
3
 72
9
 73
5
 74
0
 42
0.0000001
 43
0.0000001
 44
0.0000000001
 40
0.0
 40
0.0
 40
0.0
 40
0.0
 40
0.5003395323
 40
1.0
 40
1.0
 40
1.0
 40
1.0
 10
393.9857817757
 20
430.1998064703
 30
0.0
 10
395.2672119569
 20
430.328184904
 30
0.0
 10
397.8265292649
 20
431.5792301683
 30
0.0
 10
398.8252154545
 20
434.2492916719
 30
0.0
 10
398.8253415193
 20
435.5353886329
 30
0.0
  0
SPLINE
  5
669
100
AcDbEntity
  8
02___PRT_ALL_AXES
100
AcDbSpline
 62
3
  6
CONTINUOUS
 70
0
 71
3
 72
9
 73
5
 74
0
 42
0.0000001
 43
0.0000001
 44
0.0000000001
 40
0.0
 40
0.0
 40
0.0
 40
0.0
 40
0.4999691355
 40
1.0
 40
1.0
 40
1.0
 40
1.0
 10
393.9478363157
 20
430.6461169611
 30
0.0
 10
395.1170675042
 20
430.7687564235
 30
0.0
 10
397.4478803126
 20
431.9217236319
 30
0.0
 10
398.3581095307
 20
434.3595980695
 30
0.0
 10
398.3581268581
 20
435.53538858
 30
0.0
  0
SPLINE
  5
66A
100
AcDbEntity
  8
02___PRT_ALL_AXES
100
AcDbSpline
 62
3
  6
CONTINUOUS
 70
0
 71
3
 72
9
 73
5
 74
0
 42
0.0000001
 43
0.0000001
 44
0.0000000001
 40
0.0
 40
0.0
 40
0.0
 40
0.0
 40
0.4999808548
 40
1.0
 40
1.0
 40
1.0
 40
1.0
 10
398.8262755751
 20
446.2981549745
 30
0.0
 10
398.8275534441
 20
447.6980699735
 30
0.0
 10
397.6222288777
 20
450.6230054934
 30
0.0
 10
394.6545499245
 20
451.7063024848
 30
0.0
 10
393.2554943184
 20
451.6542714211
 30
0.0
  0
SPLINE
  5
66B
100
AcDbEntity
  8
02___PRT_ALL_AXES
100
AcDbSpline
 62
3
  6
CONTINUOUS
 70
0
 71
3
 72
9
 73
5
 74
0
 42
0.0000001
 43
0.0000001
 44
0.0000000001
 40
0.0
 40
0.0
 40
0.0
 40
0.0
 40
0.4999759206
 40
1.0
 40
1.0
 40
1.0
 40
1.0
 10
398.3587832014
 20
446.2981549055
 30
0.0
 10
398.3593683124
 20
447.5774686457
 30
0.0
 10
397.2628748693
 20
450.2492310023
 30
0.0
 10
394.5572208158
 20
451.2509574782
 30
0.0
 10
393.2784360337
 20
451.2101068393
 30
0.0
  0
SPLINE
  5
66C
100
AcDbEntity
  8
02___PRT_ALL_AXES
100
AcDbSpline
 62
3
  6
CONTINUOUS
 70
0
 71
3
 72
9
 73
5
 74
0
 42
0.0000001
 43
0.0000001
 44
0.0000000001
 40
0.0
 40
0.0
 40
0.0
 40
0.0
 40
0.5004040917
 40
1.0
 40
1.0
 40
1.0
 40
1.0
 10
170.8554614675
 20
444.0517227723
 30
0.0
 10
169.5207436779
 20
443.9921298099
 30
0.0
 10
166.788694447
 20
442.8080841486
 30
0.0
 10
165.7081588088
 20
440.028624581
 30
0.0
 10
165.7074589884
 20
438.694735072
 30
0.0
  0
SPLINE
  5
66D
100
AcDbEntity
  8
02___PRT_ALL_AXES
100
AcDbSpline
 62
3
  6
CONTINUOUS
 70
0
 71
3
 72
9
 73
5
 74
0
 42
0.0000001
 43
0.0000001
 44
0.0000000001
 40
0.0
 40
0.0
 40
0.0
 40
0.0
 40
0.4999453801
 40
1.0
 40
1.0
 40
1.0
 40
1.0
 10
170.8784142843
 20
443.6073360832
 30
0.0
 10
169.6511086054
 20
443.5609307915
 30
0.0
 10
167.1308576168
 20
442.4807559706
 30
0.0
 10
166.1308783985
 20
439.9231861253
 30
0.0
 10
166.1302403985
 20
438.6947352548
 30
0.0
  0
SPLINE
  5
66E
100
AcDbEntity
  8
02___PRT_ALL_AXES
100
AcDbSpline
 62
3
  6
CONTINUOUS
 70
0
 71
3
 72
9
 73
5
 74
0
 42
0.0000001
 43
0.0000001
 44
0.0000000001
 40
0.0
 40
0.0
 40
0.0
 40
0.0
 40
0.5005244166
 40
1.0
 40
1.0
 40
1.0
 40
1.0
 10
165.7061229349
 20
412.7251324686
 30
0.0
 10
165.70932844
 20
411.27640701
 30
0.0
 10
167.0027530062
 20
408.2451809096
 30
0.0
 10
170.1468785107
 20
407.2495705134
 30
0.0
 10
171.5856668251
 20
407.3906985653
 30
0.0
  0
SPLINE
  5
66F
100
AcDbEntity
  8
02___PRT_ALL_AXES
100
AcDbSpline
 62
3
  6
CONTINUOUS
 70
0
 71
3
 72
9
 73
5
 74
0
 42
0.0000001
 43
0.0000001
 44
0.0000000001
 40
0.0
 40
0.0
 40
0.0
 40
0.0
 40
0.500054563
 40
1.0
 40
1.0
 40
1.0
 40
1.0
 10
166.1292834904
 20
412.7251323878
 30
0.0
 10
166.1310383363
 20
411.3938521723
 30
0.0
 10
167.3258730491
 20
408.6054307945
 30
0.0
 10
170.2238866442
 20
407.6991235177
 30
0.0
 10
171.547749279
 20
407.8366893731
 30
0.0
  0
SPLINE
  5
670
100
AcDbEntity
  8
02___PRT_ALL_AXES
100
AcDbSpline
 62
3
  6
CONTINUOUS
 70
0
 71
3
 72
9
 73
5
 74
0
 42
0.0000001
 43
0.0000001
 44
0.0000000001
 40
0.0
 40
0.0
 40
0.0
 40
0.0
 40
0.5000988496
 40
1.0
 40
1.0
 40
1.0
 40
1.0
 10
394.2744798697
 20
398.2956364586
 30
0.0
 10
395.3824949081
 20
398.4874718987
 30
0.0
 10
397.5323759466
 20
399.6923526721
 30
0.0
 10
398.3586197492
 20
402.0159962364
 30
0.0
 10
398.3582325161
 20
403.1400507038
 30
0.0
  0
SPLINE
  5
671
100
AcDbEntity
  8
02___PRT_ALL_AXES
100
AcDbSpline
 62
3
  6
CONTINUOUS
 70
0
 71
3
 72
9
 73
5
 74
0
 42
0.0000001
 43
0.0000001
 44
0.0000000001
 40
0.0
 40
0.0
 40
0.0
 40
0.0
 40
0.4999738732
 40
1.0
 40
1.0
 40
1.0
 40
1.0
 10
398.8261655951
 20
413.822076562
 30
0.0
 10
398.8273518087
 20
415.27766247
 30
0.0
 10
397.512690991
 20
418.3304537491
 30
0.0
 10
394.3397757615
 20
419.3038815037
 30
0.0
 10
392.8920278004
 20
419.1515644794
 30
0.0
  0
SPLINE
  5
672
100
AcDbEntity
  8
02___PRT_ALL_AXES
100
AcDbSpline
 62
3
  6
CONTINUOUS
 70
0
 71
3
 72
9
 73
5
 74
0
 42
0.0000001
 43
0.0000001
 44
0.0000000001
 40
0.0
 40
0.0
 40
0.0
 40
0.0
 40
0.4999702335
 40
1.0
 40
1.0
 40
1.0
 40
1.0
 10
398.3587058663
 20
413.8220764919
 30
0.0
 10
398.3592327311
 20
415.1524901074
 30
0.0
 10
397.1628033894
 20
417.9413673197
 30
0.0
 10
394.2688455419
 20
418.8439715173
 30
0.0
 10
392.9448886021
 20
418.7114564949
 30
0.0
  0
SPLINE
  5
673
100
AcDbEntity
  8
02___PRT_ALL_AXES
100
AcDbSpline
 62
3
  6
CONTINUOUS
 70
0
 71
3
 72
9
 73
5
 74
0
 42
0.0000001
 43
0.0000001
 44
0.0000000001
 40
0.0
 40
0.0
 40
0.0
 40
0.0
 40
0.5003342968
 40
1.0
 40
1.0
 40
1.0
 40
1.0
 10
170.4919782212
 20
396.3417812151
 30
0.0
 10
169.2204913216
 20
396.2011921324
 30
0.0
 10
166.6917273174
 20
394.9402011471
 30
0.0
 10
165.7074727098
 20
392.2893458928
 30
0.0
 10
165.7073479866
 20
391.0118195363
 30
0.0
  0
SPLINE
  5
674
100
AcDbEntity
  8
02___PRT_ALL_AXES
100
AcDbSpline
 62
3
  6
CONTINUOUS
 70
0
 71
3
 72
9
 73
5
 74
0
 42
0.0000001
 43
0.0000001
 44
0.0000000001
 40
0.0
 40
0.0
 40
0.0
 40
0.0
 40
0.4999634116
 40
1.0
 40
1.0
 40
1.0
 40
1.0
 10
170.5448533732
 20
395.9015511491
 30
0.0
 10
169.374841504
 20
395.7798775684
 30
0.0
 10
167.0415855238
 20
394.6277392717
 30
0.0
 10
166.1301597979
 20
392.1883132489
 30
0.0
 10
166.1301613445
 20
391.0118195931
 30
0.0
  0
SPLINE
  5
675
100
AcDbEntity
  8
02___PRT_ALL_AXES
100
AcDbSpline
 62
3
  6
CONTINUOUS
 70
0
 71
3
 72
9
 73
5
 74
0
 42
0.0000001
 43
0.0000001
 44
0.0000000001
 40
0.0
 40
0.0
 40
0.0
 40
0.0
 40
0.5004601113
 40
1.0
 40
1.0
 40
1.0
 40
1.0
 10
165.7060214371
 20
365.1229571956
 30
0.0
 10
165.7099637274
 20
363.6197183772
 30
0.0
 10
167.1148933341
 20
360.4622009606
 30
0.0
 10
170.4622363092
 20
359.5891331568
 30
0.0
 10
171.9423486686
 20
359.8355216983
 30
0.0
  0
SPLINE
  5
676
100
AcDbEntity
  8
02___PRT_ALL_AXES
100
AcDbSpline
 62
3
  6
CONTINUOUS
 70
0
 71
3
 72
9
 73
5
 74
0
 42
0.0000001
 43
0.0000001
 44
0.0000000001
 40
0.0
 40
0.0
 40
0.0
 40
0.0
 40
0.5000906867
 40
1.0
 40
1.0
 40
1.0
 40
1.0
 10
166.1292101148
 20
365.1229571281
 30
0.0
 10
166.131647728
 20
363.7415282326
 30
0.0
 10
167.4292709983
 20
360.8371817899
 30
0.0
 10
170.5134182828
 20
360.0451281022
 30
0.0
 10
171.8743360596
 20
360.2793727278
 30
0.0
  0
SPLINE
  5
677
100
AcDbEntity
  8
02___PRT_ALL_AXES
100
AcDbSpline
 62
3
  6
CONTINUOUS
 70
0
 71
3
 72
9
 73
5
 74
0
 42
0.0000001
 43
0.0000001
 44
0.0000000001
 40
0.0
 40
0.0
 40
0.0
 40
0.0
 40
0.4996894345
 40
1.0
 40
1.0
 40
1.0
 40
1.0
 10
394.6877972779
 20
365.458119474
 30
0.0
 10
395.8319756307
 20
365.7253197689
 30
0.0
 10
398.0031631206
 20
367.0798171029
 30
0.0
 10
398.8248178358
 20
369.5015361962
 30
0.0
 10
398.8268110845
 20
370.6779589
 30
0.0
  0
SPLINE
  5
678
100
AcDbEntity
  8
02___PRT_ALL_AXES
100
AcDbSpline
 62
3
  6
CONTINUOUS
 70
0
 71
3
 72
9
 73
5
 74
0
 42
0.0000001
 43
0.0000001
 44
0.0000000001
 40
0.0
 40
0.0
 40
0.0
 40
0.0
 40
0.5004658418
 40
1.0
 40
1.0
 40
1.0
 40
1.0
 10
398.8266913092
 20
381.2267408909
 30
0.0
 10
398.8226947284
 20
382.738276972
 30
0.0
 10
397.4001443462
 20
385.9150255542
 30
0.0
 10
394.0220641925
 20
386.7678547013
 30
0.0
 10
392.5364186914
 20
386.5049556659
 30
0.0
  0
SPLINE
  5
679
100
AcDbEntity
  8
02___PRT_ALL_AXES
100
AcDbSpline
 62
3
  6
CONTINUOUS
 70
0
 71
3
 72
9
 73
5
 74
0
 42
0.0000001
 43
0.0000001
 44
0.0000000001
 40
0.0
 40
0.0
 40
0.0
 40
0.0
 40
0.5000891829
 40
1.0
 40
1.0
 40
1.0
 40
1.0
 10
398.3590790333
 20
381.2267409572
 30
0.0
 10
398.3566314185
 20
382.6075035027
 30
0.0
 10
397.0604413972
 20
385.510306992
 30
0.0
 10
393.9787473346
 20
386.3039925881
 30
0.0
 10
392.6182708197
 20
386.0710653233
 30
0.0
  0
SPLINE
  5
67A
100
AcDbEntity
  8
02___PRT_ALL_AXES
100
AcDbSpline
 62
3
  6
CONTINUOUS
 70
0
 71
3
 72
9
 73
5
 74
0
 42
0.0000001
 43
0.0000001
 44
0.0000000001
 40
0.0
 40
0.0
 40
0.0
 40
0.0
 40
0.5001647725
 40
1.0
 40
1.0
 40
1.0
 40
1.0
 10
190.1353203482
 20
321.7481421309
 30
0.0
 10
191.8911149717
 20
320.5395275152
 30
0.0
 10
195.9539414402
 20
318.838827207
 30
0.0
 10
200.3541066594
 20
318.9534184143
 30
0.0
 10
202.4284973759
 20
319.43765174
 30
0.0
  0
SPLINE
  5
67B
100
AcDbEntity
  8
02___PRT_ALL_AXES
100
AcDbSpline
 62
3
  6
CONTINUOUS
 70
0
 71
3
 72
9
 73
5
 74
0
 42
0.0000001
 43
0.0000001
 44
0.0000000001
 40
0.0
 40
0.0
 40
0.0
 40
0.0
 40
0.4999863334
 40
1.0
 40
1.0
 40
1.0
 40
1.0
 10
190.3866483018
 20
322.1017614624
 30
0.0
 10
192.0927819007
 20
320.929978745
 30
0.0
 10
196.0419152915
 20
319.2840845121
 30
0.0
 10
200.3164810268
 20
319.4025037883
 30
0.0
 10
202.3309352832
 20
319.8783283847
 30
0.0
  0
SPLINE
  5
67C
100
AcDbEntity
  8
02___PRT_ALL_AXES
100
AcDbSpline
 62
3
  6
CONTINUOUS
 70
0
 71
3
 72
9
 73
5
 74
0
 42
0.0000001
 43
0.0000001
 44
0.0000000001
 40
0.0
 40
0.0
 40
0.0
 40
0.0
 40
0.500145494
 40
1.0
 40
1.0
 40
1.0
 40
1.0
 10
342.2386195797
 20
311.7392756302
 30
0.0
 10
352.9386122158
 20
311.7267414924
 30
0.0
 10
374.791329428
 20
318.09134115
 30
0.0
 10
389.5454765554
 20
335.4300796279
 30
0.0
 10
393.8985244387
 20
345.197770775
 30
0.0
  0
SPLINE
  5
67D
100
AcDbEntity
  8
02___PRT_ALL_AXES
100
AcDbSpline
 62
3
  6
CONTINUOUS
 70
0
 71
3
 72
9
 73
5
 74
0
 42
0.0000001
 43
0.0000001
 44
0.0000000001
 40
0.0
 40
0.0
 40
0.0
 40
0.0
 40
0.5001746495
 40
1.0
 40
1.0
 40
1.0
 40
1.0
 10
342.2463993864
 20
312.185032488
 30
0.0
 10
352.8599433097
 20
312.1780401374
 30
0.0
 10
374.5316198708
 20
318.5007140636
 30
0.0
 10
389.1590905942
 20
335.702616835
 30
0.0
 10
393.4745310784
 20
345.3911180813
 30
0.0
  0
SPLINE
  5
67E
100
AcDbEntity
  8
02___PRT_ALL_AXES
100
AcDbSpline
 62
3
  6
CONTINUOUS
 70
0
 71
3
 72
11
 73
7
 74
0
 42
0.0000001
 43
0.0000001
 44
0.0000000001
 40
0.0
 40
0.0
 40
0.0
 40
0.0
 40
0.2500372855
 40
0.5002178579
 40
0.7501687952
 40
1.0
 40
1.0
 40
1.0
 40
1.0
 10
393.8917970364
 20
345.2007829267
 30
0.0
 10
394.2964960438
 20
346.0986864189
 30
0.0
 10
394.6004752097
 20
348.1696553356
 30
0.0
 10
393.3413837465
 20
351.0112380476
 30
0.0
 10
390.7748103873
 20
352.7637042211
 30
0.0
 10
388.6862398483
 20
352.8387109359
 30
0.0
 10
387.7298585098
 20
352.6068739352
 30
0.0
  0
SPLINE
  5
67F
100
AcDbEntity
  8
02___PRT_ALL_AXES
100
AcDbSpline
 62
3
  6
CONTINUOUS
 70
0
 71
3
 72
11
 73
7
 74
0
 42
0.0000001
 43
0.0000001
 44
0.0000000001
 40
0.0
 40
0.0
 40
0.0
 40
0.0
 40
0.2499520865
 40
0.5000106848
 40
0.7501137295
 40
1.0
 40
1.0
 40
1.0
 40
1.0
 10
393.4681871941
 20
345.393955093
 30
0.0
 10
393.8351055014
 20
346.2154033776
 30
0.0
 10
394.1113089276
 20
348.1060682932
 30
0.0
 10
392.96298453
 20
350.7024303079
 30
0.0
 10
390.6232852086
 20
352.3106481512
 30
0.0
 10
388.7147488882
 20
352.3879321877
 30
0.0
 10
387.8396029891
 20
352.1803273153
 30
0.0
  0
SPLINE
  5
680
100
AcDbEntity
  8
02___PRT_ALL_AXES
100
AcDbSpline
 62
3
  6
CONTINUOUS
 70
0
 71
3
 72
11
 73
7
 74
0
 42
0.0000001
 43
0.0000001
 44
0.0000000001
 40
0.0
 40
0.0
 40
0.0
 40
0.0
 40
0.2505408086
 40
0.5007353377
 40
0.7505606121
 40
1.0
 40
1.0
 40
1.0
 40
1.0
 10
269.3978401581
 20
324.28569165
 30
0.0
 10
267.9355746638
 20
323.9256713093
 30
0.0
 10
265.1818219048
 20
322.0571384254
 30
0.0
 10
264.0200296483
 20
317.2803339953
 30
0.0
 10
266.2740099794
 20
312.9225082474
 30
0.0
 10
269.3775623382
 20
311.7527582628
 30
0.0
 10
270.8768597091
 20
311.745927882
 30
0.0
  0
SPLINE
  5
681
100
AcDbEntity
  8
02___PRT_ALL_AXES
100
AcDbSpline
 62
3
  6
CONTINUOUS
 70
0
 71
3
 72
11
 73
7
 74
0
 42
0.0000001
 43
0.0000001
 44
0.0000000001
 40
0.0
 40
0.0
 40
0.0
 40
0.0
 40
0.249926349
 40
0.5000827607
 40
0.7501845013
 40
1.0
 40
1.0
 40
1.0
 40
1.0
 10
269.5076107824
 20
323.8590427873
 30
0.0
 10
268.1451990385
 20
323.5311218748
 30
0.0
 10
265.5722591576
 20
321.8002572893
 30
0.0
 10
264.4745032919
 20
317.3480528112
 30
0.0
 10
266.5790033507
 20
313.2756935358
 30
0.0
 10
269.4839341939
 20
312.1907210972
 30
0.0
 10
270.8846326023
 20
312.191281472
 30
0.0
  0
SPLINE
  5
682
100
AcDbEntity
  8
02___PRT_ALL_AXES
100
AcDbSpline
 62
3
  6
CONTINUOUS
 70
0
 71
3
 72
9
 73
5
 74
0
 42
0.0000001
 43
0.0000001
 44
0.0000000001
 40
0.0
 40
0.0
 40
0.0
 40
0.0
 40
0.2758090835
 40
1.0
 40
1.0
 40
1.0
 40
1.0
 10
993.5664804906
 20
632.9358276897
 30
0.0
 10
993.5664804926
 20
633.0723505769
 30
0.0
 10
993.5673914567
 20
633.567338229
 30
0.0
 10
993.5709600538
 20
634.0623388539
 30
0.0
 10
993.5772150426
 20
634.4207519302
 30
0.0
  0
SPLINE
  5
683
100
AcDbEntity
  8
02___PRT_ALL_AXES
100
AcDbSpline
 62
3
  6
CONTINUOUS
 70
0
 71
3
 72
9
 73
5
 74
0
 42
0.0000001
 43
0.0000001
 44
0.0000000001
 40
0.0
 40
0.0
 40
0.0
 40
0.0
 40
0.2755990303
 40
1.0
 40
1.0
 40
1.0
 40
1.0
 10
876.2652375105
 20
595.8780267549
 30
0.0
 10
876.2970998708
 20
595.7448605475
 30
0.0
 10
876.4135774562
 20
595.2618824033
 30
0.0
 10
876.5325869691
 20
594.7794975009
 30
0.0
 10
876.622264029
 20
594.4309471827
 30
0.0
  0
SPLINE
  5
684
100
AcDbEntity
  8
02___PRT_ALL_AXES
100
AcDbSpline
 62
3
  6
CONTINUOUS
 70
0
 71
3
 72
9
 73
5
 74
0
 42
0.0000001
 43
0.0000001
 44
0.0000000001
 40
0.0
 40
0.0
 40
0.0
 40
0.0
 40
0.2752754724
 40
1.0
 40
1.0
 40
1.0
 40
1.0
 10
1073.2198864443
 20
623.2764090283
 30
0.0
 10
1073.2975621433
 20
623.3898423606
 30
0.0
 10
1073.5803650454
 20
623.8014816649
 30
0.0
 10
1073.8650045831
 20
624.2118740259
 30
0.0
 10
1074.0737874023
 20
624.5075335549
 30
0.0
  0
SPLINE
  5
685
100
AcDbEntity
  8
02___PRT_ALL_AXES
100
AcDbSpline
 62
3
  6
CONTINUOUS
 70
0
 71
3
 72
9
 73
5
 74
0
 42
0.0000001
 43
0.0000001
 44
0.0000000001
 40
0.0
 40
0.0
 40
0.0
 40
0.0
 40
0.2760190442
 40
1.0
 40
1.0
 40
1.0
 40
1.0
 10
1062.4661028361
 20
625.2874541813
 30
0.0
 10
1062.4344280654
 20
625.4198364945
 30
0.0
 10
1062.3205291483
 20
625.899651679
 30
0.0
 10
1062.2091302512
 20
626.3800776013
 30
0.0
 10
1062.1319491575
 20
626.7286671234
 30
0.0
  0
SPLINE
  5
686
100
AcDbEntity
  8
02___PRT_ALL_AXES
100
AcDbSpline
 62
3
  6
CONTINUOUS
 70
0
 71
3
 72
9
 73
5
 74
0
 42
0.0000001
 43
0.0000001
 44
0.0000000001
 40
0.0
 40
0.0
 40
0.0
 40
0.0
 40
0.2760150407
 40
1.0
 40
1.0
 40
1.0
 40
1.0
 10
870.2056802814
 20
579.271750059
 30
0.0
 10
870.1738189452
 20
579.4040801046
 30
0.0
 10
870.0594085303
 20
579.8837547172
 30
0.0
 10
869.9485428961
 20
580.3642868461
 30
0.0
 10
869.8715398012
 20
580.7129034972
 30
0.0
  0
SPLINE
  5
687
100
AcDbEntity
  8
02___PRT_ALL_AXES
100
AcDbSpline
 62
3
  6
CONTINUOUS
 70
0
 71
3
 72
9
 73
5
 74
0
 42
0.0000001
 43
0.0000001
 44
0.0000000001
 40
0.0
 40
0.0
 40
0.0
 40
0.0
 40
0.2756570188
 40
1.0
 40
1.0
 40
1.0
 40
1.0
 10
871.5824521792
 20
562.0052899366
 30
0.0
 10
871.6054980073
 20
561.8704307686
 30
0.0
 10
871.6899898505
 20
561.3813573316
 30
0.0
 10
871.7770774358
 20
560.8927147249
 30
0.0
 10
871.8437212153
 20
560.5394398007
 30
0.0
  0
SPLINE
  5
688
100
AcDbEntity
  8
02___PRT_ALL_AXES
100
AcDbSpline
 62
3
  6
CONTINUOUS
 70
0
 71
3
 72
9
 73
5
 74
0
 42
0.0000001
 43
0.0000001
 44
0.0000000001
 40
0.0
 40
0.0
 40
0.0
 40
0.0
 40
0.2759612114
 40
1.0
 40
1.0
 40
1.0
 40
1.0
 10
1092.8264298906
 20
584.8712824624
 30
0.0
 10
1092.8034823292
 20
585.0055665702
 30
0.0
 10
1092.721208993
 20
585.4923194019
 30
0.0
 10
1092.6415037837
 20
585.9795239325
 30
0.0
 10
1092.5873655598
 20
586.3328283467
 30
0.0
  0
SPLINE
  5
689
100
AcDbEntity
  8
02___PRT_ALL_AXES
100
AcDbSpline
 62
3
  6
CONTINUOUS
 70
0
 71
3
 72
9
 73
5
 74
0
 42
0.0000001
 43
0.0000001
 44
0.0000000001
 40
0.0
 40
0.0
 40
0.0
 40
0.0
 40
0.275716997
 40
1.0
 40
1.0
 40
1.0
 40
1.0
 10
871.3546353328
 20
529.3781162418
 30
0.0
 10
871.3685784087
 20
529.2421298348
 30
0.0
 10
871.4200522702
 20
528.749015261
 30
0.0
 10
871.4741643808
 20
528.2561583098
 30
0.0
 10
871.5169869853
 20
527.8996242453
 30
0.0
  0
SPLINE
  5
68A
100
AcDbEntity
  8
02___PRT_ALL_AXES
100
AcDbSpline
 62
3
  6
CONTINUOUS
 70
0
 71
3
 72
9
 73
5
 74
0
 42
0.0000001
 43
0.0000001
 44
0.0000000001
 40
0.0
 40
0.0
 40
0.0
 40
0.0
 40
0.2756807232
 40
1.0
 40
1.0
 40
1.0
 40
1.0
 10
1093.7546352721
 20
552.1883732435
 30
0.0
 10
1093.7676252112
 20
552.0523645608
 30
0.0
 10
1093.8165004313
 20
551.5591741488
 30
0.0
 10
1093.8732990651
 20
551.0667973106
 30
0.0
 10
1093.9169125744
 20
550.7104833357
 30
0.0
  0
SPLINE
  5
68B
100
AcDbEntity
  8
02___PRT_ALL_AXES
100
AcDbSpline
 62
3
  6
CONTINUOUS
 70
0
 71
3
 72
9
 73
5
 74
0
 42
0.0000001
 43
0.0000001
 44
0.0000000001
 40
0.0
 40
0.0
 40
0.0
 40
0.0
 40
0.2759011918
 40
1.0
 40
1.0
 40
1.0
 40
1.0
 10
1093.0546326597
 20
537.2995593373
 30
0.0
 10
1093.0407256081
 20
537.4351943241
 30
0.0
 10
1092.9912190746
 20
537.9268907734
 30
0.0
 10
1092.9443336519
 20
538.4188689125
 30
0.0
 10
1092.9140198272
 20
538.7754209979
 30
0.0
  0
SPLINE
  5
68C
100
AcDbEntity
  8
02___PRT_ALL_AXES
100
AcDbSpline
 62
3
  6
CONTINUOUS
 70
0
 71
3
 72
9
 73
5
 74
0
 42
0.0000001
 43
0.0000001
 44
0.0000000001
 40
0.0
 40
0.0
 40
0.0
 40
0.0
 40
0.2757782415
 40
1.0
 40
1.0
 40
1.0
 40
1.0
 10
871.1219438887
 20
496.8854158875
 30
0.0
 10
871.1266092127
 20
496.7489135701
 30
0.0
 10
871.144436775
 20
496.2539762698
 30
0.0
 10
871.1649215334
 20
495.7591168248
 30
0.0
 10
871.1834228424
 20
495.400916012
 30
0.0
  0
SPLINE
  5
68D
100
AcDbEntity
  8
02___PRT_ALL_AXES
100
AcDbSpline
 62
3
  6
CONTINUOUS
 70
0
 71
3
 72
9
 73
5
 74
0
 42
0.0000001
 43
0.0000001
 44
0.0000000001
 40
0.0
 40
0.0
 40
0.0
 40
0.0
 40
0.2757728619
 40
1.0
 40
1.0
 40
1.0
 40
1.0
 10
1093.5219438888
 20
504.4888346857
 30
0.0
 10
1093.5236778147
 20
504.3522431922
 30
0.0
 10
1093.5334653916
 20
503.8569520499
 30
0.0
 10
1093.5623174038
 20
503.3623128586
 30
0.0
 10
1093.583431465
 20
503.0041930001
 30
0.0
  0
SPLINE
  5
68E
100
AcDbEntity
  8
02___PRT_ALL_AXES
100
AcDbSpline
 62
3
  6
CONTINUOUS
 70
0
 71
3
 72
9
 73
5
 74
0
 42
0.0000001
 43
0.0000001
 44
0.0000000001
 40
0.0
 40
0.0
 40
0.0
 40
0.0
 40
0.2758399254
 40
1.0
 40
1.0
 40
1.0
 40
1.0
 10
1093.2875224706
 20
489.7325120012
 30
0.0
 10
1093.282861179
 20
489.8688960848
 30
0.0
 10
1093.2668718419
 20
490.3633562627
 30
0.0
 10
1093.2535336903
 20
490.857920037
 30
0.0
 10
1093.2475428684
 20
491.2161269108
 30
0.0
  0
SPLINE
  5
68F
100
AcDbEntity
  8
02___PRT_ALL_AXES
100
AcDbSpline
 62
3
  6
CONTINUOUS
 70
0
 71
3
 72
9
 73
5
 74
0
 42
0.0000001
 43
0.0000001
 44
0.0000000001
 40
0.0
 40
0.0
 40
0.0
 40
0.0
 40
0.2758399258
 40
1.0
 40
1.0
 40
1.0
 40
1.0
 10
870.8875224705
 20
464.4822591543
 30
0.0
 10
870.882861184
 20
464.3458750703
 30
0.0
 10
870.8668718581
 20
463.8514148919
 30
0.0
 10
870.8535337775
 20
463.3568511169
 30
0.0
 10
870.8475428684
 20
462.9986442447
 30
0.0
  0
SPLINE
  5
690
100
AcDbEntity
  8
02___PRT_ALL_AXES
100
AcDbSpline
 62
3
  6
CONTINUOUS
 70
0
 71
3
 72
9
 73
5
 74
0
 42
0.0000001
 43
0.0000001
 44
0.0000000001
 40
0.0
 40
0.0
 40
0.0
 40
0.0
 40
0.2758248952
 40
1.0
 40
1.0
 40
1.0
 40
1.0
 10
1093.2875224706
 20
456.8788403561
 30
0.0
 10
1093.2811325727
 20
456.7425411017
 30
0.0
 10
1093.2604091107
 20
456.2482645264
 30
0.0
 10
1093.2519996232
 20
455.753571967
 30
0.0
 10
1093.2475442647
 20
455.3953545013
 30
0.0
  0
SPLINE
  5
691
100
AcDbEntity
  8
02___PRT_ALL_AXES
100
AcDbSpline
 62
3
  6
CONTINUOUS
 70
0
 71
3
 72
9
 73
5
 74
0
 42
0.0000001
 43
0.0000001
 44
0.0000000001
 40
0.0
 40
0.0
 40
0.0
 40
0.0
 40
0.2757782419
 40
1.0
 40
1.0
 40
1.0
 40
1.0
 10
1093.5219438888
 20
442.1225176716
 30
0.0
 10
1093.5266092183
 20
442.2590199891
 30
0.0
 10
1093.5444367738
 20
442.7539572914
 30
0.0
 10
1093.5649221939
 20
443.2488167006
 30
0.0
 10
1093.5834228427
 20
443.6070175471
 30
0.0
  0
SPLINE
  5
692
100
AcDbEntity
  8
02___PRT_ALL_AXES
100
AcDbSpline
 62
3
  6
CONTINUOUS
 70
0
 71
3
 72
9
 73
5
 74
0
 42
0.0000001
 43
0.0000001
 44
0.0000000001
 40
0.0
 40
0.0
 40
0.0
 40
0.0
 40
0.2757707794
 40
1.0
 40
1.0
 40
1.0
 40
1.0
 10
871.1219438887
 20
449.7259364698
 30
0.0
 10
871.126533021
 20
449.86242532
 30
0.0
 10
871.1441518657
 20
450.3573256226
 30
0.0
 10
871.1648484051
 20
450.852132354
 30
0.0
 10
871.1834158232
 20
451.2103009821
 30
0.0
  0
SPLINE
  5
693
100
AcDbEntity
  8
02___PRT_ALL_AXES
100
AcDbSpline
 62
3
  6
CONTINUOUS
 70
0
 71
3
 72
9
 73
5
 74
0
 42
0.0000001
 43
0.0000001
 44
0.0000000001
 40
0.0
 40
0.0
 40
0.0
 40
0.0
 40
0.2759011929
 40
1.0
 40
1.0
 40
1.0
 40
1.0
 10
870.6546326577
 20
432.1220494107
 30
0.0
 10
870.640725614
 20
431.9864144225
 30
0.0
 10
870.5912190937
 20
431.4947179713
 30
0.0
 10
870.5443339173
 20
431.0027398122
 30
0.0
 10
870.5140198256
 20
430.6461877501
 30
0.0
  0
SPLINE
  5
694
100
AcDbEntity
  8
02___PRT_ALL_AXES
100
AcDbSpline
 62
3
  6
CONTINUOUS
 70
0
 71
3
 72
9
 73
5
 74
0
 42
0.0000001
 43
0.0000001
 44
0.0000000001
 40
0.0
 40
0.0
 40
0.0
 40
0.0
 40
0.2757169981
 40
1.0
 40
1.0
 40
1.0
 40
1.0
 10
1093.7546353349
 20
394.4229797261
 30
0.0
 10
1093.7685784105
 20
394.5589661337
 30
0.0
 10
1093.8200522716
 20
395.0520807075
 30
0.0
 10
1093.8741643683
 20
395.5449376605
 30
0.0
 10
1093.9169869878
 20
395.9014717226
 30
0.0
  0
SPLINE
  5
695
100
AcDbEntity
  8
02___PRT_ALL_AXES
100
AcDbSpline
 62
3
  6
CONTINUOUS
 70
0
 71
3
 72
9
 73
5
 74
0
 42
0.0000001
 43
0.0000001
 44
0.0000000001
 40
0.0
 40
0.0
 40
0.0
 40
0.0
 40
0.2757193412
 40
1.0
 40
1.0
 40
1.0
 40
1.0
 10
871.3546353344
 20
417.2332361318
 30
0.0
 10
871.3694655883
 20
417.3691243548
 30
0.0
 10
871.423368007
 20
417.8619591302
 30
0.0
 10
871.4749466826
 20
418.35506533
 30
0.0
 10
871.5169810459
 20
418.7116776529
 30
0.0
  0
SPLINE
  5
696
100
AcDbEntity
  8
02___PRT_ALL_AXES
100
AcDbSpline
 62
3
  6
CONTINUOUS
 70
0
 71
3
 72
9
 73
5
 74
0
 42
0.0000001
 43
0.0000001
 44
0.0000000001
 40
0.0
 40
0.0
 40
0.0
 40
0.0
 40
0.2759612114
 40
1.0
 40
1.0
 40
1.0
 40
1.0
 10
870.4264298908
 20
399.757163913
 30
0.0
 10
870.4034823363
 20
399.6228798039
 30
0.0
 10
870.3212090059
 20
399.1361269703
 30
0.0
 10
870.2415041978
 20
398.6489223793
 30
0.0
 10
870.1873655599
 20
398.2956180286
 30
0.0
  0
SPLINE
  5
697
100
AcDbEntity
  8
02___PRT_ALL_AXES
100
AcDbSpline
 62
3
  6
CONTINUOUS
 70
0
 71
3
 72
9
 73
5
 74
0
 42
0.0000001
 43
0.0000001
 44
0.0000000001
 40
0.0
 40
0.0
 40
0.0
 40
0.0
 40
0.2759483385
 40
1.0
 40
1.0
 40
1.0
 40
1.0
 10
1092.826429891
 20
361.7400698973
 30
0.0
 10
1092.8017271975
 20
361.6061070214
 30
0.0
 10
1092.7146384356
 20
361.1201837089
 30
0.0
 10
1092.6399316156
 20
360.6321487279
 30
0.0
 10
1092.5873778617
 20
360.2786065724
 30
0.0
  0
SPLINE
  5
698
100
AcDbEntity
  8
02___PRT_ALL_AXES
100
AcDbSpline
 62
3
  6
CONTINUOUS
 70
0
 71
3
 72
9
 73
5
 74
0
 42
0.0000001
 43
0.0000001
 44
0.0000000001
 40
0.0
 40
0.0
 40
0.0
 40
0.0
 40
0.2761525911
 40
1.0
 40
1.0
 40
1.0
 40
1.0
 10
1062.4661025181
 20
321.3238968468
 30
0.0
 10
1062.4333230757
 20
321.1914583694
 30
0.0
 10
1062.316339054
 20
320.7114455703
 30
0.0
 10
1062.2077178424
 20
320.2294326704
 30
0.0
 10
1062.1313754114
 20
319.8800552892
 30
0.0
  0
SPLINE
  5
699
100
AcDbEntity
  8
02___PRT_ALL_AXES
100
AcDbSpline
 62
3
  6
CONTINUOUS
 70
0
 71
3
 72
9
 73
5
 74
0
 42
0.0000001
 43
0.0000001
 44
0.0000000001
 40
0.0
 40
0.0
 40
0.0
 40
0.0
 40
0.2753015886
 40
1.0
 40
1.0
 40
1.0
 40
1.0
 10
1073.2113654254
 20
323.3374599012
 30
0.0
 10
1073.289477464
 20
323.2243018939
 30
0.0
 10
1073.5738353454
 20
322.8137030121
 30
0.0
 10
1073.8600219453
 20
322.4043558271
 30
0.0
 10
1074.0699024128
 20
322.1094669425
 30
0.0
  0
SPLINE
  5
69A
100
AcDbEntity
  8
02___PRT_ALL_AXES
100
AcDbSpline
 62
3
  6
CONTINUOUS
 70
0
 71
3
 72
9
 73
5
 74
0
 42
0.0000001
 43
0.0000001
 44
0.0000000001
 40
0.0
 40
0.0
 40
0.0
 40
0.0
 40
0.2756570194
 40
1.0
 40
1.0
 40
1.0
 40
1.0
 10
1087.9724787007
 20
347.6163143087
 30
0.0
 10
1087.9955245282
 20
347.7511734771
 30
0.0
 10
1088.0800163707
 20
348.2402469142
 30
0.0
 10
1088.1671039293
 20
348.728889526
 30
0.0
 10
1088.2337477371
 20
349.0821644447
 30
0.0
  0
SPLINE
  5
69B
100
AcDbEntity
  8
02___PRT_ALL_AXES
100
AcDbSpline
 62
3
  6
CONTINUOUS
 70
0
 71
3
 72
9
 73
5
 74
0
 42
0.0000001
 43
0.0000001
 44
0.0000000001
 40
0.0
 40
0.0
 40
0.0
 40
0.0
 40
0.2756523675
 40
1.0
 40
1.0
 40
1.0
 40
1.0
 10
871.5824521788
 20
384.6060624184
 30
0.0
 10
871.6055014326
 20
384.7409102259
 30
0.0
 10
871.6900018584
 20
385.2299515996
 30
0.0
 10
871.777084068
 20
385.718564284
 30
0.0
 10
871.8437044653
 20
386.0718237392
 30
0.0
  0
SPLINE
  5
69C
100
AcDbEntity
  8
02___PRT_ALL_AXES
100
AcDbSpline
 62
3
  6
CONTINUOUS
 70
0
 71
3
 72
9
 73
5
 74
0
 42
0.0000001
 43
0.0000001
 44
0.0000000001
 40
0.0
 40
0.0
 40
0.0
 40
0.0
 40
0.276019258
 40
1.0
 40
1.0
 40
1.0
 40
1.0
 10
870.2056802832
 20
367.3396023059
 30
0.0
 10
870.17400546
 20
367.207219898
 30
0.0
 10
870.0601066322
 20
366.7274047106
 30
0.0
 10
869.9487028905
 20
366.246979854
 30
0.0
 10
869.8715266702
 20
365.8983893638
 30
0.0
  0
SPLINE
  5
69D
100
AcDbEntity
  8
02___PRT_ALL_AXES
100
AcDbSpline
 62
3
  6
CONTINUOUS
 70
0
 71
3
 72
9
 73
5
 74
0
 42
0.0000001
 43
0.0000001
 44
0.0000000001
 40
0.0
 40
0.0
 40
0.0
 40
0.0
 40
0.2755990296
 40
1.0
 40
1.0
 40
1.0
 40
1.0
 10
994.5971495199
 20
322.4117051578
 30
0.0
 10
994.6290118836
 20
322.544871364
 30
0.0
 10
994.7454894693
 20
323.0278495089
 30
0.0
 10
994.8644992602
 20
323.510234339
 30
0.0
 10
994.9541760382
 20
323.85878473
 30
0.0
  0
SPLINE
  5
69E
100
AcDbEntity
  8
02___PRT_ALL_AXES
100
AcDbSpline
 62
3
  6
CONTINUOUS
 70
0
 71
3
 72
9
 73
5
 74
0
 42
0.0000001
 43
0.0000001
 44
0.0000000001
 40
0.0
 40
0.0
 40
0.0
 40
0.0
 40
0.2755969201
 40
1.0
 40
1.0
 40
1.0
 40
1.0
 10
876.2652375105
 20
350.7333256025
 30
0.0
 10
876.2970199467
 20
350.8665068459
 30
0.0
 10
876.4132785641
 20
351.3495272919
 30
0.0
 10
876.5325189391
 20
351.8318451961
 30
0.0
 10
876.6222558373
 20
352.1803733179
 30
0.0
  0
SPLINE
  5
69F
100
AcDbEntity
  8
02___PRT_ALL_AXES
100
AcDbSpline
 62
3
  6
CONTINUOUS
 70
0
 71
3
 72
9
 73
5
 74
0
 42
0.0000001
 43
0.0000001
 44
0.0000000001
 40
0.0
 40
0.0
 40
0.0
 40
0.0
 40
0.2759263397
 40
1.0
 40
1.0
 40
1.0
 40
1.0
 10
922.2041186865
 20
313.6717633215
 30
0.0
 10
922.2041489068
 20
313.5353575743
 30
0.0
 10
922.2051684435
 20
313.0410050517
 30
0.0
 10
922.2088424134
 20
312.5466398147
 30
0.0
 10
922.2151991185
 20
312.1887463429
 30
0.0
  0
SPLINE
  5
6A0
100
AcDbEntity
  8
02___PRT_ALL_AXES
100
AcDbSpline
 62
3
  6
CONTINUOUS
 70
0
 71
3
 72
9
 73
5
 74
0
 42
0.0000001
 43
0.0000001
 44
0.0000000001
 40
0.0
 40
0.0
 40
0.0
 40
0.0
 40
0.2755969201
 40
1.0
 40
1.0
 40
1.0
 40
1.0
 10
388.1966111248
 20
595.8780267549
 30
0.0
 10
388.1648286886
 20
595.7448455114
 30
0.0
 10
388.0485700711
 20
595.2618250654
 30
0.0
 10
387.9293296961
 20
594.7795071613
 30
0.0
 10
387.8395927979
 20
594.4309790394
 30
0.0
  0
SPLINE
  5
6A1
100
AcDbEntity
  8
02___PRT_ALL_AXES
100
AcDbSpline
 62
3
  6
CONTINUOUS
 70
0
 71
3
 72
9
 73
5
 74
0
 42
0.0000001
 43
0.0000001
 44
0.0000000001
 40
0.0
 40
0.0
 40
0.0
 40
0.0
 40
0.2758090379
 40
1.0
 40
1.0
 40
1.0
 40
1.0
 10
342.2571029273
 20
632.9358269392
 30
0.0
 10
342.2571029155
 20
633.0723498037
 30
0.0
 10
342.2561920012
 20
633.5673374621
 30
0.0
 10
342.2526210399
 20
634.0623380404
 30
0.0
 10
342.2463683884
 20
634.4207511797
 30
0.0
  0
SPLINE
  5
6A2
100
AcDbEntity
  8
02___PRT_ALL_AXES
100
AcDbSpline
 62
3
  6
CONTINUOUS
 70
0
 71
3
 72
9
 73
5
 74
0
 42
0.0000001
 43
0.0000001
 44
0.0000000001
 40
0.0
 40
0.0
 40
0.0
 40
0.0
 40
0.2758064802
 40
1.0
 40
1.0
 40
1.0
 40
1.0
 10
270.8953681446
 20
632.9358276897
 30
0.0
 10
270.8968164877
 20
633.0723530443
 30
0.0
 10
270.8998769272
 20
633.5673876031
 30
0.0
 10
270.8921804245
 20
634.06241844
 30
0.0
 10
270.8846316684
 20
634.4208379309
 30
0.0
  0
SPLINE
  5
6A3
100
AcDbEntity
  8
02___PRT_ALL_AXES
100
AcDbSpline
 62
3
  6
CONTINUOUS
 70
0
 71
3
 72
9
 73
5
 74
0
 42
0.0000001
 43
0.0000001
 44
0.0000000001
 40
0.0
 40
0.0
 40
0.0
 40
0.0
 40
0.2755990249
 40
1.0
 40
1.0
 40
1.0
 40
1.0
 10
269.8646991347
 20
624.1996472806
 30
0.0
 10
269.832836773
 20
624.0664810764
 30
0.0
 10
269.7163591863
 20
623.5835029323
 30
0.0
 10
269.5973495456
 20
623.1011180633
 30
0.0
 10
269.5076726179
 20
622.7525677085
 30
0.0
  0
SPLINE
  5
6A4
100
AcDbEntity
  8
02___PRT_ALL_AXES
100
AcDbSpline
 62
3
  6
CONTINUOUS
 70
0
 71
3
 72
9
 73
5
 74
0
 42
0.0000001
 43
0.0000001
 44
0.0000000001
 40
0.0
 40
0.0
 40
0.0
 40
0.0
 40
0.2756538275
 40
1.0
 40
1.0
 40
1.0
 40
1.0
 10
392.879396456
 20
562.0052899366
 30
0.0
 10
392.8561517932
 20
561.8704744342
 30
0.0
 10
392.7711165091
 20
561.3815246072
 30
0.0
 10
392.6846015289
 20
560.8928110121
 30
0.0
 10
392.618142595
 20
560.5395205484
 30
0.0
  0
SPLINE
  5
6A5
100
AcDbEntity
  8
02___PRT_ALL_AXES
100
AcDbSpline
 62
3
  6
CONTINUOUS
 70
0
 71
3
 72
9
 73
5
 74
0
 42
0.0000001
 43
0.0000001
 44
0.0000000001
 40
0.0
 40
0.0
 40
0.0
 40
0.0
 40
0.2760192585
 40
1.0
 40
1.0
 40
1.0
 40
1.0
 10
394.2561683538
 20
579.271750059
 30
0.0
 10
394.287843177
 20
579.4041324672
 30
0.0
 10
394.4017420051
 20
579.8839476545
 30
0.0
 10
394.5131457222
 20
580.3643725165
 30
0.0
 10
394.5903219667
 20
580.7129630012
 30
0.0
  0
SPLINE
  5
6A6
100
AcDbEntity
  8
02___PRT_ALL_AXES
100
AcDbSpline
 62
3
  6
CONTINUOUS
 70
0
 71
3
 72
9
 73
5
 74
0
 42
0.0000001
 43
0.0000001
 44
0.0000000001
 40
0.0
 40
0.0
 40
0.0
 40
0.0
 40
0.2761867276
 40
1.0
 40
1.0
 40
1.0
 40
1.0
 10
201.9957457991
 20
625.2874541813
 30
0.0
 10
202.0286577589
 20
625.4199412982
 30
0.0
 10
202.1460255765
 20
625.9000939533
 30
0.0
 10
202.2543508311
 20
626.3824085668
 30
0.0
 10
202.3306151715
 20
626.7319526883
 30
0.0
  0
SPLINE
  5
6A7
100
AcDbEntity
  8
02___PRT_ALL_AXES
100
AcDbSpline
 62
3
  6
CONTINUOUS
 70
0
 71
3
 72
9
 73
5
 74
0
 42
0.0000001
 43
0.0000001
 44
0.0000000001
 40
0.0
 40
0.0
 40
0.0
 40
0.0
 40
0.2753004035
 40
1.0
 40
1.0
 40
1.0
 40
1.0
 10
191.2505389894
 20
623.2732419008
 30
0.0
 10
191.1724495901
 20
623.3864185461
 30
0.0
 10
190.8881724478
 20
623.7970868981
 30
0.0
 10
190.6020678343
 20
624.2065050395
 30
0.0
 10
190.3922425098
 20
624.5014438155
 30
0.0
  0
SPLINE
  5
6A8
100
AcDbEntity
  8
02___PRT_ALL_AXES
100
AcDbSpline
 62
3
  6
CONTINUOUS
 70
0
 71
3
 72
9
 73
5
 74
0
 42
0.0000001
 43
0.0000001
 44
0.0000000001
 40
0.0
 40
0.0
 40
0.0
 40
0.0
 40
0.2756570015
 40
1.0
 40
1.0
 40
1.0
 40
1.0
 10
176.4893699881
 20
598.9950383623
 30
0.0
 10
176.4663241728
 20
598.8601792009
 30
0.0
 10
176.3818323446
 20
598.3711057629
 30
0.0
 10
176.2947452512
 20
597.8824630622
 30
0.0
 10
176.2281009573
 20
597.5291882264
 30
0.0
  0
SPLINE
  5
6A9
100
AcDbEntity
  8
02___PRT_ALL_AXES
100
AcDbSpline
 62
3
  6
CONTINUOUS
 70
0
 71
3
 72
9
 73
5
 74
0
 42
0.0000001
 43
0.0000001
 44
0.0000000001
 40
0.0
 40
0.0
 40
0.0
 40
0.0
 40
0.275711497
 40
1.0
 40
1.0
 40
1.0
 40
1.0
 10
393.1072133025
 20
529.3781162418
 30
0.0
 10
393.0932095585
 20
529.242149268
 30
0.0
 10
393.0415702576
 20
528.749090144
 30
0.0
 10
392.9876324123
 20
528.2562527961
 30
0.0
 10
392.9448750007
 20
527.8997356847
 30
0.0
  0
SPLINE
  5
6AA
100
AcDbEntity
  8
02___PRT_ALL_AXES
100
AcDbSpline
 62
3
  6
CONTINUOUS
 70
0
 71
3
 72
9
 73
5
 74
0
 42
0.0000001
 43
0.0000001
 44
0.0000000001
 40
0.0
 40
0.0
 40
0.0
 40
0.0
 40
0.275961212
 40
1.0
 40
1.0
 40
1.0
 40
1.0
 10
394.0354187465
 20
546.8541884564
 30
0.0
 10
394.0583663035
 20
546.9884725653
 30
0.0
 10
394.1406396347
 20
547.4752253984
 30
0.0
 10
394.2203446208
 20
547.9624299625
 30
0.0
 10
394.2744830772
 20
548.3157343407
 30
0.0
  0
SPLINE
  5
6AB
100
AcDbEntity
  8
02___PRT_ALL_AXES
100
AcDbSpline
 62
3
  6
CONTINUOUS
 70
0
 71
3
 72
9
 73
5
 74
0
 42
0.0000001
 43
0.0000001
 44
0.0000000001
 40
0.0
 40
0.0
 40
0.0
 40
0.0
 40
0.2759480355
 40
1.0
 40
1.0
 40
1.0
 40
1.0
 10
171.6354187446
 20
584.8712824624
 30
0.0
 10
171.6603159905
 20
585.0052108789
 30
0.0
 10
171.7479398841
 20
585.4910480199
 30
0.0
 10
171.8220813771
 20
585.9791844939
 30
0.0
 10
171.8744724225
 20
586.3327554192
 30
0.0
  0
SPLINE
  5
6AC
100
AcDbEntity
  8
02___PRT_ALL_AXES
100
AcDbSpline
 62
3
  6
CONTINUOUS
 70
0
 71
3
 72
9
 73
5
 74
0
 42
0.0000001
 43
0.0000001
 44
0.0000000001
 40
0.0
 40
0.0
 40
0.0
 40
0.0
 40
0.2757169635
 40
1.0
 40
1.0
 40
1.0
 40
1.0
 10
170.7072133631
 20
552.1883732435
 30
0.0
 10
170.6932703047
 20
552.0523868514
 30
0.0
 10
170.641796458
 20
551.5592722788
 30
0.0
 10
170.5876852481
 20
551.0664152173
 30
0.0
 10
170.544861721
 20
550.709881247
 30
0.0
  0
SPLINE
  5
6AD
100
AcDbEntity
  8
02___PRT_ALL_AXES
100
AcDbSpline
 62
3
  6
CONTINUOUS
 70
0
 71
3
 72
9
 73
5
 74
0
 42
0.0000001
 43
0.0000001
 44
0.0000000001
 40
0.0
 40
0.0
 40
0.0
 40
0.0
 40
0.2757707794
 40
1.0
 40
1.0
 40
1.0
 40
1.0
 10
393.3399047466
 20
496.8854158875
 30
0.0
 10
393.3353156142
 20
496.7489270373
 30
0.0
 10
393.3176967696
 20
496.2540267347
 30
0.0
 10
393.2970002302
 20
495.7592200034
 30
0.0
 10
393.2784328121
 20
495.4010513753
 30
0.0
  0
SPLINE
  5
6AE
100
AcDbEntity
  8
02___PRT_ALL_AXES
100
AcDbSpline
 62
3
  6
CONTINUOUS
 70
0
 71
3
 72
9
 73
5
 74
0
 42
0.0000001
 43
0.0000001
 44
0.0000000001
 40
0.0
 40
0.0
 40
0.0
 40
0.0
 40
0.2759011582
 40
1.0
 40
1.0
 40
1.0
 40
1.0
 10
393.8072159144
 20
514.4893023311
 30
0.0
 10
393.8211229726
 20
514.6249373007
 30
0.0
 10
393.8706295154
 20
515.1166337483
 30
0.0
 10
393.9175153669
 20
515.6086118524
 30
0.0
 10
393.9478287573
 20
515.9651639918
 30
0.0
  0
SPLINE
  5
6AF
100
AcDbEntity
  8
02___PRT_ALL_AXES
100
AcDbSpline
 62
3
  6
CONTINUOUS
 70
0
 71
3
 72
9
 73
5
 74
0
 42
0.0000001
 43
0.0000001
 44
0.0000000001
 40
0.0
 40
0.0
 40
0.0
 40
0.0
 40
0.275886871
 40
1.0
 40
1.0
 40
1.0
 40
1.0
 10
171.4072159755
 20
537.2995593373
 30
0.0
 10
171.4229696319
 20
537.4349805086
 30
0.0
 10
171.4775382303
 20
537.9261452795
 30
0.0
 10
171.5191606946
 20
538.4186327508
 30
0.0
 10
171.5478205485
 20
538.7753165781
 30
0.0
  0
SPLINE
  5
6B0
100
AcDbEntity
  8
02___PRT_ALL_AXES
100
AcDbSpline
 62
3
  6
CONTINUOUS
 70
0
 71
3
 72
9
 73
5
 74
0
 42
0.0000001
 43
0.0000001
 44
0.0000000001
 40
0.0
 40
0.0
 40
0.0
 40
0.0
 40
0.2757782419
 40
1.0
 40
1.0
 40
1.0
 40
1.0
 10
170.9399047464
 20
504.4888346857
 30
0.0
 10
170.935239417
 20
504.3523323682
 30
0.0
 10
170.9174118615
 20
503.857395066
 30
0.0
 10
170.8969264413
 20
503.3625356567
 30
0.0
 10
170.8784257926
 20
503.0043348102
 30
0.0
  0
SPLINE
  5
6B1
100
AcDbEntity
  8
02___PRT_ALL_AXES
100
AcDbSpline
 62
3
  6
CONTINUOUS
 70
0
 71
3
 72
9
 73
5
 74
0
 42
0.0000001
 43
0.0000001
 44
0.0000000001
 40
0.0
 40
0.0
 40
0.0
 40
0.0
 40
0.2758530216
 40
1.0
 40
1.0
 40
1.0
 40
1.0
 10
393.5743261648
 20
464.4822591543
 30
0.0
 10
393.5778590596
 20
464.3458238845
 30
0.0
 10
393.5907526586
 20
463.851233595
 30
0.0
 10
393.6073113756
 20
463.3567287151
 30
0.0
 10
393.6143083732
 20
462.9985181861
 30
0.0
  0
SPLINE
  5
6B2
100
AcDbEntity
  8
02___PRT_ALL_AXES
100
AcDbSpline
 62
3
  6
CONTINUOUS
 70
0
 71
3
 72
9
 73
5
 74
0
 42
0.0000001
 43
0.0000001
 44
0.0000000001
 40
0.0
 40
0.0
 40
0.0
 40
0.0
 40
0.2758398847
 40
1.0
 40
1.0
 40
1.0
 40
1.0
 10
393.5743261397
 20
482.12909247
 30
0.0
 10
393.5789874368
 20
482.2654765334
 30
0.0
 10
393.5949767815
 20
482.7599367103
 30
0.0
 10
393.6083152479
 20
483.2545004802
 30
0.0
 10
393.6143057546
 20
483.6127073796
 30
0.0
  0
SPLINE
  5
6B3
100
AcDbEntity
  8
02___PRT_ALL_AXES
100
AcDbSpline
 62
3
  6
CONTINUOUS
 70
0
 71
3
 72
9
 73
5
 74
0
 42
0.0000001
 43
0.0000001
 44
0.0000000001
 40
0.0
 40
0.0
 40
0.0
 40
0.0
 40
0.2758248952
 40
1.0
 40
1.0
 40
1.0
 40
1.0
 10
171.1743261646
 20
489.7325120012
 30
0.0
 10
171.1807160626
 20
489.8688112556
 30
0.0
 10
171.2014395246
 20
490.3630878309
 30
0.0
 10
171.2098490121
 20
490.8577803904
 30
0.0
 10
171.2143043705
 20
491.215997856
 30
0.0
  0
SPLINE
  5
6B4
100
AcDbEntity
  8
02___PRT_ALL_AXES
100
AcDbSpline
 62
3
  6
CONTINUOUS
 70
0
 71
3
 72
9
 73
5
 74
0
 42
0.0000001
 43
0.0000001
 44
0.0000000001
 40
0.0
 40
0.0
 40
0.0
 40
0.0
 40
0.2758399254
 40
1.0
 40
1.0
 40
1.0
 40
1.0
 10
171.1743261646
 20
456.8788403561
 30
0.0
 10
171.1789874562
 20
456.7424562725
 30
0.0
 10
171.1949767933
 20
456.2479960946
 30
0.0
 10
171.208314945
 20
455.7534323204
 30
0.0
 10
171.2143057668
 20
455.3952254465
 30
0.0
  0
SPLINE
  5
6B5
100
AcDbEntity
  8
02___PRT_ALL_AXES
100
AcDbSpline
 62
3
  6
CONTINUOUS
 70
0
 71
3
 72
9
 73
5
 74
0
 42
0.0000001
 43
0.0000001
 44
0.0000000001
 40
0.0
 40
0.0
 40
0.0
 40
0.0
 40
0.2759039031
 40
1.0
 40
1.0
 40
1.0
 40
1.0
 10
393.8072159775
 20
432.1220494107
 30
0.0
 10
393.8209096356
 20
431.9863889396
 30
0.0
 10
393.8698310237
 20
431.4946257963
 30
0.0
 10
393.9173227039
 20
431.0026990302
 30
0.0
 10
393.9478313168
 20
430.6461585425
 30
0.0
  0
SPLINE
  5
6B6
100
AcDbEntity
  8
02___PRT_ALL_AXES
100
AcDbSpline
 62
3
  6
CONTINUOUS
 70
0
 71
3
 72
9
 73
5
 74
0
 42
0.0000001
 43
0.0000001
 44
0.0000000001
 40
0.0
 40
0.0
 40
0.0
 40
0.0
 40
0.2757782415
 40
1.0
 40
1.0
 40
1.0
 40
1.0
 10
393.3399047466
 20
449.7259364698
 30
0.0
 10
393.3352394225
 20
449.8624387872
 30
0.0
 10
393.3174118603
 20
450.3573760875
 30
0.0
 10
393.2969271018
 20
450.8522355325
 30
0.0
 10
393.2784257928
 20
451.2104363453
 30
0.0
  0
SPLINE
  5
6B7
100
AcDbEntity
  8
02___PRT_ALL_AXES
100
AcDbSpline
 62
3
  6
CONTINUOUS
 70
0
 71
3
 72
9
 73
5
 74
0
 42
0.0000001
 43
0.0000001
 44
0.0000000001
 40
0.0
 40
0.0
 40
0.0
 40
0.0
 40
0.2757728619
 40
1.0
 40
1.0
 40
1.0
 40
1.0
 10
170.9399047464
 20
442.1225176716
 30
0.0
 10
170.9381708206
 20
442.2591091651
 30
0.0
 10
170.9283832436
 20
442.7544003074
 30
0.0
 10
170.8995312314
 20
443.2490394987
 30
0.0
 10
170.8784171702
 20
443.6071593572
 30
0.0
  0
SPLINE
  5
6B8
100
AcDbEntity
  8
02___PRT_ALL_AXES
100
AcDbSpline
 62
3
  6
CONTINUOUS
 70
0
 71
3
 72
9
 73
5
 74
0
 42
0.0000001
 43
0.0000001
 44
0.0000000001
 40
0.0
 40
0.0
 40
0.0
 40
0.0
 40
0.2759011838
 40
1.0
 40
1.0
 40
1.0
 40
1.0
 10
171.4072159608
 20
409.3117931631
 30
0.0
 10
171.4211230086
 20
409.1761581798
 30
0.0
 10
171.470629535
 20
408.6844617296
 30
0.0
 10
171.5175149078
 20
408.1924835865
 30
0.0
 10
171.5478287959
 20
407.8359315024
 30
0.0
  0
SPLINE
  5
6B9
100
AcDbEntity
  8
02___PRT_ALL_AXES
100
AcDbSpline
 62
3
  6
CONTINUOUS
 70
0
 71
3
 72
9
 73
5
 74
0
 42
0.0000001
 43
0.0000001
 44
0.0000000001
 40
0.0
 40
0.0
 40
0.0
 40
0.0
 40
0.275716997
 40
1.0
 40
1.0
 40
1.0
 40
1.0
 10
393.1072133025
 20
417.2332361155
 30
0.0
 10
393.0932702265
 20
417.3692225225
 30
0.0
 10
393.041796365
 20
417.8623370963
 30
0.0
 10
392.9876842545
 20
418.3551940475
 30
0.0
 10
392.94486165
 20
418.711728112
 30
0.0
  0
SPLINE
  5
6BA
100
AcDbEntity
  8
02___PRT_ALL_AXES
100
AcDbSpline
 62
3
  6
CONTINUOUS
 70
0
 71
3
 72
9
 73
5
 74
0
 42
0.0000001
 43
0.0000001
 44
0.0000000001
 40
0.0
 40
0.0
 40
0.0
 40
0.0
 40
0.2757096958
 40
1.0
 40
1.0
 40
1.0
 40
1.0
 10
170.7072133005
 20
394.4229797247
 30
0.0
 10
170.6952729337
 20
394.5591621361
 30
0.0
 10
170.6492823949
 20
395.052875656
 30
0.0
 10
170.5894627603
 20
395.5451662309
 30
0.0
 10
170.5448568569
 20
395.901509427
 30
0.0
  0
SPLINE
  5
6BB
100
AcDbEntity
  8
02___PRT_ALL_AXES
100
AcDbSpline
 62
3
  6
CONTINUOUS
 70
0
 71
3
 72
9
 73
5
 74
0
 42
0.0000001
 43
0.0000001
 44
0.0000000001
 40
0.0
 40
0.0
 40
0.0
 40
0.0
 40
0.2759612002
 40
1.0
 40
1.0
 40
1.0
 40
1.0
 10
171.635418711
 20
361.7400700918
 30
0.0
 10
171.6583662739
 20
361.6057859897
 30
0.0
 10
171.7406396151
 20
361.1190331589
 30
0.0
 10
171.8203448705
 20
360.6318286349
 30
0.0
 10
171.8744830453
 20
360.2785242075
 30
0.0
  0
SPLINE
  5
6BC
100
AcDbEntity
  8
02___PRT_ALL_AXES
100
AcDbSpline
 62
3
  6
CONTINUOUS
 70
0
 71
3
 72
9
 73
5
 74
0
 42
0.0000001
 43
0.0000001
 44
0.0000000001
 40
0.0
 40
0.0
 40
0.0
 40
0.0
 40
0.2760158312
 40
1.0
 40
1.0
 40
1.0
 40
1.0
 10
394.2561683548
 20
367.3396022942
 30
0.0
 10
394.2888982196
 20
367.2074725601
 30
0.0
 10
394.4056951402
 20
366.7283239677
 30
0.0
 10
394.5141116682
 20
366.2471712376
 30
0.0
 10
394.5903299572
 20
365.8983527893
 30
0.0
  0
SPLINE
  5
6BD
100
AcDbEntity
  8
02___PRT_ALL_AXES
100
AcDbSpline
 62
3
  6
CONTINUOUS
 70
0
 71
3
 72
9
 73
5
 74
0
 42
0.0000001
 43
0.0000001
 44
0.0000000001
 40
0.0
 40
0.0
 40
0.0
 40
0.0
 40
0.2756570076
 40
1.0
 40
1.0
 40
1.0
 40
1.0
 10
392.8793964893
 20
384.6060622263
 30
0.0
 10
392.8563506739
 20
384.7409213908
 30
0.0
 10
392.7718588439
 20
385.2299948283
 30
0.0
 10
392.6847718462
 20
385.7186375474
 30
0.0
 10
392.6181274566
 20
386.0719123622
 30
0.0
  0
SPLINE
  5
6BE
100
AcDbEntity
  8
02___PRT_ALL_AXES
100
AcDbSpline
 62
3
  6
CONTINUOUS
 70
0
 71
3
 72
9
 73
5
 74
0
 42
0.0000001
 43
0.0000001
 44
0.0000000001
 40
0.0
 40
0.0
 40
0.0
 40
0.0
 40
0.2752662845
 40
1.0
 40
1.0
 40
1.0
 40
1.0
 10
191.242188657
 20
323.3314137395
 30
0.0
 10
191.1643565941
 20
323.2181060458
 30
0.0
 10
190.8809767348
 20
322.806910419
 30
0.0
 10
190.5957605604
 20
322.3969653816
 30
0.0
 10
190.3865555529
 20
322.1016329622
 30
0.0
  0
SPLINE
  5
6BF
100
AcDbEntity
  8
02___PRT_ALL_AXES
100
AcDbSpline
 62
3
  6
CONTINUOUS
 70
0
 71
3
 72
9
 73
5
 74
0
 42
0.0000001
 43
0.0000001
 44
0.0000000001
 40
0.0
 40
0.0
 40
0.0
 40
0.0
 40
0.2760191745
 40
1.0
 40
1.0
 40
1.0
 40
1.0
 10
201.9957463331
 20
321.3238959442
 30
0.0
 10
202.0274211171
 20
321.1915135689
 30
0.0
 10
202.1413200157
 20
320.7116983841
 30
0.0
 10
202.2527192252
 20
320.2312725331
 30
0.0
 10
202.3298999719
 20
319.882683002
 30
0.0
  0
SPLINE
  5
6C0
100
AcDbEntity
  8
02___PRT_ALL_AXES
100
AcDbSpline
 62
3
  6
CONTINUOUS
 70
0
 71
3
 72
9
 73
5
 74
0
 42
0.0000001
 43
0.0000001
 44
0.0000000001
 40
0.0
 40
0.0
 40
0.0
 40
0.0
 40
0.2759241147
 40
1.0
 40
1.0
 40
1.0
 40
1.0
 10
342.2577299487
 20
313.6717633215
 30
0.0
 10
342.25763306
 20
313.5353632792
 30
0.0
 10
342.2563858739
 20
313.0410278207
 30
0.0
 10
342.2525019217
 20
312.546681161
 30
0.0
 10
342.2460273991
 20
312.1888007057
 30
0.0
  0
SPLINE
  5
6C1
100
AcDbEntity
  8
02___PRT_ALL_AXES
100
AcDbSpline
 62
3
  6
CONTINUOUS
 70
0
 71
3
 72
9
 73
5
 74
0
 42
0.0000001
 43
0.0000001
 44
0.0000000001
 40
0.0
 40
0.0
 40
0.0
 40
0.0
 40
0.2755990303
 40
1.0
 40
1.0
 40
1.0
 40
1.0
 10
388.1966111248
 20
350.7333256025
 30
0.0
 10
388.1647487644
 20
350.8664918098
 30
0.0
 10
388.048271179
 20
351.3494699541
 30
0.0
 10
387.9292616662
 20
351.8318548564
 30
0.0
 10
387.8395846063
 20
352.1804051746
 30
0.0
  0
SPLINE
  5
6C2
100
AcDbEntity
  8
02___PRT_ALL_AXES
100
AcDbSpline
 62
3
  6
CONTINUOUS
 70
0
 71
3
 72
9
 73
5
 74
0
 42
0.0000001
 43
0.0000001
 44
0.0000000001
 40
0.0
 40
0.0
 40
0.0
 40
0.0
 40
0.2755973677
 40
1.0
 40
1.0
 40
1.0
 40
1.0
 10
269.8646991153
 20
322.4117051578
 30
0.0
 10
269.8344870296
 20
322.5452700953
 30
0.0
 10
269.7225235393
 20
323.0293893334
 30
0.0
 10
269.5987952507
 20
323.5106888186
 30
0.0
 10
269.5076427302
 20
323.8588981166
 30
0.0
  0
SPLINE
  5
6C3
100
AcDbEntity
  8
02___PRT_ALL_AXES
100
AcDbSpline
 62
3
  6
CONTINUOUS
 70
0
 71
3
 72
9
 73
5
 74
0
 42
0.0000001
 43
0.0000001
 44
0.0000000001
 40
0.0
 40
0.0
 40
0.0
 40
0.0
 40
0.2758090781
 40
1.0
 40
1.0
 40
1.0
 40
1.0
 10
270.8953681446
 20
313.6755247626
 30
0.0
 10
270.8953681512
 20
313.5390018781
 30
0.0
 10
270.8944571953
 20
313.0440142272
 30
0.0
 10
270.8908890533
 20
312.549013593
 30
0.0
 10
270.8846335943
 20
312.1906005221
 30
0.0
  0
SPLINE
  5
6C4
100
AcDbEntity
  8
02___PRT_ALL_AXES
100
AcDbSpline
 62
3
  6
CONTINUOUS
 70
0
 71
3
 72
9
 73
5
 74
0
 42
0.0000001
 43
0.0000001
 44
0.0000000001
 40
0.0
 40
0.0
 40
0.0
 40
0.0
 40
0.2758090845
 40
1.0
 40
1.0
 40
1.0
 40
1.0
 10
993.5926591885
 20
635.9269965136
 30
0.0
 10
993.5926591878
 20
635.8294801652
 30
0.0
 10
993.5920084894
 20
635.4759175576
 30
0.0
 10
993.5894598604
 20
635.1223456754
 30
0.0
 10
993.5849916511
 20
634.8663363418
 30
0.0
  0
SPLINE
  5
6C5
100
AcDbEntity
  8
02___PRT_ALL_AXES
100
AcDbSpline
 62
3
  6
CONTINUOUS
 70
0
 71
3
 72
9
 73
5
 74
0
 42
0.0000001
 43
0.0000001
 44
0.0000000001
 40
0.0
 40
0.0
 40
0.0
 40
0.0
 40
0.2755990306
 40
1.0
 40
1.0
 40
1.0
 40
1.0
 10
876.9870356733
 20
592.9707400357
 30
0.0
 10
876.9642768445
 20
593.0658587554
 30
0.0
 10
876.8810785702
 20
593.4108431444
 30
0.0
 10
876.7960717513
 20
593.7554037828
 30
0.0
 10
876.7320167315
 20
594.0043683016
 30
0.0
  0
SPLINE
  5
6C6
100
AcDbEntity
  8
02___PRT_ALL_AXES
100
AcDbSpline
 62
3
  6
CONTINUOUS
 70
0
 71
3
 72
9
 73
5
 74
0
 42
0.0000001
 43
0.0000001
 44
0.0000000001
 40
0.0
 40
0.0
 40
0.0
 40
0.0
 40
0.2756547606
 40
1.0
 40
1.0
 40
1.0
 40
1.0
 10
1088.5022865477
 20
596.0479078342
 30
0.0
 10
1088.4867502168
 20
596.1443907191
 30
0.0
 10
1088.4289459959
 20
596.4941760906
 30
0.0
 10
1088.3640930369
 20
596.8427546891
 30
0.0
 10
1088.3156658013
 20
597.0949436456
 30
0.0
  0
SPLINE
  5
6C7
100
AcDbEntity
  8
02___PRT_ALL_AXES
100
AcDbSpline
 62
3
  6
CONTINUOUS
 70
0
 71
3
 72
9
 73
5
 74
0
 42
0.0000001
 43
0.0000001
 44
0.0000000001
 40
0.0
 40
0.0
 40
0.0
 40
0.0
 40
0.2752976522
 40
1.0
 40
1.0
 40
1.0
 40
1.0
 10
1074.9350622957
 20
625.7398253748
 30
0.0
 10
1074.8795492296
 20
625.658824873
 30
0.0
 10
1074.6774533253
 20
625.3649050991
 30
0.0
 10
1074.4740381863
 20
625.0718820027
 30
0.0
 10
1074.3248530176
 20
624.8607769266
 30
0.0
  0
SPLINE
  5
6C8
100
AcDbEntity
  8
02___PRT_ALL_AXES
100
AcDbSpline
 62
3
  6
CONTINUOUS
 70
0
 71
3
 72
9
 73
5
 74
0
 42
0.0000001
 43
0.0000001
 44
0.0000000001
 40
0.0
 40
0.0
 40
0.0
 40
0.0
 40
0.2760195477
 40
1.0
 40
1.0
 40
1.0
 40
1.0
 10
1061.7958220806
 20
628.1982622973
 30
0.0
 10
1061.8184469865
 20
628.1037033384
 30
0.0
 10
1061.8998031286
 20
627.7609781861
 30
0.0
 10
1061.9793827551
 20
627.4178187903
 30
0.0
 10
1062.0345031647
 20
627.1688244814
 30
0.0
  0
SPLINE
  5
6C9
100
AcDbEntity
  8
02___PRT_ALL_AXES
100
AcDbSpline
 62
3
  6
CONTINUOUS
 70
0
 71
3
 72
9
 73
5
 74
0
 42
0.0000001
 43
0.0000001
 44
0.0000000001
 40
0.0
 40
0.0
 40
0.0
 40
0.0
 40
0.2756628964
 40
1.0
 40
1.0
 40
1.0
 40
1.0
 10
872.1125934455
 20
559.0583473319
 30
0.0
 10
872.0961178346
 20
559.1546696979
 30
0.0
 10
872.0357155897
 20
559.5039798841
 30
0.0
 10
871.9734585114
 20
559.8529820829
 30
0.0
 10
871.9258038484
 20
560.1052954703
 30
0.0
  0
SPLINE
  5
6CA
100
AcDbEntity
  8
02___PRT_ALL_AXES
100
AcDbSpline
 62
3
  6
CONTINUOUS
 70
0
 71
3
 72
9
 73
5
 74
0
 42
0.0000001
 43
0.0000001
 44
0.0000000001
 40
0.0
 40
0.0
 40
0.0
 40
0.0
 40
0.2759612131
 40
1.0
 40
1.0
 40
1.0
 40
1.0
 10
1092.3485373877
 20
587.8209961491
 30
0.0
 10
1092.3649284998
 20
587.725078928
 30
0.0
 10
1092.4236951753
 20
587.3773983339
 30
0.0
 10
1092.4806269842
 20
587.0293950248
 30
0.0
 10
1092.5192976236
 20
586.7770348031
 30
0.0
  0
SPLINE
  5
6CB
100
AcDbEntity
  8
02___PRT_ALL_AXES
100
AcDbSpline
 62
3
  6
CONTINUOUS
 70
0
 71
3
 72
9
 73
5
 74
0
 42
0.0000001
 43
0.0000001
 44
0.0000000001
 40
0.0
 40
0.0
 40
0.0
 40
0.0
 40
0.2757169999
 40
1.0
 40
1.0
 40
1.0
 40
1.0
 10
871.6858264007
 20
526.4033388851
 30
0.0
 10
871.6758670623
 20
526.5004720342
 30
0.0
 10
871.6391000248
 20
526.8526967306
 30
0.0
 10
871.6004484448
 20
527.2047374013
 30
0.0
 10
871.569860934
 20
527.4594045969
 30
0.0
  0
SPLINE
  5
6CC
100
AcDbEntity
  8
02___PRT_ALL_AXES
100
AcDbSpline
 62
3
  6
CONTINUOUS
 70
0
 71
3
 72
9
 73
5
 74
0
 42
0.0000001
 43
0.0000001
 44
0.0000000001
 40
0.0
 40
0.0
 40
0.0
 40
0.0
 40
0.2757155808
 40
1.0
 40
1.0
 40
1.0
 40
1.0
 10
1094.0858258877
 20
549.2135958942
 30
0.0
 10
1094.0769043443
 20
549.3108319169
 30
0.0
 10
1094.0430039057
 20
549.6633635854
 30
0.0
 10
1094.0013775079
 20
550.0151005111
 30
0.0
 10
1093.9698604096
 20
550.269661606
 30
0.0
  0
SPLINE
  5
6CD
100
AcDbEntity
  8
02___PRT_ALL_AXES
100
AcDbSpline
 62
3
  6
CONTINUOUS
 70
0
 71
3
 72
9
 73
5
 74
0
 42
0.0000001
 43
0.0000001
 44
0.0000000001
 40
0.0
 40
0.0
 40
0.0
 40
0.0
 40
0.2759011949
 40
1.0
 40
1.0
 40
1.0
 40
1.0
 10
1092.7756368095
 20
540.2759152656
 30
0.0
 10
1092.7855704104
 20
540.1790331303
 30
0.0
 10
1092.8209322198
 20
539.8278213792
 30
0.0
 10
1092.854421198
 20
539.4764083725
 30
0.0
 10
1092.8760745463
 20
539.2217283651
 30
0.0
  0
SPLINE
  5
6CE
100
AcDbEntity
  8
02___PRT_ALL_AXES
100
AcDbSpline
 62
3
  6
CONTINUOUS
 70
0
 71
3
 72
9
 73
5
 74
0
 42
0.0000001
 43
0.0000001
 44
0.0000000001
 40
0.0
 40
0.0
 40
0.0
 40
0.0
 40
0.2759000914
 40
1.0
 40
1.0
 40
1.0
 40
1.0
 10
870.3756366754
 20
517.4656581844
 30
0.0
 10
870.3865323264
 20
517.3688775945
 30
0.0
 10
870.4245561412
 20
517.0179265809
 30
0.0
 10
870.4552868622
 20
516.6662298842
 30
0.0
 10
870.4760744009
 20
516.4114712839
 30
0.0
  0
SPLINE
  5
6CF
100
AcDbEntity
  8
02___PRT_ALL_AXES
100
AcDbSpline
 62
3
  6
CONTINUOUS
 70
0
 71
3
 72
9
 73
5
 74
0
 42
0.0000001
 43
0.0000001
 44
0.0000000001
 40
0.0
 40
0.0
 40
0.0
 40
0.0
 40
0.2757782458
 40
1.0
 40
1.0
 40
1.0
 40
1.0
 10
871.2502847999
 20
493.8962583235
 30
0.0
 10
871.246952427
 20
493.9937599804
 30
0.0
 10
871.234218462
 20
494.3472866241
 30
0.0
 10
871.2195863581
 20
494.7007576491
 30
0.0
 10
871.2063712605
 20
494.9566153774
 30
0.0
  0
SPLINE
  5
6D0
100
AcDbEntity
  8
02___PRT_ALL_AXES
100
AcDbSpline
 62
3
  6
CONTINUOUS
 70
0
 71
3
 72
9
 73
5
 74
0
 42
0.0000001
 43
0.0000001
 44
0.0000000001
 40
0.0
 40
0.0
 40
0.0
 40
0.0
 40
0.2757627066
 40
1.0
 40
1.0
 40
1.0
 40
1.0
 10
1093.6502850902
 20
501.4996771311
 30
0.0
 10
1093.6494252943
 20
501.5972357955
 30
0.0
 10
1093.6434542573
 20
501.9510189528
 30
0.0
 10
1093.6217747473
 20
502.3042687146
 30
0.0
 10
1093.6063715509
 20
502.560034185
 30
0.0
  0
SPLINE
  5
6D1
100
AcDbEntity
  8
02___PRT_ALL_AXES
100
AcDbSpline
 62
3
  6
CONTINUOUS
 70
0
 71
3
 72
9
 73
5
 74
0
 42
0.0000001
 43
0.0000001
 44
0.0000000001
 40
0.0
 40
0.0
 40
0.0
 40
0.0
 40
0.2758399299
 40
1.0
 40
1.0
 40
1.0
 40
1.0
 10
1093.211520449
 20
492.7222006666
 30
0.0
 10
1093.2148499382
 20
492.6247834623
 30
0.0
 10
1093.2262709029
 20
492.2715976194
 30
0.0
 10
1093.2357974372
 20
491.9183377703
 30
0.0
 10
1093.2400773068
 20
491.6624757312
 30
0.0
  0
SPLINE
  5
6D2
100
AcDbEntity
  8
02___PRT_ALL_AXES
100
AcDbSpline
 62
3
  6
CONTINUOUS
 70
0
 71
3
 72
9
 73
5
 74
0
 42
0.0000001
 43
0.0000001
 44
0.0000000001
 40
0.0
 40
0.0
 40
0.0
 40
0.0
 40
0.2758401719
 40
1.0
 40
1.0
 40
1.0
 40
1.0
 10
870.8115202698
 20
485.1187810622
 30
0.0
 10
870.8156995792
 20
485.02139459
 30
0.0
 10
870.829472715
 20
484.6682782178
 30
0.0
 10
870.8365618476
 20
484.3149348149
 30
0.0
 10
870.8400771137
 20
484.0590561268
 30
0.0
  0
SPLINE
  5
6D3
100
AcDbEntity
  8
02___PRT_ALL_AXES
100
AcDbSpline
 62
3
  6
CONTINUOUS
 70
0
 71
3
 72
9
 73
5
 74
0
 42
0.0000001
 43
0.0000001
 44
0.0000000001
 40
0.0
 40
0.0
 40
0.0
 40
0.0
 40
0.2758399294
 40
1.0
 40
1.0
 40
1.0
 40
1.0
 10
870.8115204998
 20
461.4925704866
 30
0.0
 10
870.8148499887
 20
461.5899876908
 30
0.0
 10
870.8262709415
 20
461.9431735332
 30
0.0
 10
870.8357978353
 20
462.2964333769
 30
0.0
 10
870.8400773576
 20
462.5522954221
 30
0.0
  0
SPLINE
  5
6D4
100
AcDbEntity
  8
02___PRT_ALL_AXES
100
AcDbSpline
 62
3
  6
CONTINUOUS
 70
0
 71
3
 72
9
 73
5
 74
0
 42
0.0000001
 43
0.0000001
 44
0.0000000001
 40
0.0
 40
0.0
 40
0.0
 40
0.0
 40
0.2758307587
 40
1.0
 40
1.0
 40
1.0
 40
1.0
 10
1093.2115204491
 20
453.8891516907
 30
0.0
 10
1093.216455048
 20
453.9865023391
 30
0.0
 10
1093.2322855207
 20
454.3395561231
 30
0.0
 10
1093.2372273565
 20
454.6929788498
 30
0.0
 10
1093.2400773068
 20
454.9488766262
 30
0.0
  0
SPLINE
  5
6D5
100
AcDbEntity
  8
02___PRT_ALL_AXES
100
AcDbSpline
 62
3
  6
CONTINUOUS
 70
0
 71
3
 72
9
 73
5
 74
0
 42
0.0000001
 43
0.0000001
 44
0.0000000001
 40
0.0
 40
0.0
 40
0.0
 40
0.0
 40
0.2757782452
 40
1.0
 40
1.0
 40
1.0
 40
1.0
 10
1093.6502850902
 20
445.1116752263
 30
0.0
 10
1093.6469527121
 20
445.0141735697
 30
0.0
 10
1093.6342187066
 20
444.6606469297
 30
0.0
 10
1093.6195874489
 20
444.3071758595
 30
0.0
 10
1093.606371551
 20
444.0513181723
 30
0.0
  0
SPLINE
  5
6D6
100
AcDbEntity
  8
02___PRT_ALL_AXES
100
AcDbSpline
 62
3
  6
CONTINUOUS
 70
0
 71
3
 72
9
 73
5
 74
0
 42
0.0000001
 43
0.0000001
 44
0.0000000001
 40
0.0
 40
0.0
 40
0.0
 40
0.0
 40
0.2758987977
 40
1.0
 40
1.0
 40
1.0
 40
1.0
 10
870.3759908862
 20
429.1456120323
 30
0.0
 10
870.3859098217
 20
429.2424968323
 30
0.0
 10
870.4212183466
 20
429.5937212141
 30
0.0
 10
870.4546534116
 20
429.9451468009
 30
0.0
 10
870.4762518777
 20
430.1998375917
 30
0.0
  0
SPLINE
  5
6D7
100
AcDbEntity
  8
02___PRT_ALL_AXES
100
AcDbSpline
 62
3
  6
CONTINUOUS
 70
0
 71
3
 72
9
 73
5
 74
0
 42
0.0000001
 43
0.0000001
 44
0.0000000001
 40
0.0
 40
0.0
 40
0.0
 40
0.0
 40
0.2758984657
 40
1.0
 40
1.0
 40
1.0
 40
1.0
 10
1092.7756368673
 20
406.3354372435
 30
0.0
 10
1092.7863614023
 20
406.4322358174
 30
0.0
 10
1092.823902368
 20
406.7832344381
 30
0.0
 10
1092.8551299726
 20
407.1348792739
 30
0.0
 10
1092.8760746014
 20
407.389624144
 30
0.0
  0
SPLINE
  5
6D8
100
AcDbEntity
  8
02___PRT_ALL_AXES
100
AcDbSpline
 62
3
  6
CONTINUOUS
 70
0
 71
3
 72
9
 73
5
 74
0
 42
0.0000001
 43
0.0000001
 44
0.0000000001
 40
0.0
 40
0.0
 40
0.0
 40
0.0
 40
0.2759515094
 40
1.0
 40
1.0
 40
1.0
 40
1.0
 10
1092.3485373908
 20
358.7903562103
 30
0.0
 10
1092.3665425485
 20
358.8859851082
 30
0.0
 10
1092.4297481757
 20
359.2329259897
 30
0.0
 10
1092.4820682701
 20
359.5817242022
 30
0.0
 10
1092.5192976267
 20
359.8343175563
 30
0.0
  0
SPLINE
  5
6D9
100
AcDbEntity
  8
02___PRT_ALL_AXES
100
AcDbSpline
 62
3
  6
CONTINUOUS
 70
0
 71
3
 72
9
 73
5
 74
0
 42
0.0000001
 43
0.0000001
 44
0.0000000001
 40
0.0
 40
0.0
 40
0.0
 40
0.0
 40
0.2757169982
 40
1.0
 40
1.0
 40
1.0
 40
1.0
 10
1094.0858263818
 20
397.3977570868
 30
0.0
 10
1094.0758670396
 20
397.3006239388
 30
0.0
 10
1094.0390999898
 20
396.9483992438
 30
0.0
 10
1094.000448478
 20
396.596358565
 30
0.0
 10
1093.9698609155
 20
396.341691375
 30
0.0
  0
SPLINE
  5
6DA
100
AcDbEntity
  8
02___PRT_ALL_AXES
100
AcDbSpline
 62
3
  6
CONTINUOUS
 70
0
 71
3
 72
9
 73
5
 74
0
 42
0.0000001
 43
0.0000001
 44
0.0000000001
 40
0.0
 40
0.0
 40
0.0
 40
0.0
 40
0.2757195049
 40
1.0
 40
1.0
 40
1.0
 40
1.0
 10
871.6858264301
 20
420.2080134871
 30
0.0
 10
871.6756019369
 20
420.1109073206
 30
0.0
 10
871.6381082938
 20
419.7587610723
 30
0.0
 10
871.6002130418
 20
419.4066413982
 30
0.0
 10
871.5698609637
 20
419.1519477753
 30
0.0
  0
SPLINE
  5
6DB
100
AcDbEntity
  8
02___PRT_ALL_AXES
100
AcDbSpline
 62
3
  6
CONTINUOUS
 70
0
 71
3
 72
9
 73
5
 74
0
 42
0.0000001
 43
0.0000001
 44
0.0000000001
 40
0.0
 40
0.0
 40
0.0
 40
0.0
 40
0.275961213
 40
1.0
 40
1.0
 40
1.0
 40
1.0
 10
869.9485375979
 20
396.8074501904
 30
0.0
 10
869.9649287093
 20
396.9033674116
 30
0.0
 10
870.0236953647
 20
397.2510480077
 30
0.0
 10
870.0806277304
 20
397.5990512325
 30
0.0
 10
870.1192978339
 20
397.8514115364
 30
0.0
  0
SPLINE
  5
6DC
100
AcDbEntity
  8
02___PRT_ALL_AXES
100
AcDbSpline
 62
3
  6
CONTINUOUS
 70
0
 71
3
 72
9
 73
5
 74
0
 42
0.0000001
 43
0.0000001
 44
0.0000000001
 40
0.0
 40
0.0
 40
0.0
 40
0.0
 40
0.2759952542
 40
1.0
 40
1.0
 40
1.0
 40
1.0
 10
1061.795821015
 20
318.4130888668
 30
0.0
 10
1061.8193557939
 20
318.5074188477
 30
0.0
 10
1061.9031431682
 20
318.8495744172
 30
0.0
 10
1061.9801669977
 20
319.1933453842
 30
0.0
 10
1062.0345021236
 20
319.4425266827
 30
0.0
  0
SPLINE
  5
6DD
100
AcDbEntity
  8
02___PRT_ALL_AXES
100
AcDbSpline
 62
3
  6
CONTINUOUS
 70
0
 71
3
 72
9
 73
5
 74
0
 42
0.0000001
 43
0.0000001
 44
0.0000000001
 40
0.0
 40
0.0
 40
0.0
 40
0.0
 40
0.2752916759
 40
1.0
 40
1.0
 40
1.0
 40
1.0
 10
1074.9341005367
 20
320.8794281101
 30
0.0
 10
1074.8782938741
 20
320.9602548446
 30
0.0
 10
1074.6751291308
 20
321.2535489077
 30
0.0
 10
1074.47065269
 20
321.5459447709
 30
0.0
 10
1074.3207038715
 20
321.7565926852
 30
0.0
  0
SPLINE
  5
6DE
100
AcDbEntity
  8
02___PRT_ALL_AXES
100
AcDbSpline
 62
3
  6
CONTINUOUS
 70
0
 71
3
 72
9
 73
5
 74
0
 42
0.0000001
 43
0.0000001
 44
0.0000000001
 40
0.0
 40
0.0
 40
0.0
 40
0.0
 40
0.2756570194
 40
1.0
 40
1.0
 40
1.0
 40
1.0
 10
1088.5022868553
 20
350.5634448223
 30
0.0
 10
1088.4858255502
 20
350.4671168448
 30
0.0
 10
1088.4254742353
 20
350.1177786752
 30
0.0
 10
1088.3632688185
 20
349.7687482416
 30
0.0
 10
1088.3156661151
 20
349.5164090109
 30
0.0
  0
SPLINE
  5
6DF
100
AcDbEntity
  8
02___PRT_ALL_AXES
100
AcDbSpline
 62
3
  6
CONTINUOUS
 70
0
 71
3
 72
9
 73
5
 74
0
 42
0.0000001
 43
0.0000001
 44
0.0000000001
 40
0.0
 40
0.0
 40
0.0
 40
0.0
 40
0.27601926
 40
1.0
 40
1.0
 40
1.0
 40
1.0
 10
869.5353968977
 20
364.428794702
 30
0.0
 10
869.5580217712
 20
364.5233535656
 30
0.0
 10
869.6393780799
 20
364.866078699
 30
0.0
 10
869.718952044
 20
365.2092393409
 30
0.0
 10
869.7740780494
 20
365.4582325178
 30
0.0
  0
SPLINE
  5
6E0
100
AcDbEntity
  8
02___PRT_ALL_AXES
100
AcDbSpline
 62
3
  6
CONTINUOUS
 70
0
 71
3
 72
9
 73
5
 74
0
 42
0.0000001
 43
0.0000001
 44
0.0000000001
 40
0.0
 40
0.0
 40
0.0
 40
0.0
 40
0.2755990315
 40
1.0
 40
1.0
 40
1.0
 40
1.0
 10
995.318947822
 20
325.3189918427
 30
0.0
 10
995.2961889932
 20
325.2238731227
 30
0.0
 10
995.2129907074
 20
324.8788887374
 30
0.0
 10
995.1279842622
 20
324.5343280021
 30
0.0
 10
995.0639288799
 20
324.2853635768
 30
0.0
  0
SPLINE
  5
6E1
100
AcDbEntity
  8
02___PRT_ALL_AXES
100
AcDbSpline
 62
3
  6
CONTINUOUS
 70
0
 71
3
 72
9
 73
5
 74
0
 42
0.0000001
 43
0.0000001
 44
0.0000000001
 40
0.0
 40
0.0
 40
0.0
 40
0.0
 40
0.2756398487
 40
1.0
 40
1.0
 40
1.0
 40
1.0
 10
922.2314383087
 20
310.6805647985
 30
0.0
 10
922.2314213733
 20
310.7781938757
 30
0.0
 10
922.2307070999
 20
311.1323823917
 30
0.0
 10
922.2280887962
 20
311.4865800447
 30
0.0
 10
922.2235475598
 20
311.7431014999
 30
0.0
  0
SPLINE
  5
6E2
100
AcDbEntity
  8
02___PRT_ALL_AXES
100
AcDbSpline
 62
3
  6
CONTINUOUS
 70
0
 71
3
 72
9
 73
5
 74
0
 42
0.0000001
 43
0.0000001
 44
0.0000000001
 40
0.0
 40
0.0
 40
0.0
 40
0.0
 40
0.2758051944
 40
1.0
 40
1.0
 40
1.0
 40
1.0
 10
993.5926589269
 20
310.6843559458
 30
0.0
 10
993.5935770172
 20
310.7818687387
 30
0.0
 10
993.5954520719
 20
311.1354430719
 30
0.0
 10
993.5902793678
 20
311.489015404
 30
0.0
 10
993.5849913878
 20
311.7450161176
 30
0.0
  0
SPLINE
  5
6E3
100
AcDbEntity
  8
02___PRT_ALL_AXES
100
AcDbSpline
 62
3
  6
CONTINUOUS
 70
0
 71
3
 72
9
 73
5
 74
0
 42
0.0000001
 43
0.0000001
 44
0.0000000001
 40
0.0
 40
0.0
 40
0.0
 40
0.0
 40
0.2758091335
 40
1.0
 40
1.0
 40
1.0
 40
1.0
 10
342.2309229101
 20
635.9269957577
 30
0.0
 10
342.2309228967
 20
635.8294793919
 30
0.0
 10
342.231573637
 20
635.4759167909
 30
0.0
 10
342.2341197931
 20
635.1223448597
 30
0.0
 10
342.2385904607
 20
634.8663355859
 30
0.0
  0
SPLINE
  5
6E4
100
AcDbEntity
  8
02___PRT_ALL_AXES
100
AcDbSpline
 62
3
  6
CONTINUOUS
 70
0
 71
3
 72
9
 73
5
 74
0
 42
0.0000001
 43
0.0000001
 44
0.0000000001
 40
0.0
 40
0.0
 40
0.0
 40
0.0
 40
0.2757994799
 40
1.0
 40
1.0
 40
1.0
 40
1.0
 10
270.8691894468
 20
635.9269965136
 30
0.0
 10
270.8678307984
 20
635.8294893042
 30
0.0
 10
270.8647617258
 20
635.4759102776
 30
0.0
 10
270.8711842162
 20
635.1223349894
 30
0.0
 10
270.8768569842
 20
634.8663363418
 30
0.0
  0
SPLINE
  5
6E5
100
AcDbEntity
  8
02___PRT_ALL_AXES
100
AcDbSpline
 62
3
  6
CONTINUOUS
 70
0
 71
3
 72
9
 73
5
 74
0
 42
0.0000001
 43
0.0000001
 44
0.0000000001
 40
0.0
 40
0.0
 40
0.0
 40
0.0
 40
0.2755990384
 40
1.0
 40
1.0
 40
1.0
 40
1.0
 10
269.1429009169
 20
621.292360582
 30
0.0
 10
269.1656597461
 20
621.3874793045
 30
0.0
 10
269.2488580304
 20
621.7324636903
 30
0.0
 10
269.3338645144
 20
622.0770244157
 30
0.0
 10
269.3979198605
 20
622.3259888478
 30
0.0
  0
SPLINE
  5
6E6
100
AcDbEntity
  8
02___PRT_ALL_AXES
100
AcDbSpline
 62
3
  6
CONTINUOUS
 70
0
 71
3
 72
9
 73
5
 74
0
 42
0.0000001
 43
0.0000001
 44
0.0000000001
 40
0.0
 40
0.0
 40
0.0
 40
0.0
 40
0.2760192594
 40
1.0
 40
1.0
 40
1.0
 40
1.0
 10
394.9264517333
 20
582.1825576652
 30
0.0
 10
394.9038268684
 20
582.0879987998
 30
0.0
 10
394.822470582
 20
581.745273661
 30
0.0
 10
394.7428966201
 20
581.4021130191
 30
0.0
 10
394.6877705814
 20
581.1531198494
 30
0.0
  0
SPLINE
  5
6E7
100
AcDbEntity
  8
02___PRT_ALL_AXES
100
AcDbSpline
 62
3
  6
CONTINUOUS
 70
0
 71
3
 72
9
 73
5
 74
0
 42
0.0000001
 43
0.0000001
 44
0.0000000001
 40
0.0
 40
0.0
 40
0.0
 40
0.0
 40
0.2759901951
 40
1.0
 40
1.0
 40
1.0
 40
1.0
 10
202.6660265546
 20
628.1982622973
 30
0.0
 10
202.6423946323
 20
628.1039581258
 30
0.0
 10
202.5583673688
 20
627.7618587254
 30
0.0
 10
202.4816015131
 20
627.4180256621
 30
0.0
 10
202.4273454705
 20
627.1688244814
 30
0.0
  0
SPLINE
  5
6E8
100
AcDbEntity
  8
02___PRT_ALL_AXES
100
AcDbSpline
 62
3
  6
CONTINUOUS
 70
0
 71
3
 72
9
 73
5
 74
0
 42
0.0000001
 43
0.0000001
 44
0.0000000001
 40
0.0
 40
0.0
 40
0.0
 40
0.0
 40
0.2752947627
 40
1.0
 40
1.0
 40
1.0
 40
1.0
 10
189.5282539132
 20
625.7315792336
 30
0.0
 10
189.5840429079
 20
625.6507415334
 30
0.0
 10
189.787141277
 20
625.357410839
 30
0.0
 10
189.991553096
 20
625.0649791799
 30
0.0
 10
190.1414526668
 20
624.8543043986
 30
0.0
  0
SPLINE
  5
6E9
100
AcDbEntity
  8
02___PRT_ALL_AXES
100
AcDbSpline
 62
3
  6
CONTINUOUS
 70
0
 71
3
 72
9
 73
5
 74
0
 42
0.0000001
 43
0.0000001
 44
0.0000000001
 40
0.0
 40
0.0
 40
0.0
 40
0.0
 40
0.2756570461
 40
1.0
 40
1.0
 40
1.0
 40
1.0
 10
175.9595620877
 20
596.0479078342
 30
0.0
 10
175.9760233957
 20
596.1442358208
 30
0.0
 10
176.0363746878
 20
596.493573997
 30
0.0
 10
176.0985809664
 20
596.8426042667
 30
0.0
 10
176.146182834
 20
597.0949436456
 30
0.0
  0
SPLINE
  5
6EA
100
AcDbEntity
  8
02___PRT_ALL_AXES
100
AcDbSpline
 62
3
  6
CONTINUOUS
 70
0
 71
3
 72
9
 73
5
 74
0
 42
0.0000001
 43
0.0000001
 44
0.0000000001
 40
0.0
 40
0.0
 40
0.0
 40
0.0
 40
0.2759612121
 40
1.0
 40
1.0
 40
1.0
 40
1.0
 10
394.5133111235
 20
549.8039021657
 30
0.0
 10
394.4969200126
 20
549.7079849448
 30
0.0
 10
394.43815335
 20
549.3603043492
 30
0.0
 10
394.3812212313
 20
549.012301087
 30
0.0
 10
394.3425508873
 20
548.7599408197
 30
0.0
  0
SPLINE
  5
6EB
100
AcDbEntity
  8
02___PRT_ALL_AXES
100
AcDbSpline
 62
3
  6
CONTINUOUS
 70
0
 71
3
 72
9
 73
5
 74
0
 42
0.0000001
 43
0.0000001
 44
0.0000000001
 40
0.0
 40
0.0
 40
0.0
 40
0.0
 40
0.2759506467
 40
1.0
 40
1.0
 40
1.0
 40
1.0
 10
172.1133112476
 20
587.8209961491
 30
0.0
 10
172.0951647685
 20
587.7253935921
 30
0.0
 10
172.0315707468
 20
587.3785178644
 30
0.0
 10
171.9796548832
 20
587.0296487128
 30
0.0
 10
171.9425510116
 20
586.7770348031
 30
0.0
  0
SPLINE
  5
6EC
100
AcDbEntity
  8
02___PRT_ALL_AXES
100
AcDbSpline
 62
3
  6
CONTINUOUS
 70
0
 71
3
 72
9
 73
5
 74
0
 42
0.0000001
 43
0.0000001
 44
0.0000000001
 40
0.0
 40
0.0
 40
0.0
 40
0.0
 40
0.2757170498
 40
1.0
 40
1.0
 40
1.0
 40
1.0
 10
170.3760227477
 20
549.2135958942
 30
0.0
 10
170.3859820986
 20
549.3107290597
 30
0.0
 10
170.4227491249
 20
549.6629537612
 30
0.0
 10
170.4614019957
 20
550.0149942742
 30
0.0
 10
170.4919882258
 20
550.2696616059
 30
0.0
  0
SPLINE
  5
6ED
100
AcDbEntity
  8
02___PRT_ALL_AXES
100
AcDbSpline
 62
3
  6
CONTINUOUS
 70
0
 71
3
 72
9
 73
5
 74
0
 42
0.0000001
 43
0.0000001
 44
0.0000000001
 40
0.0
 40
0.0
 40
0.0
 40
0.0
 40
0.275901245
 40
1.0
 40
1.0
 40
1.0
 40
1.0
 10
394.08621196
 20
517.4656581844
 30
0.0
 10
394.0762783503
 20
517.3687760323
 30
0.0
 10
394.0409164937
 20
517.0175642839
 30
0.0
 10
394.0074284469
 20
516.6661511998
 30
0.0
 10
393.9857742345
 20
516.4114712839
 30
0.0
  0
SPLINE
  5
6EE
100
AcDbEntity
  8
02___PRT_ALL_AXES
100
AcDbSpline
 62
3
  6
CONTINUOUS
 70
0
 71
3
 72
9
 73
5
 74
0
 42
0.0000001
 43
0.0000001
 44
0.0000000001
 40
0.0
 40
0.0
 40
0.0
 40
0.0
 40
0.2758913147
 40
1.0
 40
1.0
 40
1.0
 40
1.0
 10
171.6862118258
 20
540.2759152656
 30
0.0
 10
171.6745922535
 20
540.1792191331
 30
0.0
 10
171.6345962366
 20
539.8284631456
 30
0.0
 10
171.6059237956
 20
539.4765489137
 30
0.0
 10
171.5857740889
 20
539.2217283651
 30
0.0
  0
SPLINE
  5
6EF
100
AcDbEntity
  8
02___PRT_ALL_AXES
100
AcDbSpline
 62
3
  6
CONTINUOUS
 70
0
 71
3
 72
9
 73
5
 74
0
 42
0.0000001
 43
0.0000001
 44
0.0000000001
 40
0.0
 40
0.0
 40
0.0
 40
0.0
 40
0.2757782452
 40
1.0
 40
1.0
 40
1.0
 40
1.0
 10
170.811563545
 20
501.4996771311
 30
0.0
 10
170.8148959232
 20
501.5971787876
 30
0.0
 10
170.8276299286
 20
501.9507054276
 30
0.0
 10
170.8422611863
 20
502.3041764978
 30
0.0
 10
170.8554770843
 20
502.560034185
 30
0.0
  0
SPLINE
  5
6F0
100
AcDbEntity
  8
02___PRT_ALL_AXES
100
AcDbSpline
 62
3
  6
CONTINUOUS
 70
0
 71
3
 72
9
 73
5
 74
0
 42
0.0000001
 43
0.0000001
 44
0.0000000001
 40
0.0
 40
0.0
 40
0.0
 40
0.0
 40
0.2758421043
 40
1.0
 40
1.0
 40
1.0
 40
1.0
 10
393.6503281355
 20
461.4925704866
 30
0.0
 10
393.6474297768
 20
461.5900017868
 30
0.0
 10
393.6371882176
 20
461.9432214417
 30
0.0
 10
393.6264287692
 20
462.2964419355
 30
0.0
 10
393.6217712776
 20
462.5522954221
 30
0.0
  0
SPLINE
  5
6F1
100
AcDbEntity
  8
02___PRT_ALL_AXES
100
AcDbSpline
 62
3
  6
CONTINUOUS
 70
0
 71
3
 72
9
 73
5
 74
0
 42
0.0000001
 43
0.0000001
 44
0.0000000001
 40
0.0
 40
0.0
 40
0.0
 40
0.0
 40
0.2758399907
 40
1.0
 40
1.0
 40
1.0
 40
1.0
 10
393.6503283654
 20
485.1187810622
 30
0.0
 10
393.6469988707
 20
485.0213638367
 30
0.0
 10
393.6355778679
 20
484.6681779929
 30
0.0
 10
393.6260521689
 20
484.3149181313
 30
0.0
 10
393.6217715215
 20
484.0590561268
 30
0.0
  0
SPLINE
  5
6F2
100
AcDbEntity
  8
02___PRT_ALL_AXES
100
AcDbSpline
 62
3
  6
CONTINUOUS
 70
0
 71
3
 72
9
 73
5
 74
0
 42
0.0000001
 43
0.0000001
 44
0.0000000001
 40
0.0
 40
0.0
 40
0.0
 40
0.0
 40
0.2758307587
 40
1.0
 40
1.0
 40
1.0
 40
1.0
 10
171.2503281862
 20
492.7222006666
 30
0.0
 10
171.2453935872
 20
492.6248500182
 30
0.0
 10
171.2295631145
 20
492.2717962342
 30
0.0
 10
171.2246212787
 20
491.9183735075
 30
0.0
 10
171.2217713284
 20
491.6624757312
 30
0.0
  0
SPLINE
  5
6F3
100
AcDbEntity
  8
02___PRT_ALL_AXES
100
AcDbSpline
 62
3
  6
CONTINUOUS
 70
0
 71
3
 72
9
 73
5
 74
0
 42
0.0000001
 43
0.0000001
 44
0.0000000001
 40
0.0
 40
0.0
 40
0.0
 40
0.0
 40
0.2758399299
 40
1.0
 40
1.0
 40
1.0
 40
1.0
 10
171.2503281862
 20
453.8891516907
 30
0.0
 10
171.2469986971
 20
453.986568895
 30
0.0
 10
171.2355777324
 20
454.339754738
 30
0.0
 10
171.226051198
 20
454.693014587
 30
0.0
 10
171.2217713285
 20
454.9488766262
 30
0.0
  0
SPLINE
  5
6F4
100
AcDbEntity
  8
02___PRT_ALL_AXES
100
AcDbSpline
 62
3
  6
CONTINUOUS
 70
0
 71
3
 72
9
 73
5
 74
0
 42
0.0000001
 43
0.0000001
 44
0.0000000001
 40
0.0
 40
0.0
 40
0.0
 40
0.0
 40
0.499970595
 40
1.0
 40
1.0
 40
1.0
 40
1.0
 10
864.5915996137
 20
500.3135965297
 30
0.0
 10
864.5902511578
 20
498.6377774148
 30
0.0
 10
866.0320944216
 20
495.1366328812
 30
0.0
 10
869.5825472486
 20
493.8368717837
 30
0.0
 10
871.2575028039
 20
493.8965050928
 30
0.0
  0
SPLINE
  5
6F5
100
AcDbEntity
  8
02___PRT_ALL_AXES
100
AcDbSpline
 62
3
  6
CONTINUOUS
 70
0
 71
3
 72
9
 73
5
 74
0
 42
0.0000001
 43
0.0000001
 44
0.0000000001
 40
0.0
 40
0.0
 40
0.0
 40
0.0
 40
0.5003811288
 40
1.0
 40
1.0
 40
1.0
 40
1.0
 10
1093.661399058
 20
501.5000570958
 30
0.0
 10
1095.2607772041
 20
501.5681430521
 30
0.0
 10
1098.5343585011
 20
502.9893248109
 30
0.0
 10
1099.8321529694
 20
506.3179691741
 30
0.0
 10
1099.8326083897
 20
507.9163571925
 30
0.0
  0
LINE
  5
6F6
100
AcDbEntity
  8
02___PRT_ALL_AXES
100
AcDbLine
 62
7
  6
CONTINUOUS
 10
1273.1861893897
 20
359.6399824658
 11
1273.2551847951
 21
360.5483781625
  0
LINE
  5
6F7
100
AcDbEntity
  8
02___PRT_ALL_AXES
100
AcDbLine
 62
7
  6
CONTINUOUS
 10
1273.2551847951
 20
360.5483781625
 11
1273.7962147347
 21
368.1438627487
  0
SPLINE
  5
6F8
100
AcDbEntity
  8
02___PRT_ALL_AXES
100
AcDbSpline
 62
7
  6
CONTINUOUS
 70
0
 71
3
 72
9
 73
5
 74
0
 42
0.0000001
 43
0.0000001
 44
0.0000000001
 40
0.0
 40
0.0
 40
0.0
 40
0.0
 40
0.2959374022
 40
1.0
 40
1.0
 40
1.0
 40
1.0
 10
1323.9639458652
 20
631.9131504307
 30
0.0
 10
1323.8924853325
 20
632.4748377523
 30
0.0
 10
1323.6428821201
 20
634.3717465746
 30
0.0
 10
1323.3620095542
 20
636.2648209783
 30
0.0
 10
1323.1342929975
 20
637.5925120949
 30
0.0
  0
LINE
  5
6F9
100
AcDbEntity
  8
02___PRT_ALL_AXES
100
AcDbLine
 62
7
  6
CONTINUOUS
 10
1323.1342929975
 20
637.5925120949
 11
1322.494601381
 21
640.8219836804
  0
SPLINE
  5
6FA
100
AcDbEntity
  8
02___PRT_ALL_AXES
100
AcDbSpline
 62
7
  6
CONTINUOUS
 70
0
 71
3
 72
11
 73
7
 74
0
 42
0.0000001
 43
0.0000001
 44
0.0000000001
 40
0.0
 40
0.0
 40
0.0
 40
0.0
 40
0.3559548264
 40
0.6606699624
 40
0.8829356556
 40
1.0
 40
1.0
 40
1.0
 40
1.0
 10
1324.581984397
 20
547.7166264207
 30
0.0
 10
1324.5837643627
 20
557.7072650181
 30
0.0
 10
1324.5574653502
 20
576.2499244568
 30
0.0
 10
1324.4780570906
 20
601.033003636
 30
0.0
 10
1324.2605366663
 20
619.1049457419
 30
0.0
 10
1324.1583157142
 20
628.6332462698
 30
0.0
 10
1323.9640010152
 20
631.913158259
 30
0.0
  0
SPLINE
  5
6FB
100
AcDbEntity
  8
02___PRT_ALL_AXES
100
AcDbSpline
 62
7
  6
CONTINUOUS
 70
0
 71
3
 72
11
 73
7
 74
0
 42
0.0000001
 43
0.0000001
 44
0.0000000001
 40
0.0
 40
0.0
 40
0.0
 40
0.0
 40
0.1171048267
 40
0.3393954882
 40
0.6441008658
 40
1.0
 40
1.0
 40
1.0
 40
1.0
 10
1325.80687763
 20
314.579318684
 30
0.0
 10
1325.910468457
 20
317.8688332677
 30
0.0
 10
1325.9245217207
 20
327.4091397151
 30
0.0
 10
1325.9625317714
 20
345.5098298205
 30
0.0
 10
1325.8717223856
 20
370.3234582663
 30
0.0
 10
1325.7744707237
 20
388.888841898
 30
0.0
 10
1325.7091801703
 20
398.8909129849
 30
0.0
  0
LINE
  5
6FC
100
AcDbEntity
  8
02___PRT_ALL_AXES
100
AcDbLine
 62
7
  6
CONTINUOUS
 10
1325.1609863357
 20
305.6124893637
 11
1325.3252495508
 21
307.7767885799
  0
LINE
  5
6FD
100
AcDbEntity
  8
02___PRT_ALL_AXES
100
AcDbLine
 62
7
  6
CONTINUOUS
 10
1325.3252495508
 20
307.7767885799
 11
1325.8068479117
 21
314.5793254818
  0
SPLINE
  5
6FE
100
AcDbEntity
  8
02___PRT_ALL_AXES
100
AcDbSpline
 62
7
  6
CONTINUOUS
 70
0
 71
3
 72
9
 73
5
 74
0
 42
0.0000001
 43
0.0000001
 44
0.0000000001
 40
0.0
 40
0.0
 40
0.0
 40
0.0
 40
0.3889949785
 40
1.0
 40
1.0
 40
1.0
 40
1.0
 10
1271.5633500241
 20
581.4942811492
 30
0.0
 10
1271.4637619269
 20
582.1767664484
 30
0.0
 10
1271.1958221276
 20
583.9295144014
 30
0.0
 10
1270.8876601941
 20
585.6759798939
 30
0.0
 10
1270.6806594105
 20
586.7393706896
 30
0.0
  0
LINE
  5
6FF
100
AcDbEntity
  8
02___PRT_ALL_AXES
100
AcDbLine
 62
7
  6
CONTINUOUS
 10
1270.6806594105
 20
586.7393706896
 11
1270.6679665411
 21
586.8043191712
  0
SPLINE
  5
700
100
AcDbEntity
  8
02___PRT_ALL_AXES
100
AcDbSpline
 62
7
  6
CONTINUOUS
 70
0
 71
3
 72
11
 73
7
 74
0
 42
0.0000001
 43
0.0000001
 44
0.0000000001
 40
0.0
 40
0.0
 40
0.0
 40
0.0
 40
0.3544300112
 40
0.658484852
 40
0.881328077
 40
1.0
 40
1.0
 40
1.0
 40
1.0
 10
1272.6393606141
 20
541.0128003933
 30
0.0
 10
1272.6411286951
 20
545.3654085426
 30
0.0
 10
1272.6166586377
 20
553.4511187721
 30
0.0
 10
1272.540280848
 20
564.2773044186
 30
0.0
 10
1272.3380484643
 20
572.1965423395
 30
0.0
 10
1272.2368101908
 20
576.3985138232
 30
0.0
 10
1272.05575984
 20
577.8445848497
 30
0.0
  0
SPLINE
  5
701
100
AcDbEntity
  8
02___PRT_ALL_AXES
100
AcDbSpline
 62
7
  6
CONTINUOUS
 70
0
 71
3
 72
11
 73
7
 74
0
 42
0.0000001
 43
0.0000001
 44
0.0000000001
 40
0.0
 40
0.0
 40
0.0
 40
0.0
 40
0.1178301194
 40
0.34016648
 40
0.6444716051
 40
1.0
 40
1.0
 40
1.0
 40
1.0
 10
1273.7962147347
 20
368.1438627487
 30
0.0
 10
1273.8932245237
 20
369.5827653811
 30
0.0
 10
1273.9079356178
 20
373.7498417031
 30
0.0
 10
1273.9429466112
 20
381.6352397752
 30
0.0
 10
1273.8575829289
 20
392.4334520812
 30
0.0
 10
1273.765858545
 20
400.5085664254
 30
0.0
 10
1273.7039513294
 20
404.8595776337
 30
0.0
  0
SPLINE
  5
702
100
AcDbEntity
  8
02___PRT_ALL_AXES
100
AcDbSpline
 62
7
  6
CONTINUOUS
 70
0
 71
3
 72
11
 73
7
 74
0
 42
0.0000001
 43
0.0000001
 44
0.0000000001
 40
0.0
 40
0.0
 40
0.0
 40
0.0
 40
0.2484905832
 40
0.4979973562
 40
0.7486574893
 40
1.0
 40
1.0
 40
1.0
 40
1.0
 10
1272.05575848
 20
577.8445848702
 30
0.0
 10
1272.1654816493
 20
584.6224223119
 30
0.0
 10
1274.9967642438
 20
598.2982891488
 30
0.0
 10
1286.4564934722
 20
615.7599666453
 30
0.0
 10
1303.5049499997
 20
627.9473922439
 30
0.0
 10
1317.1236363139
 20
631.4425327408
 30
0.0
 10
1323.9640469051
 20
631.9123387062
 30
0.0
  0
SPLINE
  5
703
100
AcDbEntity
  8
02___PRT_ALL_AXES
100
AcDbSpline
 62
7
  6
CONTINUOUS
 70
0
 71
3
 72
14
 73
10
 74
0
 42
0.0000001
 43
0.0000001
 44
0.0000000001
 40
0.0
 40
0.0
 40
0.0
 40
0.0
 40
0.0331368917
 40
0.0954195974
 40
0.188750746
 40
0.3109783119
 40
0.4583678681
 40
0.626135204
 40
1.0
 40
1.0
 40
1.0
 40
1.0
 10
1272.63936224
 20
541.0128005631
 30
0.0
 10
1272.7598855124
 20
541.5856938805
 30
0.0
 10
1274.3428530357
 20
542.6899806137
 30
0.0
 10
1277.3904444714
 20
543.7009730096
 30
0.0
 10
1282.2464127428
 20
544.7948618018
 30
0.0
 10
1288.5688198627
 20
545.7267133738
 30
0.0
 10
1296.2642864577
 20
546.5338132461
 30
0.0
 10
1308.4053468108
 20
547.3871145324
 30
0.0
 10
1317.9770803571
 20
547.6654417437
 30
0.0
 10
1324.5819987568
 20
547.716673223
 30
0.0
  0
SPLINE
  5
704
100
AcDbEntity
  8
02___PRT_ALL_AXES
100
AcDbSpline
 62
7
  6
CONTINUOUS
 70
0
 71
3
 72
14
 73
10
 74
0
 42
0.0000001
 43
0.0000001
 44
0.0000000001
 40
0.0
 40
0.0
 40
0.0
 40
0.0
 40
0.0324118239
 40
0.0940348151
 40
0.1869831615
 40
0.3091195662
 40
0.4566878034
 40
0.6248626868
 40
1.0
 40
1.0
 40
1.0
 40
1.0
 10
1273.7039505573
 20
404.8595776311
 30
0.0
 10
1273.8045259437
 20
404.2959626889
 30
0.0
 10
1275.3790805741
 20
403.1953832722
 30
0.0
 10
1278.4046721537
 20
402.2455242195
 30
0.0
 10
1283.2569081528
 20
401.214215972
 30
0.0
 10
1289.5843380475
 20
400.3746601175
 30
0.0
 10
1297.298082289
 20
399.6740739551
 30
0.0
 10
1309.4803014627
 20
398.9901910297
 30
0.0
 10
1319.082958317
 20
398.8449791508
 30
0.0
 10
1325.7092117056
 20
398.8855287312
 30
0.0
  0
SPLINE
  5
705
100
AcDbEntity
  8
02___PRT_ALL_AXES
100
AcDbSpline
 62
7
  6
CONTINUOUS
 70
0
 71
3
 72
11
 73
7
 74
0
 42
0.0000001
 43
0.0000001
 44
0.0000000001
 40
0.0
 40
0.0
 40
0.0
 40
0.0
 40
0.2485175267
 40
0.497974339
 40
0.7485967183
 40
1.0
 40
1.0
 40
1.0
 40
1.0
 10
1273.7962158472
 20
368.1438613784
 30
0.0
 10
1273.9585272583
 20
361.3960417369
 30
0.0
 10
1276.8738628779
 20
347.8035474172
 30
0.0
 10
1288.3871242215
 20
330.4915994382
 30
0.0
 10
1305.421764901
 20
318.4484240577
 30
0.0
 10
1318.9932751927
 20
315.0253531695
 30
0.0
 10
1325.8069172757
 20
314.5804934417
 30
0.0
  0
SPLINE
  5
706
100
AcDbEntity
  8
0
100
AcDbSpline
 62
3
  6
CONTINUOUS
 70
0
 71
3
 72
8
 73
4
 74
0
 42
0.0000001
 43
0.0000001
 44
0.0000000001
 40
0.0
 40
0.0
 40
0.0
 40
0.0
 40
1.0
 40
1.0
 40
1.0
 40
1.0
 10
1400.8587203794
 20
735.2921305319
 30
0.0
 10
1401.0672358135
 20
735.2712319246
 30
0.0
 10
1401.2774748035
 20
735.2259116511
 30
0.0
 10
1401.4688433199
 20
735.1405094908
 30
0.0
  0
SPLINE
  5
707
100
AcDbEntity
  8
0
100
AcDbSpline
 62
3
  6
CONTINUOUS
 70
0
 71
3
 72
8
 73
4
 74
0
 42
0.0000001
 43
0.0000001
 44
0.0000000001
 40
0.0
 40
0.0
 40
0.0
 40
0.0
 40
1.0
 40
1.0
 40
1.0
 40
1.0
 10
1401.4688433199
 20
735.1405094908
 30
0.0
 10
1401.5588852304
 20
735.100326425
 30
0.0
 10
1401.646057724
 20
735.0498620892
 30
0.0
 10
1401.7208414885
 20
734.9856000243
 30
0.0
  0
SPLINE
  5
708
100
AcDbEntity
  8
0
100
AcDbSpline
 62
3
  6
CONTINUOUS
 70
0
 71
3
 72
9
 73
5
 74
0
 42
0.0000001
 43
0.0000001
 44
0.0000000001
 40
0.0
 40
0.0
 40
0.0
 40
0.0
 40
0.5027830125
 40
1.0
 40
1.0
 40
1.0
 40
1.0
 10
1401.7208414885
 20
734.9856000243
 30
0.0
 10
1401.7410935226
 20
734.9681973496
 30
0.0
 10
1401.7796357994
 20
734.9314928116
 30
0.0
 10
1401.8137542493
 20
734.8906071063
 30
0.0
 10
1401.8294031392
 20
734.8693371461
 30
0.0
  0
SPLINE
  5
709
100
AcDbEntity
  8
0
100
AcDbSpline
 62
3
  6
CONTINUOUS
 70
0
 71
3
 72
9
 73
5
 74
0
 42
0.0000001
 43
0.0000001
 44
0.0000000001
 40
0.0
 40
0.0
 40
0.0
 40
0.0
 40
0.5835528814
 40
1.0
 40
1.0
 40
1.0
 40
1.0
 10
1401.8294212419
 20
211.742039815
 30
0.0
 10
1401.8541626332
 20
211.7756646286
 30
0.0
 10
1401.9036574796
 20
211.8282123593
 30
0.0
 10
1401.9615685219
 20
211.8710042988
 30
0.0
 10
1401.9875530044
 20
211.8855771241
 30
0.0
  0
SPLINE
  5
70A
100
AcDbEntity
  8
0
100
AcDbSpline
 62
3
  6
CONTINUOUS
 70
0
 71
3
 72
9
 73
5
 74
0
 42
0.0000001
 43
0.0000001
 44
0.0000000001
 40
0.0
 40
0.0
 40
0.0
 40
0.0
 40
0.5937266158
 40
1.0
 40
1.0
 40
1.0
 40
1.0
 10
1401.9875530044
 20
211.8855771241
 30
0.0
 10
1401.9970627387
 20
211.8909104493
 30
0.0
 10
1402.0135044735
 20
211.8989915166
 30
0.0
 10
1402.0316186423
 20
211.9040689434
 30
0.0
 10
1402.0390794222
 20
211.9040534917
 30
0.0
  0
SPLINE
  5
70B
100
AcDbEntity
  8
0
100
AcDbSpline
 62
3
  6
CONTINUOUS
 70
0
 71
3
 72
8
 73
4
 74
0
 42
0.0000001
 43
0.0000001
 44
0.0000000001
 40
0.0
 40
0.0
 40
0.0
 40
0.0
 40
1.0
 40
1.0
 40
1.0
 40
1.0
 10
1401.8294212419
 20
211.742039815
 30
0.0
 10
1401.7344681275
 20
211.6129936861
 30
0.0
 10
1401.588750416
 20
211.5209480536
 30
0.0
 10
1401.4410571292
 20
211.4588538482
 30
0.0
  0
SPLINE
  5
70C
100
AcDbEntity
  8
0
100
AcDbSpline
 62
3
  6
CONTINUOUS
 70
0
 71
3
 72
8
 73
4
 74
0
 42
0.0000001
 43
0.0000001
 44
0.0000000001
 40
0.0
 40
0.0
 40
0.0
 40
0.0
 40
1.0
 40
1.0
 40
1.0
 40
1.0
 10
1401.4410571292
 20
211.4588538482
 30
0.0
 10
1401.3169149112
 20
211.4066611417
 30
0.0
 10
1401.1853484174
 20
211.3711750845
 30
0.0
 10
1401.0529057683
 20
211.3467965363
 30
0.0
  0
SPLINE
  5
70D
100
AcDbEntity
  8
0
100
AcDbSpline
 62
3
  6
CONTINUOUS
 70
0
 71
3
 72
9
 73
5
 74
0
 42
0.0000001
 43
0.0000001
 44
0.0000000001
 40
0.0
 40
0.0
 40
0.0
 40
0.0
 40
0.5784117768
 40
1.0
 40
1.0
 40
1.0
 40
1.0
 10
1373.8011981755
 20
735.3056761787
 30
0.0
 10
1373.5284635973
 20
735.1128917958
 30
0.0
 10
1373.060972981
 20
734.796631186
 30
0.0
 10
1372.6545504408
 20
734.3199421268
 30
0.0
 10
1372.6110160712
 20
734.0804297256
 30
0.0
  0
SPLINE
  5
70E
100
AcDbEntity
  8
0
100
AcDbSpline
 62
3
  6
CONTINUOUS
 70
0
 71
3
 72
9
 73
5
 74
0
 42
0.0000001
 43
0.0000001
 44
0.0000000001
 40
0.0
 40
0.0
 40
0.0
 40
0.0
 40
0.5026686448
 40
1.0
 40
1.0
 40
1.0
 40
1.0
 10
1372.6110160712
 20
734.0804297256
 30
0.0
 10
1372.6077887206
 20
734.0626738585
 30
0.0
 10
1372.6028758567
 20
734.0270572687
 30
0.0
 10
1372.6011981755
 20
733.9911370375
 30
0.0
 10
1372.6011981755
 20
733.9732818672
 30
0.0
  0
SPLINE
  5
70F
100
AcDbEntity
  8
0
100
AcDbSpline
 62
3
  6
CONTINUOUS
 70
0
 71
3
 72
9
 73
5
 74
0
 42
0.0000001
 43
0.0000001
 44
0.0000000001
 40
0.0
 40
0.0
 40
0.0
 40
0.0
 40
0.2056243227
 40
1.0
 40
1.0
 40
1.0
 40
1.0
 10
1372.6011981755
 20
212.6380704901
 30
0.0
 10
1372.6011981755
 20
212.5629842099
 30
0.0
 10
1372.6788607538
 20
212.1965028747
 30
0.0
 10
1372.9764614446
 20
211.9328860619
 30
0.0
 10
1373.2011798172
 20
211.749458055
 30
0.0
  0
SPLINE
  5
710
100
AcDbEntity
  8
0
100
AcDbSpline
 62
3
  6
CONTINUOUS
 70
0
 71
3
 72
8
 73
4
 74
0
 42
0.0000001
 43
0.0000001
 44
0.0000000001
 40
0.0
 40
0.0
 40
0.0
 40
0.0
 40
1.0
 40
1.0
 40
1.0
 40
1.0
 10
1373.2011798172
 20
211.749458055
 30
0.0
 10
1373.2953190925
 20
211.6726161864
 30
0.0
 10
1373.3924134101
 20
211.5993908188
 30
0.0
 10
1373.4905169634
 20
211.527679113
 30
0.0
  0
SPLINE
  5
711
100
AcDbEntity
  8
0
100
AcDbSpline
 62
3
  6
CONTINUOUS
 70
0
 71
3
 72
8
 73
4
 74
0
 42
0.0000001
 43
0.0000001
 44
0.0000000001
 40
0.0
 40
0.0
 40
0.0
 40
0.0
 40
1.0
 40
1.0
 40
1.0
 40
1.0
 10
1373.4905169634
 20
211.527679113
 30
0.0
 10
1373.5932736337
 20
211.4525660731
 30
0.0
 10
1373.6972600033
 20
211.3791456173
 30
0.0
 10
1373.8011981755
 20
211.3056761787
 30
0.0
  0
SPLINE
  5
712
100
AcDbEntity
  8
0
100
AcDbSpline
 62
3
  6
CONTINUOUS
 70
0
 71
3
 72
9
 73
5
 74
0
 42
0.0000001
 43
0.0000001
 44
0.0000000001
 40
0.0
 40
0.0
 40
0.0
 40
0.0
 40
0.1306189283
 40
1.0
 40
1.0
 40
1.0
 40
1.0
 10
1402.0390781151
 20
734.7072991115
 30
0.0
 10
1402.0274122639
 20
734.7072753905
 30
0.0
 10
1401.9417663239
 20
734.7413090942
 30
0.0
 10
1401.8754177147
 20
734.8067941672
 30
0.0
 10
1401.8294031392
 20
734.8693371461
 30
0.0
  0
ENDSEC
  0
SECTION
  2
OBJECTS
  0
DICTIONARY
  5
C
100
AcDbDictionary
280
0
281
1
  3
ACAD_GROUP
350
D
  3
ACAD_MLINESTYLE
350
17
  3
ACAD_LAYOUT
350
1A
  3
ACAD_PLOTSETTINGS
350
19
  3
ACAD_PLOTSTYLENAME
350
E
  0
DICTIONARY
  5
D
102
{ACAD_REACTORS
330
C
102
}
100
AcDbDictionary
280
0
281
1
  0
ACDBDICTIONARYWDFLT
  5
E
102
{ACAD_REACTORS
330
C
102
}
100
AcDbDictionary
281
1
  3
Normal
350
F
100
AcDbDictionaryWithDefault
340
F
  0
DICTIONARY
  5
17
102
{ACAD_REACTORS
330
C
102
}
100
AcDbDictionary
280
0
281
1
  3
Standard
350
18
  0
DICTIONARY
  5
19
102
{ACAD_REACTORS
330
C
102
}
100
AcDbDictionary
281
1
  0
DICTIONARY
  5
1A
102
{ACAD_REACTORS
330
C
102
}
100
AcDbDictionary
281
1
  3
Model
350
713
  3
Layout1
350
714
  0
ACDBPLACEHOLDER
  5
F
102
{ACAD_REACTORS
330
E
102
}
  0
MLINESTYLE
  5
18
102
{ACAD_REACTORS
330
17
102
}
100
AcDbMlineStyle
  2
STANDARD
 70
0
  3

 62
256
 51
90.0
 52
90.0
 71
2
 49
0.5
 62
256
  6
BYLAYER
 49
-0.5
 62
256
  6
BYLAYER
  0
LAYOUT
  5
713
102
{ACAD_REACTORS
330
1A
102
}
100
AcDbPlotSettings
  1

  2
none_device
  4

  6

 40
0.0
 41
0.0
 42
0.0
 43
0.0
 44
1500.0
 45
1000.0
 46
0.0
 47
0.0
 48
0.0
 49
0.0
140
0.0
141
0.0
142
1.0
143
1.0
 70
1024
 72
1
 73
0
 74
0
  7

 75
0
147
1.0
148
0.0
149
0.0
100
AcDbLayout
  1
Model
 70
0
 71
0
 10
0.0
 20
0.0
 11
1500.0
 21
1000.0
 12
0.0
 22
0.0
 32
0.0
 14
0.0
 24
0.0
 34
0.0
 15
0.0
 25
0.0
 35
0.0
146
0.0
 13
0.0
 23
0.0
 33
0.0
 16
1.0
 26
0.0
 36
0.0
 17
0.0
 27
1.0
 37
0.0
 76
0
330
207
345
0
346
0
  0
LAYOUT
  5
714
102
{ACAD_REACTORS
330
1A
102
}
100
AcDbPlotSettings
  1

  2
none_device
  4

  6

 40
0.0
 41
0.0
 42
0.0
 43
0.0
 44
1500.0
 45
1000.0
 46
0.0
 47
0.0
 48
0.0
 49
0.0
140
0.0
141
0.0
142
1.0
143
1.0
 70
0
 72
1
 73
0
 74
0
  7

 75
0
147
1.0
148
0.0
149
0.0
100
AcDbLayout
  1
Layout1
 70
0
 71
1
 10
0.0
 20
0.0
 11
1500.0
 21
1000.0
 12
0.0
 22
0.0
 32
0.0
 14
0.0
 24
0.0
 34
0.0
 15
0.0
 25
0.0
 35
0.0
146
0.0
 13
0.0
 23
0.0
 33
0.0
 16
1.0
 26
0.0
 36
0.0
 17
0.0
 27
1.0
 37
0.0
 76
0
330
208
345
0
346
0
  0
ENDSEC
  0
EOF
